osu file format v14

[General]
AudioFilename: audio.mp3
AudioLeadIn: 0
PreviewTime: 87933
Countdown: 0
SampleSet: Soft
StackLeniency: 0.7
Mode: 3
LetterboxInBreaks: 0
SpecialStyle: 0
WidescreenStoryboard: 0

[Editor]
Bookmarks: 44677,67003,92119,108863,132584,136072,145142,156305,174793,178631,199561,228863,244212,290258,312584,333863
DistanceSpacing: 1
BeatDivisor: 8
GridSize: 32
TimelineZoom: 2.8

[Metadata]
Title:Tetsuo's Redemption (Billain Remix)
TitleUnicode:Tetsuo's Redemption (Billain Remix)
Artist:KOAN Sound & Asa
ArtistUnicode:KOAN Sound & Asa
Creator:Vortex-
Version:Revelation
Source:
Tags:akira neuro funk billain Sanctuary OWLSA IV AEI Inspected Records Nestivus electronic instrumental owslaofficial koan-sound
BeatmapID:2324668
BeatmapSetID:1112714

[Difficulty]
HPDrainRate:9.6
CircleSize:4
OverallDifficulty:7.9
ApproachRate:5
SliderMultiplier:1.4
SliderTickRate:1

[Events]
//Background and Video events
0,0,"75379205_p0.jpg",0,0
//Break Periods
//Storyboard Layer 0 (Background)
//Storyboard Layer 1 (Fail)
//Storyboard Layer 2 (Pass)
//Storyboard Layer 3 (Foreground)
//Storyboard Layer 4 (Overlay)
//Storyboard Sound Samples

[TimingPoints]
22368,348.837209302326,4,2,1,30,1,0
44693,-100,4,2,1,35,0,0
64228,-100,4,2,1,40,0,0
67019,-100,4,2,1,35,0,0
87949,-100,4,2,1,45,0,1
89344,-100,4,2,1,40,0,0
178647,-100,4,2,1,35,0,0
199577,-100,4,2,1,20,0,0
223298,-100,4,2,1,35,0,0
244228,-100,4,2,1,45,0,1
245623,-100,4,2,1,40,0,0

[HitObjects]
320,192,22368,5,0,0:0:0:0:
192,192,22368,1,0,0:0:0:0:
64,192,22542,1,0,0:0:0:0:
320,192,22716,1,0,0:0:0:0:
64,192,22891,1,0,0:0:0:0:
192,192,23065,1,0,0:0:0:0:
64,192,23065,1,0,0:0:0:0:
320,192,23763,1,0,0:0:0:0:
64,192,23937,1,0,0:0:0:0:
320,192,24112,1,0,0:0:0:0:
192,192,24286,1,0,0:0:0:0:
64,192,24286,1,0,0:0:0:0:
448,192,24809,1,0,0:0:0:0:
320,192,25158,5,0,0:0:0:0:
64,192,25333,1,0,0:0:0:0:
320,192,25507,1,0,0:0:0:0:
64,192,25681,1,0,0:0:0:0:
192,192,25856,1,0,0:0:0:0:
320,192,26554,1,0,0:0:0:0:
64,192,26728,128,0,26902:0:0:0:0:
320,192,26902,128,0,27077:0:0:0:0:
64,192,27077,128,0,27774:0:0:0:0:
192,192,27077,128,0,27513:0:0:0:0:
448,192,27600,1,0,0:0:0:0:
192,192,27949,1,0,0:0:0:0:
448,192,28123,1,0,0:0:0:0:
192,192,28298,1,0,0:0:0:0:
448,192,28472,1,0,0:0:0:0:
320,192,28647,1,0,0:0:0:0:
448,192,28647,1,0,0:0:0:0:
192,192,29344,1,0,0:0:0:0:
448,192,29519,1,0,0:0:0:0:
192,192,29693,1,0,0:0:0:0:
448,192,29868,1,0,0:0:0:0:
320,192,29868,1,0,0:0:0:0:
64,192,30391,1,0,0:0:0:0:
192,192,30740,1,0,0:0:0:0:
448,192,30914,1,0,0:0:0:0:
192,192,31088,1,0,0:0:0:0:
448,192,31263,1,0,0:0:0:0:
320,192,31437,1,0,0:0:0:0:
448,192,31437,1,0,0:0:0:0:
192,192,32135,1,0,0:0:0:0:
448,192,32309,1,0,0:0:0:0:
192,192,32484,1,0,0:0:0:0:
64,192,32571,128,0,33530:0:0:0:0:
448,192,32658,1,0,0:0:0:0:
320,192,32658,1,0,0:0:0:0:
192,192,33007,128,0,33443:0:0:0:0:
320,192,33181,128,0,33443:0:0:0:0:
448,192,33181,128,0,33530:0:0:0:0:
192,192,33530,1,0,0:0:0:0:
320,192,33530,1,0,0:0:0:0:
64,192,33705,1,0,0:0:0:0:
320,192,33879,1,0,0:0:0:0:
64,192,34054,1,0,0:0:0:0:
192,192,34228,1,0,0:0:0:0:
64,192,34228,1,0,0:0:0:0:
320,192,34926,1,0,0:0:0:0:
64,192,35100,1,0,0:0:0:0:
320,192,35274,1,0,0:0:0:0:
192,192,35449,1,0,0:0:0:0:
64,192,35449,1,0,0:0:0:0:
448,192,35972,1,0,0:0:0:0:
320,192,36321,5,0,0:0:0:0:
64,192,36495,1,0,0:0:0:0:
320,192,36670,1,0,0:0:0:0:
64,192,36844,1,0,0:0:0:0:
192,192,37019,1,0,0:0:0:0:
64,192,37019,1,0,0:0:0:0:
320,192,37716,1,0,0:0:0:0:
64,192,37891,128,0,38065:0:0:0:0:
320,192,38065,128,0,38240:0:0:0:0:
64,192,38240,128,0,38937:0:0:0:0:
192,192,38240,128,0,38676:0:0:0:0:
448,192,38763,1,0,0:0:0:0:
192,192,39112,1,0,0:0:0:0:
448,192,39286,1,0,0:0:0:0:
192,192,39461,1,0,0:0:0:0:
448,192,39635,1,0,0:0:0:0:
320,192,39809,1,0,0:0:0:0:
448,192,39809,1,0,0:0:0:0:
192,192,40507,1,0,0:0:0:0:
448,192,40681,1,0,0:0:0:0:
192,192,40856,1,0,0:0:0:0:
448,192,41030,1,0,0:0:0:0:
320,192,41030,1,0,0:0:0:0:
64,192,41554,1,0,0:0:0:0:
192,192,41902,1,0,0:0:0:0:
448,192,42077,1,0,0:0:0:0:
192,192,42251,1,0,0:0:0:0:
448,192,42426,1,0,0:0:0:0:
320,192,42600,1,0,0:0:0:0:
448,192,42600,1,0,0:0:0:0:
192,192,43298,1,0,0:0:0:0:
448,192,43472,1,0,0:0:0:0:
192,192,43647,1,0,0:0:0:0:
64,192,43734,128,0,44693:0:0:0:0:
448,192,43821,1,0,0:0:0:0:
320,192,43821,1,0,0:0:0:0:
192,192,44083,128,0,44693:0:0:0:0:
320,192,44257,128,0,44606:0:0:0:0:
448,192,44431,128,0,44693:0:0:0:0:
320,192,44693,1,0,0:0:0:0:
64,192,44868,1,0,0:0:0:0:
320,192,45042,1,0,0:0:0:0:
64,192,45216,1,0,0:0:0:0:
320,192,45304,1,0,0:0:0:0:
192,192,45391,1,0,0:0:0:0:
64,192,45391,1,0,0:0:0:0:
448,192,45478,1,0,0:0:0:0:
320,192,45565,1,0,0:0:0:0:
64,192,45740,1,0,0:0:0:0:
448,192,45827,1,0,0:0:0:0:
192,192,45914,1,0,0:0:0:0:
448,192,46001,1,0,0:0:0:0:
320,192,46088,1,0,0:0:0:0:
64,192,46263,1,0,0:0:0:0:
320,192,46437,1,0,0:0:0:0:
448,192,46524,1,0,0:0:0:0:
192,192,46612,1,0,0:0:0:0:
64,192,46612,1,0,0:0:0:0:
448,192,46786,1,0,0:0:0:0:
64,192,46873,1,0,0:0:0:0:
320,192,46961,1,0,0:0:0:0:
320,192,47135,1,0,0:0:0:0:
64,192,47309,1,0,0:0:0:0:
448,192,47397,1,0,0:0:0:0:
320,192,47484,1,0,0:0:0:0:
64,192,47658,1,0,0:0:0:0:
320,192,47833,1,0,0:0:0:0:
64,192,48007,1,0,0:0:0:0:
320,192,48094,1,0,0:0:0:0:
192,192,48181,1,0,0:0:0:0:
64,192,48181,1,0,0:0:0:0:
448,192,48269,1,0,0:0:0:0:
320,192,48356,1,0,0:0:0:0:
64,192,48530,1,0,0:0:0:0:
448,192,48618,1,0,0:0:0:0:
192,192,48705,1,0,0:0:0:0:
448,192,48792,1,0,0:0:0:0:
320,192,48879,1,0,0:0:0:0:
64,192,49054,128,0,49228:0:0:0:0:
320,192,49228,128,0,49402:0:0:0:0:
448,192,49315,1,0,0:0:0:0:
64,192,49402,128,0,49577:0:0:0:0:
192,192,49402,128,0,49838:0:0:0:0:
448,192,49577,1,0,0:0:0:0:
64,192,49664,128,0,50013:0:0:0:0:
320,192,49751,1,0,0:0:0:0:
192,192,49926,1,0,0:0:0:0:
64,192,50100,1,0,0:0:0:0:
448,192,50187,1,0,0:0:0:0:
192,192,50274,1,0,0:0:0:0:
448,192,50449,1,0,0:0:0:0:
192,192,50623,1,0,0:0:0:0:
448,192,50798,1,0,0:0:0:0:
192,192,50885,1,0,0:0:0:0:
320,192,50972,1,0,0:0:0:0:
448,192,50972,1,0,0:0:0:0:
64,192,51059,1,0,0:0:0:0:
192,192,51147,1,0,0:0:0:0:
448,192,51321,1,0,0:0:0:0:
64,192,51408,1,0,0:0:0:0:
320,192,51495,1,0,0:0:0:0:
64,192,51583,1,0,0:0:0:0:
192,192,51670,1,0,0:0:0:0:
448,192,51844,1,0,0:0:0:0:
192,192,52019,1,0,0:0:0:0:
64,192,52106,1,0,0:0:0:0:
320,192,52193,1,0,0:0:0:0:
448,192,52193,1,0,0:0:0:0:
64,192,52368,1,0,0:0:0:0:
448,192,52455,1,0,0:0:0:0:
192,192,52542,1,0,0:0:0:0:
192,192,52716,1,0,0:0:0:0:
448,192,52891,1,0,0:0:0:0:
64,192,52978,1,0,0:0:0:0:
192,192,53065,1,0,0:0:0:0:
448,192,53240,1,0,0:0:0:0:
192,192,53414,1,0,0:0:0:0:
448,192,53588,1,0,0:0:0:0:
192,192,53676,1,0,0:0:0:0:
320,192,53763,1,0,0:0:0:0:
448,192,53763,1,0,0:0:0:0:
64,192,53850,1,0,0:0:0:0:
192,192,53937,1,0,0:0:0:0:
448,192,54112,1,0,0:0:0:0:
64,192,54199,1,0,0:0:0:0:
320,192,54286,1,0,0:0:0:0:
64,192,54373,1,0,0:0:0:0:
192,192,54461,1,0,0:0:0:0:
448,192,54635,1,0,0:0:0:0:
192,192,54809,1,0,0:0:0:0:
64,192,54897,1,0,0:0:0:0:
320,192,54984,1,0,0:0:0:0:
448,192,54984,1,0,0:0:0:0:
64,192,55158,128,0,55681:0:0:0:0:
448,192,55245,1,0,0:0:0:0:
192,192,55333,128,0,55856:0:0:0:0:
320,192,55507,128,0,55769:0:0:0:0:
448,192,55681,128,0,55856:0:0:0:0:
64,192,55769,128,0,55856:0:0:0:0:
320,192,55856,1,0,0:0:0:0:
64,192,56030,1,0,0:0:0:0:
320,192,56205,1,0,0:0:0:0:
64,192,56379,1,0,0:0:0:0:
448,192,56466,1,0,0:0:0:0:
192,192,56554,1,0,0:0:0:0:
64,192,56554,1,0,0:0:0:0:
320,192,56641,1,0,0:0:0:0:
448,192,56728,1,0,0:0:0:0:
64,192,56902,1,0,0:0:0:0:
448,192,56990,1,0,0:0:0:0:
192,192,57077,1,0,0:0:0:0:
448,192,57164,1,0,0:0:0:0:
320,192,57251,1,0,0:0:0:0:
64,192,57426,1,0,0:0:0:0:
320,192,57600,1,0,0:0:0:0:
448,192,57687,1,0,0:0:0:0:
192,192,57774,1,0,0:0:0:0:
64,192,57774,1,0,0:0:0:0:
448,192,57949,1,0,0:0:0:0:
64,192,58036,1,0,0:0:0:0:
320,192,58123,1,0,0:0:0:0:
320,192,58298,1,0,0:0:0:0:
64,192,58472,1,0,0:0:0:0:
448,192,58559,1,0,0:0:0:0:
320,192,58647,1,0,0:0:0:0:
64,192,58821,1,0,0:0:0:0:
320,192,58995,1,0,0:0:0:0:
64,192,59170,1,0,0:0:0:0:
448,192,59257,1,0,0:0:0:0:
192,192,59344,1,0,0:0:0:0:
64,192,59344,1,0,0:0:0:0:
320,192,59431,1,0,0:0:0:0:
448,192,59519,1,0,0:0:0:0:
64,192,59693,1,0,0:0:0:0:
448,192,59780,1,0,0:0:0:0:
192,192,59868,1,0,0:0:0:0:
448,192,59955,1,0,0:0:0:0:
320,192,60042,1,0,0:0:0:0:
64,192,60216,1,0,0:0:0:0:
320,192,60391,1,0,0:0:0:0:
448,192,60478,1,0,0:0:0:0:
192,192,60565,1,0,0:0:0:0:
64,192,60565,1,0,0:0:0:0:
448,192,60740,1,0,0:0:0:0:
64,192,60827,1,0,0:0:0:0:
320,192,60914,1,0,0:0:0:0:
192,192,61088,1,0,0:0:0:0:
64,192,61263,1,0,0:0:0:0:
448,192,61350,1,0,0:0:0:0:
192,192,61437,1,0,0:0:0:0:
448,192,61612,1,0,0:0:0:0:
192,192,61786,1,0,0:0:0:0:
448,192,61961,1,0,0:0:0:0:
64,192,62048,1,0,0:0:0:0:
320,192,62135,1,0,0:0:0:0:
448,192,62135,1,0,0:0:0:0:
192,192,62222,1,0,0:0:0:0:
64,192,62309,1,0,0:0:0:0:
448,192,62484,1,0,0:0:0:0:
64,192,62571,1,0,0:0:0:0:
320,192,62658,1,0,0:0:0:0:
64,192,62745,5,0,0:0:0:0:
192,192,62833,1,0,0:0:0:0:
448,192,63007,1,0,0:0:0:0:
192,192,63181,1,0,0:0:0:0:
64,192,63269,1,0,0:0:0:0:
320,192,63356,1,0,0:0:0:0:
448,192,63356,1,0,0:0:0:0:
64,192,63530,1,0,0:0:0:0:
448,192,63618,1,0,0:0:0:0:
192,192,63705,1,0,0:0:0:0:
64,192,63879,5,0,0:0:0:0:
192,192,63923,1,0,0:0:0:0:
448,192,63966,1,0,0:0:0:0:
320,192,64010,1,0,0:0:0:0:
64,192,64054,1,0,0:0:0:0:
192,192,64141,1,0,0:0:0:0:
192,192,64228,1,0,0:0:0:0:
64,192,64228,1,0,0:0:0:0:
320,192,64490,128,0,64548:0:0:0:0:
192,192,64519,128,0,64606:0:0:0:0:
64,192,64548,128,0,64664:0:0:0:0:
320,192,64620,1,0,0:0:0:0:
448,192,64664,1,0,0:0:0:0:
192,192,64708,1,0,0:0:0:0:
320,192,64751,1,0,0:0:0:0:
64,192,64838,1,0,0:0:0:0:
448,192,64926,1,0,0:0:0:0:
320,192,65013,1,0,0:0:0:0:
192,192,65100,128,0,65187:0:0:0:0:
448,192,65187,1,0,0:0:0:0:
64,192,65274,1,0,0:0:0:0:
192,192,65304,1,0,0:0:0:0:
320,192,65333,1,0,0:0:0:0:
448,192,65362,1,0,0:0:0:0:
64,192,65405,1,0,0:0:0:0:
192,192,65449,1,0,0:0:0:0:
320,192,65493,1,0,0:0:0:0:
448,192,65536,1,0,0:0:0:0:
192,192,65623,128,0,65798:0:0:0:0:
448,192,65798,128,0,65972:0:0:0:0:
64,192,65885,128,0,65972:0:0:0:0:
448,192,66059,128,0,66176:0:0:0:0:
320,192,66088,1,0,0:0:0:0:
64,192,66147,128,0,66234:0:0:0:0:
192,192,66176,1,0,0:0:0:0:
448,192,66277,128,0,66343:0:0:0:0:
64,192,66408,128,0,66452:0:0:0:0:
448,192,66495,1,0,0:0:0:0:
64,192,66583,128,0,67019:0:0:0:0:
320,192,66844,128,0,67019:0:0:0:0:
192,192,67019,1,0,0:0:0:0:
448,192,67193,1,0,0:0:0:0:
192,192,67368,1,0,0:0:0:0:
448,192,67455,1,0,0:0:0:0:
64,192,67542,1,0,0:0:0:0:
192,192,67629,1,0,0:0:0:0:
448,192,67716,1,0,0:0:0:0:
320,192,67716,1,0,0:0:0:0:
192,192,67804,1,0,0:0:0:0:
64,192,67891,1,0,0:0:0:0:
448,192,67978,1,0,0:0:0:0:
192,192,68065,1,0,0:0:0:0:
448,192,68152,1,0,0:0:0:0:
192,192,68240,1,0,0:0:0:0:
320,192,68327,1,0,0:0:0:0:
192,192,68414,1,0,0:0:0:0:
448,192,68588,1,0,0:0:0:0:
192,192,68763,1,0,0:0:0:0:
64,192,68850,1,0,0:0:0:0:
320,192,68937,128,0,69054:0:0:0:0:
448,192,68937,128,0,69112:0:0:0:0:
192,192,69112,1,0,0:0:0:0:
64,192,69199,1,0,0:0:0:0:
320,192,69286,1,0,0:0:0:0:
192,192,69373,1,0,0:0:0:0:
64,192,69461,1,0,0:0:0:0:
320,192,69461,1,0,0:0:0:0:
448,192,69635,1,0,0:0:0:0:
192,192,69722,1,0,0:0:0:0:
320,192,69809,1,0,0:0:0:0:
64,192,69984,1,0,0:0:0:0:
320,192,70158,1,0,0:0:0:0:
64,192,70245,1,0,0:0:0:0:
448,192,70333,1,0,0:0:0:0:
320,192,70420,1,0,0:0:0:0:
64,192,70507,1,0,0:0:0:0:
192,192,70507,1,0,0:0:0:0:
320,192,70594,1,0,0:0:0:0:
448,192,70681,1,0,0:0:0:0:
64,192,70769,1,0,0:0:0:0:
320,192,70856,1,0,0:0:0:0:
64,192,70943,1,0,0:0:0:0:
320,192,71030,1,0,0:0:0:0:
192,192,71118,1,0,0:0:0:0:
320,192,71205,1,0,0:0:0:0:
64,192,71379,1,0,0:0:0:0:
320,192,71554,1,0,0:0:0:0:
448,192,71641,1,0,0:0:0:0:
192,192,71728,128,0,71844:0:0:0:0:
64,192,71728,128,0,71902:0:0:0:0:
320,192,71902,1,0,0:0:0:0:
448,192,71990,1,0,0:0:0:0:
192,192,72077,1,0,0:0:0:0:
320,192,72164,1,0,0:0:0:0:
448,192,72251,1,0,0:0:0:0:
192,192,72251,1,0,0:0:0:0:
64,192,72426,1,0,0:0:0:0:
320,192,72513,1,0,0:0:0:0:
192,192,72600,1,0,0:0:0:0:
448,192,72774,1,0,0:0:0:0:
192,192,72949,1,0,0:0:0:0:
448,192,73036,1,0,0:0:0:0:
64,192,73123,1,0,0:0:0:0:
192,192,73211,1,0,0:0:0:0:
448,192,73298,1,0,0:0:0:0:
320,192,73298,1,0,0:0:0:0:
192,192,73385,1,0,0:0:0:0:
64,192,73472,1,0,0:0:0:0:
448,192,73559,1,0,0:0:0:0:
192,192,73647,1,0,0:0:0:0:
448,192,73734,1,0,0:0:0:0:
192,192,73821,1,0,0:0:0:0:
320,192,73908,1,0,0:0:0:0:
192,192,73995,1,0,0:0:0:0:
448,192,74170,1,0,0:0:0:0:
192,192,74344,1,0,0:0:0:0:
64,192,74431,1,0,0:0:0:0:
320,192,74519,128,0,74577:0:0:0:0:
448,192,74519,128,0,74635:0:0:0:0:
192,192,74693,1,0,0:0:0:0:
64,192,74780,1,0,0:0:0:0:
320,192,74868,1,0,0:0:0:0:
192,192,74955,1,0,0:0:0:0:
64,192,75042,1,0,0:0:0:0:
320,192,75042,1,0,0:0:0:0:
448,192,75216,1,0,0:0:0:0:
192,192,75304,1,0,0:0:0:0:
320,192,75391,1,0,0:0:0:0:
64,192,75565,1,0,0:0:0:0:
320,192,75740,1,0,0:0:0:0:
64,192,75827,1,0,0:0:0:0:
448,192,75914,1,0,0:0:0:0:
320,192,76001,1,0,0:0:0:0:
64,192,76088,1,0,0:0:0:0:
192,192,76088,1,0,0:0:0:0:
320,192,76176,1,0,0:0:0:0:
448,192,76263,1,0,0:0:0:0:
64,192,76350,1,0,0:0:0:0:
320,192,76437,1,0,0:0:0:0:
64,192,76524,1,0,0:0:0:0:
320,192,76612,1,0,0:0:0:0:
192,192,76699,1,0,0:0:0:0:
320,192,76786,1,0,0:0:0:0:
64,192,76961,1,0,0:0:0:0:
320,192,77135,1,0,0:0:0:0:
448,192,77222,1,0,0:0:0:0:
192,192,77309,128,0,77368:0:0:0:0:
64,192,77309,128,0,77426:0:0:0:0:
320,192,77484,1,0,0:0:0:0:
448,192,77571,1,0,0:0:0:0:
192,192,77658,1,0,0:0:0:0:
320,192,77745,1,0,0:0:0:0:
448,192,77833,1,0,0:0:0:0:
192,192,77833,1,0,0:0:0:0:
64,192,78007,1,0,0:0:0:0:
320,192,78094,1,0,0:0:0:0:
192,192,78181,1,0,0:0:0:0:
448,192,78356,1,0,0:0:0:0:
192,192,78530,1,0,0:0:0:0:
320,192,78705,1,0,0:0:0:0:
448,192,78705,1,0,0:0:0:0:
64,192,78879,1,0,0:0:0:0:
448,192,78966,1,0,0:0:0:0:
192,192,79054,1,0,0:0:0:0:
320,192,79228,1,0,0:0:0:0:
448,192,79228,1,0,0:0:0:0:
64,192,79402,1,0,0:0:0:0:
448,192,79490,1,0,0:0:0:0:
320,192,79577,1,0,0:0:0:0:
64,192,79751,1,0,0:0:0:0:
448,192,79838,5,0,0:0:0:0:
320,192,79926,1,0,0:0:0:0:
64,192,80100,1,0,0:0:0:0:
192,192,80100,1,0,0:0:0:0:
448,192,80274,1,0,0:0:0:0:
64,192,80362,1,0,0:0:0:0:
320,192,80449,1,0,0:0:0:0:
192,192,80623,1,0,0:0:0:0:
64,192,80623,1,0,0:0:0:0:
448,192,80798,1,0,0:0:0:0:
64,192,80885,1,0,0:0:0:0:
192,192,80972,5,0,0:0:0:0:
448,192,81147,1,0,0:0:0:0:
192,192,81234,1,0,0:0:0:0:
320,192,81321,1,0,0:0:0:0:
448,192,81495,1,0,0:0:0:0:
320,192,81495,1,0,0:0:0:0:
64,192,81670,1,0,0:0:0:0:
448,192,81757,1,0,0:0:0:0:
192,192,81931,1,0,0:0:0:0:
448,192,82019,1,0,0:0:0:0:
320,192,82019,1,0,0:0:0:0:
192,192,82193,1,0,0:0:0:0:
448,192,82280,1,0,0:0:0:0:
320,192,82368,1,0,0:0:0:0:
64,192,82542,1,0,0:0:0:0:
320,192,82629,5,0,0:0:0:0:
192,192,82716,1,0,0:0:0:0:
64,192,82891,1,0,0:0:0:0:
192,192,82891,1,0,0:0:0:0:
448,192,83065,1,0,0:0:0:0:
64,192,83152,1,0,0:0:0:0:
320,192,83327,1,0,0:0:0:0:
64,192,83414,1,0,0:0:0:0:
192,192,83414,1,0,0:0:0:0:
320,192,83588,1,0,0:0:0:0:
64,192,83676,1,0,0:0:0:0:
192,192,83763,5,0,0:0:0:0:
448,192,83937,1,0,0:0:0:0:
192,192,84024,5,0,0:0:0:0:
320,192,84112,1,0,0:0:0:0:
448,192,84112,1,0,0:0:0:0:
64,192,84286,1,0,0:0:0:0:
448,192,84373,1,0,0:0:0:0:
192,192,84461,1,0,0:0:0:0:
448,192,84635,1,0,0:0:0:0:
192,192,84722,1,0,0:0:0:0:
448,192,84809,1,0,0:0:0:0:
320,192,84809,1,0,0:0:0:0:
64,192,84984,1,0,0:0:0:0:
448,192,85071,1,0,0:0:0:0:
192,192,85158,5,0,0:0:0:0:
192,192,85333,1,0,0:0:0:0:
192,192,85507,1,0,0:0:0:0:
64,192,85507,1,0,0:0:0:0:
192,192,85681,1,0,0:0:0:0:
192,192,85856,1,0,0:0:0:0:
192,192,86030,1,0,0:0:0:0:
192,192,86205,1,0,0:0:0:0:
64,192,86205,1,0,0:0:0:0:
192,192,86379,1,0,0:0:0:0:
192,192,86554,5,0,0:0:0:0:
192,192,86641,1,0,0:0:0:0:
320,192,86728,1,0,0:0:0:0:
320,192,86815,1,0,0:0:0:0:
192,192,86902,1,0,0:0:0:0:
192,192,86990,1,0,0:0:0:0:
320,192,87077,1,0,0:0:0:0:
320,192,87164,1,0,0:0:0:0:
192,192,87251,1,0,0:0:0:0:
192,192,87368,1,0,0:0:0:0:
192,192,87484,1,0,0:0:0:0:
192,192,87600,1,0,0:0:0:0:
192,192,87774,1,0,0:0:0:0:
192,192,87949,128,0,88123:0:0:0:0:
64,192,88036,128,0,88152:0:0:0:0:
192,192,88269,128,0,88327:0:0:0:0:
64,192,88298,128,0,88356:0:0:0:0:
448,192,88327,1,0,0:0:0:0:
320,192,88356,128,0,88618:0:0:0:0:
192,192,88385,128,0,88647:0:0:0:0:
64,192,88414,128,0,88908:0:0:0:0:
448,192,88647,128,0,88865:0:0:0:0:
448,192,88908,128,0,89126:0:0:0:0:
448,192,89170,128,0,89344:0:0:0:0:
64,192,89344,1,0,0:0:0:0:
192,192,89344,1,0,0:0:0:0:
448,192,89519,1,0,0:0:0:0:
320,192,89606,1,0,0:0:0:0:
64,192,89693,1,0,0:0:0:0:
192,192,89737,1,0,0:0:0:0:
320,192,89780,1,0,0:0:0:0:
64,192,89824,1,0,0:0:0:0:
192,192,89868,1,0,0:0:0:0:
320,192,89926,1,0,0:0:0:0:
192,192,89984,1,0,0:0:0:0:
64,192,90042,1,0,0:0:0:0:
448,192,90042,1,0,0:0:0:0:
320,192,90100,1,0,0:0:0:0:
192,192,90158,1,0,0:0:0:0:
64,192,90216,1,0,0:0:0:0:
320,192,90274,1,0,0:0:0:0:
192,192,90333,1,0,0:0:0:0:
448,192,90391,1,0,0:0:0:0:
320,192,90449,1,0,0:0:0:0:
192,192,90507,1,0,0:0:0:0:
448,192,90565,1,0,0:0:0:0:
64,192,90565,1,0,0:0:0:0:
320,192,90609,1,0,0:0:0:0:
192,192,90652,1,0,0:0:0:0:
64,192,90696,1,0,0:0:0:0:
320,192,90740,1,0,0:0:0:0:
448,192,90783,1,0,0:0:0:0:
64,192,90827,1,0,0:0:0:0:
320,192,90870,1,0,0:0:0:0:
448,192,90914,1,0,0:0:0:0:
64,192,90958,1,0,0:0:0:0:
320,192,91001,1,0,0:0:0:0:
448,192,91045,1,0,0:0:0:0:
64,192,91088,1,0,0:0:0:0:
192,192,91088,1,0,0:0:0:0:
320,192,91132,1,0,0:0:0:0:
448,192,91176,1,0,0:0:0:0:
192,192,91219,1,0,0:0:0:0:
320,192,91263,1,0,0:0:0:0:
64,192,91306,1,0,0:0:0:0:
192,192,91350,1,0,0:0:0:0:
320,192,91394,1,0,0:0:0:0:
64,192,91437,1,0,0:0:0:0:
448,192,91437,1,0,0:0:0:0:
192,192,91481,1,0,0:0:0:0:
320,192,91524,1,0,0:0:0:0:
448,192,91568,1,0,0:0:0:0:
64,192,91612,1,0,0:0:0:0:
320,192,91670,1,0,0:0:0:0:
192,192,91728,1,0,0:0:0:0:
448,192,91786,1,0,0:0:0:0:
192,192,91844,1,0,0:0:0:0:
320,192,91902,1,0,0:0:0:0:
64,192,91961,1,0,0:0:0:0:
448,192,92019,1,0,0:0:0:0:
320,192,92048,1,0,0:0:0:0:
192,192,92077,1,0,0:0:0:0:
64,192,92106,1,0,0:0:0:0:
320,192,92135,1,0,0:0:0:0:
448,192,92135,1,0,0:0:0:0:
320,192,92309,128,0,92368:0:0:0:0:
192,192,92338,128,0,92426:0:0:0:0:
64,192,92368,128,0,92484:0:0:0:0:
320,192,92484,1,0,0:0:0:0:
448,192,92484,1,0,0:0:0:0:
64,192,92571,1,0,0:0:0:0:
192,192,92600,1,0,0:0:0:0:
320,192,92629,1,0,0:0:0:0:
448,192,92658,1,0,0:0:0:0:
192,192,92745,1,0,0:0:0:0:
448,192,92833,1,0,0:0:0:0:
64,192,92833,1,0,0:0:0:0:
448,192,92920,1,0,0:0:0:0:
192,192,93007,1,0,0:0:0:0:
448,192,93094,1,0,0:0:0:0:
320,192,93094,1,0,0:0:0:0:
64,192,93181,1,0,0:0:0:0:
448,192,93269,1,0,0:0:0:0:
320,192,93298,1,0,0:0:0:0:
192,192,93327,1,0,0:0:0:0:
64,192,93356,1,0,0:0:0:0:
448,192,93443,1,0,0:0:0:0:
320,192,93530,1,0,0:0:0:0:
64,192,93530,1,0,0:0:0:0:
320,192,93618,1,0,0:0:0:0:
192,192,93705,1,0,0:0:0:0:
64,192,93792,1,0,0:0:0:0:
320,192,93879,1,0,0:0:0:0:
448,192,93879,1,0,0:0:0:0:
64,192,93966,1,0,0:0:0:0:
192,192,93995,1,0,0:0:0:0:
320,192,94024,1,0,0:0:0:0:
448,192,94054,1,0,0:0:0:0:
192,192,94141,1,0,0:0:0:0:
64,192,94228,1,0,0:0:0:0:
320,192,94228,1,0,0:0:0:0:
64,192,94315,1,0,0:0:0:0:
448,192,94402,1,0,0:0:0:0:
64,192,94490,128,0,94577:0:0:0:0:
320,192,94490,128,0,94577:0:0:0:0:
192,192,94490,128,0,94577:0:0:0:0:
448,192,94664,1,0,0:0:0:0:
192,192,94751,1,0,0:0:0:0:
320,192,94838,1,0,0:0:0:0:
64,192,94926,1,0,0:0:0:0:
192,192,94926,1,0,0:0:0:0:
448,192,95100,1,0,0:0:0:0:
320,192,95187,1,0,0:0:0:0:
64,192,95274,1,0,0:0:0:0:
192,192,95318,1,0,0:0:0:0:
320,192,95362,1,0,0:0:0:0:
64,192,95405,1,0,0:0:0:0:
192,192,95449,1,0,0:0:0:0:
320,192,95507,1,0,0:0:0:0:
192,192,95565,1,0,0:0:0:0:
448,192,95623,1,0,0:0:0:0:
64,192,95623,128,0,95711:0:0:0:0:
320,192,95711,128,0,95885:0:0:0:0:
192,192,95798,1,0,0:0:0:0:
64,192,95885,128,0,95972:0:0:0:0:
320,192,95972,128,0,96147:0:0:0:0:
192,192,96059,1,0,0:0:0:0:
64,192,96147,1,0,0:0:0:0:
448,192,96147,128,0,96234:0:0:0:0:
192,192,96234,128,0,96408:0:0:0:0:
320,192,96321,1,0,0:0:0:0:
448,192,96408,128,0,96495:0:0:0:0:
192,192,96495,128,0,96670:0:0:0:0:
64,192,96583,1,0,0:0:0:0:
320,192,96670,1,0,0:0:0:0:
448,192,96670,1,0,0:0:0:0:
192,192,96757,1,0,0:0:0:0:
64,192,96844,128,0,96931:0:0:0:0:
320,192,96931,1,0,0:0:0:0:
192,192,96961,128,0,97019:0:0:0:0:
448,192,97019,1,0,0:0:0:0:
64,192,97019,1,0,0:0:0:0:
320,192,97106,1,0,0:0:0:0:
192,192,97135,128,0,97193:0:0:0:0:
448,192,97193,1,0,0:0:0:0:
320,192,97280,1,0,0:0:0:0:
192,192,97309,128,0,97368:0:0:0:0:
448,192,97368,128,0,97600:0:0:0:0:
320,192,97455,128,0,97629:0:0:0:0:
64,192,97498,1,0,0:0:0:0:
192,192,97542,1,0,0:0:0:0:
192,192,97658,1,0,0:0:0:0:
64,192,97687,1,0,0:0:0:0:
448,192,97716,1,0,0:0:0:0:
320,192,97716,1,0,0:0:0:0:
320,192,97891,128,0,97949:0:0:0:0:
192,192,97920,128,0,98007:0:0:0:0:
64,192,97949,128,0,98065:0:0:0:0:
320,192,98065,1,0,0:0:0:0:
448,192,98065,1,0,0:0:0:0:
64,192,98152,1,0,0:0:0:0:
192,192,98181,1,0,0:0:0:0:
320,192,98211,1,0,0:0:0:0:
448,192,98240,1,0,0:0:0:0:
192,192,98327,1,0,0:0:0:0:
448,192,98414,1,0,0:0:0:0:
64,192,98414,1,0,0:0:0:0:
448,192,98501,1,0,0:0:0:0:
192,192,98588,1,0,0:0:0:0:
448,192,98676,1,0,0:0:0:0:
320,192,98676,1,0,0:0:0:0:
64,192,98763,1,0,0:0:0:0:
448,192,98850,1,0,0:0:0:0:
320,192,98879,1,0,0:0:0:0:
192,192,98908,1,0,0:0:0:0:
64,192,98937,1,0,0:0:0:0:
320,192,99024,1,0,0:0:0:0:
192,192,99112,1,0,0:0:0:0:
448,192,99112,1,0,0:0:0:0:
192,192,99199,1,0,0:0:0:0:
320,192,99286,1,0,0:0:0:0:
64,192,99373,1,0,0:0:0:0:
448,192,99373,1,0,0:0:0:0:
320,192,99461,1,0,0:0:0:0:
448,192,99461,1,0,0:0:0:0:
64,192,99548,1,0,0:0:0:0:
192,192,99577,1,0,0:0:0:0:
320,192,99606,1,0,0:0:0:0:
448,192,99635,1,0,0:0:0:0:
192,192,99722,1,0,0:0:0:0:
64,192,99809,1,0,0:0:0:0:
320,192,99809,1,0,0:0:0:0:
320,192,99897,1,0,0:0:0:0:
64,192,99984,1,0,0:0:0:0:
192,192,100071,1,0,0:0:0:0:
448,192,100071,1,0,0:0:0:0:
192,192,100158,1,0,0:0:0:0:
320,192,100245,1,0,0:0:0:0:
64,192,100333,1,0,0:0:0:0:
192,192,100420,1,0,0:0:0:0:
64,192,100507,1,0,0:0:0:0:
192,192,100507,1,0,0:0:0:0:
320,192,100681,1,0,0:0:0:0:
448,192,100769,1,0,0:0:0:0:
64,192,100856,1,0,0:0:0:0:
192,192,100899,1,0,0:0:0:0:
320,192,100943,1,0,0:0:0:0:
64,192,100987,1,0,0:0:0:0:
192,192,101030,1,0,0:0:0:0:
320,192,101088,1,0,0:0:0:0:
192,192,101147,1,0,0:0:0:0:
64,192,101205,1,0,0:0:0:0:
448,192,101205,1,0,0:0:0:0:
320,192,101263,1,0,0:0:0:0:
192,192,101321,1,0,0:0:0:0:
64,192,101379,1,0,0:0:0:0:
320,192,101437,1,0,0:0:0:0:
192,192,101495,1,0,0:0:0:0:
448,192,101554,1,0,0:0:0:0:
320,192,101612,1,0,0:0:0:0:
192,192,101670,1,0,0:0:0:0:
64,192,101728,1,0,0:0:0:0:
448,192,101728,1,0,0:0:0:0:
320,192,101772,1,0,0:0:0:0:
192,192,101815,1,0,0:0:0:0:
64,192,101859,1,0,0:0:0:0:
448,192,101902,1,0,0:0:0:0:
320,192,101946,1,0,0:0:0:0:
64,192,101990,1,0,0:0:0:0:
192,192,101990,1,0,0:0:0:0:
448,192,102033,1,0,0:0:0:0:
320,192,102077,1,0,0:0:0:0:
64,192,102120,1,0,0:0:0:0:
448,192,102164,1,0,0:0:0:0:
192,192,102208,1,0,0:0:0:0:
64,192,102251,1,0,0:0:0:0:
320,192,102251,1,0,0:0:0:0:
448,192,102295,1,0,0:0:0:0:
192,192,102338,1,0,0:0:0:0:
320,192,102382,1,0,0:0:0:0:
64,192,102426,1,0,0:0:0:0:
192,192,102469,1,0,0:0:0:0:
448,192,102513,1,0,0:0:0:0:
320,192,102513,1,0,0:0:0:0:
64,192,102556,1,0,0:0:0:0:
192,192,102600,1,0,0:0:0:0:
448,192,102644,1,0,0:0:0:0:
64,192,102687,1,0,0:0:0:0:
320,192,102731,1,0,0:0:0:0:
448,192,102774,1,0,0:0:0:0:
192,192,102774,1,0,0:0:0:0:
64,192,102818,1,0,0:0:0:0:
320,192,102862,1,0,0:0:0:0:
192,192,102905,1,0,0:0:0:0:
448,192,102949,1,0,0:0:0:0:
64,192,102949,1,0,0:0:0:0:
448,192,103036,1,0,0:0:0:0:
320,192,103036,1,0,0:0:0:0:
192,192,103080,1,0,0:0:0:0:
64,192,103123,1,0,0:0:0:0:
320,192,103167,128,0,103211:0:0:0:0:
192,192,103211,128,0,103298:0:0:0:0:
64,192,103254,128,0,103298:0:0:0:0:
448,192,103298,1,0,0:0:0:0:
320,192,103298,1,0,0:0:0:0:
320,192,103472,128,0,103530:0:0:0:0:
192,192,103501,128,0,103588:0:0:0:0:
64,192,103530,128,0,103647:0:0:0:0:
320,192,103647,1,0,0:0:0:0:
448,192,103647,1,0,0:0:0:0:
64,192,103734,1,0,0:0:0:0:
192,192,103763,1,0,0:0:0:0:
320,192,103792,1,0,0:0:0:0:
448,192,103821,1,0,0:0:0:0:
192,192,103908,1,0,0:0:0:0:
448,192,103995,1,0,0:0:0:0:
64,192,103995,1,0,0:0:0:0:
448,192,104083,1,0,0:0:0:0:
320,192,104170,1,0,0:0:0:0:
64,192,104257,1,0,0:0:0:0:
192,192,104257,1,0,0:0:0:0:
448,192,104344,1,0,0:0:0:0:
64,192,104344,1,0,0:0:0:0:
320,192,104431,1,0,0:0:0:0:
192,192,104461,1,0,0:0:0:0:
64,192,104490,1,0,0:0:0:0:
448,192,104519,1,0,0:0:0:0:
192,192,104606,1,0,0:0:0:0:
64,192,104693,1,0,0:0:0:0:
320,192,104693,1,0,0:0:0:0:
320,192,104780,1,0,0:0:0:0:
192,192,104868,1,0,0:0:0:0:
320,192,104955,1,0,0:0:0:0:
64,192,105042,1,0,0:0:0:0:
448,192,105042,1,0,0:0:0:0:
192,192,105129,1,0,0:0:0:0:
320,192,105158,1,0,0:0:0:0:
448,192,105187,1,0,0:0:0:0:
64,192,105216,1,0,0:0:0:0:
320,192,105304,1,0,0:0:0:0:
64,192,105391,1,0,0:0:0:0:
448,192,105391,1,0,0:0:0:0:
64,192,105478,1,0,0:0:0:0:
448,192,105565,1,0,0:0:0:0:
64,192,105652,128,0,105740:0:0:0:0:
320,192,105652,128,0,105740:0:0:0:0:
192,192,105652,128,0,105740:0:0:0:0:
448,192,105827,1,0,0:0:0:0:
192,192,105914,1,0,0:0:0:0:
320,192,106001,1,0,0:0:0:0:
64,192,106088,1,0,0:0:0:0:
192,192,106088,1,0,0:0:0:0:
320,192,106263,1,0,0:0:0:0:
448,192,106350,1,0,0:0:0:0:
64,192,106437,1,0,0:0:0:0:
192,192,106481,1,0,0:0:0:0:
320,192,106524,1,0,0:0:0:0:
64,192,106568,1,0,0:0:0:0:
192,192,106612,1,0,0:0:0:0:
320,192,106670,1,0,0:0:0:0:
192,192,106728,1,0,0:0:0:0:
448,192,106786,1,0,0:0:0:0:
64,192,106786,128,0,106873:0:0:0:0:
320,192,106873,128,0,107048:0:0:0:0:
192,192,106961,1,0,0:0:0:0:
448,192,107048,1,0,0:0:0:0:
64,192,107048,128,0,107135:0:0:0:0:
320,192,107135,128,0,107309:0:0:0:0:
192,192,107222,1,0,0:0:0:0:
64,192,107222,1,0,0:0:0:0:
64,192,107309,1,0,0:0:0:0:
448,192,107309,128,0,107397:0:0:0:0:
192,192,107397,128,0,107571:0:0:0:0:
320,192,107484,1,0,0:0:0:0:
64,192,107571,1,0,0:0:0:0:
448,192,107571,128,0,107658:0:0:0:0:
192,192,107658,128,0,107833:0:0:0:0:
320,192,107745,1,0,0:0:0:0:
448,192,107745,1,0,0:0:0:0:
320,192,107833,128,0,107920:0:0:0:0:
448,192,107833,128,0,107920:0:0:0:0:
192,192,107920,1,0,0:0:0:0:
64,192,108007,128,0,108094:0:0:0:0:
320,192,108094,1,0,0:0:0:0:
192,192,108123,128,0,108181:0:0:0:0:
448,192,108181,1,0,0:0:0:0:
64,192,108181,1,0,0:0:0:0:
320,192,108269,1,0,0:0:0:0:
192,192,108298,128,0,108356:0:0:0:0:
448,192,108356,1,0,0:0:0:0:
320,192,108443,1,0,0:0:0:0:
192,192,108472,128,0,108530:0:0:0:0:
448,192,108530,128,0,108763:0:0:0:0:
320,192,108618,128,0,108792:0:0:0:0:
64,192,108661,1,0,0:0:0:0:
192,192,108705,1,0,0:0:0:0:
192,192,108821,1,0,0:0:0:0:
64,192,108850,1,0,0:0:0:0:
448,192,108879,1,0,0:0:0:0:
320,192,108879,1,0,0:0:0:0:
448,192,109054,128,0,109112:0:0:0:0:
320,192,109083,128,0,109170:0:0:0:0:
192,192,109112,128,0,109228:0:0:0:0:
64,192,109228,1,0,0:0:0:0:
448,192,109228,1,0,0:0:0:0:
320,192,109315,1,0,0:0:0:0:
64,192,109373,1,0,0:0:0:0:
192,192,109402,1,0,0:0:0:0:
320,192,109490,1,0,0:0:0:0:
64,192,109577,1,0,0:0:0:0:
192,192,109606,1,0,0:0:0:0:
320,192,109635,1,0,0:0:0:0:
448,192,109664,1,0,0:0:0:0:
192,192,109751,1,0,0:0:0:0:
320,192,109838,1,0,0:0:0:0:
448,192,109838,1,0,0:0:0:0:
448,192,109926,1,0,0:0:0:0:
64,192,109926,1,0,0:0:0:0:
192,192,110013,128,0,110187:0:0:0:0:
320,192,110100,128,0,110187:0:0:0:0:
448,192,110187,128,0,110231:0:0:0:0:
64,192,110187,128,0,110274:0:0:0:0:
192,192,110274,1,0,0:0:0:0:
320,192,110362,1,0,0:0:0:0:
448,192,110405,128,0,110449:0:0:0:0:
192,192,110449,1,0,0:0:0:0:
64,192,110449,128,0,110493:0:0:0:0:
320,192,110558,128,0,110623:0:0:0:0:
64,192,110623,1,0,0:0:0:0:
448,192,110623,1,0,0:0:0:0:
192,192,110711,128,0,110841:0:0:0:0:
320,192,110841,128,0,110929:0:0:0:0:
192,192,110929,128,0,111016:0:0:0:0:
320,192,111016,128,0,111103:0:0:0:0:
192,192,111103,128,0,111168:0:0:0:0:
320,192,111168,128,0,111234:0:0:0:0:
192,192,111234,128,0,111343:0:0:0:0:
320,192,111343,128,0,111452:0:0:0:0:
192,192,111452,128,0,111495:0:0:0:0:
320,192,111626,128,0,111670:0:0:0:0:
448,192,111670,1,0,0:0:0:0:
192,192,111670,1,0,0:0:0:0:
64,192,111670,1,0,0:0:0:0:
192,192,111844,1,0,0:0:0:0:
320,192,111931,1,0,0:0:0:0:
192,192,112019,1,0,0:0:0:0:
64,192,112019,1,0,0:0:0:0:
448,192,112106,1,0,0:0:0:0:
192,192,112193,1,0,0:0:0:0:
320,192,112251,1,0,0:0:0:0:
192,192,112309,1,0,0:0:0:0:
64,192,112368,1,0,0:0:0:0:
448,192,112368,1,0,0:0:0:0:
320,192,112484,1,0,0:0:0:0:
192,192,112542,1,0,0:0:0:0:
320,192,112600,1,0,0:0:0:0:
448,192,112658,1,0,0:0:0:0:
192,192,112716,1,0,0:0:0:0:
64,192,112774,1,0,0:0:0:0:
320,192,112833,1,0,0:0:0:0:
64,192,112891,1,0,0:0:0:0:
448,192,112891,1,0,0:0:0:0:
192,192,112949,1,0,0:0:0:0:
320,192,113065,1,0,0:0:0:0:
448,192,113123,1,0,0:0:0:0:
64,192,113152,1,0,0:0:0:0:
320,192,113240,1,0,0:0:0:0:
192,192,113356,1,0,0:0:0:0:
64,192,113385,1,0,0:0:0:0:
448,192,113414,1,0,0:0:0:0:
320,192,113414,1,0,0:0:0:0:
192,192,113501,1,0,0:0:0:0:
320,192,113588,1,0,0:0:0:0:
192,192,113647,1,0,0:0:0:0:
448,192,113705,1,0,0:0:0:0:
320,192,113763,1,0,0:0:0:0:
64,192,113763,1,0,0:0:0:0:
192,192,113850,1,0,0:0:0:0:
448,192,113937,128,0,113995:0:0:0:0:
320,192,113966,1,0,0:0:0:0:
64,192,114024,128,0,114083:0:0:0:0:
192,192,114054,1,0,0:0:0:0:
448,192,114112,128,0,114170:0:0:0:0:
320,192,114141,1,0,0:0:0:0:
64,192,114228,128,0,114315:0:0:0:0:
192,192,114257,1,0,0:0:0:0:
448,192,114344,128,0,114461:0:0:0:0:
320,192,114373,1,0,0:0:0:0:
192,192,114461,1,0,0:0:0:0:
64,192,114461,1,0,0:0:0:0:
320,192,114635,128,0,114693:0:0:0:0:
192,192,114664,128,0,114751:0:0:0:0:
64,192,114693,128,0,114809:0:0:0:0:
320,192,114809,1,0,0:0:0:0:
448,192,114809,1,0,0:0:0:0:
64,192,114897,1,0,0:0:0:0:
192,192,114984,1,0,0:0:0:0:
320,192,115042,1,0,0:0:0:0:
192,192,115100,1,0,0:0:0:0:
448,192,115158,1,0,0:0:0:0:
64,192,115158,1,0,0:0:0:0:
320,192,115245,1,0,0:0:0:0:
192,192,115333,1,0,0:0:0:0:
64,192,115391,1,0,0:0:0:0:
448,192,115420,1,0,0:0:0:0:
320,192,115420,1,0,0:0:0:0:
192,192,115507,1,0,0:0:0:0:
320,192,115594,1,0,0:0:0:0:
64,192,115681,1,0,0:0:0:0:
448,192,115681,1,0,0:0:0:0:
192,192,115740,1,0,0:0:0:0:
320,192,115798,1,0,0:0:0:0:
192,192,115856,1,0,0:0:0:0:
64,192,115885,1,0,0:0:0:0:
320,192,115943,1,0,0:0:0:0:
448,192,115943,1,0,0:0:0:0:
64,192,116030,1,0,0:0:0:0:
320,192,116147,1,0,0:0:0:0:
448,192,116176,1,0,0:0:0:0:
192,192,116205,1,0,0:0:0:0:
64,192,116205,1,0,0:0:0:0:
320,192,116263,1,0,0:0:0:0:
192,192,116321,1,0,0:0:0:0:
320,192,116379,1,0,0:0:0:0:
64,192,116423,1,0,0:0:0:0:
192,192,116466,1,0,0:0:0:0:
448,192,116510,1,0,0:0:0:0:
64,192,116554,1,0,0:0:0:0:
320,192,116554,1,0,0:0:0:0:
448,192,116641,128,0,116684:0:0:0:0:
320,192,116684,128,0,116728:0:0:0:0:
192,192,116728,1,0,0:0:0:0:
64,192,116815,128,0,117077:0:0:0:0:
320,192,116902,1,0,0:0:0:0:
448,192,116990,1,0,0:0:0:0:
192,192,117077,1,0,0:0:0:0:
320,192,117164,1,0,0:0:0:0:
192,192,117251,1,0,0:0:0:0:
64,192,117251,1,0,0:0:0:0:
320,192,117426,1,0,0:0:0:0:
448,192,117513,1,0,0:0:0:0:
192,192,117600,1,0,0:0:0:0:
64,192,117600,1,0,0:0:0:0:
320,192,117687,1,0,0:0:0:0:
192,192,117774,1,0,0:0:0:0:
320,192,117862,1,0,0:0:0:0:
448,192,117949,1,0,0:0:0:0:
64,192,117949,128,0,118036:0:0:0:0:
320,192,118036,128,0,118211:0:0:0:0:
192,192,118123,1,0,0:0:0:0:
64,192,118211,128,0,118298:0:0:0:0:
320,192,118298,128,0,118472:0:0:0:0:
192,192,118385,128,0,118472:0:0:0:0:
64,192,118472,1,0,0:0:0:0:
448,192,118472,128,0,118559:0:0:0:0:
192,192,118559,128,0,118734:0:0:0:0:
320,192,118647,1,0,0:0:0:0:
448,192,118734,128,0,118821:0:0:0:0:
192,192,118821,128,0,118995:0:0:0:0:
64,192,118908,128,0,118995:0:0:0:0:
320,192,118995,1,0,0:0:0:0:
448,192,118995,1,0,0:0:0:0:
64,192,119083,1,0,0:0:0:0:
320,192,119170,1,0,0:0:0:0:
192,192,119228,1,0,0:0:0:0:
320,192,119286,1,0,0:0:0:0:
448,192,119344,1,0,0:0:0:0:
64,192,119344,1,0,0:0:0:0:
192,192,119461,1,0,0:0:0:0:
64,192,119490,1,0,0:0:0:0:
448,192,119519,128,0,119664:0:0:0:0:
320,192,119548,128,0,119635:0:0:0:0:
320,192,119693,1,0,0:0:0:0:
448,192,119722,1,0,0:0:0:0:
64,192,119751,128,0,119984:0:0:0:0:
192,192,119780,128,0,119984:0:0:0:0:
64,192,120042,1,0,0:0:0:0:
192,192,120042,1,0,0:0:0:0:
320,192,120216,128,0,120274:0:0:0:0:
192,192,120245,128,0,120333:0:0:0:0:
64,192,120274,128,0,120391:0:0:0:0:
448,192,120391,1,0,0:0:0:0:
320,192,120391,1,0,0:0:0:0:
192,192,120478,1,0,0:0:0:0:
320,192,120565,1,0,0:0:0:0:
192,192,120652,1,0,0:0:0:0:
448,192,120740,1,0,0:0:0:0:
64,192,120740,128,0,120827:0:0:0:0:
320,192,120827,128,0,121001:0:0:0:0:
448,192,120914,1,0,0:0:0:0:
192,192,121001,1,0,0:0:0:0:
64,192,121001,128,0,121088:0:0:0:0:
320,192,121088,128,0,121263:0:0:0:0:
64,192,121176,1,0,0:0:0:0:
448,192,121263,1,0,0:0:0:0:
192,192,121263,1,0,0:0:0:0:
64,192,121306,1,0,0:0:0:0:
320,192,121350,1,0,0:0:0:0:
448,192,121379,1,0,0:0:0:0:
320,192,121481,1,0,0:0:0:0:
192,192,121524,1,0,0:0:0:0:
64,192,121524,1,0,0:0:0:0:
448,192,121568,1,0,0:0:0:0:
192,192,121612,1,0,0:0:0:0:
64,192,121655,1,0,0:0:0:0:
192,192,121743,1,0,0:0:0:0:
320,192,121786,1,0,0:0:0:0:
448,192,121786,1,0,0:0:0:0:
64,192,121830,1,0,0:0:0:0:
320,192,121873,1,0,0:0:0:0:
448,192,121917,1,0,0:0:0:0:
192,192,121961,1,0,0:0:0:0:
64,192,122004,1,0,0:0:0:0:
320,192,122048,1,0,0:0:0:0:
192,192,122091,1,0,0:0:0:0:
64,192,122135,1,0,0:0:0:0:
448,192,122135,1,0,0:0:0:0:
320,192,122222,1,0,0:0:0:0:
448,192,122266,1,0,0:0:0:0:
192,192,122309,1,0,0:0:0:0:
64,192,122309,1,0,0:0:0:0:
320,192,122353,1,0,0:0:0:0:
448,192,122397,1,0,0:0:0:0:
64,192,122484,128,0,122571:0:0:0:0:
192,192,122527,128,0,122658:0:0:0:0:
320,192,122571,128,0,122745:0:0:0:0:
448,192,122615,128,0,122833:0:0:0:0:
192,192,122833,1,0,0:0:0:0:
64,192,122833,1,0,0:0:0:0:
192,192,123007,1,0,0:0:0:0:
320,192,123094,1,0,0:0:0:0:
192,192,123181,1,0,0:0:0:0:
64,192,123181,1,0,0:0:0:0:
448,192,123269,1,0,0:0:0:0:
192,192,123356,1,0,0:0:0:0:
320,192,123414,1,0,0:0:0:0:
192,192,123472,1,0,0:0:0:0:
64,192,123530,1,0,0:0:0:0:
448,192,123530,1,0,0:0:0:0:
320,192,123647,1,0,0:0:0:0:
192,192,123705,1,0,0:0:0:0:
320,192,123763,1,0,0:0:0:0:
448,192,123821,1,0,0:0:0:0:
192,192,123879,1,0,0:0:0:0:
64,192,123937,1,0,0:0:0:0:
320,192,123995,1,0,0:0:0:0:
64,192,124054,1,0,0:0:0:0:
448,192,124054,1,0,0:0:0:0:
192,192,124112,1,0,0:0:0:0:
320,192,124228,1,0,0:0:0:0:
448,192,124286,1,0,0:0:0:0:
64,192,124315,1,0,0:0:0:0:
320,192,124402,1,0,0:0:0:0:
192,192,124519,1,0,0:0:0:0:
64,192,124548,1,0,0:0:0:0:
448,192,124577,1,0,0:0:0:0:
320,192,124577,1,0,0:0:0:0:
192,192,124664,1,0,0:0:0:0:
64,192,124751,1,0,0:0:0:0:
320,192,124809,1,0,0:0:0:0:
192,192,124868,1,0,0:0:0:0:
448,192,124926,1,0,0:0:0:0:
64,192,124926,1,0,0:0:0:0:
192,192,125013,1,0,0:0:0:0:
448,192,125100,128,0,125158:0:0:0:0:
320,192,125129,1,0,0:0:0:0:
64,192,125187,128,0,125245:0:0:0:0:
192,192,125216,1,0,0:0:0:0:
448,192,125274,128,0,125333:0:0:0:0:
320,192,125304,1,0,0:0:0:0:
64,192,125391,128,0,125478:0:0:0:0:
192,192,125420,1,0,0:0:0:0:
448,192,125507,128,0,125623:0:0:0:0:
320,192,125536,1,0,0:0:0:0:
192,192,125623,1,0,0:0:0:0:
64,192,125623,1,0,0:0:0:0:
320,192,125798,128,0,125856:0:0:0:0:
192,192,125827,128,0,125914:0:0:0:0:
64,192,125856,128,0,125972:0:0:0:0:
320,192,125972,1,0,0:0:0:0:
448,192,125972,1,0,0:0:0:0:
64,192,126059,1,0,0:0:0:0:
192,192,126147,1,0,0:0:0:0:
320,192,126205,1,0,0:0:0:0:
192,192,126263,1,0,0:0:0:0:
448,192,126321,1,0,0:0:0:0:
64,192,126321,1,0,0:0:0:0:
320,192,126408,1,0,0:0:0:0:
192,192,126495,1,0,0:0:0:0:
64,192,126554,1,0,0:0:0:0:
448,192,126583,1,0,0:0:0:0:
320,192,126583,1,0,0:0:0:0:
192,192,126670,1,0,0:0:0:0:
320,192,126757,1,0,0:0:0:0:
64,192,126844,1,0,0:0:0:0:
448,192,126844,1,0,0:0:0:0:
192,192,126902,1,0,0:0:0:0:
320,192,126961,1,0,0:0:0:0:
192,192,127019,1,0,0:0:0:0:
64,192,127048,1,0,0:0:0:0:
320,192,127106,1,0,0:0:0:0:
448,192,127106,1,0,0:0:0:0:
64,192,127193,1,0,0:0:0:0:
320,192,127309,1,0,0:0:0:0:
448,192,127338,1,0,0:0:0:0:
192,192,127368,1,0,0:0:0:0:
64,192,127368,1,0,0:0:0:0:
320,192,127426,1,0,0:0:0:0:
192,192,127484,1,0,0:0:0:0:
320,192,127542,1,0,0:0:0:0:
64,192,127586,1,0,0:0:0:0:
192,192,127629,1,0,0:0:0:0:
448,192,127673,1,0,0:0:0:0:
64,192,127716,1,0,0:0:0:0:
320,192,127716,1,0,0:0:0:0:
192,192,127804,1,0,0:0:0:0:
448,192,127891,1,0,0:0:0:0:
320,192,127891,1,0,0:0:0:0:
64,192,127978,128,0,128022:0:0:0:0:
192,192,128022,128,0,128065:0:0:0:0:
320,192,128065,1,0,0:0:0:0:
448,192,128123,1,0,0:0:0:0:
192,192,128181,1,0,0:0:0:0:
64,192,128240,128,0,128298:0:0:0:0:
448,192,128298,128,0,128356:0:0:0:0:
320,192,128356,1,0,0:0:0:0:
192,192,128414,1,0,0:0:0:0:
64,192,128414,1,0,0:0:0:0:
320,192,128588,1,0,0:0:0:0:
448,192,128676,1,0,0:0:0:0:
192,192,128763,1,0,0:0:0:0:
64,192,128763,1,0,0:0:0:0:
320,192,128850,1,0,0:0:0:0:
192,192,128937,1,0,0:0:0:0:
320,192,129024,1,0,0:0:0:0:
448,192,129112,1,0,0:0:0:0:
64,192,129112,128,0,129199:0:0:0:0:
320,192,129199,128,0,129373:0:0:0:0:
192,192,129286,1,0,0:0:0:0:
64,192,129373,128,0,129461:0:0:0:0:
320,192,129461,128,0,129635:0:0:0:0:
192,192,129548,1,0,0:0:0:0:
64,192,129635,1,0,0:0:0:0:
448,192,129635,128,0,129722:0:0:0:0:
192,192,129722,128,0,129897:0:0:0:0:
320,192,129809,1,0,0:0:0:0:
448,192,129897,128,0,129984:0:0:0:0:
192,192,129984,128,0,130158:0:0:0:0:
64,192,130071,1,0,0:0:0:0:
320,192,130158,1,0,0:0:0:0:
448,192,130158,1,0,0:0:0:0:
64,192,130245,1,0,0:0:0:0:
320,192,130333,1,0,0:0:0:0:
192,192,130391,1,0,0:0:0:0:
320,192,130449,1,0,0:0:0:0:
448,192,130507,1,0,0:0:0:0:
64,192,130507,1,0,0:0:0:0:
192,192,130623,1,0,0:0:0:0:
64,192,130652,1,0,0:0:0:0:
448,192,130681,128,0,130827:0:0:0:0:
320,192,130711,128,0,130798:0:0:0:0:
320,192,130856,1,0,0:0:0:0:
448,192,130885,1,0,0:0:0:0:
64,192,130914,128,0,131147:0:0:0:0:
192,192,130943,128,0,131147:0:0:0:0:
64,192,131205,1,0,0:0:0:0:
192,192,131205,1,0,0:0:0:0:
320,192,131379,128,0,131437:0:0:0:0:
192,192,131408,128,0,131495:0:0:0:0:
64,192,131437,128,0,131554:0:0:0:0:
320,192,131554,1,0,0:0:0:0:
448,192,131554,1,0,0:0:0:0:
64,192,131641,1,0,0:0:0:0:
320,192,131728,1,0,0:0:0:0:
320,192,131815,1,0,0:0:0:0:
64,192,131902,1,0,0:0:0:0:
448,192,131902,1,0,0:0:0:0:
192,192,132077,1,0,0:0:0:0:
320,192,132164,1,0,0:0:0:0:
448,192,132164,1,0,0:0:0:0:
320,192,132251,1,0,0:0:0:0:
448,192,132251,1,0,0:0:0:0:
64,192,132338,1,0,0:0:0:0:
192,192,132338,1,0,0:0:0:0:
448,192,132426,1,0,0:0:0:0:
64,192,132426,1,0,0:0:0:0:
320,192,132513,1,0,0:0:0:0:
192,192,132600,1,0,0:0:0:0:
64,192,132687,1,0,0:0:0:0:
320,192,132774,128,0,132818:0:0:0:0:
320,192,132862,128,0,132905:0:0:0:0:
64,192,132949,1,0,0:0:0:0:
448,192,132949,1,0,0:0:0:0:
192,192,132993,1,0,0:0:0:0:
320,192,133036,1,0,0:0:0:0:
448,192,133080,1,0,0:0:0:0:
64,192,133123,1,0,0:0:0:0:
192,192,133167,1,0,0:0:0:0:
320,192,133211,1,0,0:0:0:0:
448,192,133254,1,0,0:0:0:0:
64,192,133298,1,0,0:0:0:0:
192,192,133327,1,0,0:0:0:0:
320,192,133356,1,0,0:0:0:0:
448,192,133385,1,0,0:0:0:0:
64,192,133414,1,0,0:0:0:0:
192,192,133443,1,0,0:0:0:0:
320,192,133472,1,0,0:0:0:0:
448,192,133501,1,0,0:0:0:0:
192,192,133559,1,0,0:0:0:0:
64,192,133603,1,0,0:0:0:0:
448,192,133647,1,0,0:0:0:0:
320,192,133690,1,0,0:0:0:0:
192,192,133734,1,0,0:0:0:0:
64,192,133777,1,0,0:0:0:0:
448,192,133821,1,0,0:0:0:0:
320,192,133865,1,0,0:0:0:0:
64,192,133908,128,0,133995:0:0:0:0:
320,192,133995,1,0,0:0:0:0:
448,192,133995,1,0,0:0:0:0:
192,192,134170,1,0,0:0:0:0:
320,192,134257,1,0,0:0:0:0:
64,192,134344,1,0,0:0:0:0:
192,192,134344,1,0,0:0:0:0:
320,192,134431,1,0,0:0:0:0:
448,192,134519,1,0,0:0:0:0:
192,192,134562,128,0,134606:0:0:0:0:
320,192,134606,128,0,134649:0:0:0:0:
448,192,134693,1,0,0:0:0:0:
64,192,134693,1,0,0:0:0:0:
320,192,134780,1,0,0:0:0:0:
192,192,134868,128,0,134911:0:0:0:0:
320,192,134955,128,0,134998:0:0:0:0:
192,192,135042,128,0,135086:0:0:0:0:
320,192,135129,1,0,0:0:0:0:
192,192,135173,128,0,135216:0:0:0:0:
64,192,135216,1,0,0:0:0:0:
448,192,135216,1,0,0:0:0:0:
320,192,135391,128,0,135434:0:0:0:0:
192,192,135478,128,0,135522:0:0:0:0:
64,192,135565,1,0,0:0:0:0:
448,192,135565,1,0,0:0:0:0:
320,192,135652,128,0,135696:0:0:0:0:
192,192,135740,1,0,0:0:0:0:
64,192,135740,1,0,0:0:0:0:
448,192,135783,1,0,0:0:0:0:
320,192,135827,1,0,0:0:0:0:
192,192,135914,128,0,135958:0:0:0:0:
320,192,136001,128,0,136045:0:0:0:0:
64,192,136088,1,0,0:0:0:0:
448,192,136088,1,0,0:0:0:0:
320,192,136132,1,0,0:0:0:0:
192,192,136176,1,0,0:0:0:0:
64,192,136219,1,0,0:0:0:0:
448,192,136263,1,0,0:0:0:0:
320,192,136306,1,0,0:0:0:0:
192,192,136350,1,0,0:0:0:0:
64,192,136394,1,0,0:0:0:0:
448,192,136437,1,0,0:0:0:0:
320,192,136481,1,0,0:0:0:0:
192,192,136524,1,0,0:0:0:0:
64,192,136568,1,0,0:0:0:0:
448,192,136612,1,0,0:0:0:0:
320,192,136655,1,0,0:0:0:0:
192,192,136699,1,0,0:0:0:0:
64,192,136743,1,0,0:0:0:0:
320,192,136786,1,0,0:0:0:0:
448,192,136786,1,0,0:0:0:0:
192,192,136961,128,0,137019:0:0:0:0:
320,192,136990,128,0,137077:0:0:0:0:
448,192,137019,128,0,137135:0:0:0:0:
192,192,137135,1,0,0:0:0:0:
64,192,137135,1,0,0:0:0:0:
448,192,137179,1,0,0:0:0:0:
320,192,137222,1,0,0:0:0:0:
64,192,137309,1,0,0:0:0:0:
192,192,137397,1,0,0:0:0:0:
320,192,137440,1,0,0:0:0:0:
448,192,137484,1,0,0:0:0:0:
64,192,137484,1,0,0:0:0:0:
192,192,137658,1,0,0:0:0:0:
64,192,137658,1,0,0:0:0:0:
448,192,137702,1,0,0:0:0:0:
320,192,137745,1,0,0:0:0:0:
192,192,137745,1,0,0:0:0:0:
64,192,137833,1,0,0:0:0:0:
320,192,137920,1,0,0:0:0:0:
448,192,138007,1,0,0:0:0:0:
64,192,138007,1,0,0:0:0:0:
192,192,138181,1,0,0:0:0:0:
64,192,138181,1,0,0:0:0:0:
448,192,138225,1,0,0:0:0:0:
320,192,138269,1,0,0:0:0:0:
192,192,138269,1,0,0:0:0:0:
448,192,138356,1,0,0:0:0:0:
64,192,138356,1,0,0:0:0:0:
192,192,138530,1,0,0:0:0:0:
64,192,138530,1,0,0:0:0:0:
448,192,138574,1,0,0:0:0:0:
320,192,138618,1,0,0:0:0:0:
64,192,138705,1,0,0:0:0:0:
320,192,138792,1,0,0:0:0:0:
448,192,138879,1,0,0:0:0:0:
192,192,138879,1,0,0:0:0:0:
64,192,138923,1,0,0:0:0:0:
320,192,138966,1,0,0:0:0:0:
192,192,139010,1,0,0:0:0:0:
64,192,139054,1,0,0:0:0:0:
320,192,139141,1,0,0:0:0:0:
448,192,139184,1,0,0:0:0:0:
192,192,139228,1,0,0:0:0:0:
320,192,139272,1,0,0:0:0:0:
448,192,139315,1,0,0:0:0:0:
64,192,139402,1,0,0:0:0:0:
448,192,139490,1,0,0:0:0:0:
192,192,139577,1,0,0:0:0:0:
64,192,139577,1,0,0:0:0:0:
192,192,139751,1,0,0:0:0:0:
320,192,139838,1,0,0:0:0:0:
64,192,139926,1,0,0:0:0:0:
192,192,139926,1,0,0:0:0:0:
320,192,140013,1,0,0:0:0:0:
448,192,140100,1,0,0:0:0:0:
192,192,140144,128,0,140187:0:0:0:0:
320,192,140187,128,0,140231:0:0:0:0:
448,192,140274,1,0,0:0:0:0:
64,192,140274,1,0,0:0:0:0:
320,192,140362,1,0,0:0:0:0:
192,192,140449,128,0,140493:0:0:0:0:
320,192,140536,128,0,140580:0:0:0:0:
192,192,140623,128,0,140667:0:0:0:0:
320,192,140711,1,0,0:0:0:0:
192,192,140754,128,0,140798:0:0:0:0:
64,192,140798,1,0,0:0:0:0:
448,192,140798,1,0,0:0:0:0:
320,192,140972,128,0,141016:0:0:0:0:
192,192,141059,128,0,141103:0:0:0:0:
64,192,141147,1,0,0:0:0:0:
448,192,141147,1,0,0:0:0:0:
320,192,141234,128,0,141277:0:0:0:0:
192,192,141321,1,0,0:0:0:0:
64,192,141321,1,0,0:0:0:0:
448,192,141365,1,0,0:0:0:0:
320,192,141408,1,0,0:0:0:0:
192,192,141495,128,0,141539:0:0:0:0:
320,192,141583,128,0,141626:0:0:0:0:
64,192,141670,1,0,0:0:0:0:
448,192,141670,1,0,0:0:0:0:
320,192,141713,1,0,0:0:0:0:
192,192,141757,1,0,0:0:0:0:
64,192,141801,1,0,0:0:0:0:
448,192,141844,1,0,0:0:0:0:
320,192,141888,1,0,0:0:0:0:
192,192,141931,1,0,0:0:0:0:
64,192,141975,1,0,0:0:0:0:
448,192,142019,1,0,0:0:0:0:
320,192,142062,1,0,0:0:0:0:
192,192,142106,1,0,0:0:0:0:
64,192,142149,1,0,0:0:0:0:
448,192,142193,1,0,0:0:0:0:
320,192,142237,1,0,0:0:0:0:
192,192,142280,1,0,0:0:0:0:
64,192,142324,1,0,0:0:0:0:
320,192,142368,1,0,0:0:0:0:
448,192,142368,1,0,0:0:0:0:
192,192,142426,1,0,0:0:0:0:
64,192,142484,1,0,0:0:0:0:
448,192,142542,128,0,142600:0:0:0:0:
320,192,142571,128,0,142658:0:0:0:0:
192,192,142600,128,0,142716:0:0:0:0:
448,192,142716,1,0,0:0:0:0:
64,192,142716,1,0,0:0:0:0:
320,192,142774,1,0,0:0:0:0:
192,192,142833,1,0,0:0:0:0:
448,192,142891,1,0,0:0:0:0:
320,192,142949,1,0,0:0:0:0:
192,192,143007,1,0,0:0:0:0:
64,192,143065,1,0,0:0:0:0:
448,192,143065,1,0,0:0:0:0:
320,192,143109,1,0,0:0:0:0:
192,192,143152,1,0,0:0:0:0:
64,192,143196,1,0,0:0:0:0:
448,192,143240,1,0,0:0:0:0:
320,192,143283,1,0,0:0:0:0:
192,192,143327,1,0,0:0:0:0:
64,192,143327,1,0,0:0:0:0:
448,192,143414,1,0,0:0:0:0:
192,192,143472,1,0,0:0:0:0:
320,192,143530,1,0,0:0:0:0:
64,192,143588,1,0,0:0:0:0:
448,192,143588,1,0,0:0:0:0:
192,192,143632,1,0,0:0:0:0:
320,192,143676,1,0,0:0:0:0:
448,192,143719,1,0,0:0:0:0:
64,192,143763,1,0,0:0:0:0:
192,192,143806,1,0,0:0:0:0:
320,192,143850,1,0,0:0:0:0:
448,192,143850,1,0,0:0:0:0:
64,192,143937,1,0,0:0:0:0:
448,192,143937,1,0,0:0:0:0:
192,192,143995,1,0,0:0:0:0:
320,192,144054,1,0,0:0:0:0:
64,192,144112,1,0,0:0:0:0:
192,192,144112,1,0,0:0:0:0:
448,192,144170,1,0,0:0:0:0:
320,192,144228,1,0,0:0:0:0:
64,192,144286,1,0,0:0:0:0:
320,192,144330,1,0,0:0:0:0:
192,192,144373,1,0,0:0:0:0:
320,192,144461,1,0,0:0:0:0:
64,192,144461,1,0,0:0:0:0:
448,192,144504,1,0,0:0:0:0:
192,192,144548,1,0,0:0:0:0:
320,192,144591,1,0,0:0:0:0:
64,192,144635,1,0,0:0:0:0:
192,192,144722,1,0,0:0:0:0:
448,192,144722,1,0,0:0:0:0:
64,192,144766,1,0,0:0:0:0:
320,192,144809,1,0,0:0:0:0:
192,192,144853,1,0,0:0:0:0:
448,192,144897,1,0,0:0:0:0:
64,192,144984,1,0,0:0:0:0:
192,192,145027,1,0,0:0:0:0:
320,192,145071,1,0,0:0:0:0:
448,192,145115,1,0,0:0:0:0:
64,192,145158,1,0,0:0:0:0:
192,192,145158,1,0,0:0:0:0:
320,192,145333,1,0,0:0:0:0:
448,192,145420,1,0,0:0:0:0:
64,192,145507,1,0,0:0:0:0:
192,192,145507,1,0,0:0:0:0:
320,192,145594,1,0,0:0:0:0:
448,192,145681,1,0,0:0:0:0:
192,192,145725,128,0,145769:0:0:0:0:
320,192,145769,128,0,145812:0:0:0:0:
448,192,145856,1,0,0:0:0:0:
64,192,145856,1,0,0:0:0:0:
320,192,145943,1,0,0:0:0:0:
192,192,146030,128,0,146074:0:0:0:0:
320,192,146118,128,0,146161:0:0:0:0:
192,192,146205,128,0,146248:0:0:0:0:
320,192,146292,1,0,0:0:0:0:
192,192,146336,128,0,146379:0:0:0:0:
64,192,146379,1,0,0:0:0:0:
448,192,146379,1,0,0:0:0:0:
320,192,146554,128,0,146597:0:0:0:0:
192,192,146641,128,0,146684:0:0:0:0:
64,192,146728,1,0,0:0:0:0:
448,192,146728,1,0,0:0:0:0:
320,192,146815,128,0,146859:0:0:0:0:
192,192,146902,1,0,0:0:0:0:
64,192,146902,1,0,0:0:0:0:
448,192,146946,1,0,0:0:0:0:
320,192,146990,1,0,0:0:0:0:
192,192,147077,128,0,147120:0:0:0:0:
320,192,147164,128,0,147208:0:0:0:0:
64,192,147251,1,0,0:0:0:0:
448,192,147251,1,0,0:0:0:0:
320,192,147295,1,0,0:0:0:0:
192,192,147338,1,0,0:0:0:0:
64,192,147382,1,0,0:0:0:0:
320,192,147426,1,0,0:0:0:0:
192,192,147469,1,0,0:0:0:0:
448,192,147513,1,0,0:0:0:0:
320,192,147556,1,0,0:0:0:0:
192,192,147600,1,0,0:0:0:0:
64,192,147644,1,0,0:0:0:0:
320,192,147687,1,0,0:0:0:0:
192,192,147731,1,0,0:0:0:0:
448,192,147774,1,0,0:0:0:0:
320,192,147818,1,0,0:0:0:0:
192,192,147862,1,0,0:0:0:0:
64,192,147905,1,0,0:0:0:0:
320,192,147949,1,0,0:0:0:0:
448,192,147949,1,0,0:0:0:0:
192,192,148123,128,0,148181:0:0:0:0:
320,192,148152,128,0,148240:0:0:0:0:
448,192,148181,128,0,148298:0:0:0:0:
192,192,148298,1,0,0:0:0:0:
64,192,148298,1,0,0:0:0:0:
448,192,148341,1,0,0:0:0:0:
320,192,148385,1,0,0:0:0:0:
64,192,148472,1,0,0:0:0:0:
192,192,148559,1,0,0:0:0:0:
320,192,148603,1,0,0:0:0:0:
448,192,148647,1,0,0:0:0:0:
64,192,148647,1,0,0:0:0:0:
192,192,148821,1,0,0:0:0:0:
64,192,148821,1,0,0:0:0:0:
448,192,148865,1,0,0:0:0:0:
320,192,148908,1,0,0:0:0:0:
192,192,148908,1,0,0:0:0:0:
64,192,148995,1,0,0:0:0:0:
320,192,149083,1,0,0:0:0:0:
448,192,149170,1,0,0:0:0:0:
64,192,149170,1,0,0:0:0:0:
192,192,149344,1,0,0:0:0:0:
64,192,149344,1,0,0:0:0:0:
448,192,149388,1,0,0:0:0:0:
320,192,149431,1,0,0:0:0:0:
192,192,149431,1,0,0:0:0:0:
448,192,149519,1,0,0:0:0:0:
64,192,149519,1,0,0:0:0:0:
192,192,149693,1,0,0:0:0:0:
64,192,149693,1,0,0:0:0:0:
448,192,149737,1,0,0:0:0:0:
320,192,149780,1,0,0:0:0:0:
64,192,149868,1,0,0:0:0:0:
320,192,149955,1,0,0:0:0:0:
448,192,150042,1,0,0:0:0:0:
192,192,150042,1,0,0:0:0:0:
64,192,150086,1,0,0:0:0:0:
320,192,150129,1,0,0:0:0:0:
192,192,150173,1,0,0:0:0:0:
64,192,150216,1,0,0:0:0:0:
320,192,150304,1,0,0:0:0:0:
448,192,150347,1,0,0:0:0:0:
192,192,150391,1,0,0:0:0:0:
320,192,150434,1,0,0:0:0:0:
448,192,150478,1,0,0:0:0:0:
64,192,150565,1,0,0:0:0:0:
448,192,150652,1,0,0:0:0:0:
192,192,150740,1,0,0:0:0:0:
64,192,150740,1,0,0:0:0:0:
192,192,150914,1,0,0:0:0:0:
320,192,151001,1,0,0:0:0:0:
64,192,151088,1,0,0:0:0:0:
192,192,151088,1,0,0:0:0:0:
320,192,151176,1,0,0:0:0:0:
448,192,151263,1,0,0:0:0:0:
192,192,151306,128,0,151350:0:0:0:0:
320,192,151350,128,0,151394:0:0:0:0:
448,192,151437,1,0,0:0:0:0:
64,192,151437,1,0,0:0:0:0:
320,192,151524,1,0,0:0:0:0:
192,192,151612,128,0,151655:0:0:0:0:
320,192,151699,128,0,151743:0:0:0:0:
192,192,151786,128,0,151830:0:0:0:0:
320,192,151873,1,0,0:0:0:0:
192,192,151917,128,0,151961:0:0:0:0:
64,192,151961,1,0,0:0:0:0:
448,192,151961,1,0,0:0:0:0:
320,192,152135,128,0,152179:0:0:0:0:
192,192,152222,128,0,152266:0:0:0:0:
64,192,152309,1,0,0:0:0:0:
448,192,152309,1,0,0:0:0:0:
320,192,152397,128,0,152440:0:0:0:0:
192,192,152484,1,0,0:0:0:0:
64,192,152484,1,0,0:0:0:0:
448,192,152527,1,0,0:0:0:0:
320,192,152571,1,0,0:0:0:0:
192,192,152658,128,0,152702:0:0:0:0:
320,192,152745,128,0,152789:0:0:0:0:
64,192,152833,1,0,0:0:0:0:
448,192,152833,1,0,0:0:0:0:
320,192,152876,1,0,0:0:0:0:
192,192,152920,1,0,0:0:0:0:
64,192,152963,1,0,0:0:0:0:
448,192,153007,1,0,0:0:0:0:
320,192,153051,1,0,0:0:0:0:
192,192,153094,1,0,0:0:0:0:
64,192,153138,1,0,0:0:0:0:
448,192,153181,1,0,0:0:0:0:
320,192,153225,1,0,0:0:0:0:
192,192,153269,1,0,0:0:0:0:
64,192,153312,1,0,0:0:0:0:
448,192,153356,1,0,0:0:0:0:
320,192,153399,1,0,0:0:0:0:
192,192,153443,1,0,0:0:0:0:
64,192,153487,1,0,0:0:0:0:
320,192,153530,1,0,0:0:0:0:
448,192,153530,1,0,0:0:0:0:
192,192,153588,1,0,0:0:0:0:
64,192,153647,1,0,0:0:0:0:
320,192,153705,128,0,153792:0:0:0:0:
192,192,153734,128,0,153792:0:0:0:0:
448,192,153792,1,0,0:0:0:0:
64,192,153792,1,0,0:0:0:0:
64,192,153879,1,0,0:0:0:0:
192,192,153879,1,0,0:0:0:0:
320,192,153937,1,0,0:0:0:0:
192,192,153995,1,0,0:0:0:0:
64,192,154054,1,0,0:0:0:0:
448,192,154054,1,0,0:0:0:0:
320,192,154112,1,0,0:0:0:0:
192,192,154170,1,0,0:0:0:0:
320,192,154228,1,0,0:0:0:0:
192,192,154272,1,0,0:0:0:0:
448,192,154315,1,0,0:0:0:0:
64,192,154315,1,0,0:0:0:0:
320,192,154402,1,0,0:0:0:0:
448,192,154402,1,0,0:0:0:0:
64,192,154446,1,0,0:0:0:0:
192,192,154490,1,0,0:0:0:0:
320,192,154533,1,0,0:0:0:0:
64,192,154577,1,0,0:0:0:0:
448,192,154577,1,0,0:0:0:0:
192,192,154620,1,0,0:0:0:0:
320,192,154664,1,0,0:0:0:0:
448,192,154708,1,0,0:0:0:0:
192,192,154751,1,0,0:0:0:0:
64,192,154751,1,0,0:0:0:0:
448,192,154838,1,0,0:0:0:0:
64,192,154838,1,0,0:0:0:0:
192,192,154926,1,0,0:0:0:0:
320,192,154926,1,0,0:0:0:0:
64,192,155013,1,0,0:0:0:0:
320,192,155100,1,0,0:0:0:0:
448,192,155100,1,0,0:0:0:0:
448,192,155187,1,0,0:0:0:0:
64,192,155187,1,0,0:0:0:0:
320,192,155274,1,0,0:0:0:0:
192,192,155274,1,0,0:0:0:0:
448,192,155362,1,0,0:0:0:0:
192,192,155449,1,0,0:0:0:0:
64,192,155449,1,0,0:0:0:0:
64,192,155536,1,0,0:0:0:0:
448,192,155536,1,0,0:0:0:0:
320,192,155623,128,0,155754:0:0:0:0:
448,192,155711,128,0,155798:0:0:0:0:
64,192,155798,1,0,0:0:0:0:
192,192,155885,128,0,156059:0:0:0:0:
448,192,156059,1,0,0:0:0:0:
64,192,156147,128,0,156263:0:0:0:0:
192,192,156176,128,0,156263:0:0:0:0:
64,192,156321,5,0,0:0:0:0:
192,192,156321,1,0,0:0:0:0:
448,192,156495,1,0,0:0:0:0:
320,192,156583,1,0,0:0:0:0:
64,192,156670,1,0,0:0:0:0:
192,192,156713,1,0,0:0:0:0:
320,192,156757,1,0,0:0:0:0:
64,192,156801,1,0,0:0:0:0:
192,192,156844,1,0,0:0:0:0:
320,192,156902,1,0,0:0:0:0:
192,192,156961,1,0,0:0:0:0:
64,192,157019,1,0,0:0:0:0:
448,192,157019,1,0,0:0:0:0:
320,192,157077,1,0,0:0:0:0:
192,192,157135,1,0,0:0:0:0:
64,192,157193,1,0,0:0:0:0:
320,192,157251,1,0,0:0:0:0:
192,192,157309,1,0,0:0:0:0:
448,192,157368,1,0,0:0:0:0:
320,192,157426,1,0,0:0:0:0:
192,192,157484,1,0,0:0:0:0:
448,192,157542,1,0,0:0:0:0:
64,192,157542,1,0,0:0:0:0:
320,192,157586,1,0,0:0:0:0:
192,192,157629,1,0,0:0:0:0:
64,192,157673,1,0,0:0:0:0:
320,192,157716,1,0,0:0:0:0:
448,192,157760,1,0,0:0:0:0:
64,192,157804,1,0,0:0:0:0:
320,192,157847,1,0,0:0:0:0:
448,192,157891,1,0,0:0:0:0:
64,192,157934,1,0,0:0:0:0:
320,192,157978,1,0,0:0:0:0:
448,192,158022,1,0,0:0:0:0:
64,192,158065,1,0,0:0:0:0:
192,192,158065,1,0,0:0:0:0:
320,192,158109,1,0,0:0:0:0:
448,192,158152,1,0,0:0:0:0:
192,192,158196,1,0,0:0:0:0:
320,192,158240,1,0,0:0:0:0:
64,192,158283,1,0,0:0:0:0:
192,192,158327,1,0,0:0:0:0:
320,192,158370,1,0,0:0:0:0:
64,192,158414,1,0,0:0:0:0:
448,192,158414,1,0,0:0:0:0:
192,192,158458,1,0,0:0:0:0:
320,192,158501,1,0,0:0:0:0:
448,192,158545,1,0,0:0:0:0:
64,192,158588,1,0,0:0:0:0:
320,192,158647,1,0,0:0:0:0:
192,192,158705,1,0,0:0:0:0:
448,192,158763,1,0,0:0:0:0:
192,192,158821,1,0,0:0:0:0:
320,192,158879,1,0,0:0:0:0:
64,192,158937,1,0,0:0:0:0:
448,192,158995,1,0,0:0:0:0:
320,192,159024,1,0,0:0:0:0:
192,192,159054,1,0,0:0:0:0:
64,192,159083,1,0,0:0:0:0:
320,192,159112,1,0,0:0:0:0:
448,192,159112,1,0,0:0:0:0:
320,192,159286,128,0,159344:0:0:0:0:
192,192,159315,128,0,159402:0:0:0:0:
64,192,159344,128,0,159461:0:0:0:0:
320,192,159461,1,0,0:0:0:0:
448,192,159461,1,0,0:0:0:0:
64,192,159548,1,0,0:0:0:0:
192,192,159577,1,0,0:0:0:0:
320,192,159606,1,0,0:0:0:0:
448,192,159635,1,0,0:0:0:0:
192,192,159722,1,0,0:0:0:0:
448,192,159809,1,0,0:0:0:0:
320,192,159838,1,0,0:0:0:0:
192,192,159868,1,0,0:0:0:0:
64,192,159897,1,0,0:0:0:0:
320,192,159984,1,0,0:0:0:0:
448,192,159984,1,0,0:0:0:0:
192,192,160071,1,0,0:0:0:0:
64,192,160071,1,0,0:0:0:0:
64,192,160158,1,0,0:0:0:0:
448,192,160158,1,0,0:0:0:0:
192,192,160245,1,0,0:0:0:0:
320,192,160274,1,0,0:0:0:0:
448,192,160304,1,0,0:0:0:0:
64,192,160333,1,0,0:0:0:0:
320,192,160420,1,0,0:0:0:0:
192,192,160507,1,0,0:0:0:0:
64,192,160507,1,0,0:0:0:0:
192,192,160594,1,0,0:0:0:0:
320,192,160681,1,0,0:0:0:0:
448,192,160681,1,0,0:0:0:0:
192,192,160769,1,0,0:0:0:0:
448,192,160856,1,0,0:0:0:0:
64,192,160856,1,0,0:0:0:0:
320,192,160943,1,0,0:0:0:0:
192,192,160972,1,0,0:0:0:0:
64,192,161001,1,0,0:0:0:0:
448,192,161030,1,0,0:0:0:0:
192,192,161118,1,0,0:0:0:0:
64,192,161205,1,0,0:0:0:0:
448,192,161205,1,0,0:0:0:0:
64,192,161292,1,0,0:0:0:0:
448,192,161379,1,0,0:0:0:0:
64,192,161466,128,0,161554:0:0:0:0:
320,192,161466,128,0,161554:0:0:0:0:
192,192,161466,128,0,161554:0:0:0:0:
448,192,161641,1,0,0:0:0:0:
192,192,161728,1,0,0:0:0:0:
320,192,161815,1,0,0:0:0:0:
64,192,161902,1,0,0:0:0:0:
192,192,161902,1,0,0:0:0:0:
448,192,162077,1,0,0:0:0:0:
320,192,162164,1,0,0:0:0:0:
64,192,162251,1,0,0:0:0:0:
192,192,162295,1,0,0:0:0:0:
320,192,162338,1,0,0:0:0:0:
64,192,162382,1,0,0:0:0:0:
192,192,162426,1,0,0:0:0:0:
320,192,162484,1,0,0:0:0:0:
192,192,162542,1,0,0:0:0:0:
448,192,162600,1,0,0:0:0:0:
64,192,162600,128,0,162687:0:0:0:0:
320,192,162687,128,0,162862:0:0:0:0:
192,192,162774,1,0,0:0:0:0:
64,192,162862,128,0,162949:0:0:0:0:
320,192,162949,128,0,163123:0:0:0:0:
192,192,163036,1,0,0:0:0:0:
64,192,163123,1,0,0:0:0:0:
448,192,163123,128,0,163211:0:0:0:0:
192,192,163211,128,0,163385:0:0:0:0:
320,192,163298,1,0,0:0:0:0:
448,192,163385,128,0,163472:0:0:0:0:
192,192,163472,128,0,163647:0:0:0:0:
64,192,163559,1,0,0:0:0:0:
320,192,163647,1,0,0:0:0:0:
448,192,163647,1,0,0:0:0:0:
192,192,163734,1,0,0:0:0:0:
64,192,163821,128,0,163908:0:0:0:0:
320,192,163908,1,0,0:0:0:0:
192,192,163937,128,0,163995:0:0:0:0:
448,192,163995,1,0,0:0:0:0:
64,192,163995,1,0,0:0:0:0:
320,192,164083,1,0,0:0:0:0:
192,192,164112,128,0,164170:0:0:0:0:
448,192,164170,1,0,0:0:0:0:
320,192,164257,1,0,0:0:0:0:
192,192,164286,128,0,164344:0:0:0:0:
448,192,164344,128,0,164577:0:0:0:0:
320,192,164431,128,0,164606:0:0:0:0:
64,192,164475,1,0,0:0:0:0:
192,192,164519,1,0,0:0:0:0:
192,192,164635,1,0,0:0:0:0:
64,192,164664,1,0,0:0:0:0:
448,192,164693,1,0,0:0:0:0:
320,192,164693,1,0,0:0:0:0:
320,192,164868,128,0,164926:0:0:0:0:
192,192,164897,128,0,164984:0:0:0:0:
64,192,164926,128,0,165042:0:0:0:0:
320,192,165042,1,0,0:0:0:0:
448,192,165042,1,0,0:0:0:0:
64,192,165129,1,0,0:0:0:0:
192,192,165158,1,0,0:0:0:0:
320,192,165187,1,0,0:0:0:0:
448,192,165216,1,0,0:0:0:0:
192,192,165304,1,0,0:0:0:0:
448,192,165391,1,0,0:0:0:0:
64,192,165391,1,0,0:0:0:0:
448,192,165478,1,0,0:0:0:0:
192,192,165565,1,0,0:0:0:0:
448,192,165652,1,0,0:0:0:0:
320,192,165652,1,0,0:0:0:0:
64,192,165740,1,0,0:0:0:0:
448,192,165827,1,0,0:0:0:0:
320,192,165870,1,0,0:0:0:0:
192,192,165914,1,0,0:0:0:0:
64,192,165958,1,0,0:0:0:0:
320,192,166001,1,0,0:0:0:0:
192,192,166088,1,0,0:0:0:0:
448,192,166088,1,0,0:0:0:0:
192,192,166176,1,0,0:0:0:0:
320,192,166263,1,0,0:0:0:0:
64,192,166350,1,0,0:0:0:0:
448,192,166350,1,0,0:0:0:0:
320,192,166437,1,0,0:0:0:0:
448,192,166437,1,0,0:0:0:0:
64,192,166524,1,0,0:0:0:0:
192,192,166554,1,0,0:0:0:0:
320,192,166583,1,0,0:0:0:0:
448,192,166612,1,0,0:0:0:0:
192,192,166699,1,0,0:0:0:0:
64,192,166786,1,0,0:0:0:0:
320,192,166786,1,0,0:0:0:0:
320,192,166873,1,0,0:0:0:0:
64,192,166961,1,0,0:0:0:0:
192,192,167048,1,0,0:0:0:0:
448,192,167048,1,0,0:0:0:0:
320,192,167135,1,0,0:0:0:0:
192,192,167164,1,0,0:0:0:0:
64,192,167193,1,0,0:0:0:0:
448,192,167222,1,0,0:0:0:0:
320,192,167309,1,0,0:0:0:0:
192,192,167397,1,0,0:0:0:0:
64,192,167484,1,0,0:0:0:0:
192,192,167484,1,0,0:0:0:0:
320,192,167658,1,0,0:0:0:0:
448,192,167745,1,0,0:0:0:0:
64,192,167833,1,0,0:0:0:0:
192,192,167876,1,0,0:0:0:0:
320,192,167920,1,0,0:0:0:0:
64,192,167963,1,0,0:0:0:0:
192,192,168007,1,0,0:0:0:0:
320,192,168065,1,0,0:0:0:0:
192,192,168123,1,0,0:0:0:0:
64,192,168181,1,0,0:0:0:0:
448,192,168181,1,0,0:0:0:0:
320,192,168240,1,0,0:0:0:0:
192,192,168298,1,0,0:0:0:0:
64,192,168356,1,0,0:0:0:0:
320,192,168414,1,0,0:0:0:0:
192,192,168472,1,0,0:0:0:0:
448,192,168530,1,0,0:0:0:0:
64,192,168530,1,0,0:0:0:0:
320,192,168588,1,0,0:0:0:0:
192,192,168647,1,0,0:0:0:0:
448,192,168705,1,0,0:0:0:0:
64,192,168748,1,0,0:0:0:0:
192,192,168792,1,0,0:0:0:0:
320,192,168836,1,0,0:0:0:0:
448,192,168879,1,0,0:0:0:0:
64,192,168879,1,0,0:0:0:0:
192,192,168966,1,0,0:0:0:0:
64,192,168966,1,0,0:0:0:0:
320,192,169010,1,0,0:0:0:0:
448,192,169054,1,0,0:0:0:0:
64,192,169097,1,0,0:0:0:0:
192,192,169141,1,0,0:0:0:0:
320,192,169184,1,0,0:0:0:0:
64,192,169228,1,0,0:0:0:0:
448,192,169228,1,0,0:0:0:0:
192,192,169272,1,0,0:0:0:0:
320,192,169315,1,0,0:0:0:0:
448,192,169359,1,0,0:0:0:0:
192,192,169402,1,0,0:0:0:0:
64,192,169446,1,0,0:0:0:0:
320,192,169490,1,0,0:0:0:0:
448,192,169490,1,0,0:0:0:0:
64,192,169577,1,0,0:0:0:0:
448,192,169577,1,0,0:0:0:0:
192,192,169620,1,0,0:0:0:0:
320,192,169664,1,0,0:0:0:0:
64,192,169708,1,0,0:0:0:0:
192,192,169751,1,0,0:0:0:0:
320,192,169751,1,0,0:0:0:0:
448,192,169795,1,0,0:0:0:0:
192,192,169838,1,0,0:0:0:0:
320,192,169882,1,0,0:0:0:0:
448,192,169926,1,0,0:0:0:0:
64,192,169926,1,0,0:0:0:0:
320,192,170013,1,0,0:0:0:0:
448,192,170013,1,0,0:0:0:0:
192,192,170056,1,0,0:0:0:0:
64,192,170100,1,0,0:0:0:0:
320,192,170144,128,0,170187:0:0:0:0:
192,192,170187,128,0,170274:0:0:0:0:
64,192,170231,128,0,170274:0:0:0:0:
448,192,170274,1,0,0:0:0:0:
320,192,170274,1,0,0:0:0:0:
320,192,170449,128,0,170507:0:0:0:0:
192,192,170478,128,0,170565:0:0:0:0:
64,192,170507,128,0,170623:0:0:0:0:
320,192,170623,1,0,0:0:0:0:
448,192,170623,1,0,0:0:0:0:
64,192,170711,1,0,0:0:0:0:
192,192,170740,1,0,0:0:0:0:
320,192,170769,1,0,0:0:0:0:
448,192,170798,1,0,0:0:0:0:
192,192,170885,1,0,0:0:0:0:
448,192,170972,1,0,0:0:0:0:
64,192,170972,1,0,0:0:0:0:
448,192,171059,1,0,0:0:0:0:
192,192,171147,1,0,0:0:0:0:
448,192,171234,1,0,0:0:0:0:
320,192,171234,1,0,0:0:0:0:
64,192,171321,1,0,0:0:0:0:
448,192,171408,1,0,0:0:0:0:
320,192,171452,1,0,0:0:0:0:
192,192,171495,1,0,0:0:0:0:
64,192,171539,1,0,0:0:0:0:
320,192,171583,1,0,0:0:0:0:
192,192,171670,1,0,0:0:0:0:
448,192,171670,1,0,0:0:0:0:
192,192,171757,1,0,0:0:0:0:
320,192,171801,128,0,171931:0:0:0:0:
448,192,171844,128,0,171931:0:0:0:0:
192,192,171888,128,0,172019:0:0:0:0:
64,192,171931,128,0,172019:0:0:0:0:
320,192,172019,1,0,0:0:0:0:
448,192,172019,1,0,0:0:0:0:
64,192,172106,1,0,0:0:0:0:
192,192,172135,1,0,0:0:0:0:
320,192,172164,1,0,0:0:0:0:
448,192,172193,1,0,0:0:0:0:
192,192,172280,1,0,0:0:0:0:
64,192,172368,1,0,0:0:0:0:
320,192,172368,1,0,0:0:0:0:
64,192,172455,1,0,0:0:0:0:
448,192,172542,1,0,0:0:0:0:
64,192,172629,128,0,172716:0:0:0:0:
320,192,172629,128,0,172716:0:0:0:0:
192,192,172629,128,0,172716:0:0:0:0:
448,192,172804,1,0,0:0:0:0:
192,192,172891,1,0,0:0:0:0:
320,192,172978,1,0,0:0:0:0:
64,192,173065,1,0,0:0:0:0:
192,192,173065,1,0,0:0:0:0:
320,192,173240,1,0,0:0:0:0:
448,192,173327,1,0,0:0:0:0:
64,192,173414,1,0,0:0:0:0:
192,192,173458,1,0,0:0:0:0:
320,192,173501,1,0,0:0:0:0:
64,192,173545,1,0,0:0:0:0:
192,192,173588,1,0,0:0:0:0:
320,192,173647,1,0,0:0:0:0:
192,192,173705,1,0,0:0:0:0:
448,192,173763,1,0,0:0:0:0:
64,192,173763,128,0,173850:0:0:0:0:
320,192,173850,128,0,174024:0:0:0:0:
192,192,173937,1,0,0:0:0:0:
448,192,174024,1,0,0:0:0:0:
64,192,174024,128,0,174112:0:0:0:0:
320,192,174112,128,0,174286:0:0:0:0:
192,192,174199,1,0,0:0:0:0:
64,192,174199,1,0,0:0:0:0:
64,192,174286,1,0,0:0:0:0:
448,192,174286,128,0,174373:0:0:0:0:
192,192,174373,128,0,174548:0:0:0:0:
320,192,174461,1,0,0:0:0:0:
64,192,174548,1,0,0:0:0:0:
448,192,174548,128,0,174635:0:0:0:0:
192,192,174635,128,0,174809:0:0:0:0:
320,192,174722,1,0,0:0:0:0:
448,192,174722,1,0,0:0:0:0:
448,192,174809,1,0,0:0:0:0:
64,192,174809,1,0,0:0:0:0:
320,192,174897,128,0,174984:0:0:0:0:
64,192,174984,128,0,175071:0:0:0:0:
448,192,175071,1,0,0:0:0:0:
320,192,175071,128,0,175158:0:0:0:0:
64,192,175158,128,0,175245:0:0:0:0:
448,192,175245,1,0,0:0:0:0:
320,192,175245,1,0,0:0:0:0:
448,192,175333,1,0,0:0:0:0:
64,192,175333,128,0,175507:0:0:0:0:
192,192,175420,1,0,0:0:0:0:
448,192,175507,128,0,175769:0:0:0:0:
320,192,175594,128,0,175769:0:0:0:0:
192,192,175681,1,0,0:0:0:0:
64,192,175769,128,0,175856:0:0:0:0:
192,192,175812,128,0,175856:0:0:0:0:
448,192,175856,1,0,0:0:0:0:
320,192,175856,1,0,0:0:0:0:
448,192,176030,128,0,176088:0:0:0:0:
320,192,176059,128,0,176147:0:0:0:0:
192,192,176088,128,0,176205:0:0:0:0:
64,192,176205,1,0,0:0:0:0:
448,192,176205,1,0,0:0:0:0:
448,192,176292,1,0,0:0:0:0:
64,192,176379,1,0,0:0:0:0:
320,192,176466,1,0,0:0:0:0:
192,192,176466,1,0,0:0:0:0:
448,192,176554,1,0,0:0:0:0:
320,192,176583,1,0,0:0:0:0:
192,192,176612,1,0,0:0:0:0:
64,192,176641,1,0,0:0:0:0:
320,192,176728,1,0,0:0:0:0:
448,192,176728,1,0,0:0:0:0:
192,192,176815,1,0,0:0:0:0:
448,192,176902,1,0,0:0:0:0:
64,192,176902,1,0,0:0:0:0:
320,192,176990,1,0,0:0:0:0:
192,192,177019,1,0,0:0:0:0:
64,192,177048,1,0,0:0:0:0:
448,192,177077,1,0,0:0:0:0:
192,192,177164,1,0,0:0:0:0:
320,192,177164,1,0,0:0:0:0:
64,192,177251,1,0,0:0:0:0:
192,192,177280,1,0,0:0:0:0:
320,192,177309,1,0,0:0:0:0:
448,192,177338,1,0,0:0:0:0:
192,192,177426,1,0,0:0:0:0:
320,192,177513,1,0,0:0:0:0:
448,192,177600,1,0,0:0:0:0:
64,192,177600,1,0,0:0:0:0:
320,192,177687,1,0,0:0:0:0:
192,192,177731,1,0,0:0:0:0:
64,192,177774,1,0,0:0:0:0:
320,192,177862,1,0,0:0:0:0:
320,192,178647,1,0,0:0:0:0:
448,192,178647,128,0,178734:0:0:0:0:
192,192,178821,1,0,0:0:0:0:
320,192,178908,1,0,0:0:0:0:
192,192,178995,1,0,0:0:0:0:
64,192,178995,1,0,0:0:0:0:
448,192,179083,1,0,0:0:0:0:
192,192,179170,1,0,0:0:0:0:
320,192,179257,1,0,0:0:0:0:
64,192,179344,1,0,0:0:0:0:
448,192,179344,1,0,0:0:0:0:
192,192,179431,1,0,0:0:0:0:
320,192,179519,1,0,0:0:0:0:
64,192,179606,1,0,0:0:0:0:
448,192,179693,1,0,0:0:0:0:
192,192,179780,1,0,0:0:0:0:
448,192,179868,1,0,0:0:0:0:
64,192,179868,1,0,0:0:0:0:
320,192,179955,1,0,0:0:0:0:
64,192,180042,1,0,0:0:0:0:
448,192,180129,1,0,0:0:0:0:
192,192,180216,1,0,0:0:0:0:
320,192,180304,1,0,0:0:0:0:
64,192,180391,1,0,0:0:0:0:
192,192,180391,1,0,0:0:0:0:
448,192,180478,1,0,0:0:0:0:
64,192,180565,1,0,0:0:0:0:
320,192,180652,1,0,0:0:0:0:
192,192,180740,1,0,0:0:0:0:
448,192,180740,1,0,0:0:0:0:
64,192,180827,1,0,0:0:0:0:
320,192,180914,1,0,0:0:0:0:
192,192,181001,1,0,0:0:0:0:
448,192,181088,1,0,0:0:0:0:
64,192,181176,1,0,0:0:0:0:
320,192,181263,1,0,0:0:0:0:
192,192,181350,1,0,0:0:0:0:
448,192,181437,1,0,0:0:0:0:
320,192,181437,128,0,181524:0:0:0:0:
192,192,181612,1,0,0:0:0:0:
320,192,181699,1,0,0:0:0:0:
192,192,181786,1,0,0:0:0:0:
64,192,181786,1,0,0:0:0:0:
448,192,181873,1,0,0:0:0:0:
192,192,181961,1,0,0:0:0:0:
320,192,182048,1,0,0:0:0:0:
64,192,182135,1,0,0:0:0:0:
448,192,182135,1,0,0:0:0:0:
192,192,182222,1,0,0:0:0:0:
320,192,182309,1,0,0:0:0:0:
64,192,182397,1,0,0:0:0:0:
192,192,182397,1,0,0:0:0:0:
448,192,182484,1,0,0:0:0:0:
192,192,182571,1,0,0:0:0:0:
64,192,182658,1,0,0:0:0:0:
448,192,182658,1,0,0:0:0:0:
320,192,182745,1,0,0:0:0:0:
192,192,182833,128,0,182920:0:0:0:0:
448,192,182920,1,0,0:0:0:0:
320,192,182920,1,0,0:0:0:0:
64,192,183007,1,0,0:0:0:0:
320,192,183094,1,0,0:0:0:0:
192,192,183181,1,0,0:0:0:0:
64,192,183181,1,0,0:0:0:0:
448,192,183269,1,0,0:0:0:0:
64,192,183356,1,0,0:0:0:0:
320,192,183443,1,0,0:0:0:0:
192,192,183530,1,0,0:0:0:0:
448,192,183530,1,0,0:0:0:0:
64,192,183618,1,0,0:0:0:0:
320,192,183705,1,0,0:0:0:0:
192,192,183792,1,0,0:0:0:0:
448,192,183879,1,0,0:0:0:0:
64,192,183966,1,0,0:0:0:0:
192,192,184054,1,0,0:0:0:0:
320,192,184141,1,0,0:0:0:0:
192,192,184228,1,0,0:0:0:0:
64,192,184228,128,0,184315:0:0:0:0:
320,192,184402,1,0,0:0:0:0:
448,192,184490,1,0,0:0:0:0:
192,192,184577,1,0,0:0:0:0:
64,192,184577,1,0,0:0:0:0:
448,192,184664,1,0,0:0:0:0:
192,192,184751,1,0,0:0:0:0:
320,192,184838,1,0,0:0:0:0:
64,192,184926,1,0,0:0:0:0:
448,192,184926,1,0,0:0:0:0:
192,192,185013,1,0,0:0:0:0:
320,192,185100,1,0,0:0:0:0:
64,192,185187,1,0,0:0:0:0:
448,192,185274,1,0,0:0:0:0:
192,192,185362,1,0,0:0:0:0:
448,192,185449,1,0,0:0:0:0:
64,192,185449,1,0,0:0:0:0:
320,192,185536,1,0,0:0:0:0:
64,192,185623,1,0,0:0:0:0:
448,192,185711,1,0,0:0:0:0:
192,192,185798,1,0,0:0:0:0:
320,192,185885,1,0,0:0:0:0:
64,192,185972,1,0,0:0:0:0:
192,192,185972,1,0,0:0:0:0:
448,192,186059,1,0,0:0:0:0:
64,192,186147,1,0,0:0:0:0:
320,192,186234,1,0,0:0:0:0:
192,192,186321,1,0,0:0:0:0:
448,192,186321,128,0,186408:0:0:0:0:
64,192,186408,1,0,0:0:0:0:
320,192,186495,1,0,0:0:0:0:
192,192,186583,1,0,0:0:0:0:
448,192,186670,1,0,0:0:0:0:
64,192,186757,1,0,0:0:0:0:
320,192,186844,1,0,0:0:0:0:
192,192,186931,1,0,0:0:0:0:
448,192,187019,1,0,0:0:0:0:
320,192,187019,128,0,187106:0:0:0:0:
192,192,187193,1,0,0:0:0:0:
320,192,187280,1,0,0:0:0:0:
192,192,187368,1,0,0:0:0:0:
64,192,187368,1,0,0:0:0:0:
448,192,187455,1,0,0:0:0:0:
192,192,187542,1,0,0:0:0:0:
320,192,187629,1,0,0:0:0:0:
64,192,187716,1,0,0:0:0:0:
448,192,187716,1,0,0:0:0:0:
192,192,187804,1,0,0:0:0:0:
320,192,187891,1,0,0:0:0:0:
64,192,187978,1,0,0:0:0:0:
192,192,187978,1,0,0:0:0:0:
448,192,188065,1,0,0:0:0:0:
192,192,188152,1,0,0:0:0:0:
64,192,188240,1,0,0:0:0:0:
448,192,188240,1,0,0:0:0:0:
320,192,188327,1,0,0:0:0:0:
64,192,188414,1,0,0:0:0:0:
448,192,188501,1,0,0:0:0:0:
320,192,188501,1,0,0:0:0:0:
192,192,188588,1,0,0:0:0:0:
320,192,188676,1,0,0:0:0:0:
192,192,188763,1,0,0:0:0:0:
64,192,188763,1,0,0:0:0:0:
448,192,188850,1,0,0:0:0:0:
64,192,188937,1,0,0:0:0:0:
320,192,189024,1,0,0:0:0:0:
448,192,189112,1,0,0:0:0:0:
192,192,189112,128,0,189199:0:0:0:0:
64,192,189199,1,0,0:0:0:0:
320,192,189286,1,0,0:0:0:0:
448,192,189286,1,0,0:0:0:0:
192,192,189373,1,0,0:0:0:0:
448,192,189461,1,0,0:0:0:0:
64,192,189548,128,0,189809:0:0:0:0:
320,192,189635,1,0,0:0:0:0:
192,192,189722,128,0,189809:0:0:0:0:
448,192,189809,1,0,0:0:0:0:
320,192,189809,128,0,189897:0:0:0:0:
192,192,189984,1,0,0:0:0:0:
320,192,190071,1,0,0:0:0:0:
192,192,190158,1,0,0:0:0:0:
64,192,190158,1,0,0:0:0:0:
448,192,190245,1,0,0:0:0:0:
192,192,190333,1,0,0:0:0:0:
320,192,190420,1,0,0:0:0:0:
64,192,190507,1,0,0:0:0:0:
448,192,190507,1,0,0:0:0:0:
192,192,190594,1,0,0:0:0:0:
320,192,190681,1,0,0:0:0:0:
64,192,190769,1,0,0:0:0:0:
448,192,190856,1,0,0:0:0:0:
192,192,190943,1,0,0:0:0:0:
448,192,191030,1,0,0:0:0:0:
64,192,191030,1,0,0:0:0:0:
320,192,191118,1,0,0:0:0:0:
64,192,191205,1,0,0:0:0:0:
448,192,191292,1,0,0:0:0:0:
192,192,191379,1,0,0:0:0:0:
320,192,191466,1,0,0:0:0:0:
64,192,191554,1,0,0:0:0:0:
192,192,191554,1,0,0:0:0:0:
448,192,191641,1,0,0:0:0:0:
64,192,191728,1,0,0:0:0:0:
320,192,191815,1,0,0:0:0:0:
192,192,191902,1,0,0:0:0:0:
448,192,191902,1,0,0:0:0:0:
64,192,191990,128,0,192077:0:0:0:0:
320,192,192077,1,0,0:0:0:0:
192,192,192164,1,0,0:0:0:0:
448,192,192251,1,0,0:0:0:0:
64,192,192338,1,0,0:0:0:0:
320,192,192426,1,0,0:0:0:0:
192,192,192513,1,0,0:0:0:0:
320,192,192600,1,0,0:0:0:0:
448,192,192600,128,0,192687:0:0:0:0:
192,192,192774,1,0,0:0:0:0:
320,192,192862,1,0,0:0:0:0:
192,192,192949,1,0,0:0:0:0:
64,192,192949,1,0,0:0:0:0:
448,192,193036,1,0,0:0:0:0:
192,192,193123,1,0,0:0:0:0:
320,192,193211,1,0,0:0:0:0:
64,192,193298,1,0,0:0:0:0:
448,192,193298,1,0,0:0:0:0:
192,192,193385,1,0,0:0:0:0:
320,192,193472,1,0,0:0:0:0:
64,192,193559,1,0,0:0:0:0:
192,192,193559,1,0,0:0:0:0:
448,192,193647,1,0,0:0:0:0:
192,192,193734,1,0,0:0:0:0:
64,192,193821,1,0,0:0:0:0:
448,192,193821,1,0,0:0:0:0:
320,192,193908,1,0,0:0:0:0:
64,192,193995,128,0,194083:0:0:0:0:
320,192,194083,1,0,0:0:0:0:
448,192,194083,1,0,0:0:0:0:
192,192,194170,1,0,0:0:0:0:
320,192,194257,1,0,0:0:0:0:
192,192,194344,1,0,0:0:0:0:
64,192,194344,1,0,0:0:0:0:
448,192,194431,1,0,0:0:0:0:
64,192,194519,1,0,0:0:0:0:
320,192,194606,1,0,0:0:0:0:
192,192,194693,1,0,0:0:0:0:
448,192,194693,1,0,0:0:0:0:
64,192,194780,1,0,0:0:0:0:
320,192,194868,1,0,0:0:0:0:
192,192,194955,1,0,0:0:0:0:
448,192,195042,1,0,0:0:0:0:
64,192,195129,1,0,0:0:0:0:
320,192,195216,1,0,0:0:0:0:
192,192,195304,1,0,0:0:0:0:
320,192,195391,128,0,195478:0:0:0:0:
448,192,195391,128,0,195478:0:0:0:0:
192,192,195565,1,0,0:0:0:0:
320,192,195652,1,0,0:0:0:0:
192,192,195740,1,0,0:0:0:0:
64,192,195740,1,0,0:0:0:0:
448,192,195827,1,0,0:0:0:0:
192,192,195914,1,0,0:0:0:0:
320,192,196001,1,0,0:0:0:0:
64,192,196088,1,0,0:0:0:0:
448,192,196088,1,0,0:0:0:0:
192,192,196176,1,0,0:0:0:0:
320,192,196263,1,0,0:0:0:0:
64,192,196350,1,0,0:0:0:0:
448,192,196437,1,0,0:0:0:0:
192,192,196524,1,0,0:0:0:0:
448,192,196612,1,0,0:0:0:0:
64,192,196612,1,0,0:0:0:0:
320,192,196699,1,0,0:0:0:0:
64,192,196786,1,0,0:0:0:0:
448,192,196873,1,0,0:0:0:0:
192,192,196961,1,0,0:0:0:0:
320,192,197048,1,0,0:0:0:0:
64,192,197135,1,0,0:0:0:0:
192,192,197135,1,0,0:0:0:0:
448,192,197222,1,0,0:0:0:0:
64,192,197309,1,0,0:0:0:0:
320,192,197397,1,0,0:0:0:0:
192,192,197484,128,0,197571:0:0:0:0:
448,192,197484,128,0,197571:0:0:0:0:
64,192,197571,1,0,0:0:0:0:
320,192,197658,1,0,0:0:0:0:
192,192,197745,1,0,0:0:0:0:
64,192,197833,1,0,0:0:0:0:
448,192,197920,1,0,0:0:0:0:
192,192,198007,1,0,0:0:0:0:
320,192,198094,1,0,0:0:0:0:
192,192,198181,128,0,198269:0:0:0:0:
64,192,198181,128,0,198269:0:0:0:0:
192,192,198356,1,0,0:0:0:0:
320,192,198443,1,0,0:0:0:0:
192,192,198530,5,0,0:0:0:0:
64,192,198530,1,0,0:0:0:0:
448,192,198618,1,0,0:0:0:0:
192,192,198705,1,0,0:0:0:0:
320,192,198792,1,0,0:0:0:0:
64,192,198879,1,0,0:0:0:0:
448,192,198879,1,0,0:0:0:0:
192,192,198966,1,0,0:0:0:0:
320,192,199054,1,0,0:0:0:0:
64,192,199141,1,0,0:0:0:0:
192,192,199141,1,0,0:0:0:0:
448,192,199228,1,0,0:0:0:0:
192,192,199315,1,0,0:0:0:0:
64,192,199402,1,0,0:0:0:0:
448,192,199402,1,0,0:0:0:0:
320,192,199490,1,0,0:0:0:0:
64,192,199577,1,0,0:0:0:0:
192,192,199664,1,0,0:0:0:0:
448,192,199751,1,0,0:0:0:0:
192,192,199926,1,0,0:0:0:0:
448,192,200100,1,0,0:0:0:0:
192,192,200274,1,0,0:0:0:0:
64,192,200274,1,0,0:0:0:0:
64,192,200972,128,0,201059:0:0:0:0:
192,192,201147,128,0,201234:0:0:0:0:
320,192,201321,128,0,201408:0:0:0:0:
448,192,201495,128,0,201583:0:0:0:0:
64,192,201670,128,0,201757:0:0:0:0:
192,192,201844,128,0,201931:0:0:0:0:
320,192,202019,128,0,202106:0:0:0:0:
448,192,202193,128,0,202280:0:0:0:0:
64,192,202368,128,0,202455:0:0:0:0:
320,192,202542,128,0,202629:0:0:0:0:
192,192,202716,128,0,202804:0:0:0:0:
448,192,202891,128,0,202978:0:0:0:0:
64,192,203065,128,0,203152:0:0:0:0:
320,192,203240,128,0,203327:0:0:0:0:
192,192,203414,128,0,203501:0:0:0:0:
448,192,203588,128,0,203676:0:0:0:0:
192,192,203763,128,0,203850:0:0:0:0:
64,192,203937,128,0,204024:0:0:0:0:
320,192,204112,128,0,204199:0:0:0:0:
448,192,204286,128,0,204373:0:0:0:0:
192,192,204461,128,0,204548:0:0:0:0:
64,192,204635,128,0,204722:0:0:0:0:
320,192,204809,128,0,204897:0:0:0:0:
448,192,204984,128,0,205071:0:0:0:0:
192,192,205158,128,0,205245:0:0:0:0:
320,192,205333,128,0,205420:0:0:0:0:
64,192,205507,128,0,205594:0:0:0:0:
448,192,205681,128,0,205769:0:0:0:0:
192,192,205856,128,0,205943:0:0:0:0:
320,192,206030,128,0,206118:0:0:0:0:
64,192,206205,128,0,206292:0:0:0:0:
448,192,206379,128,0,206466:0:0:0:0:
64,192,206554,128,0,206641:0:0:0:0:
192,192,206728,128,0,206815:0:0:0:0:
320,192,206902,128,0,206990:0:0:0:0:
448,192,207077,128,0,207164:0:0:0:0:
64,192,207251,128,0,207338:0:0:0:0:
192,192,207426,128,0,207513:0:0:0:0:
320,192,207600,128,0,207687:0:0:0:0:
448,192,207774,128,0,207862:0:0:0:0:
64,192,207949,128,0,208036:0:0:0:0:
320,192,208123,128,0,208211:0:0:0:0:
192,192,208298,128,0,208385:0:0:0:0:
448,192,208472,128,0,208559:0:0:0:0:
64,192,208647,128,0,208734:0:0:0:0:
320,192,208821,128,0,208908:0:0:0:0:
192,192,208995,128,0,209083:0:0:0:0:
448,192,209170,128,0,209257:0:0:0:0:
192,192,209344,128,0,209431:0:0:0:0:
64,192,209519,128,0,209606:0:0:0:0:
320,192,209693,128,0,209780:0:0:0:0:
448,192,209868,128,0,209955:0:0:0:0:
192,192,210042,128,0,210129:0:0:0:0:
64,192,210216,128,0,210304:0:0:0:0:
320,192,210391,128,0,210478:0:0:0:0:
448,192,210565,128,0,210652:0:0:0:0:
192,192,210740,128,0,210827:0:0:0:0:
320,192,210914,128,0,211001:0:0:0:0:
64,192,211088,128,0,211176:0:0:0:0:
448,192,211263,128,0,211350:0:0:0:0:
192,192,211437,128,0,211524:0:0:0:0:
320,192,211612,128,0,211699:0:0:0:0:
64,192,211786,128,0,211873:0:0:0:0:
448,192,211961,128,0,212048:0:0:0:0:
64,192,212135,128,0,212222:0:0:0:0:
192,192,212309,128,0,212397:0:0:0:0:
320,192,212484,128,0,212571:0:0:0:0:
448,192,212658,128,0,212745:0:0:0:0:
64,192,212833,128,0,212920:0:0:0:0:
192,192,213007,128,0,213094:0:0:0:0:
320,192,213181,128,0,213269:0:0:0:0:
448,192,213356,128,0,213443:0:0:0:0:
64,192,213530,128,0,213618:0:0:0:0:
320,192,213705,128,0,213792:0:0:0:0:
192,192,213879,128,0,213966:0:0:0:0:
448,192,214054,128,0,214141:0:0:0:0:
64,192,214228,128,0,214315:0:0:0:0:
320,192,214402,128,0,214490:0:0:0:0:
192,192,214577,128,0,214664:0:0:0:0:
448,192,214751,128,0,214838:0:0:0:0:
192,192,214926,128,0,215013:0:0:0:0:
64,192,215100,128,0,215187:0:0:0:0:
320,192,215274,128,0,215362:0:0:0:0:
448,192,215449,128,0,215536:0:0:0:0:
192,192,215623,128,0,215711:0:0:0:0:
64,192,215798,128,0,215885:0:0:0:0:
320,192,215972,128,0,216059:0:0:0:0:
448,192,216147,128,0,216234:0:0:0:0:
192,192,216321,128,0,216408:0:0:0:0:
320,192,216495,128,0,216583:0:0:0:0:
64,192,216670,128,0,216757:0:0:0:0:
448,192,216844,128,0,216931:0:0:0:0:
192,192,217019,128,0,217106:0:0:0:0:
320,192,217193,128,0,217280:0:0:0:0:
64,192,217368,128,0,217455:0:0:0:0:
448,192,217542,128,0,217629:0:0:0:0:
64,192,217716,128,0,217804:0:0:0:0:
192,192,217891,128,0,217978:0:0:0:0:
320,192,218065,128,0,218152:0:0:0:0:
448,192,218240,128,0,218327:0:0:0:0:
64,192,218414,128,0,218501:0:0:0:0:
192,192,218588,128,0,218676:0:0:0:0:
320,192,218763,128,0,218850:0:0:0:0:
448,192,218937,128,0,219024:0:0:0:0:
64,192,219112,128,0,219170:0:0:0:0:
320,192,219286,128,0,219344:0:0:0:0:
192,192,219461,128,0,219519:0:0:0:0:
448,192,219635,128,0,219693:0:0:0:0:
64,192,219809,128,0,219868:0:0:0:0:
320,192,219984,128,0,220042:0:0:0:0:
192,192,220158,128,0,220216:0:0:0:0:
448,192,220333,128,0,220391:0:0:0:0:
192,192,220507,128,0,220551:0:0:0:0:
64,192,220681,128,0,220725:0:0:0:0:
320,192,220856,128,0,220899:0:0:0:0:
448,192,221030,128,0,221074:0:0:0:0:
192,192,221205,128,0,221248:0:0:0:0:
64,192,221379,128,0,221423:0:0:0:0:
320,192,221554,128,0,221597:0:0:0:0:
448,192,221728,128,0,221772:0:0:0:0:
192,192,221902,1,0,0:0:0:0:
320,192,222077,1,0,0:0:0:0:
64,192,222251,1,0,0:0:0:0:
448,192,222426,1,0,0:0:0:0:
192,192,222600,128,0,223211:0:0:0:0:
320,192,222774,128,0,223211:0:0:0:0:
64,192,222949,128,0,223298:0:0:0:0:
448,192,223123,128,0,223298:0:0:0:0:
320,192,223298,1,0,0:0:0:0:
192,192,223298,1,0,0:0:0:0:
448,192,223472,1,0,0:0:0:0:
192,192,223647,1,0,0:0:0:0:
448,192,223821,1,0,0:0:0:0:
448,192,223995,1,0,0:0:0:0:
320,192,223995,1,0,0:0:0:0:
64,192,224083,1,0,0:0:0:0:
320,192,224170,1,0,0:0:0:0:
192,192,224344,1,0,0:0:0:0:
448,192,224431,1,0,0:0:0:0:
192,192,224519,1,0,0:0:0:0:
64,192,224606,1,0,0:0:0:0:
320,192,224693,1,0,0:0:0:0:
64,192,224868,1,0,0:0:0:0:
320,192,225042,1,0,0:0:0:0:
64,192,225216,128,0,225391:0:0:0:0:
192,192,225216,128,0,225333:0:0:0:0:
448,192,225391,1,0,0:0:0:0:
64,192,225478,1,0,0:0:0:0:
320,192,225565,1,0,0:0:0:0:
192,192,225740,1,0,0:0:0:0:
448,192,225740,1,0,0:0:0:0:
64,192,225827,1,0,0:0:0:0:
320,192,225914,1,0,0:0:0:0:
192,192,226001,1,0,0:0:0:0:
320,192,226088,1,0,0:0:0:0:
64,192,226263,1,0,0:0:0:0:
320,192,226437,1,0,0:0:0:0:
64,192,226612,1,0,0:0:0:0:
192,192,226786,1,0,0:0:0:0:
64,192,226786,1,0,0:0:0:0:
448,192,226873,1,0,0:0:0:0:
192,192,226961,1,0,0:0:0:0:
320,192,227135,1,0,0:0:0:0:
64,192,227222,1,0,0:0:0:0:
320,192,227309,1,0,0:0:0:0:
448,192,227397,1,0,0:0:0:0:
192,192,227484,1,0,0:0:0:0:
448,192,227658,1,0,0:0:0:0:
192,192,227833,1,0,0:0:0:0:
448,192,228007,128,0,228181:0:0:0:0:
320,192,228007,128,0,228123:0:0:0:0:
64,192,228181,1,0,0:0:0:0:
448,192,228269,1,0,0:0:0:0:
192,192,228356,1,0,0:0:0:0:
320,192,228530,1,0,0:0:0:0:
64,192,228530,1,0,0:0:0:0:
448,192,228618,1,0,0:0:0:0:
192,192,228705,1,0,0:0:0:0:
320,192,228792,1,0,0:0:0:0:
192,192,228879,1,0,0:0:0:0:
448,192,229054,1,0,0:0:0:0:
192,192,229228,1,0,0:0:0:0:
448,192,229402,1,0,0:0:0:0:
448,192,229577,1,0,0:0:0:0:
320,192,229577,1,0,0:0:0:0:
64,192,229664,1,0,0:0:0:0:
320,192,229751,1,0,0:0:0:0:
192,192,229926,1,0,0:0:0:0:
448,192,230013,1,0,0:0:0:0:
192,192,230100,1,0,0:0:0:0:
64,192,230187,1,0,0:0:0:0:
320,192,230274,1,0,0:0:0:0:
64,192,230449,1,0,0:0:0:0:
320,192,230623,1,0,0:0:0:0:
64,192,230798,128,0,230914:0:0:0:0:
192,192,230798,128,0,230856:0:0:0:0:
448,192,230972,1,0,0:0:0:0:
64,192,231059,1,0,0:0:0:0:
320,192,231147,1,0,0:0:0:0:
192,192,231321,1,0,0:0:0:0:
448,192,231321,1,0,0:0:0:0:
64,192,231408,1,0,0:0:0:0:
320,192,231495,1,0,0:0:0:0:
192,192,231583,1,0,0:0:0:0:
320,192,231670,1,0,0:0:0:0:
64,192,231844,1,0,0:0:0:0:
320,192,232019,1,0,0:0:0:0:
64,192,232193,1,0,0:0:0:0:
192,192,232368,1,0,0:0:0:0:
64,192,232368,1,0,0:0:0:0:
448,192,232455,1,0,0:0:0:0:
192,192,232542,1,0,0:0:0:0:
320,192,232716,1,0,0:0:0:0:
64,192,232804,1,0,0:0:0:0:
320,192,232891,1,0,0:0:0:0:
448,192,232978,1,0,0:0:0:0:
192,192,233065,1,0,0:0:0:0:
448,192,233240,1,0,0:0:0:0:
192,192,233414,1,0,0:0:0:0:
320,192,233588,128,0,233647:0:0:0:0:
448,192,233588,128,0,233705:0:0:0:0:
64,192,233763,1,0,0:0:0:0:
448,192,233850,1,0,0:0:0:0:
192,192,233937,1,0,0:0:0:0:
320,192,234112,1,0,0:0:0:0:
64,192,234112,1,0,0:0:0:0:
448,192,234199,1,0,0:0:0:0:
192,192,234286,1,0,0:0:0:0:
320,192,234373,1,0,0:0:0:0:
192,192,234461,1,0,0:0:0:0:
448,192,234635,1,0,0:0:0:0:
192,192,234809,1,0,0:0:0:0:
448,192,234984,1,0,0:0:0:0:
320,192,234984,1,0,0:0:0:0:
192,192,235071,1,0,0:0:0:0:
448,192,235158,1,0,0:0:0:0:
64,192,235245,1,0,0:0:0:0:
320,192,235333,1,0,0:0:0:0:
320,192,235507,1,0,0:0:0:0:
448,192,235507,1,0,0:0:0:0:
64,192,235681,1,0,0:0:0:0:
448,192,235769,1,0,0:0:0:0:
320,192,235856,1,0,0:0:0:0:
64,192,236030,1,0,0:0:0:0:
320,192,236205,1,0,0:0:0:0:
64,192,236379,1,0,0:0:0:0:
192,192,236379,1,0,0:0:0:0:
320,192,236466,1,0,0:0:0:0:
64,192,236554,1,0,0:0:0:0:
448,192,236641,1,0,0:0:0:0:
192,192,236728,1,0,0:0:0:0:
192,192,236902,1,0,0:0:0:0:
64,192,236902,1,0,0:0:0:0:
448,192,237077,1,0,0:0:0:0:
64,192,237164,1,0,0:0:0:0:
192,192,237251,1,0,0:0:0:0:
448,192,237426,1,0,0:0:0:0:
192,192,237513,1,0,0:0:0:0:
320,192,237600,1,0,0:0:0:0:
320,192,237774,1,0,0:0:0:0:
448,192,237774,1,0,0:0:0:0:
64,192,237949,1,0,0:0:0:0:
448,192,238036,1,0,0:0:0:0:
192,192,238211,1,0,0:0:0:0:
320,192,238298,1,0,0:0:0:0:
448,192,238298,1,0,0:0:0:0:
192,192,238472,1,0,0:0:0:0:
448,192,238559,1,0,0:0:0:0:
320,192,238647,1,0,0:0:0:0:
64,192,238821,1,0,0:0:0:0:
320,192,238908,1,0,0:0:0:0:
192,192,238995,1,0,0:0:0:0:
192,192,239170,1,0,0:0:0:0:
64,192,239170,1,0,0:0:0:0:
448,192,239344,1,0,0:0:0:0:
64,192,239431,1,0,0:0:0:0:
320,192,239606,1,0,0:0:0:0:
192,192,239693,1,0,0:0:0:0:
64,192,239693,1,0,0:0:0:0:
320,192,239868,1,0,0:0:0:0:
64,192,239955,1,0,0:0:0:0:
192,192,240042,1,0,0:0:0:0:
448,192,240216,1,0,0:0:0:0:
192,192,240304,5,0,0:0:0:0:
320,192,240391,1,0,0:0:0:0:
448,192,240391,1,0,0:0:0:0:
64,192,240565,1,0,0:0:0:0:
448,192,240652,1,0,0:0:0:0:
192,192,240740,1,0,0:0:0:0:
448,192,240914,1,0,0:0:0:0:
192,192,241001,1,0,0:0:0:0:
448,192,241088,1,0,0:0:0:0:
320,192,241088,1,0,0:0:0:0:
64,192,241263,1,0,0:0:0:0:
448,192,241350,1,0,0:0:0:0:
192,192,241437,5,0,0:0:0:0:
192,192,241612,1,0,0:0:0:0:
192,192,241786,1,0,0:0:0:0:
64,192,241786,1,0,0:0:0:0:
192,192,241961,1,0,0:0:0:0:
192,192,242135,1,0,0:0:0:0:
192,192,242309,1,0,0:0:0:0:
192,192,242484,1,0,0:0:0:0:
64,192,242484,1,0,0:0:0:0:
192,192,242658,1,0,0:0:0:0:
192,192,242833,1,0,0:0:0:0:
192,192,242920,1,0,0:0:0:0:
320,192,243007,1,0,0:0:0:0:
320,192,243094,5,0,0:0:0:0:
192,192,243181,1,0,0:0:0:0:
192,192,243269,1,0,0:0:0:0:
320,192,243356,1,0,0:0:0:0:
320,192,243443,1,0,0:0:0:0:
192,192,243530,1,0,0:0:0:0:
192,192,243647,1,0,0:0:0:0:
192,192,243763,1,0,0:0:0:0:
192,192,243879,1,0,0:0:0:0:
192,192,244054,1,0,0:0:0:0:
192,192,244228,128,0,244402:0:0:0:0:
64,192,244315,128,0,244446:0:0:0:0:
192,192,244533,128,0,244620:0:0:0:0:
64,192,244577,128,0,244664:0:0:0:0:
320,192,244664,128,0,244882:0:0:0:0:
192,192,244708,128,0,244882:0:0:0:0:
64,192,244751,128,0,244882:0:0:0:0:
448,192,244926,128,0,245144:0:0:0:0:
448,192,245187,128,0,245231:0:0:0:0:
448,192,245274,128,0,245405:0:0:0:0:
448,192,245449,128,0,245623:0:0:0:0:
64,192,245623,1,0,0:0:0:0:
192,192,245623,1,0,0:0:0:0:
320,192,245798,1,0,0:0:0:0:
192,192,245885,1,0,0:0:0:0:
448,192,245972,1,0,0:0:0:0:
320,192,245972,1,0,0:0:0:0:
192,192,246016,1,0,0:0:0:0:
320,192,246059,1,0,0:0:0:0:
448,192,246059,1,0,0:0:0:0:
64,192,246103,1,0,0:0:0:0:
192,192,246147,1,0,0:0:0:0:
320,192,246205,1,0,0:0:0:0:
192,192,246263,1,0,0:0:0:0:
448,192,246321,1,0,0:0:0:0:
64,192,246321,1,0,0:0:0:0:
320,192,246379,1,0,0:0:0:0:
192,192,246437,1,0,0:0:0:0:
64,192,246495,1,0,0:0:0:0:
320,192,246554,1,0,0:0:0:0:
192,192,246612,1,0,0:0:0:0:
448,192,246670,1,0,0:0:0:0:
320,192,246728,1,0,0:0:0:0:
192,192,246786,1,0,0:0:0:0:
448,192,246844,1,0,0:0:0:0:
320,192,246888,1,0,0:0:0:0:
192,192,246931,1,0,0:0:0:0:
64,192,246975,1,0,0:0:0:0:
320,192,247019,1,0,0:0:0:0:
448,192,247019,1,0,0:0:0:0:
192,192,247062,1,0,0:0:0:0:
64,192,247106,1,0,0:0:0:0:
320,192,247149,1,0,0:0:0:0:
192,192,247193,1,0,0:0:0:0:
64,192,247237,1,0,0:0:0:0:
448,192,247280,1,0,0:0:0:0:
320,192,247324,1,0,0:0:0:0:
64,192,247368,1,0,0:0:0:0:
320,192,247411,1,0,0:0:0:0:
448,192,247455,1,0,0:0:0:0:
192,192,247498,1,0,0:0:0:0:
320,192,247542,1,0,0:0:0:0:
64,192,247586,1,0,0:0:0:0:
192,192,247629,1,0,0:0:0:0:
320,192,247673,1,0,0:0:0:0:
448,192,247716,1,0,0:0:0:0:
64,192,247716,1,0,0:0:0:0:
320,192,247774,1,0,0:0:0:0:
192,192,247833,1,0,0:0:0:0:
64,192,247891,1,0,0:0:0:0:
320,192,247949,1,0,0:0:0:0:
192,192,248007,1,0,0:0:0:0:
448,192,248065,1,0,0:0:0:0:
320,192,248123,1,0,0:0:0:0:
64,192,248181,1,0,0:0:0:0:
192,192,248240,1,0,0:0:0:0:
448,192,248298,1,0,0:0:0:0:
320,192,248327,1,0,0:0:0:0:
192,192,248356,1,0,0:0:0:0:
64,192,248385,1,0,0:0:0:0:
320,192,248414,1,0,0:0:0:0:
448,192,248414,1,0,0:0:0:0:
192,192,248501,128,0,248559:0:0:0:0:
320,192,248530,128,0,248618:0:0:0:0:
448,192,248559,128,0,248676:0:0:0:0:
192,192,248676,1,0,0:0:0:0:
64,192,248676,1,0,0:0:0:0:
320,192,248763,1,0,0:0:0:0:
64,192,248850,1,0,0:0:0:0:
192,192,248879,1,0,0:0:0:0:
320,192,248908,1,0,0:0:0:0:
448,192,248937,1,0,0:0:0:0:
192,192,249024,1,0,0:0:0:0:
448,192,249112,1,0,0:0:0:0:
64,192,249112,1,0,0:0:0:0:
320,192,249199,1,0,0:0:0:0:
192,192,249228,1,0,0:0:0:0:
64,192,249257,1,0,0:0:0:0:
448,192,249286,1,0,0:0:0:0:
192,192,249373,1,0,0:0:0:0:
320,192,249461,1,0,0:0:0:0:
64,192,249548,1,0,0:0:0:0:
192,192,249577,1,0,0:0:0:0:
320,192,249606,1,0,0:0:0:0:
448,192,249635,1,0,0:0:0:0:
192,192,249722,1,0,0:0:0:0:
320,192,249809,1,0,0:0:0:0:
448,192,249809,1,0,0:0:0:0:
64,192,249897,1,0,0:0:0:0:
192,192,249926,1,0,0:0:0:0:
320,192,249955,1,0,0:0:0:0:
448,192,249984,1,0,0:0:0:0:
192,192,250071,1,0,0:0:0:0:
64,192,250071,1,0,0:0:0:0:
320,192,250158,1,0,0:0:0:0:
448,192,250245,1,0,0:0:0:0:
320,192,250274,1,0,0:0:0:0:
192,192,250304,1,0,0:0:0:0:
64,192,250333,1,0,0:0:0:0:
320,192,250420,1,0,0:0:0:0:
448,192,250507,1,0,0:0:0:0:
64,192,250507,1,0,0:0:0:0:
192,192,250594,1,0,0:0:0:0:
320,192,250623,1,0,0:0:0:0:
448,192,250652,1,0,0:0:0:0:
64,192,250681,1,0,0:0:0:0:
320,192,250769,1,0,0:0:0:0:
192,192,250856,1,0,0:0:0:0:
448,192,250943,1,0,0:0:0:0:
320,192,250987,1,0,0:0:0:0:
192,192,251030,1,0,0:0:0:0:
320,192,251074,1,0,0:0:0:0:
192,192,251118,1,0,0:0:0:0:
64,192,251161,1,0,0:0:0:0:
320,192,251205,1,0,0:0:0:0:
448,192,251205,1,0,0:0:0:0:
64,192,251379,1,0,0:0:0:0:
320,192,251466,1,0,0:0:0:0:
448,192,251466,1,0,0:0:0:0:
64,192,251554,1,0,0:0:0:0:
192,192,251597,1,0,0:0:0:0:
320,192,251641,1,0,0:0:0:0:
64,192,251684,1,0,0:0:0:0:
192,192,251728,1,0,0:0:0:0:
320,192,251772,1,0,0:0:0:0:
192,192,251844,1,0,0:0:0:0:
64,192,251902,1,0,0:0:0:0:
448,192,251902,128,0,251990:0:0:0:0:
192,192,251990,128,0,252120:0:0:0:0:
448,192,252120,128,0,252251:0:0:0:0:
320,192,252251,128,0,252338:0:0:0:0:
64,192,252338,128,0,252426:0:0:0:0:
320,192,252426,128,0,252513:0:0:0:0:
64,192,252513,128,0,252600:0:0:0:0:
448,192,252600,1,0,0:0:0:0:
320,192,252600,128,0,252687:0:0:0:0:
64,192,252687,128,0,252862:0:0:0:0:
448,192,252862,1,0,0:0:0:0:
320,192,252862,1,0,0:0:0:0:
64,192,252949,128,0,253123:0:0:0:0:
448,192,253123,1,0,0:0:0:0:
192,192,253211,128,0,253298:0:0:0:0:
448,192,253298,1,0,0:0:0:0:
64,192,253298,128,0,253385:0:0:0:0:
320,192,253385,1,0,0:0:0:0:
64,192,253472,128,0,253559:0:0:0:0:
320,192,253559,1,0,0:0:0:0:
448,192,253647,128,0,253908:0:0:0:0:
64,192,253690,128,0,253777:0:0:0:0:
320,192,253734,128,0,253908:0:0:0:0:
64,192,253865,128,0,253995:0:0:0:0:
192,192,253908,128,0,253995:0:0:0:0:
320,192,253995,1,0,0:0:0:0:
448,192,253995,1,0,0:0:0:0:
192,192,254083,128,0,254141:0:0:0:0:
320,192,254112,128,0,254199:0:0:0:0:
448,192,254141,128,0,254257:0:0:0:0:
192,192,254257,1,0,0:0:0:0:
64,192,254257,1,0,0:0:0:0:
320,192,254344,1,0,0:0:0:0:
64,192,254431,1,0,0:0:0:0:
192,192,254461,1,0,0:0:0:0:
320,192,254490,1,0,0:0:0:0:
448,192,254519,1,0,0:0:0:0:
192,192,254606,1,0,0:0:0:0:
448,192,254693,1,0,0:0:0:0:
64,192,254693,1,0,0:0:0:0:
448,192,254780,1,0,0:0:0:0:
192,192,254868,1,0,0:0:0:0:
448,192,254911,128,0,254955:0:0:0:0:
64,192,254955,128,0,254998:0:0:0:0:
192,192,255042,1,0,0:0:0:0:
448,192,255129,1,0,0:0:0:0:
320,192,255158,1,0,0:0:0:0:
192,192,255187,1,0,0:0:0:0:
64,192,255216,1,0,0:0:0:0:
320,192,255304,1,0,0:0:0:0:
192,192,255391,1,0,0:0:0:0:
64,192,255391,1,0,0:0:0:0:
448,192,255478,1,0,0:0:0:0:
320,192,255507,1,0,0:0:0:0:
192,192,255536,1,0,0:0:0:0:
64,192,255565,1,0,0:0:0:0:
320,192,255652,1,0,0:0:0:0:
448,192,255652,1,0,0:0:0:0:
192,192,255740,1,0,0:0:0:0:
64,192,255827,1,0,0:0:0:0:
192,192,255856,1,0,0:0:0:0:
320,192,255885,1,0,0:0:0:0:
448,192,255914,1,0,0:0:0:0:
192,192,256001,1,0,0:0:0:0:
448,192,256088,1,0,0:0:0:0:
64,192,256088,1,0,0:0:0:0:
192,192,256176,1,0,0:0:0:0:
320,192,256205,1,0,0:0:0:0:
448,192,256234,1,0,0:0:0:0:
64,192,256263,1,0,0:0:0:0:
320,192,256350,1,0,0:0:0:0:
192,192,256379,1,0,0:0:0:0:
64,192,256408,1,0,0:0:0:0:
448,192,256437,1,0,0:0:0:0:
192,192,256524,1,0,0:0:0:0:
320,192,256554,1,0,0:0:0:0:
448,192,256583,1,0,0:0:0:0:
64,192,256612,1,0,0:0:0:0:
192,192,256699,1,0,0:0:0:0:
192,192,256786,1,0,0:0:0:0:
64,192,256786,1,0,0:0:0:0:
320,192,256961,1,0,0:0:0:0:
192,192,257048,1,0,0:0:0:0:
320,192,257135,1,0,0:0:0:0:
448,192,257135,1,0,0:0:0:0:
192,192,257179,1,0,0:0:0:0:
320,192,257222,1,0,0:0:0:0:
448,192,257222,1,0,0:0:0:0:
64,192,257266,1,0,0:0:0:0:
192,192,257309,1,0,0:0:0:0:
320,192,257368,1,0,0:0:0:0:
192,192,257426,1,0,0:0:0:0:
64,192,257484,1,0,0:0:0:0:
448,192,257484,1,0,0:0:0:0:
320,192,257542,1,0,0:0:0:0:
192,192,257600,1,0,0:0:0:0:
64,192,257658,1,0,0:0:0:0:
448,192,257716,1,0,0:0:0:0:
320,192,257745,1,0,0:0:0:0:
192,192,257745,1,0,0:0:0:0:
64,192,257774,1,0,0:0:0:0:
448,192,257833,1,0,0:0:0:0:
320,192,257891,1,0,0:0:0:0:
192,192,257949,1,0,0:0:0:0:
64,192,258007,1,0,0:0:0:0:
448,192,258007,1,0,0:0:0:0:
320,192,258051,1,0,0:0:0:0:
192,192,258094,1,0,0:0:0:0:
64,192,258138,1,0,0:0:0:0:
320,192,258181,1,0,0:0:0:0:
448,192,258181,1,0,0:0:0:0:
192,192,258225,1,0,0:0:0:0:
64,192,258269,1,0,0:0:0:0:
320,192,258312,1,0,0:0:0:0:
192,192,258356,1,0,0:0:0:0:
448,192,258399,1,0,0:0:0:0:
320,192,258443,1,0,0:0:0:0:
64,192,258487,1,0,0:0:0:0:
320,192,258530,1,0,0:0:0:0:
448,192,258574,1,0,0:0:0:0:
64,192,258618,1,0,0:0:0:0:
320,192,258661,1,0,0:0:0:0:
448,192,258705,1,0,0:0:0:0:
64,192,258748,1,0,0:0:0:0:
192,192,258792,1,0,0:0:0:0:
320,192,258836,1,0,0:0:0:0:
448,192,258879,1,0,0:0:0:0:
64,192,258879,1,0,0:0:0:0:
192,192,258923,1,0,0:0:0:0:
320,192,258966,1,0,0:0:0:0:
64,192,259010,1,0,0:0:0:0:
448,192,259054,1,0,0:0:0:0:
192,192,259097,1,0,0:0:0:0:
320,192,259141,1,0,0:0:0:0:
64,192,259184,1,0,0:0:0:0:
448,192,259228,1,0,0:0:0:0:
192,192,259272,1,0,0:0:0:0:
320,192,259315,1,0,0:0:0:0:
64,192,259359,1,0,0:0:0:0:
448,192,259402,1,0,0:0:0:0:
320,192,259446,128,0,259490:0:0:0:0:
192,192,259490,128,0,259577:0:0:0:0:
64,192,259533,128,0,259577:0:0:0:0:
448,192,259577,1,0,0:0:0:0:
320,192,259577,1,0,0:0:0:0:
192,192,259664,128,0,259722:0:0:0:0:
320,192,259693,128,0,259780:0:0:0:0:
448,192,259722,128,0,259838:0:0:0:0:
64,192,259838,1,0,0:0:0:0:
192,192,259838,1,0,0:0:0:0:
320,192,259926,1,0,0:0:0:0:
64,192,260013,1,0,0:0:0:0:
192,192,260042,1,0,0:0:0:0:
320,192,260071,1,0,0:0:0:0:
448,192,260100,1,0,0:0:0:0:
192,192,260187,1,0,0:0:0:0:
448,192,260274,1,0,0:0:0:0:
64,192,260274,1,0,0:0:0:0:
192,192,260362,1,0,0:0:0:0:
320,192,260391,1,0,0:0:0:0:
448,192,260420,1,0,0:0:0:0:
64,192,260449,1,0,0:0:0:0:
320,192,260536,1,0,0:0:0:0:
192,192,260565,1,0,0:0:0:0:
64,192,260594,1,0,0:0:0:0:
448,192,260623,1,0,0:0:0:0:
192,192,260711,1,0,0:0:0:0:
320,192,260740,1,0,0:0:0:0:
448,192,260769,1,0,0:0:0:0:
64,192,260798,1,0,0:0:0:0:
320,192,260885,1,0,0:0:0:0:
192,192,260972,1,0,0:0:0:0:
64,192,260972,1,0,0:0:0:0:
320,192,261059,1,0,0:0:0:0:
192,192,261088,1,0,0:0:0:0:
64,192,261118,1,0,0:0:0:0:
448,192,261147,1,0,0:0:0:0:
192,192,261234,1,0,0:0:0:0:
64,192,261234,1,0,0:0:0:0:
320,192,261263,1,0,0:0:0:0:
448,192,261292,1,0,0:0:0:0:
320,192,261408,1,0,0:0:0:0:
192,192,261437,1,0,0:0:0:0:
64,192,261466,1,0,0:0:0:0:
448,192,261495,1,0,0:0:0:0:
192,192,261583,1,0,0:0:0:0:
448,192,261670,1,0,0:0:0:0:
64,192,261670,1,0,0:0:0:0:
320,192,261757,1,0,0:0:0:0:
192,192,261786,1,0,0:0:0:0:
64,192,261815,1,0,0:0:0:0:
448,192,261844,1,0,0:0:0:0:
192,192,261931,1,0,0:0:0:0:
448,192,262019,1,0,0:0:0:0:
64,192,262106,1,0,0:0:0:0:
192,192,262135,1,0,0:0:0:0:
320,192,262164,1,0,0:0:0:0:
448,192,262193,1,0,0:0:0:0:
192,192,262280,1,0,0:0:0:0:
320,192,262368,1,0,0:0:0:0:
448,192,262368,1,0,0:0:0:0:
192,192,262542,1,0,0:0:0:0:
320,192,262629,1,0,0:0:0:0:
448,192,262629,1,0,0:0:0:0:
64,192,262716,1,0,0:0:0:0:
192,192,262760,1,0,0:0:0:0:
320,192,262804,1,0,0:0:0:0:
64,192,262847,1,0,0:0:0:0:
192,192,262891,1,0,0:0:0:0:
320,192,262949,1,0,0:0:0:0:
192,192,263007,1,0,0:0:0:0:
64,192,263065,1,0,0:0:0:0:
448,192,263065,128,0,263152:0:0:0:0:
192,192,263152,128,0,263240:0:0:0:0:
448,192,263327,1,0,0:0:0:0:
192,192,263327,128,0,263414:0:0:0:0:
320,192,263414,128,0,263458:0:0:0:0:
448,192,263501,1,0,0:0:0:0:
64,192,263501,128,0,263588:0:0:0:0:
192,192,263588,128,0,263763:0:0:0:0:
448,192,263588,1,0,0:0:0:0:
320,192,263763,1,0,0:0:0:0:
448,192,263763,1,0,0:0:0:0:
64,192,263879,1,0,0:0:0:0:
192,192,263937,128,0,264024:0:0:0:0:
320,192,264024,1,0,0:0:0:0:
192,192,264112,128,0,264199:0:0:0:0:
320,192,264199,1,0,0:0:0:0:
192,192,264286,128,0,264373:0:0:0:0:
320,192,264373,128,0,264461:0:0:0:0:
448,192,264461,1,0,0:0:0:0:
64,192,264461,128,0,264635:0:0:0:0:
320,192,264591,1,0,0:0:0:0:
448,192,264635,1,0,0:0:0:0:
192,192,264722,1,0,0:0:0:0:
448,192,264809,128,0,265042:0:0:0:0:
320,192,264897,128,0,265071:0:0:0:0:
64,192,264940,1,0,0:0:0:0:
192,192,264984,1,0,0:0:0:0:
192,192,265100,1,0,0:0:0:0:
64,192,265129,1,0,0:0:0:0:
448,192,265158,1,0,0:0:0:0:
320,192,265158,1,0,0:0:0:0:
192,192,265245,128,0,265304:0:0:0:0:
320,192,265274,128,0,265362:0:0:0:0:
448,192,265304,128,0,265420:0:0:0:0:
192,192,265420,1,0,0:0:0:0:
64,192,265420,1,0,0:0:0:0:
320,192,265507,1,0,0:0:0:0:
64,192,265594,1,0,0:0:0:0:
192,192,265623,1,0,0:0:0:0:
320,192,265652,1,0,0:0:0:0:
448,192,265681,1,0,0:0:0:0:
64,192,265769,1,0,0:0:0:0:
320,192,265769,1,0,0:0:0:0:
448,192,265856,1,0,0:0:0:0:
64,192,265856,1,0,0:0:0:0:
320,192,265943,1,0,0:0:0:0:
192,192,266030,1,0,0:0:0:0:
448,192,266118,1,0,0:0:0:0:
64,192,266118,1,0,0:0:0:0:
320,192,266205,1,0,0:0:0:0:
192,192,266205,1,0,0:0:0:0:
320,192,266336,1,0,0:0:0:0:
192,192,266336,1,0,0:0:0:0:
320,192,266466,1,0,0:0:0:0:
192,192,266466,1,0,0:0:0:0:
64,192,266554,1,0,0:0:0:0:
448,192,266554,1,0,0:0:0:0:
192,192,266728,128,0,266859:0:0:0:0:
320,192,266859,128,0,266990:0:0:0:0:
192,192,266990,128,0,267120:0:0:0:0:
320,192,267120,128,0,267208:0:0:0:0:
192,192,267208,128,0,267295:0:0:0:0:
320,192,267295,128,0,267382:0:0:0:0:
192,192,267382,128,0,267447:0:0:0:0:
320,192,267447,128,0,267513:0:0:0:0:
192,192,267513,128,0,267600:0:0:0:0:
320,192,267600,128,0,267687:0:0:0:0:
192,192,267687,128,0,267774:0:0:0:0:
320,192,267774,128,0,267818:0:0:0:0:
448,192,267949,1,0,0:0:0:0:
192,192,267949,1,0,0:0:0:0:
64,192,267949,1,0,0:0:0:0:
192,192,268123,1,0,0:0:0:0:
320,192,268211,1,0,0:0:0:0:
192,192,268298,1,0,0:0:0:0:
64,192,268298,1,0,0:0:0:0:
448,192,268385,1,0,0:0:0:0:
192,192,268472,1,0,0:0:0:0:
320,192,268530,1,0,0:0:0:0:
192,192,268588,1,0,0:0:0:0:
64,192,268647,1,0,0:0:0:0:
448,192,268647,1,0,0:0:0:0:
320,192,268763,1,0,0:0:0:0:
192,192,268821,1,0,0:0:0:0:
320,192,268879,1,0,0:0:0:0:
448,192,268937,1,0,0:0:0:0:
192,192,268995,1,0,0:0:0:0:
64,192,269054,1,0,0:0:0:0:
320,192,269112,1,0,0:0:0:0:
64,192,269170,1,0,0:0:0:0:
448,192,269170,1,0,0:0:0:0:
192,192,269228,1,0,0:0:0:0:
320,192,269344,1,0,0:0:0:0:
448,192,269402,1,0,0:0:0:0:
64,192,269431,1,0,0:0:0:0:
320,192,269519,1,0,0:0:0:0:
192,192,269635,1,0,0:0:0:0:
64,192,269664,1,0,0:0:0:0:
448,192,269693,1,0,0:0:0:0:
320,192,269693,1,0,0:0:0:0:
192,192,269780,1,0,0:0:0:0:
320,192,269868,1,0,0:0:0:0:
192,192,269926,1,0,0:0:0:0:
448,192,269984,1,0,0:0:0:0:
320,192,270042,1,0,0:0:0:0:
64,192,270042,1,0,0:0:0:0:
192,192,270129,1,0,0:0:0:0:
448,192,270216,128,0,270333:0:0:0:0:
320,192,270245,1,0,0:0:0:0:
64,192,270304,128,0,270449:0:0:0:0:
192,192,270333,1,0,0:0:0:0:
448,192,270391,128,0,270565:0:0:0:0:
320,192,270420,1,0,0:0:0:0:
64,192,270507,128,0,270652:0:0:0:0:
192,192,270536,1,0,0:0:0:0:
448,192,270623,128,0,270740:0:0:0:0:
320,192,270652,1,0,0:0:0:0:
64,192,270740,1,0,0:0:0:0:
192,192,270740,1,0,0:0:0:0:
320,192,270914,128,0,270972:0:0:0:0:
192,192,270943,128,0,271030:0:0:0:0:
64,192,270972,128,0,271088:0:0:0:0:
448,192,271088,1,0,0:0:0:0:
320,192,271088,1,0,0:0:0:0:
64,192,271176,1,0,0:0:0:0:
192,192,271263,1,0,0:0:0:0:
320,192,271321,1,0,0:0:0:0:
192,192,271379,1,0,0:0:0:0:
64,192,271437,1,0,0:0:0:0:
448,192,271437,1,0,0:0:0:0:
320,192,271524,1,0,0:0:0:0:
192,192,271612,1,0,0:0:0:0:
64,192,271670,1,0,0:0:0:0:
448,192,271699,1,0,0:0:0:0:
192,192,271786,1,0,0:0:0:0:
320,192,271873,1,0,0:0:0:0:
64,192,271961,1,0,0:0:0:0:
192,192,271961,1,0,0:0:0:0:
320,192,272019,1,0,0:0:0:0:
448,192,272077,1,0,0:0:0:0:
192,192,272135,1,0,0:0:0:0:
320,192,272193,1,0,0:0:0:0:
192,192,272251,1,0,0:0:0:0:
64,192,272309,1,0,0:0:0:0:
320,192,272426,1,0,0:0:0:0:
448,192,272455,1,0,0:0:0:0:
64,192,272484,1,0,0:0:0:0:
192,192,272484,1,0,0:0:0:0:
320,192,272542,1,0,0:0:0:0:
192,192,272600,1,0,0:0:0:0:
320,192,272658,1,0,0:0:0:0:
64,192,272702,1,0,0:0:0:0:
192,192,272745,1,0,0:0:0:0:
448,192,272789,1,0,0:0:0:0:
320,192,272833,1,0,0:0:0:0:
64,192,272833,1,0,0:0:0:0:
448,192,272920,128,0,272963:0:0:0:0:
320,192,272963,128,0,273007:0:0:0:0:
192,192,273007,1,0,0:0:0:0:
64,192,273094,128,0,273356:0:0:0:0:
64,192,273530,1,0,0:0:0:0:
192,192,273530,1,0,0:0:0:0:
320,192,273705,1,0,0:0:0:0:
448,192,273792,1,0,0:0:0:0:
64,192,273879,1,0,0:0:0:0:
192,192,273879,1,0,0:0:0:0:
320,192,273966,1,0,0:0:0:0:
192,192,274054,1,0,0:0:0:0:
320,192,274141,1,0,0:0:0:0:
448,192,274228,1,0,0:0:0:0:
64,192,274228,128,0,274315:0:0:0:0:
320,192,274315,128,0,274490:0:0:0:0:
192,192,274402,1,0,0:0:0:0:
64,192,274490,128,0,274577:0:0:0:0:
320,192,274577,128,0,274751:0:0:0:0:
192,192,274664,128,0,274751:0:0:0:0:
64,192,274751,1,0,0:0:0:0:
448,192,274751,128,0,274838:0:0:0:0:
192,192,274838,128,0,275013:0:0:0:0:
320,192,274926,1,0,0:0:0:0:
448,192,275013,128,0,275100:0:0:0:0:
192,192,275100,128,0,275274:0:0:0:0:
64,192,275187,128,0,275274:0:0:0:0:
448,192,275274,1,0,0:0:0:0:
320,192,275274,1,0,0:0:0:0:
64,192,275362,1,0,0:0:0:0:
320,192,275449,1,0,0:0:0:0:
192,192,275507,1,0,0:0:0:0:
320,192,275565,1,0,0:0:0:0:
64,192,275623,1,0,0:0:0:0:
448,192,275623,1,0,0:0:0:0:
192,192,275740,1,0,0:0:0:0:
64,192,275769,1,0,0:0:0:0:
448,192,275798,128,0,276176:0:0:0:0:
320,192,275827,128,0,276147:0:0:0:0:
320,192,276205,1,0,0:0:0:0:
448,192,276234,1,0,0:0:0:0:
64,192,276263,128,0,276321:0:0:0:0:
192,192,276292,128,0,276321:0:0:0:0:
448,192,276321,1,0,0:0:0:0:
320,192,276321,1,0,0:0:0:0:
320,192,276495,128,0,276539:0:0:0:0:
192,192,276583,128,0,276626:0:0:0:0:
320,192,276670,1,0,0:0:0:0:
448,192,276670,1,0,0:0:0:0:
64,192,276757,1,0,0:0:0:0:
320,192,276844,128,0,276888:0:0:0:0:
192,192,276931,128,0,276975:0:0:0:0:
448,192,277019,1,0,0:0:0:0:
64,192,277019,1,0,0:0:0:0:
320,192,277106,128,0,277280:0:0:0:0:
448,192,277193,1,0,0:0:0:0:
192,192,277280,1,0,0:0:0:0:
64,192,277324,1,0,0:0:0:0:
320,192,277368,1,0,0:0:0:0:
448,192,277411,1,0,0:0:0:0:
64,192,277455,1,0,0:0:0:0:
192,192,277542,1,0,0:0:0:0:
448,192,277542,1,0,0:0:0:0:
64,192,277586,1,0,0:0:0:0:
320,192,277629,1,0,0:0:0:0:
448,192,277658,1,0,0:0:0:0:
320,192,277760,1,0,0:0:0:0:
64,192,277804,1,0,0:0:0:0:
192,192,277804,1,0,0:0:0:0:
448,192,277847,1,0,0:0:0:0:
192,192,277891,1,0,0:0:0:0:
64,192,277934,1,0,0:0:0:0:
192,192,278022,1,0,0:0:0:0:
448,192,278065,1,0,0:0:0:0:
320,192,278065,1,0,0:0:0:0:
64,192,278109,1,0,0:0:0:0:
320,192,278152,1,0,0:0:0:0:
448,192,278196,1,0,0:0:0:0:
192,192,278240,1,0,0:0:0:0:
64,192,278283,1,0,0:0:0:0:
320,192,278327,1,0,0:0:0:0:
192,192,278370,1,0,0:0:0:0:
448,192,278414,1,0,0:0:0:0:
64,192,278414,1,0,0:0:0:0:
320,192,278501,1,0,0:0:0:0:
448,192,278545,1,0,0:0:0:0:
64,192,278588,1,0,0:0:0:0:
192,192,278588,1,0,0:0:0:0:
320,192,278632,1,0,0:0:0:0:
448,192,278676,1,0,0:0:0:0:
64,192,278763,128,0,278850:0:0:0:0:
192,192,278806,128,0,278937:0:0:0:0:
320,192,278850,128,0,279024:0:0:0:0:
448,192,278894,128,0,279112:0:0:0:0:
192,192,279112,1,0,0:0:0:0:
64,192,279112,1,0,0:0:0:0:
192,192,279286,1,0,0:0:0:0:
320,192,279373,1,0,0:0:0:0:
192,192,279461,1,0,0:0:0:0:
64,192,279461,1,0,0:0:0:0:
448,192,279548,1,0,0:0:0:0:
192,192,279635,1,0,0:0:0:0:
320,192,279693,1,0,0:0:0:0:
192,192,279751,1,0,0:0:0:0:
64,192,279809,1,0,0:0:0:0:
448,192,279809,1,0,0:0:0:0:
320,192,279926,1,0,0:0:0:0:
192,192,279984,1,0,0:0:0:0:
320,192,280042,1,0,0:0:0:0:
448,192,280100,1,0,0:0:0:0:
192,192,280158,1,0,0:0:0:0:
64,192,280216,1,0,0:0:0:0:
320,192,280274,1,0,0:0:0:0:
64,192,280333,1,0,0:0:0:0:
448,192,280333,1,0,0:0:0:0:
192,192,280391,1,0,0:0:0:0:
320,192,280507,1,0,0:0:0:0:
448,192,280565,1,0,0:0:0:0:
64,192,280594,1,0,0:0:0:0:
320,192,280681,1,0,0:0:0:0:
192,192,280798,1,0,0:0:0:0:
64,192,280827,1,0,0:0:0:0:
448,192,280856,1,0,0:0:0:0:
320,192,280856,1,0,0:0:0:0:
192,192,280943,1,0,0:0:0:0:
320,192,281030,1,0,0:0:0:0:
192,192,281088,1,0,0:0:0:0:
448,192,281147,1,0,0:0:0:0:
320,192,281205,1,0,0:0:0:0:
64,192,281205,1,0,0:0:0:0:
192,192,281292,1,0,0:0:0:0:
448,192,281379,128,0,281495:0:0:0:0:
320,192,281408,1,0,0:0:0:0:
64,192,281466,128,0,281612:0:0:0:0:
192,192,281495,1,0,0:0:0:0:
448,192,281554,128,0,281728:0:0:0:0:
320,192,281583,1,0,0:0:0:0:
64,192,281670,128,0,281815:0:0:0:0:
192,192,281699,1,0,0:0:0:0:
448,192,281786,128,0,281902:0:0:0:0:
320,192,281815,1,0,0:0:0:0:
64,192,281902,1,0,0:0:0:0:
192,192,281902,1,0,0:0:0:0:
320,192,282077,128,0,282135:0:0:0:0:
192,192,282106,128,0,282193:0:0:0:0:
64,192,282135,128,0,282251:0:0:0:0:
448,192,282251,1,0,0:0:0:0:
320,192,282251,1,0,0:0:0:0:
64,192,282338,1,0,0:0:0:0:
192,192,282426,1,0,0:0:0:0:
320,192,282484,1,0,0:0:0:0:
192,192,282542,1,0,0:0:0:0:
64,192,282600,1,0,0:0:0:0:
448,192,282600,1,0,0:0:0:0:
320,192,282687,1,0,0:0:0:0:
192,192,282774,1,0,0:0:0:0:
64,192,282833,1,0,0:0:0:0:
448,192,282862,1,0,0:0:0:0:
192,192,282949,1,0,0:0:0:0:
320,192,283036,1,0,0:0:0:0:
64,192,283123,1,0,0:0:0:0:
192,192,283123,1,0,0:0:0:0:
320,192,283181,1,0,0:0:0:0:
448,192,283240,1,0,0:0:0:0:
192,192,283298,1,0,0:0:0:0:
320,192,283356,1,0,0:0:0:0:
192,192,283414,1,0,0:0:0:0:
64,192,283472,1,0,0:0:0:0:
320,192,283588,1,0,0:0:0:0:
448,192,283618,1,0,0:0:0:0:
64,192,283647,1,0,0:0:0:0:
192,192,283647,1,0,0:0:0:0:
320,192,283705,1,0,0:0:0:0:
192,192,283763,1,0,0:0:0:0:
320,192,283821,1,0,0:0:0:0:
64,192,283865,1,0,0:0:0:0:
192,192,283908,1,0,0:0:0:0:
448,192,283952,1,0,0:0:0:0:
320,192,283995,1,0,0:0:0:0:
64,192,283995,1,0,0:0:0:0:
192,192,284083,1,0,0:0:0:0:
320,192,284170,1,0,0:0:0:0:
192,192,284257,128,0,284315:0:0:0:0:
64,192,284286,128,0,284344:0:0:0:0:
320,192,284315,1,0,0:0:0:0:
448,192,284344,1,0,0:0:0:0:
320,192,284431,128,0,284475:0:0:0:0:
192,192,284519,128,0,284562:0:0:0:0:
64,192,284606,128,0,284649:0:0:0:0:
448,192,284693,1,0,0:0:0:0:
320,192,284693,1,0,0:0:0:0:
320,192,284868,1,0,0:0:0:0:
448,192,284955,1,0,0:0:0:0:
64,192,285042,1,0,0:0:0:0:
192,192,285042,1,0,0:0:0:0:
320,192,285129,1,0,0:0:0:0:
192,192,285216,1,0,0:0:0:0:
320,192,285304,1,0,0:0:0:0:
448,192,285391,1,0,0:0:0:0:
64,192,285391,128,0,285478:0:0:0:0:
320,192,285478,128,0,285652:0:0:0:0:
192,192,285565,1,0,0:0:0:0:
64,192,285652,128,0,285740:0:0:0:0:
320,192,285740,128,0,285914:0:0:0:0:
192,192,285827,1,0,0:0:0:0:
64,192,285914,128,0,286001:0:0:0:0:
448,192,285914,1,0,0:0:0:0:
320,192,286001,1,0,0:0:0:0:
64,192,286088,128,0,286176:0:0:0:0:
320,192,286176,1,0,0:0:0:0:
64,192,286263,128,0,286350:0:0:0:0:
320,192,286350,1,0,0:0:0:0:
192,192,286437,1,0,0:0:0:0:
64,192,286437,1,0,0:0:0:0:
448,192,286524,1,0,0:0:0:0:
192,192,286612,1,0,0:0:0:0:
320,192,286670,1,0,0:0:0:0:
192,192,286728,1,0,0:0:0:0:
64,192,286786,1,0,0:0:0:0:
448,192,286786,1,0,0:0:0:0:
192,192,286902,1,0,0:0:0:0:
64,192,286931,1,0,0:0:0:0:
448,192,286961,128,0,287338:0:0:0:0:
320,192,286990,128,0,287309:0:0:0:0:
320,192,287368,1,0,0:0:0:0:
448,192,287397,1,0,0:0:0:0:
64,192,287426,128,0,287484:0:0:0:0:
192,192,287455,128,0,287484:0:0:0:0:
448,192,287484,1,0,0:0:0:0:
320,192,287484,1,0,0:0:0:0:
320,192,287658,128,0,287716:0:0:0:0:
192,192,287687,128,0,287774:0:0:0:0:
64,192,287716,128,0,287833:0:0:0:0:
320,192,287833,1,0,0:0:0:0:
448,192,287833,1,0,0:0:0:0:
64,192,287920,1,0,0:0:0:0:
320,192,288007,128,0,288094:0:0:0:0:
192,192,288094,1,0,0:0:0:0:
64,192,288094,1,0,0:0:0:0:
64,192,288181,1,0,0:0:0:0:
448,192,288181,1,0,0:0:0:0:
320,192,288269,1,0,0:0:0:0:
192,192,288356,1,0,0:0:0:0:
64,192,288443,1,0,0:0:0:0:
320,192,288443,128,0,288530:0:0:0:0:
192,192,288530,1,0,0:0:0:0:
320,192,288618,128,0,288705:0:0:0:0:
192,192,288705,1,0,0:0:0:0:
320,192,288792,128,0,288879:0:0:0:0:
448,192,288879,128,0,288966:0:0:0:0:
192,192,288966,1,0,0:0:0:0:
64,192,288966,1,0,0:0:0:0:
320,192,289054,128,0,289097:0:0:0:0:
320,192,289141,128,0,289184:0:0:0:0:
64,192,289228,1,0,0:0:0:0:
448,192,289228,1,0,0:0:0:0:
192,192,289286,1,0,0:0:0:0:
320,192,289344,1,0,0:0:0:0:
192,192,289402,1,0,0:0:0:0:
320,192,289446,1,0,0:0:0:0:
448,192,289490,1,0,0:0:0:0:
192,192,289533,1,0,0:0:0:0:
320,192,289577,1,0,0:0:0:0:
448,192,289620,1,0,0:0:0:0:
192,192,289664,1,0,0:0:0:0:
64,192,289708,1,0,0:0:0:0:
448,192,289751,1,0,0:0:0:0:
320,192,289795,1,0,0:0:0:0:
192,192,289838,1,0,0:0:0:0:
64,192,289882,1,0,0:0:0:0:
448,192,289926,1,0,0:0:0:0:
320,192,289969,1,0,0:0:0:0:
192,192,290013,1,0,0:0:0:0:
64,192,290056,1,0,0:0:0:0:
448,192,290100,1,0,0:0:0:0:
320,192,290144,1,0,0:0:0:0:
192,192,290187,1,0,0:0:0:0:
64,192,290231,1,0,0:0:0:0:
320,192,290274,1,0,0:0:0:0:
448,192,290274,1,0,0:0:0:0:
192,192,290449,1,0,0:0:0:0:
320,192,290536,1,0,0:0:0:0:
64,192,290623,1,0,0:0:0:0:
192,192,290623,1,0,0:0:0:0:
320,192,290711,1,0,0:0:0:0:
448,192,290798,1,0,0:0:0:0:
192,192,290841,128,0,290885:0:0:0:0:
320,192,290885,128,0,290929:0:0:0:0:
448,192,290972,1,0,0:0:0:0:
64,192,290972,1,0,0:0:0:0:
320,192,291059,1,0,0:0:0:0:
192,192,291147,128,0,291190:0:0:0:0:
320,192,291234,128,0,291277:0:0:0:0:
192,192,291321,128,0,291365:0:0:0:0:
320,192,291408,1,0,0:0:0:0:
192,192,291452,128,0,291495:0:0:0:0:
64,192,291495,1,0,0:0:0:0:
448,192,291495,1,0,0:0:0:0:
320,192,291670,128,0,291713:0:0:0:0:
192,192,291757,128,0,291801:0:0:0:0:
64,192,291844,1,0,0:0:0:0:
448,192,291844,1,0,0:0:0:0:
320,192,291931,128,0,291975:0:0:0:0:
192,192,292019,1,0,0:0:0:0:
64,192,292019,1,0,0:0:0:0:
448,192,292062,1,0,0:0:0:0:
320,192,292106,1,0,0:0:0:0:
192,192,292193,128,0,292237:0:0:0:0:
320,192,292280,128,0,292324:0:0:0:0:
64,192,292368,1,0,0:0:0:0:
448,192,292368,1,0,0:0:0:0:
320,192,292411,1,0,0:0:0:0:
192,192,292455,1,0,0:0:0:0:
64,192,292498,1,0,0:0:0:0:
320,192,292542,1,0,0:0:0:0:
448,192,292586,1,0,0:0:0:0:
64,192,292629,1,0,0:0:0:0:
192,192,292673,1,0,0:0:0:0:
320,192,292716,1,0,0:0:0:0:
448,192,292760,1,0,0:0:0:0:
64,192,292804,1,0,0:0:0:0:
192,192,292847,1,0,0:0:0:0:
320,192,292891,1,0,0:0:0:0:
448,192,292934,1,0,0:0:0:0:
64,192,292978,1,0,0:0:0:0:
192,192,293022,1,0,0:0:0:0:
320,192,293065,1,0,0:0:0:0:
448,192,293065,1,0,0:0:0:0:
192,192,293240,128,0,293298:0:0:0:0:
320,192,293269,128,0,293356:0:0:0:0:
448,192,293298,128,0,293414:0:0:0:0:
192,192,293414,1,0,0:0:0:0:
64,192,293414,1,0,0:0:0:0:
448,192,293458,1,0,0:0:0:0:
320,192,293501,1,0,0:0:0:0:
64,192,293588,1,0,0:0:0:0:
192,192,293676,1,0,0:0:0:0:
320,192,293719,1,0,0:0:0:0:
448,192,293763,1,0,0:0:0:0:
64,192,293763,1,0,0:0:0:0:
192,192,293937,1,0,0:0:0:0:
64,192,293937,1,0,0:0:0:0:
448,192,293981,1,0,0:0:0:0:
320,192,294024,1,0,0:0:0:0:
192,192,294024,1,0,0:0:0:0:
64,192,294112,1,0,0:0:0:0:
320,192,294199,1,0,0:0:0:0:
448,192,294286,1,0,0:0:0:0:
64,192,294286,1,0,0:0:0:0:
192,192,294461,1,0,0:0:0:0:
64,192,294461,1,0,0:0:0:0:
448,192,294504,1,0,0:0:0:0:
320,192,294548,1,0,0:0:0:0:
448,192,294635,1,0,0:0:0:0:
64,192,294635,1,0,0:0:0:0:
192,192,294809,1,0,0:0:0:0:
64,192,294809,1,0,0:0:0:0:
448,192,294853,1,0,0:0:0:0:
320,192,294897,1,0,0:0:0:0:
64,192,294984,1,0,0:0:0:0:
320,192,295071,1,0,0:0:0:0:
448,192,295158,1,0,0:0:0:0:
192,192,295158,1,0,0:0:0:0:
64,192,295202,1,0,0:0:0:0:
320,192,295245,1,0,0:0:0:0:
192,192,295289,1,0,0:0:0:0:
64,192,295333,1,0,0:0:0:0:
320,192,295420,1,0,0:0:0:0:
448,192,295463,1,0,0:0:0:0:
192,192,295507,1,0,0:0:0:0:
320,192,295551,1,0,0:0:0:0:
448,192,295594,1,0,0:0:0:0:
64,192,295681,1,0,0:0:0:0:
448,192,295769,1,0,0:0:0:0:
192,192,295856,1,0,0:0:0:0:
64,192,295856,1,0,0:0:0:0:
192,192,296030,1,0,0:0:0:0:
320,192,296118,1,0,0:0:0:0:
64,192,296205,1,0,0:0:0:0:
192,192,296205,1,0,0:0:0:0:
320,192,296292,1,0,0:0:0:0:
448,192,296379,1,0,0:0:0:0:
192,192,296423,128,0,296466:0:0:0:0:
320,192,296466,128,0,296510:0:0:0:0:
448,192,296554,1,0,0:0:0:0:
64,192,296554,1,0,0:0:0:0:
320,192,296641,1,0,0:0:0:0:
192,192,296728,128,0,296772:0:0:0:0:
320,192,296815,128,0,296859:0:0:0:0:
192,192,296902,128,0,296946:0:0:0:0:
320,192,296990,1,0,0:0:0:0:
192,192,297033,128,0,297077:0:0:0:0:
64,192,297077,1,0,0:0:0:0:
448,192,297077,1,0,0:0:0:0:
320,192,297251,128,0,297295:0:0:0:0:
192,192,297338,128,0,297382:0:0:0:0:
64,192,297426,1,0,0:0:0:0:
448,192,297426,1,0,0:0:0:0:
320,192,297513,128,0,297556:0:0:0:0:
192,192,297600,1,0,0:0:0:0:
64,192,297600,1,0,0:0:0:0:
448,192,297644,1,0,0:0:0:0:
320,192,297687,1,0,0:0:0:0:
192,192,297774,128,0,297818:0:0:0:0:
320,192,297862,128,0,297905:0:0:0:0:
64,192,297949,1,0,0:0:0:0:
448,192,297949,1,0,0:0:0:0:
320,192,297993,1,0,0:0:0:0:
192,192,298036,1,0,0:0:0:0:
64,192,298080,1,0,0:0:0:0:
448,192,298123,1,0,0:0:0:0:
320,192,298167,1,0,0:0:0:0:
192,192,298211,1,0,0:0:0:0:
64,192,298254,1,0,0:0:0:0:
448,192,298298,1,0,0:0:0:0:
320,192,298341,1,0,0:0:0:0:
192,192,298385,1,0,0:0:0:0:
64,192,298429,1,0,0:0:0:0:
448,192,298472,1,0,0:0:0:0:
320,192,298516,1,0,0:0:0:0:
192,192,298559,1,0,0:0:0:0:
64,192,298603,1,0,0:0:0:0:
320,192,298647,1,0,0:0:0:0:
448,192,298647,1,0,0:0:0:0:
192,192,298705,1,0,0:0:0:0:
64,192,298763,1,0,0:0:0:0:
448,192,298821,128,0,298879:0:0:0:0:
320,192,298850,128,0,298937:0:0:0:0:
192,192,298879,128,0,298995:0:0:0:0:
448,192,298995,1,0,0:0:0:0:
64,192,298995,1,0,0:0:0:0:
320,192,299054,1,0,0:0:0:0:
192,192,299112,1,0,0:0:0:0:
448,192,299170,1,0,0:0:0:0:
320,192,299228,1,0,0:0:0:0:
192,192,299286,1,0,0:0:0:0:
64,192,299344,1,0,0:0:0:0:
448,192,299344,1,0,0:0:0:0:
320,192,299388,1,0,0:0:0:0:
192,192,299431,1,0,0:0:0:0:
64,192,299475,1,0,0:0:0:0:
448,192,299519,1,0,0:0:0:0:
320,192,299562,1,0,0:0:0:0:
192,192,299606,1,0,0:0:0:0:
64,192,299606,1,0,0:0:0:0:
448,192,299693,1,0,0:0:0:0:
192,192,299751,1,0,0:0:0:0:
320,192,299809,1,0,0:0:0:0:
64,192,299868,1,0,0:0:0:0:
448,192,299868,1,0,0:0:0:0:
192,192,299911,1,0,0:0:0:0:
320,192,299955,1,0,0:0:0:0:
448,192,299998,1,0,0:0:0:0:
64,192,300042,1,0,0:0:0:0:
192,192,300086,1,0,0:0:0:0:
320,192,300129,1,0,0:0:0:0:
448,192,300129,1,0,0:0:0:0:
64,192,300216,1,0,0:0:0:0:
448,192,300216,1,0,0:0:0:0:
192,192,300274,1,0,0:0:0:0:
320,192,300333,1,0,0:0:0:0:
64,192,300391,1,0,0:0:0:0:
192,192,300391,1,0,0:0:0:0:
448,192,300449,1,0,0:0:0:0:
320,192,300507,1,0,0:0:0:0:
64,192,300565,1,0,0:0:0:0:
320,192,300609,1,0,0:0:0:0:
192,192,300652,1,0,0:0:0:0:
448,192,300740,1,0,0:0:0:0:
64,192,300740,1,0,0:0:0:0:
192,192,300783,1,0,0:0:0:0:
320,192,300827,1,0,0:0:0:0:
64,192,300870,1,0,0:0:0:0:
448,192,300914,1,0,0:0:0:0:
320,192,300958,1,0,0:0:0:0:
192,192,301001,1,0,0:0:0:0:
448,192,301045,1,0,0:0:0:0:
64,192,301088,1,0,0:0:0:0:
192,192,301132,1,0,0:0:0:0:
320,192,301176,1,0,0:0:0:0:
64,192,301219,1,0,0:0:0:0:
448,192,301263,1,0,0:0:0:0:
320,192,301306,1,0,0:0:0:0:
192,192,301350,1,0,0:0:0:0:
448,192,301394,1,0,0:0:0:0:
64,192,301437,1,0,0:0:0:0:
192,192,301437,1,0,0:0:0:0:
320,192,301612,1,0,0:0:0:0:
448,192,301699,1,0,0:0:0:0:
64,192,301786,1,0,0:0:0:0:
192,192,301786,1,0,0:0:0:0:
320,192,301873,1,0,0:0:0:0:
448,192,301961,1,0,0:0:0:0:
192,192,302004,128,0,302048:0:0:0:0:
320,192,302048,128,0,302091:0:0:0:0:
448,192,302135,1,0,0:0:0:0:
64,192,302135,1,0,0:0:0:0:
320,192,302222,1,0,0:0:0:0:
192,192,302309,128,0,302353:0:0:0:0:
320,192,302397,128,0,302440:0:0:0:0:
192,192,302484,128,0,302527:0:0:0:0:
320,192,302571,1,0,0:0:0:0:
192,192,302615,128,0,302658:0:0:0:0:
64,192,302658,1,0,0:0:0:0:
448,192,302658,1,0,0:0:0:0:
320,192,302833,128,0,302876:0:0:0:0:
192,192,302920,128,0,302963:0:0:0:0:
64,192,303007,1,0,0:0:0:0:
448,192,303007,1,0,0:0:0:0:
320,192,303094,128,0,303138:0:0:0:0:
192,192,303181,1,0,0:0:0:0:
64,192,303181,1,0,0:0:0:0:
448,192,303225,1,0,0:0:0:0:
320,192,303269,1,0,0:0:0:0:
192,192,303356,128,0,303399:0:0:0:0:
320,192,303443,128,0,303487:0:0:0:0:
64,192,303530,1,0,0:0:0:0:
448,192,303530,1,0,0:0:0:0:
320,192,303574,1,0,0:0:0:0:
192,192,303618,1,0,0:0:0:0:
64,192,303661,1,0,0:0:0:0:
320,192,303705,1,0,0:0:0:0:
192,192,303748,1,0,0:0:0:0:
448,192,303792,1,0,0:0:0:0:
320,192,303836,1,0,0:0:0:0:
192,192,303879,1,0,0:0:0:0:
64,192,303923,1,0,0:0:0:0:
320,192,303966,1,0,0:0:0:0:
192,192,304010,1,0,0:0:0:0:
448,192,304054,1,0,0:0:0:0:
320,192,304097,1,0,0:0:0:0:
192,192,304141,1,0,0:0:0:0:
64,192,304184,1,0,0:0:0:0:
320,192,304228,1,0,0:0:0:0:
448,192,304228,1,0,0:0:0:0:
192,192,304402,128,0,304461:0:0:0:0:
320,192,304431,128,0,304519:0:0:0:0:
448,192,304461,128,0,304577:0:0:0:0:
192,192,304577,1,0,0:0:0:0:
64,192,304577,1,0,0:0:0:0:
448,192,304620,1,0,0:0:0:0:
320,192,304664,1,0,0:0:0:0:
64,192,304751,1,0,0:0:0:0:
192,192,304838,1,0,0:0:0:0:
320,192,304882,1,0,0:0:0:0:
448,192,304926,1,0,0:0:0:0:
64,192,304926,1,0,0:0:0:0:
192,192,305100,1,0,0:0:0:0:
64,192,305100,1,0,0:0:0:0:
448,192,305144,1,0,0:0:0:0:
320,192,305187,1,0,0:0:0:0:
192,192,305187,1,0,0:0:0:0:
64,192,305274,1,0,0:0:0:0:
320,192,305362,1,0,0:0:0:0:
448,192,305449,1,0,0:0:0:0:
64,192,305449,1,0,0:0:0:0:
192,192,305623,1,0,0:0:0:0:
64,192,305623,1,0,0:0:0:0:
448,192,305667,1,0,0:0:0:0:
320,192,305711,1,0,0:0:0:0:
448,192,305798,1,0,0:0:0:0:
64,192,305798,1,0,0:0:0:0:
192,192,305972,1,0,0:0:0:0:
64,192,305972,1,0,0:0:0:0:
448,192,306016,1,0,0:0:0:0:
320,192,306059,1,0,0:0:0:0:
64,192,306147,1,0,0:0:0:0:
320,192,306234,1,0,0:0:0:0:
448,192,306321,1,0,0:0:0:0:
192,192,306321,1,0,0:0:0:0:
64,192,306365,1,0,0:0:0:0:
320,192,306408,1,0,0:0:0:0:
192,192,306452,1,0,0:0:0:0:
64,192,306495,1,0,0:0:0:0:
320,192,306583,1,0,0:0:0:0:
448,192,306626,1,0,0:0:0:0:
192,192,306670,1,0,0:0:0:0:
320,192,306713,1,0,0:0:0:0:
448,192,306757,1,0,0:0:0:0:
64,192,306844,1,0,0:0:0:0:
448,192,306931,1,0,0:0:0:0:
192,192,307019,1,0,0:0:0:0:
64,192,307019,1,0,0:0:0:0:
192,192,307193,1,0,0:0:0:0:
320,192,307280,1,0,0:0:0:0:
64,192,307368,1,0,0:0:0:0:
192,192,307368,1,0,0:0:0:0:
320,192,307455,1,0,0:0:0:0:
448,192,307542,1,0,0:0:0:0:
192,192,307586,128,0,307629:0:0:0:0:
320,192,307629,128,0,307673:0:0:0:0:
448,192,307716,1,0,0:0:0:0:
64,192,307716,1,0,0:0:0:0:
320,192,307804,1,0,0:0:0:0:
192,192,307891,128,0,307934:0:0:0:0:
320,192,307978,128,0,308022:0:0:0:0:
192,192,308065,128,0,308109:0:0:0:0:
320,192,308152,1,0,0:0:0:0:
192,192,308196,128,0,308240:0:0:0:0:
64,192,308240,1,0,0:0:0:0:
448,192,308240,1,0,0:0:0:0:
320,192,308414,128,0,308458:0:0:0:0:
192,192,308501,128,0,308545:0:0:0:0:
64,192,308588,1,0,0:0:0:0:
448,192,308588,1,0,0:0:0:0:
320,192,308676,128,0,308719:0:0:0:0:
192,192,308763,1,0,0:0:0:0:
64,192,308763,1,0,0:0:0:0:
448,192,308806,1,0,0:0:0:0:
320,192,308850,1,0,0:0:0:0:
192,192,308937,128,0,308981:0:0:0:0:
320,192,309024,128,0,309068:0:0:0:0:
64,192,309112,1,0,0:0:0:0:
448,192,309112,1,0,0:0:0:0:
320,192,309155,1,0,0:0:0:0:
192,192,309199,1,0,0:0:0:0:
64,192,309243,1,0,0:0:0:0:
448,192,309286,1,0,0:0:0:0:
320,192,309330,1,0,0:0:0:0:
192,192,309373,1,0,0:0:0:0:
64,192,309417,1,0,0:0:0:0:
448,192,309461,1,0,0:0:0:0:
320,192,309504,1,0,0:0:0:0:
192,192,309548,1,0,0:0:0:0:
64,192,309591,1,0,0:0:0:0:
448,192,309635,1,0,0:0:0:0:
320,192,309679,1,0,0:0:0:0:
192,192,309722,1,0,0:0:0:0:
64,192,309766,1,0,0:0:0:0:
320,192,309809,1,0,0:0:0:0:
448,192,309809,1,0,0:0:0:0:
192,192,309868,1,0,0:0:0:0:
320,192,309926,1,0,0:0:0:0:
448,192,309984,1,0,0:0:0:0:
64,192,309984,1,0,0:0:0:0:
320,192,310071,1,0,0:0:0:0:
192,192,310071,1,0,0:0:0:0:
64,192,310158,1,0,0:0:0:0:
448,192,310158,1,0,0:0:0:0:
192,192,310216,1,0,0:0:0:0:
320,192,310274,1,0,0:0:0:0:
64,192,310333,1,0,0:0:0:0:
448,192,310333,1,0,0:0:0:0:
192,192,310420,1,0,0:0:0:0:
320,192,310420,1,0,0:0:0:0:
448,192,310507,1,0,0:0:0:0:
64,192,310507,1,0,0:0:0:0:
192,192,310551,1,0,0:0:0:0:
320,192,310594,1,0,0:0:0:0:
448,192,310638,1,0,0:0:0:0:
64,192,310681,1,0,0:0:0:0:
192,192,310681,1,0,0:0:0:0:
320,192,310769,1,0,0:0:0:0:
448,192,310769,1,0,0:0:0:0:
192,192,310856,1,0,0:0:0:0:
64,192,310856,1,0,0:0:0:0:
320,192,310899,1,0,0:0:0:0:
448,192,310943,1,0,0:0:0:0:
64,192,310987,1,0,0:0:0:0:
192,192,311030,1,0,0:0:0:0:
320,192,311030,1,0,0:0:0:0:
64,192,311118,1,0,0:0:0:0:
448,192,311118,1,0,0:0:0:0:
320,192,311205,1,0,0:0:0:0:
192,192,311205,1,0,0:0:0:0:
448,192,311292,1,0,0:0:0:0:
192,192,311379,1,0,0:0:0:0:
64,192,311379,1,0,0:0:0:0:
64,192,311466,1,0,0:0:0:0:
448,192,311466,1,0,0:0:0:0:
192,192,311554,1,0,0:0:0:0:
320,192,311554,1,0,0:0:0:0:
64,192,311641,1,0,0:0:0:0:
320,192,311728,1,0,0:0:0:0:
448,192,311728,1,0,0:0:0:0:
448,192,311815,1,0,0:0:0:0:
64,192,311815,1,0,0:0:0:0:
192,192,311902,128,0,311990:0:0:0:0:
320,192,311946,128,0,311990:0:0:0:0:
192,192,312077,1,0,0:0:0:0:
192,192,312164,1,0,0:0:0:0:
64,192,312251,128,0,312382:0:0:0:0:
448,192,312251,128,0,312382:0:0:0:0:
320,192,312426,128,0,312600:0:0:0:0:
192,192,312600,1,0,0:0:0:0:
64,192,312600,1,0,0:0:0:0:
320,192,312774,1,0,0:0:0:0:
192,192,312862,1,0,0:0:0:0:
448,192,312949,1,0,0:0:0:0:
320,192,312949,1,0,0:0:0:0:
192,192,312993,1,0,0:0:0:0:
320,192,313036,1,0,0:0:0:0:
448,192,313036,1,0,0:0:0:0:
64,192,313080,1,0,0:0:0:0:
192,192,313123,1,0,0:0:0:0:
320,192,313181,1,0,0:0:0:0:
192,192,313240,1,0,0:0:0:0:
448,192,313298,1,0,0:0:0:0:
64,192,313298,1,0,0:0:0:0:
320,192,313356,1,0,0:0:0:0:
192,192,313414,1,0,0:0:0:0:
64,192,313472,1,0,0:0:0:0:
320,192,313530,1,0,0:0:0:0:
192,192,313588,1,0,0:0:0:0:
448,192,313647,1,0,0:0:0:0:
320,192,313705,1,0,0:0:0:0:
192,192,313763,1,0,0:0:0:0:
448,192,313821,1,0,0:0:0:0:
320,192,313865,1,0,0:0:0:0:
192,192,313908,1,0,0:0:0:0:
64,192,313952,1,0,0:0:0:0:
320,192,313995,1,0,0:0:0:0:
448,192,313995,1,0,0:0:0:0:
192,192,314039,1,0,0:0:0:0:
64,192,314083,1,0,0:0:0:0:
320,192,314126,1,0,0:0:0:0:
192,192,314170,1,0,0:0:0:0:
64,192,314213,1,0,0:0:0:0:
448,192,314257,1,0,0:0:0:0:
320,192,314301,1,0,0:0:0:0:
64,192,314344,1,0,0:0:0:0:
320,192,314388,1,0,0:0:0:0:
448,192,314431,1,0,0:0:0:0:
192,192,314475,1,0,0:0:0:0:
320,192,314519,1,0,0:0:0:0:
64,192,314562,1,0,0:0:0:0:
192,192,314606,1,0,0:0:0:0:
320,192,314649,1,0,0:0:0:0:
448,192,314693,1,0,0:0:0:0:
64,192,314693,1,0,0:0:0:0:
320,192,314751,1,0,0:0:0:0:
192,192,314809,1,0,0:0:0:0:
64,192,314868,1,0,0:0:0:0:
320,192,314926,1,0,0:0:0:0:
192,192,314984,1,0,0:0:0:0:
448,192,315042,1,0,0:0:0:0:
320,192,315100,1,0,0:0:0:0:
64,192,315158,1,0,0:0:0:0:
192,192,315216,1,0,0:0:0:0:
448,192,315274,1,0,0:0:0:0:
320,192,315304,1,0,0:0:0:0:
192,192,315333,1,0,0:0:0:0:
64,192,315362,1,0,0:0:0:0:
320,192,315391,1,0,0:0:0:0:
448,192,315391,1,0,0:0:0:0:
192,192,315478,128,0,315536:0:0:0:0:
320,192,315507,128,0,315594:0:0:0:0:
448,192,315536,128,0,315652:0:0:0:0:
192,192,315652,1,0,0:0:0:0:
64,192,315652,1,0,0:0:0:0:
320,192,315740,1,0,0:0:0:0:
64,192,315827,1,0,0:0:0:0:
192,192,315856,1,0,0:0:0:0:
320,192,315885,1,0,0:0:0:0:
448,192,315914,1,0,0:0:0:0:
192,192,316001,1,0,0:0:0:0:
448,192,316088,1,0,0:0:0:0:
64,192,316088,1,0,0:0:0:0:
192,192,316176,1,0,0:0:0:0:
320,192,316205,1,0,0:0:0:0:
448,192,316234,1,0,0:0:0:0:
64,192,316263,1,0,0:0:0:0:
320,192,316350,1,0,0:0:0:0:
64,192,316437,1,0,0:0:0:0:
192,192,316466,1,0,0:0:0:0:
448,192,316524,1,0,0:0:0:0:
320,192,316554,1,0,0:0:0:0:
192,192,316583,1,0,0:0:0:0:
64,192,316612,1,0,0:0:0:0:
320,192,316699,1,0,0:0:0:0:
192,192,316728,1,0,0:0:0:0:
64,192,316757,1,0,0:0:0:0:
320,192,316786,1,0,0:0:0:0:
448,192,316786,1,0,0:0:0:0:
64,192,316873,1,0,0:0:0:0:
192,192,316902,1,0,0:0:0:0:
320,192,316931,128,0,317048:0:0:0:0:
448,192,316961,128,0,317048:0:0:0:0:
192,192,317048,1,0,0:0:0:0:
64,192,317048,128,0,317091:0:0:0:0:
320,192,317135,1,0,0:0:0:0:
448,192,317222,1,0,0:0:0:0:
320,192,317251,1,0,0:0:0:0:
192,192,317280,1,0,0:0:0:0:
64,192,317309,1,0,0:0:0:0:
320,192,317397,1,0,0:0:0:0:
448,192,317484,1,0,0:0:0:0:
64,192,317484,1,0,0:0:0:0:
192,192,317571,1,0,0:0:0:0:
320,192,317600,1,0,0:0:0:0:
448,192,317629,1,0,0:0:0:0:
64,192,317658,1,0,0:0:0:0:
192,192,317745,1,0,0:0:0:0:
320,192,317774,1,0,0:0:0:0:
448,192,317804,1,0,0:0:0:0:
64,192,317833,1,0,0:0:0:0:
448,192,317920,1,0,0:0:0:0:
320,192,317963,1,0,0:0:0:0:
192,192,318007,1,0,0:0:0:0:
320,192,318051,1,0,0:0:0:0:
192,192,318094,1,0,0:0:0:0:
64,192,318138,1,0,0:0:0:0:
320,192,318181,1,0,0:0:0:0:
448,192,318181,1,0,0:0:0:0:
192,192,318356,1,0,0:0:0:0:
320,192,318443,1,0,0:0:0:0:
448,192,318443,1,0,0:0:0:0:
64,192,318530,1,0,0:0:0:0:
192,192,318574,1,0,0:0:0:0:
320,192,318618,1,0,0:0:0:0:
64,192,318661,1,0,0:0:0:0:
192,192,318705,1,0,0:0:0:0:
320,192,318763,1,0,0:0:0:0:
192,192,318821,1,0,0:0:0:0:
64,192,318879,1,0,0:0:0:0:
448,192,318879,1,0,0:0:0:0:
320,192,318966,128,0,319054:0:0:0:0:
320,192,319184,1,0,0:0:0:0:
448,192,319184,1,0,0:0:0:0:
192,192,319272,1,0,0:0:0:0:
64,192,319272,1,0,0:0:0:0:
448,192,319315,1,0,0:0:0:0:
320,192,319315,1,0,0:0:0:0:
192,192,319359,1,0,0:0:0:0:
64,192,319359,1,0,0:0:0:0:
320,192,319402,1,0,0:0:0:0:
448,192,319402,1,0,0:0:0:0:
64,192,319490,128,0,319577:0:0:0:0:
320,192,319577,1,0,0:0:0:0:
448,192,319577,1,0,0:0:0:0:
64,192,319664,128,0,319838:0:0:0:0:
192,192,319751,1,0,0:0:0:0:
320,192,319838,1,0,0:0:0:0:
448,192,319838,1,0,0:0:0:0:
192,192,319926,128,0,320013:0:0:0:0:
320,192,320013,1,0,0:0:0:0:
192,192,320100,128,0,320187:0:0:0:0:
320,192,320187,1,0,0:0:0:0:
192,192,320274,128,0,320362:0:0:0:0:
448,192,320274,1,0,0:0:0:0:
320,192,320362,1,0,0:0:0:0:
192,192,320449,128,0,320536:0:0:0:0:
320,192,320536,1,0,0:0:0:0:
448,192,320623,128,0,320856:0:0:0:0:
320,192,320711,128,0,320885:0:0:0:0:
64,192,320754,1,0,0:0:0:0:
192,192,320798,1,0,0:0:0:0:
192,192,320914,1,0,0:0:0:0:
64,192,320943,1,0,0:0:0:0:
320,192,320972,1,0,0:0:0:0:
448,192,320972,1,0,0:0:0:0:
192,192,321059,128,0,321118:0:0:0:0:
320,192,321088,128,0,321176:0:0:0:0:
448,192,321118,128,0,321234:0:0:0:0:
192,192,321234,1,0,0:0:0:0:
64,192,321234,1,0,0:0:0:0:
320,192,321321,1,0,0:0:0:0:
64,192,321408,1,0,0:0:0:0:
192,192,321437,1,0,0:0:0:0:
320,192,321466,1,0,0:0:0:0:
448,192,321495,1,0,0:0:0:0:
192,192,321583,1,0,0:0:0:0:
64,192,321670,1,0,0:0:0:0:
448,192,321670,1,0,0:0:0:0:
448,192,321757,1,0,0:0:0:0:
192,192,321844,1,0,0:0:0:0:
320,192,321931,128,0,322019:0:0:0:0:
192,192,321961,1,0,0:0:0:0:
448,192,322019,1,0,0:0:0:0:
192,192,322106,1,0,0:0:0:0:
320,192,322135,1,0,0:0:0:0:
448,192,322164,1,0,0:0:0:0:
64,192,322193,1,0,0:0:0:0:
320,192,322280,1,0,0:0:0:0:
192,192,322309,1,0,0:0:0:0:
64,192,322338,1,0,0:0:0:0:
448,192,322368,1,0,0:0:0:0:
320,192,322368,1,0,0:0:0:0:
64,192,322455,1,0,0:0:0:0:
192,192,322484,1,0,0:0:0:0:
320,192,322513,1,0,0:0:0:0:
448,192,322542,1,0,0:0:0:0:
192,192,322629,1,0,0:0:0:0:
64,192,322629,1,0,0:0:0:0:
448,192,322716,1,0,0:0:0:0:
320,192,322804,1,0,0:0:0:0:
192,192,322833,1,0,0:0:0:0:
64,192,322862,1,0,0:0:0:0:
448,192,322891,1,0,0:0:0:0:
64,192,322978,1,0,0:0:0:0:
192,192,323007,1,0,0:0:0:0:
320,192,323036,1,0,0:0:0:0:
64,192,323065,1,0,0:0:0:0:
448,192,323065,1,0,0:0:0:0:
192,192,323152,1,0,0:0:0:0:
320,192,323181,1,0,0:0:0:0:
448,192,323211,1,0,0:0:0:0:
64,192,323240,1,0,0:0:0:0:
320,192,323327,1,0,0:0:0:0:
192,192,323356,1,0,0:0:0:0:
64,192,323385,1,0,0:0:0:0:
448,192,323414,1,0,0:0:0:0:
192,192,323501,1,0,0:0:0:0:
320,192,323530,1,0,0:0:0:0:
448,192,323559,1,0,0:0:0:0:
64,192,323588,1,0,0:0:0:0:
192,192,323676,1,0,0:0:0:0:
192,192,323763,1,0,0:0:0:0:
64,192,323763,1,0,0:0:0:0:
320,192,323937,1,0,0:0:0:0:
192,192,324024,1,0,0:0:0:0:
448,192,324112,1,0,0:0:0:0:
320,192,324112,1,0,0:0:0:0:
192,192,324155,1,0,0:0:0:0:
448,192,324199,1,0,0:0:0:0:
320,192,324199,1,0,0:0:0:0:
64,192,324243,1,0,0:0:0:0:
192,192,324286,1,0,0:0:0:0:
320,192,324344,1,0,0:0:0:0:
192,192,324402,1,0,0:0:0:0:
448,192,324461,1,0,0:0:0:0:
64,192,324461,1,0,0:0:0:0:
320,192,324519,1,0,0:0:0:0:
192,192,324577,1,0,0:0:0:0:
64,192,324635,1,0,0:0:0:0:
448,192,324693,1,0,0:0:0:0:
192,192,324722,1,0,0:0:0:0:
320,192,324722,1,0,0:0:0:0:
64,192,324751,1,0,0:0:0:0:
448,192,324809,1,0,0:0:0:0:
320,192,324868,1,0,0:0:0:0:
192,192,324926,1,0,0:0:0:0:
448,192,324984,1,0,0:0:0:0:
64,192,324984,1,0,0:0:0:0:
320,192,325027,1,0,0:0:0:0:
192,192,325071,1,0,0:0:0:0:
64,192,325115,1,0,0:0:0:0:
448,192,325158,1,0,0:0:0:0:
320,192,325158,1,0,0:0:0:0:
192,192,325202,1,0,0:0:0:0:
64,192,325245,1,0,0:0:0:0:
320,192,325289,1,0,0:0:0:0:
192,192,325333,1,0,0:0:0:0:
448,192,325376,1,0,0:0:0:0:
320,192,325420,1,0,0:0:0:0:
64,192,325463,1,0,0:0:0:0:
320,192,325507,1,0,0:0:0:0:
448,192,325551,1,0,0:0:0:0:
64,192,325594,1,0,0:0:0:0:
320,192,325638,1,0,0:0:0:0:
448,192,325681,1,0,0:0:0:0:
64,192,325725,1,0,0:0:0:0:
192,192,325769,1,0,0:0:0:0:
320,192,325812,1,0,0:0:0:0:
64,192,325856,1,0,0:0:0:0:
448,192,325856,1,0,0:0:0:0:
192,192,325899,1,0,0:0:0:0:
320,192,325943,1,0,0:0:0:0:
64,192,325987,1,0,0:0:0:0:
448,192,326030,1,0,0:0:0:0:
192,192,326074,1,0,0:0:0:0:
320,192,326118,1,0,0:0:0:0:
64,192,326161,1,0,0:0:0:0:
448,192,326205,1,0,0:0:0:0:
192,192,326248,1,0,0:0:0:0:
320,192,326292,1,0,0:0:0:0:
64,192,326336,1,0,0:0:0:0:
448,192,326379,1,0,0:0:0:0:
320,192,326423,128,0,326466:0:0:0:0:
192,192,326466,128,0,326554:0:0:0:0:
64,192,326510,128,0,326554:0:0:0:0:
320,192,326554,1,0,0:0:0:0:
448,192,326554,1,0,0:0:0:0:
192,192,326641,128,0,326699:0:0:0:0:
320,192,326670,128,0,326757:0:0:0:0:
448,192,326699,128,0,326815:0:0:0:0:
64,192,326815,1,0,0:0:0:0:
192,192,326815,1,0,0:0:0:0:
320,192,326902,1,0,0:0:0:0:
64,192,326990,1,0,0:0:0:0:
192,192,327019,1,0,0:0:0:0:
320,192,327048,1,0,0:0:0:0:
448,192,327077,1,0,0:0:0:0:
192,192,327164,1,0,0:0:0:0:
448,192,327251,1,0,0:0:0:0:
64,192,327251,1,0,0:0:0:0:
448,192,327338,1,0,0:0:0:0:
64,192,327426,1,0,0:0:0:0:
320,192,327513,1,0,0:0:0:0:
192,192,327542,1,0,0:0:0:0:
64,192,327571,1,0,0:0:0:0:
448,192,327600,1,0,0:0:0:0:
192,192,327687,1,0,0:0:0:0:
320,192,327716,1,0,0:0:0:0:
448,192,327745,1,0,0:0:0:0:
64,192,327774,1,0,0:0:0:0:
320,192,327862,1,0,0:0:0:0:
192,192,327891,1,0,0:0:0:0:
64,192,327920,1,0,0:0:0:0:
320,192,327949,1,0,0:0:0:0:
448,192,327949,1,0,0:0:0:0:
64,192,328036,1,0,0:0:0:0:
192,192,328065,1,0,0:0:0:0:
320,192,328094,1,0,0:0:0:0:
448,192,328123,1,0,0:0:0:0:
192,192,328211,1,0,0:0:0:0:
64,192,328211,1,0,0:0:0:0:
320,192,328240,1,0,0:0:0:0:
448,192,328269,1,0,0:0:0:0:
320,192,328385,1,0,0:0:0:0:
192,192,328414,1,0,0:0:0:0:
64,192,328443,1,0,0:0:0:0:
448,192,328472,1,0,0:0:0:0:
64,192,328559,1,0,0:0:0:0:
192,192,328588,1,0,0:0:0:0:
320,192,328618,1,0,0:0:0:0:
448,192,328647,1,0,0:0:0:0:
64,192,328647,1,0,0:0:0:0:
192,192,328734,1,0,0:0:0:0:
320,192,328763,1,0,0:0:0:0:
448,192,328792,1,0,0:0:0:0:
64,192,328821,1,0,0:0:0:0:
320,192,328908,1,0,0:0:0:0:
192,192,328937,1,0,0:0:0:0:
64,192,328966,1,0,0:0:0:0:
448,192,328995,1,0,0:0:0:0:
64,192,329083,1,0,0:0:0:0:
192,192,329112,1,0,0:0:0:0:
320,192,329141,1,0,0:0:0:0:
448,192,329170,1,0,0:0:0:0:
192,192,329257,1,0,0:0:0:0:
448,192,329344,1,0,0:0:0:0:
320,192,329344,1,0,0:0:0:0:
192,192,329519,1,0,0:0:0:0:
320,192,329606,1,0,0:0:0:0:
448,192,329606,1,0,0:0:0:0:
64,192,329693,1,0,0:0:0:0:
192,192,329737,1,0,0:0:0:0:
320,192,329780,1,0,0:0:0:0:
64,192,329824,1,0,0:0:0:0:
192,192,329868,1,0,0:0:0:0:
320,192,329926,1,0,0:0:0:0:
192,192,329984,1,0,0:0:0:0:
64,192,330042,1,0,0:0:0:0:
448,192,330042,128,0,330129:0:0:0:0:
192,192,330129,128,0,330216:0:0:0:0:
192,192,330304,128,0,330391:0:0:0:0:
448,192,330304,1,0,0:0:0:0:
448,192,330478,1,0,0:0:0:0:
64,192,330478,1,0,0:0:0:0:
64,192,330740,1,0,0:0:0:0:
192,192,330740,128,0,330827:0:0:0:0:
320,192,330827,1,0,0:0:0:0:
192,192,330914,128,0,331001:0:0:0:0:
320,192,331001,1,0,0:0:0:0:
192,192,331088,128,0,331176:0:0:0:0:
64,192,331088,128,0,331176:0:0:0:0:
320,192,331263,1,0,0:0:0:0:
192,192,331350,1,0,0:0:0:0:
64,192,331437,128,0,331612:0:0:0:0:
448,192,331437,1,0,0:0:0:0:
320,192,331568,1,0,0:0:0:0:
448,192,331612,1,0,0:0:0:0:
192,192,331699,1,0,0:0:0:0:
448,192,331786,128,0,332019:0:0:0:0:
320,192,331873,128,0,332048:0:0:0:0:
64,192,331917,1,0,0:0:0:0:
192,192,331961,1,0,0:0:0:0:
192,192,332077,1,0,0:0:0:0:
64,192,332106,1,0,0:0:0:0:
320,192,332135,1,0,0:0:0:0:
448,192,332135,1,0,0:0:0:0:
192,192,332222,128,0,332280:0:0:0:0:
320,192,332251,128,0,332338:0:0:0:0:
448,192,332280,128,0,332397:0:0:0:0:
64,192,332397,1,0,0:0:0:0:
192,192,332397,1,0,0:0:0:0:
320,192,332484,1,0,0:0:0:0:
64,192,332571,1,0,0:0:0:0:
192,192,332600,1,0,0:0:0:0:
320,192,332629,1,0,0:0:0:0:
448,192,332658,1,0,0:0:0:0:
192,192,332789,1,0,0:0:0:0:
64,192,332833,1,0,0:0:0:0:
448,192,332833,1,0,0:0:0:0:
448,192,332920,1,0,0:0:0:0:
192,192,333007,1,0,0:0:0:0:
448,192,333094,1,0,0:0:0:0:
320,192,333138,1,0,0:0:0:0:
192,192,333181,1,0,0:0:0:0:
64,192,333225,1,0,0:0:0:0:
192,192,333269,1,0,0:0:0:0:
320,192,333298,1,0,0:0:0:0:
448,192,333327,1,0,0:0:0:0:
64,192,333356,1,0,0:0:0:0:
192,192,333385,1,0,0:0:0:0:
320,192,333443,1,0,0:0:0:0:
192,192,333530,1,0,0:0:0:0:
64,192,333530,1,0,0:0:0:0:
320,192,333559,1,0,0:0:0:0:
448,192,333588,1,0,0:0:0:0:
192,192,333705,1,0,0:0:0:0:
64,192,333879,1,0,0:0:0:0:
448,192,333879,1,0,0:0:0:0:
192,192,333966,1,0,0:0:0:0:
64,192,334010,1,0,0:0:0:0:
320,192,334054,128,0,334926:0:0:0:0:
