osu file format v14

[General]
AudioFilename: KOAN Sound & Asa - Starlite.mp3
AudioLeadIn: 0
PreviewTime: 163904
Countdown: 0
SampleSet: Normal
StackLeniency: 0.8
Mode: 0
LetterboxInBreaks: 0
WidescreenStoryboard: 0

[Editor]
Bookmarks: 11434,28375,50963,56610,67904,73551,96139,115904,118728,121551,122257,163904,186492,197787,209081,254257,276845,277198,277684,278014,278257,278500,278522,278853,278875,278897,279250,279625,279647,279912,280198,280507,280904,281522,281654,281831,282007,282250,287478,287566,287654,288007,288095,288360,288537,290963,296787,296963,297228,297559,297889,298000,298110,298287,298507,298750,298904,299081,299257,299434,299787,300206,300492,300845,301110
DistanceSpacing: 0.5
BeatDivisor: 4
GridSize: 32
TimelineZoom: 2.899999

[Metadata]
Title:Starlite
TitleUnicode:Starlite
Artist:KOAN Sound & Asa
ArtistUnicode:KOAN Sound & Asa
Creator:Midget
Version:A Scene of the Milky Way Galaxy
Source:
Tags:
BeatmapID:861262
BeatmapSetID:395780

[Difficulty]
HPDrainRate:6
CircleSize:4
OverallDifficulty:7.5
ApproachRate:9
SliderMultiplier:1.8
SliderTickRate:1

[Events]
//Background and Video events
0,0,"iIul9yF - Imgur.jpg",0,0
//Break Periods
2,282449,282598
//Storyboard Layer 0 (Background)
//Storyboard Layer 1 (Fail)
//Storyboard Layer 2 (Pass)
//Storyboard Layer 3 (Foreground)
//Storyboard Sound Samples

[TimingPoints]
140,352.941176470588,4,2,1,40,1,0
140,-200,4,2,1,40,0,0
11434,-200,4,2,1,40,0,0
28375,-200,4,2,1,40,0,0
50963,-133.333333333333,4,2,1,40,0,0
73551,-117.647058823529,4,2,1,40,0,0
96139,-100,4,2,1,40,0,0
100904,-83.3333333333333,4,2,1,40,0,0
101257,-100,4,2,1,40,0,0
118728,-90.9090909090909,4,2,1,40,0,0
163904,-83.3333333333333,4,1,1,40,0,1
186845,-200,4,2,1,40,0,0
197169,-200,4,2,1,5,0,0
197610,-200,4,2,1,5,0,0
197787,-325,4,2,1,40,0,0
207669,-133.333333333333,4,2,1,40,0,0
223198,-100,4,2,1,40,0,0
223904,-133.333333333333,4,2,1,40,0,0
226022,-100,4,2,1,40,0,0
226728,-133.333333333333,4,2,1,40,0,0
228845,-100,4,2,1,40,0,0
229551,-133.333333333333,4,2,1,40,0,0
245787,-100,4,2,1,40,0,0
246492,-133.333333333333,4,2,1,40,0,0
248610,-100,4,2,1,40,0,0
249316,-133.333333333333,4,2,1,40,0,0
251434,-100,4,2,1,40,0,0
252139,-133.333333333333,4,2,1,40,0,0
254257,-166.666666666667,4,2,1,40,0,0
269787,-200,4,2,1,40,0,0
277154,-200,4,2,1,5,0,0
277198,-200,4,2,1,40,0,0
307287,-300,4,2,1,40,0,0
311037,-200,4,2,1,5,0,0
326257,-300,4,2,1,5,0,0

[Colours]
Combo1 : 72,70,108
Combo2 : 236,240,66
Combo3 : 35,43,67
Combo4 : 240,134,28
Combo5 : 28,21,62
Combo6 : 255,128,128

[HitObjects]
130,116,140,6,0,L|239:109,1,90
233,268,845,2,0,P|253:223|238:179,1,90
75,226,1551,2,0,L|177:219,1,90
48,147,2257,2,0,P|35:101|51:60,1,90
136,229,2963,6,0,P|154:279|140:325,1,90
191,139,3669,2,0,P|177:90|205:42,1,90
308,179,4375,2,0,L|262:102,1,90
168,234,5081,2,0,L|266:234,1,90
165,97,5787,6,0,L|119:174,1,90
249,111,6492,2,0,P|289:125|335:108,1,90
224,30,7198,2,0,P|179:55|161:103,1,90
162,186,7904,2,0,L|149:275,1,90
271,223,8610,6,0,P|319:210|365:233,1,90
287,334,9316,2,0,P|238:346|196:318,1,90
150,246,10022,2,0,L|164:146,1,90
271,80,10728,2,0,P|281:134|257:179,1,90
396,205,11434,6,0,P|380:151|388:113,1,90
427,240,12139,2,0,P|437:183|417:137,1,90
387,292,12845,2,0,B|372:242|398:200|398:200,1,90
417,349,13551,2,0,P|436:293|429:259,1,90
302,303,14257,6,0,P|249:315|212:302,1,90
137,291,14963,2,0,P|183:271|226:281,1,90
292,253,15669,2,0,P|276:198|287:163,1,90
132,143,16375,2,0,P|184:122|232:136,1,90
65,106,17081,6,0,P|53:154|70:191,1,90
263,91,17787,2,0,P|315:80|350:93,1,90
209,110,18492,2,0,P|251:131|300:119,1,90
148,115,19198,2,0,P|202:86|238:92,1,90
98,168,19904,2,0,P|156:150|184:116,1,90
262,195,20610,6,0,L|277:286,1,90
336,309,21316,2,0,L|319:212,1,90
239,177,22022,2,0,L|254:268,1,90
355,324,22728,2,0,L|338:227,1,90
353,119,23434,2,0,P|387:155|442:157,1,90
353,119,24139,2,0,P|374:70|362:35,1,90
353,119,24845,2,0,P|298:103|260:129,1,90
376,203,25551,6,0,P|419:183|437:137,1,90
288,288,26257,2,0,L|281:187,1,90
157,92,26963,2,0,P|199:57|251:59,1,90
183,163,27669,2,0,P|147:169|93:132,1,90
90,268,28375,5,0,0:0:0:0:
138,182,28728,2,0,L|144:41,1,135
90,268,29610,1,0,0:0:0:0:
219,216,29787,2,0,L|228:318,1,90
248,320,30669,6,0,L|240:230,1,90
121,282,31198,1,0,0:0:0:0:
202,138,31551,1,0,0:0:0:0:
385,172,32081,2,0,P|340:205|293:190,1,90
202,138,32610,1,0,0:0:0:0:
385,99,32963,2,0,P|419:104|439:123,1,45
484,255,33316,1,0,0:0:0:0:
489,272,33669,1,0,0:0:0:0:
495,288,34022,5,0,0:0:0:0:
370,244,34375,2,0,P|329:186|348:123,1,135
291,269,35257,1,0,0:0:0:0:
402,174,35434,2,0,P|447:159|487:177,1,90
486,141,36316,6,0,P|444:125|403:140,1,90
290,237,36845,1,0,0:0:0:0:
443,205,37198,1,0,0:0:0:0:
338,100,37728,2,0,L|325:3,1,90
272,163,38257,1,0,0:0:0:0:
333,55,38610,2,0,L|325:-2,1,45
243,241,38963,1,0,0:0:0:0:
239,255,39316,1,0,0:0:0:0:
236,266,39669,5,0,0:0:0:0:
177,180,40022,2,0,B|163:129|163:129|178:41,1,135
341,216,40904,1,0,0:0:0:0:
238,266,41081,2,0,B|197:280|197:280|138:263,1,90
152,241,41963,6,0,B|196:253|196:253|237:239,1,90
359,182,42492,1,0,0:0:0:0:
298,331,42845,1,0,0:0:0:0:
393,97,43375,2,0,P|400:56|372:13,1,90
248,95,43904,1,0,0:0:0:0:
424,174,44257,2,0,P|466:176|481:162,1,45
248,95,44610,1,0,0:0:0:0:
239,91,44963,1,0,0:0:0:0:
231,86,45316,5,0,0:0:0:0:
140,197,45669,2,0,L|119:332,1,135
69,130,46551,1,0,0:0:0:0:
218,163,46728,2,0,L|232:260,1,90
253,232,47610,6,0,L|240:142,1,90
221,18,48139,1,0,0:0:0:0:
346,145,48492,1,0,0:0:0:0:
174,110,49022,2,0,P|120:104|76:129,1,90
179,234,49551,1,0,0:0:0:0:
244,53,49904,1,0,0:0:0:0:
29,168,50257,1,0,0:0:0:0:
180,307,50434,2,0,P|226:289|249:239,1,90
323,262,50963,6,0,L|336:187,1,67.5000025749208
353,90,51316,1,0,0:0:0:0:
426,172,51492,1,0,0:0:0:0:
297,25,51669,1,0,0:0:0:0:
217,129,51845,2,0,B|192:188|192:188|210:259,1,135.000005149842
351,321,52375,5,0,0:0:0:0:
417,183,52551,1,0,0:0:0:0:
483,300,52728,1,0,0:0:0:0:
317,225,52904,1,0,0:0:0:0:
257,345,53081,1,0,0:0:0:0:
164,257,53257,2,0,B|147:204|147:204|168:121,1,135.000005149842
289,155,53787,5,0,0:0:0:0:
384,40,53963,1,0,0:0:0:0:
289,155,54139,1,0,0:0:0:0:
202,44,54316,1,0,0:0:0:0:
203,194,54492,1,0,0:0:0:0:
361,119,54669,2,0,B|415:103|415:103|501:129,1,135.000005149842
341,226,55198,6,0,L|262:207,1,67.5000025749208
131,181,55551,1,0,0:0:0:0:
303,138,55728,1,0,0:0:0:0:
283,286,55904,2,0,P|269:321|226:346,1,67.5000025749208
212,111,56257,2,0,P|226:77|258:57,1,67.5000025749208
145,206,56610,6,0,P|90:157|96:83,1,135.000005149842
126,4,57139,1,0,0:0:0:0:
252,87,57316,2,0,L|260:159,1,67.5000025749208
382,227,57669,2,0,L|392:145,1,67.5000025749208
178,298,58022,6,0,L|143:156,1,135.000005149842
296,214,58551,1,0,0:0:0:0:
321,68,58728,1,0,0:0:0:0:
446,169,58904,1,0,0:0:0:0:
412,328,59081,2,0,L|426:253,1,67.5000025749208
269,293,59434,6,0,B|228:262|184:336|123:288,1,135.000005149842
35,254,59963,1,0,0:0:0:0:
141,187,60139,2,0,P|160:151|157:111,1,67.5000025749208
140,9,60492,1,0,0:0:0:0:
140,9,60669,1,0,0:0:0:0:
258,102,60845,6,0,P|315:136|395:112,1,135.000005149842
257,240,61375,1,0,0:0:0:0:
113,203,61551,2,0,P|93:156|111:117,1,67.5000025749208
180,267,61904,2,0,P|192:306|185:347,1,67.5000025749208
289,185,62257,6,0,P|324:128|401:113,1,135.000005149842
166,116,62787,1,0,0:0:0:0:
373,191,62963,2,0,P|388:224|382:275,1,67.5000025749208
195,192,63316,2,0,P|155:199|113:177,1,67.5000025749208
317,127,63669,6,0,P|390:111|446:151,1,135.000005149842
371,276,64198,1,0,0:0:0:0:
238,170,64375,2,0,P|226:125|241:82,1,67.5000025749208
177,258,64728,2,0,P|183:294|167:335,1,67.5000025749208
66,187,65081,6,0,B|54:120|54:120|85:43,1,135.000005149842
156,233,65610,1,0,0:0:0:0:
237,114,65787,1,0,0:0:0:0:
301,268,65963,1,0,0:0:0:0:
138,140,66139,1,0,0:0:0:0:
138,140,66316,1,0,0:0:0:0:
330,91,66492,6,0,L|410:68,1,67.5000025749208
289,232,66845,2,0,L|267:158,1,67.5000025749208
157,327,67198,2,0,L|236:297,1,67.5000025749208
406,240,67551,1,0,0:0:0:0:
269,167,67728,1,0,0:0:0:0:
318,320,67904,1,0,0:0:0:0:
256,192,68257,12,0,73375,0:0:0:0:
233,269,73551,6,0,L|236:186,1,76.5000014591217
315,287,73904,1,0,0:0:0:0:
161,171,74081,2,0,P|197:126|301:133,1,153.000002918243
366,200,74610,1,0,0:0:0:0:
295,47,74787,1,0,0:0:0:0:
161,171,74963,2,0,P|85:153|61:88,1,153.000002918243
161,171,75492,2,0,P|246:202|259:267,1,153.000002918243
300,109,76022,2,0,L|315:25,1,76.5000014591217
419,161,76375,6,0,L|434:313,1,153.000002918243
308,222,76904,1,0,0:0:0:0:
419,161,77081,2,0,L|434:77,1,76.5000014591217
333,145,77434,1,0,0:0:0:0:
255,279,77787,6,0,P|296:302|349:286,1,76.5000014591217
355,281,78051,1,0,0:0:0:0:
355,281,78139,1,0,0:0:0:0:
333,145,78316,5,0,0:0:0:0:
164,214,78492,1,0,0:0:0:0:
164,214,78581,1,0,0:0:0:0:
164,214,78669,1,0,0:0:0:0:
306,303,78845,1,0,0:0:0:0:
333,145,79022,1,0,0:0:0:0:
469,256,79198,6,0,L|446:98,1,153.000002918243
379,243,79728,1,0,0:0:0:0:
329,59,79904,1,0,0:0:0:0:
263,202,80081,1,0,0:0:0:0:
213,41,80257,2,0,P|175:27|125:44,1,76.5000014591217
153,258,80610,2,0,L|170:87,1,153.000002918243
68,196,81139,5,0,0:0:0:0:
257,137,81316,1,0,0:0:0:0:
29,115,81492,1,0,0:0:0:0:
237,210,81669,2,0,P|285:209|329:173,1,76.5000014591217
393,309,82022,6,0,B|372:280|362:261|382:234|397:223|404:205|396:178|385:160|366:140,1,153.000002918243
371,55,82551,1,0,0:0:0:0:
309,195,82728,2,0,B|260:158|226:234|153:184,1,153.000002918243
80,144,83257,1,0,0:0:0:0:
205,91,83434,2,0,L|287:82,1,76.5000014591217
130,6,83787,5,0,0:0:0:0:
207,184,83963,1,0,0:0:0:0:
36,81,84139,1,0,0:0:0:0:
263,37,84316,1,0,0:0:0:0:
112,146,84492,2,0,P|101:188|123:232,1,76.5000014591217
309,170,84845,6,0,P|260:103|184:98,1,153.000002918243
249,242,85375,1,0,0:0:0:0:
363,98,85551,2,0,P|404:76|449:80,1,76.5000014591217
224,168,85904,2,0,P|186:182|141:170,1,76.5000014591217
350,213,86257,6,0,P|376:245|377:288,1,76.5000014591217
374,312,86522,1,0,0:0:0:0:
374,312,86610,1,0,0:0:0:0:
251,248,86787,5,0,0:0:0:0:
251,248,86963,1,0,0:0:0:0:
281,94,87139,1,0,0:0:0:0:
281,94,87316,1,0,0:0:0:0:
188,209,87492,1,0,0:0:0:0:
290,179,87669,6,0,B|330:164|330:164|362:176|362:176|386:148|386:148|457:125,1,153.000002918243
182,108,88198,1,0,0:0:0:0:
99,213,88375,2,0,L|92:292,1,76.5000014591217
264,242,88728,2,0,L|272:161,1,76.5000014591217
107,58,89081,5,0,0:0:0:0:
271,165,89257,1,0,0:0:0:0:
271,165,89345,1,0,0:0:0:0:
271,165,89434,1,0,0:0:0:0:
102,191,89610,1,0,0:0:0:0:
249,71,89787,1,0,0:0:0:0:
249,71,89875,1,0,0:0:0:0:
249,71,89963,1,0,0:0:0:0:
298,251,90139,1,0,0:0:0:0:
102,191,90316,1,0,0:0:0:0:
332,172,90492,6,0,P|386:224|371:308,1,153.000002918243
435,110,91022,1,0,0:0:0:0:
251,177,91198,2,0,P|259:128|295:102,1,76.5000014591217
178,255,91551,2,0,P|174:301|138:328,1,76.5000014591217
72,211,91904,6,0,L|63:128,1,76.5000014591217
61,103,92169,1,0,0:0:0:0:
61,103,92257,1,0,0:0:0:0:
220,295,92434,1,0,0:0:0:0:
319,172,92610,2,0,P|376:157|413:180,1,76.5000014591217
182,160,92963,2,0,P|153:124|156:69,1,76.5000014591217
362,236,93316,5,0,0:0:0:0:
294,99,93492,1,0,0:0:0:0:
288,276,93669,2,0,L|286:355,1,76.5000014591217
227,216,94022,1,0,0:0:0:0:
227,216,94110,1,0,0:0:0:0:
227,216,94198,1,0,0:0:0:0:
347,148,94375,1,0,0:0:0:0:
359,128,94463,1,0,0:0:0:0:
366,106,94551,1,0,0:0:0:0:
366,83,94639,1,0,0:0:0:0:
362,60,94728,6,0,P|330:36|282:41,1,76.5000014591217
150,179,95081,1,0,0:0:0:0:
302,266,95257,1,0,0:0:0:0:
323,274,95345,1,0,0:0:0:0:
346,273,95434,1,0,0:0:0:0:
368,267,95522,1,0,0:0:0:0:
385,260,95610,1,0,0:0:0:0:
243,151,95787,1,0,0:0:0:0:
222,140,95875,1,0,0:0:0:0:
199,138,95963,1,0,0:0:0:0:
176,143,96051,1,0,0:0:0:0:
156,154,96139,6,0,B|130:282|130:281,1,90
340,104,96492,1,0,0:0:0:0:
237,303,96669,1,0,0:0:0:0:
259,305,96757,1,0,0:0:0:0:
281,300,96845,1,0,0:0:0:0:
301,291,96934,1,0,0:0:0:0:
319,278,97022,2,0,L|338:153,1,90
378,96,97375,1,0,0:0:0:0:
250,174,97551,6,0,P|158:187|100:122,1,180
274,29,98081,1,0,0:0:0:0:
299,20,98169,1,0,0:0:0:0:
325,16,98257,1,0,0:0:0:0:
350,23,98345,1,0,0:0:0:0:
373,36,98434,1,0,0:0:0:0:
362,229,98610,6,0,P|356:277|292:307,1,90
149,314,98963,2,0,P|185:239|284:237,1,180
80,144,99492,1,0,0:0:0:0:
66,120,99581,1,0,0:0:0:0:
64,93,99669,1,0,0:0:0:0:
70,66,99757,1,0,0:0:0:0:
87,45,99845,1,0,0:0:0:0:
211,113,100022,6,0,P|253:127|312:111,1,90
359,192,100375,2,0,P|363:84|431:39,1,180
421,139,100904,2,0,B|421:98|463:115|481:141|473:175|382:177|388:167|368:120|310:162,1,215.999993408203
288,180,101345,1,0,0:0:0:0:
270,206,101434,1,0,0:0:0:0:
259,235,101522,1,0,0:0:0:0:
253,265,101610,1,0,0:0:0:0:
255,296,101698,1,0,0:0:0:0:
259,327,101787,6,0,P|194:251|220:177,1,180
349,263,102316,1,0,0:0:0:0:
349,263,102404,1,0,0:0:0:0:
349,263,102492,1,0,0:0:0:0:
349,263,102581,1,0,0:0:0:0:
349,263,102669,1,0,0:0:0:0:
179,325,102845,5,0,0:0:0:0:
148,332,102934,1,0,0:0:0:0:
116,327,103022,1,0,0:0:0:0:
89,310,103110,1,0,0:0:0:0:
69,285,103198,6,0,P|50:214|120:136,1,180
255,100,103728,2,0,L|247:37,1,45
361,29,103904,2,0,L|347:92,1,45
325,150,104081,1,0,0:0:0:0:
249,304,104257,1,0,0:0:0:0:
269,319,104345,1,0,0:0:0:0:
294,328,104434,1,0,0:0:0:0:
321,331,104522,1,0,0:0:0:0:
345,327,104610,6,0,L|334:231,1,90
256,61,104963,1,0,0:0:0:0:
129,167,105139,2,0,L|45:184,1,45
197,223,105316,2,0,L|247:209,1,45
152,297,105492,1,0,0:0:0:0:
367,137,105669,6,0,L|419:119,1,45
347,221,105845,2,0,L|291:239,1,45
423,262,106022,5,0,0:0:0:0:
276,164,106198,1,0,0:0:0:0:
336,311,106375,1,0,0:0:0:0:
452,191,106551,1,0,0:0:0:0:
276,164,106728,1,0,0:0:0:0:
336,311,106904,1,0,0:0:0:0:
460,76,107081,5,0,0:0:0:0:
460,76,107169,1,0,0:0:0:0:
460,76,107257,1,0,0:0:0:0:
460,76,107345,1,0,0:0:0:0:
460,76,107434,2,0,P|361:46|305:95,1,180
219,270,107963,5,0,0:0:0:0:
213,291,108051,1,0,0:0:0:0:
206,312,108139,1,0,0:0:0:0:
199,333,108228,1,0,0:0:0:0:
193,354,108316,1,0,0:0:0:0:
216,126,108492,1,0,0:0:0:0:
216,126,108581,1,0,0:0:0:0:
216,126,108669,1,0,0:0:0:0:
45,73,108845,6,0,L|1:41,4,45
157,199,109375,1,0,0:0:0:0:
187,218,109463,1,0,0:0:0:0:
221,228,109551,1,0,0:0:0:0:
256,220,109639,1,0,0:0:0:0:
287,202,109728,1,0,0:0:0:0:
397,120,109904,2,0,P|436:96|489:101,1,90
391,226,110257,6,0,P|314:170|307:78,1,180
178,195,110787,1,0,0:0:0:0:
151,218,110875,1,0,0:0:0:0:
134,250,110963,1,0,0:0:0:0:
135,285,111051,1,0,0:0:0:0:
153,315,111139,1,0,0:0:0:0:
71,117,111316,1,0,0:0:0:0:
71,117,111404,1,0,0:0:0:0:
71,117,111492,1,0,0:0:0:0:
71,117,111581,1,0,0:0:0:0:
71,117,111669,6,0,L|61:20,1,90
209,179,112022,1,0,0:0:0:0:
120,56,112198,2,0,L|132:166,1,90
130,146,112463,1,0,0:0:0:0:
130,146,112551,1,0,0:0:0:0:
285,217,112728,2,0,P|335:223|384:198,1,90
146,228,113081,6,0,P|130:144|202:73,1,180
367,171,113610,1,0,0:0:0:0:
398,188,113698,1,0,0:0:0:0:
433,197,113787,1,0,0:0:0:0:
468,197,113875,1,0,0:0:0:0:
502,187,113963,1,0,0:0:0:0:
238,225,114139,1,0,0:0:0:0:
202,215,114228,1,0,0:0:0:0:
166,220,114316,1,0,0:0:0:0:
132,231,114404,1,0,0:0:0:0:
103,252,114492,6,0,P|76:297|89:350,1,90
183,119,114845,1,0,0:0:0:0:
322,157,115022,1,0,0:0:0:0:
348,155,115110,1,0,0:0:0:0:
373,145,115198,1,0,0:0:0:0:
395,129,115287,1,0,0:0:0:0:
411,107,115375,1,0,0:0:0:0:
186,297,115551,5,0,0:0:0:0:
263,37,115728,1,0,0:0:0:0:
457,245,115904,1,0,0:0:0:0:
256,192,116257,12,0,118551,0:0:0:0:
283,300,118728,6,0,P|361:242|458:273,1,198.000006042481
353,148,119257,1,0,0:0:0:0:
336,117,119345,1,0,0:0:0:0:
333,82,119434,1,0,0:0:0:0:
344,50,119522,1,0,0:0:0:0:
367,24,119610,1,0,0:0:0:0:
186,141,119787,5,0,0:0:0:0:
154,154,119875,1,0,0:0:0:0:
119,151,119963,1,0,0:0:0:0:
88,134,120051,1,0,0:0:0:0:
63,109,120139,1,0,0:0:0:0:
51,255,120316,1,0,0:0:0:0:
141,75,120492,1,0,0:0:0:0:
282,183,120669,5,0,0:0:0:0:
310,192,120757,1,0,0:0:0:0:
339,192,120845,1,0,0:0:0:0:
366,181,120934,1,0,0:0:0:0:
391,165,121022,1,0,0:0:0:0:
202,255,121198,1,0,0:0:0:0:
169,242,121287,1,0,0:0:0:0:
134,244,121375,1,0,0:0:0:0:
101,256,121463,1,0,0:0:0:0:
78,282,121551,5,0,0:0:0:0:
215,167,121728,1,0,0:0:0:0:
293,332,121904,1,0,0:0:0:0:
384,204,122081,1,0,0:0:0:0:
398,172,122169,1,0,0:0:0:0:
398,137,122257,1,0,0:0:0:0:
388,103,122345,1,0,0:0:0:0:
366,75,122434,1,0,0:0:0:0:
131,191,122610,1,0,0:0:0:0:
131,191,122698,1,0,0:0:0:0:
131,191,122787,1,0,0:0:0:0:
313,159,122963,1,0,0:0:0:0:
172,54,123139,1,0,0:0:0:0:
98,304,123316,1,0,0:0:0:0:
306,240,123492,5,0,0:0:0:0:
342,235,123581,1,0,0:0:0:0:
372,218,123669,1,0,0:0:0:0:
392,178,123757,1,0,0:0:0:0:
388,133,123845,1,0,0:0:0:0:
361,96,123934,1,0,0:0:0:0:
312,84,124022,1,0,0:0:0:0:
263,93,124110,1,0,0:0:0:0:
219,116,124198,2,0,L|203:166,1,49.5000015106202
72,242,124375,6,0,P|119:256|176:233,1,99.0000030212403
307,166,124728,1,0,0:0:0:0:
161,37,124904,1,0,0:0:0:0:
153,65,124992,1,0,0:0:0:0:
145,93,125081,1,0,0:0:0:0:
138,121,125169,1,0,0:0:0:0:
131,149,125257,1,0,0:0:0:0:
254,330,125434,1,0,0:0:0:0:
252,300,125522,1,0,0:0:0:0:
250,270,125610,1,0,0:0:0:0:
248,240,125698,1,0,0:0:0:0:
246,210,125787,5,0,0:0:0:0:
354,275,125963,1,0,0:0:0:0:
100,221,126139,1,0,0:0:0:0:
305,137,126316,1,0,0:0:0:0:
341,124,126404,1,0,0:0:0:0:
375,121,126492,1,0,0:0:0:0:
408,132,126581,1,0,0:0:0:0:
435,151,126669,2,0,P|458:198|447:249,1,99.0000030212403
440,268,126934,1,0,0:0:0:0:
440,268,127022,1,0,0:0:0:0:
149,333,127198,5,0,0:0:0:0:
326,270,127375,1,0,0:0:0:0:
326,270,127551,1,0,0:0:0:0:
145,210,127728,1,0,0:0:0:0:
121,201,127816,1,0,0:0:0:0:
93,192,127904,1,0,0:0:0:0:
71,185,127992,1,0,0:0:0:0:
50,178,128081,5,0,0:0:0:0:
292,145,128257,1,0,0:0:0:0:
312,117,128345,1,0,0:0:0:0:
321,83,128434,1,0,0:0:0:0:
319,48,128522,1,0,0:0:0:0:
309,14,128610,5,0,0:0:0:0:
117,274,128787,1,0,0:0:0:0:
140,299,128875,1,0,0:0:0:0:
171,312,128963,1,0,0:0:0:0:
205,313,129051,1,0,0:0:0:0:
238,304,129139,5,0,0:0:0:0:
337,186,129316,1,0,0:0:0:0:
363,163,129404,1,0,0:0:0:0:
396,155,129492,1,0,0:0:0:0:
430,155,129581,1,0,0:0:0:0:
462,168,129669,1,0,0:0:0:0:
327,277,129845,1,0,0:0:0:0:
278,124,130022,6,0,P|279:73|317:36,1,99.0000030212403
399,231,130375,1,0,0:0:0:0:
197,134,130551,1,0,0:0:0:0:
164,123,130639,1,0,0:0:0:0:
129,125,130728,1,0,0:0:0:0:
97,138,130816,1,0,0:0:0:0:
75,165,130904,1,0,0:0:0:0:
187,271,131081,5,0,0:0:0:0:
218,295,131169,1,0,0:0:0:0:
255,306,131257,1,0,0:0:0:0:
294,300,131345,1,0,0:0:0:0:
330,283,131434,1,0,0:0:0:0:
392,132,131610,1,0,0:0:0:0:
265,213,131787,1,0,0:0:0:0:
314,101,131963,1,0,0:0:0:0:
339,71,132051,1,0,0:0:0:0:
375,55,132139,1,0,0:0:0:0:
414,54,132228,1,0,0:0:0:0:
450,68,132316,1,0,0:0:0:0:
171,245,132492,1,0,0:0:0:0:
153,214,132581,5,0,0:0:0:0:
154,179,132669,1,0,0:0:0:0:
170,148,132757,1,0,0:0:0:0:
191,120,132845,6,0,P|228:76|225:15,1,99.0000030212403
297,284,133198,1,0,0:0:0:0:
428,176,133375,1,0,0:0:0:0:
398,157,133463,1,0,0:0:0:0:
365,145,133551,1,0,0:0:0:0:
330,150,133639,1,0,0:0:0:0:
298,164,133728,1,0,0:0:0:0:
176,282,133904,2,0,L|156:217,1,49.5000015106202
140,161,134081,1,0,0:0:0:0:
185,23,134257,5,0,0:0:0:0:
271,187,134434,1,0,0:0:0:0:
39,134,134610,1,0,0:0:0:0:
54,269,134787,6,0,L|48:326,1,49.5000015106202
152,302,134963,2,0,L|163:354,1,49.5000015106202
256,307,135139,2,0,L|286:353,1,49.5000015106202
297,278,135316,1,0,0:0:0:0:
325,244,135404,1,0,0:0:0:0:
330,202,135492,1,0,0:0:0:0:
316,164,135581,1,0,0:0:0:0:
291,132,135669,6,0,P|255:87|264:27,1,99.0000030212403
249,209,136022,1,0,0:0:0:0:
369,105,136198,1,0,0:0:0:0:
393,87,136287,1,0,0:0:0:0:
422,83,136375,1,0,0:0:0:0:
450,89,136463,1,0,0:0:0:0:
473,106,136551,1,0,0:0:0:0:
171,129,136728,2,0,L|187:65,1,49.5000015106202
85,101,136904,2,0,L|95:28,1,49.5000015106202
104,187,137081,5,0,0:0:0:0:
264,56,137257,1,0,0:0:0:0:
158,248,137434,2,0,P|206:222|268:236,1,99.0000030212403
270,234,137698,1,0,0:0:0:0:
296,246,137787,1,0,0:0:0:0:
320,269,137875,1,0,0:0:0:0:
342,292,137963,2,0,P|404:204|359:99,1,198.000006042481
365,104,138404,1,0,0:0:0:0:
365,104,138492,5,0,0:0:0:0:
192,254,138669,1,0,0:0:0:0:
391,358,138845,1,0,0:0:0:0:
267,195,139022,1,0,0:0:0:0:
239,174,139110,1,0,0:0:0:0:
205,165,139198,1,0,0:0:0:0:
170,172,139287,1,0,0:0:0:0:
139,188,139375,1,0,0:0:0:0:
315,112,139551,1,0,0:0:0:0:
343,93,139639,1,0,0:0:0:0:
376,83,139728,1,0,0:0:0:0:
409,89,139816,1,0,0:0:0:0:
439,104,139904,5,0,0:0:0:0:
442,255,140081,1,0,0:0:0:0:
418,280,140169,1,0,0:0:0:0:
386,294,140257,1,0,0:0:0:0:
351,299,140345,1,0,0:0:0:0:
318,286,140434,1,0,0:0:0:0:
205,173,140610,1,0,0:0:0:0:
181,147,140698,1,0,0:0:0:0:
146,139,140787,1,0,0:0:0:0:
112,145,140875,1,0,0:0:0:0:
83,164,140963,1,0,0:0:0:0:
220,271,141139,1,0,0:0:0:0:
327,167,141316,6,0,P|355:105|338:51,1,99.0000030212403
140,214,141669,1,0,0:0:0:0:
346,264,141845,1,0,0:0:0:0:
380,261,141934,1,0,0:0:0:0:
411,246,142022,1,0,0:0:0:0:
434,220,142110,1,0,0:0:0:0:
442,186,142198,1,0,0:0:0:0:
272,113,142375,1,0,0:0:0:0:
231,108,142463,1,0,0:0:0:0:
195,117,142551,1,0,0:0:0:0:
168,139,142639,1,0,0:0:0:0:
149,168,142728,6,0,P|95:208|46:204,1,99.0000030212403
234,301,143081,1,0,0:0:0:0:
341,176,143257,1,0,0:0:0:0:
359,146,143345,1,0,0:0:0:0:
364,111,143434,1,0,0:0:0:0:
359,76,143522,1,0,0:0:0:0:
341,46,143610,1,0,0:0:0:0:
252,219,143787,1,0,0:0:0:0:
281,242,143875,1,0,0:0:0:0:
314,250,143963,1,0,0:0:0:0:
348,250,144051,1,0,0:0:0:0:
380,239,144139,6,0,L|338:330,1,99.0000030212403
288,108,144492,1,0,0:0:0:0:
150,206,144669,1,0,0:0:0:0:
117,218,144757,1,0,0:0:0:0:
82,216,144845,1,0,0:0:0:0:
48,205,144934,1,0,0:0:0:0:
21,182,145022,1,0,0:0:0:0:
258,208,145198,1,0,0:0:0:0:
258,208,145287,1,0,0:0:0:0:
258,208,145375,1,0,0:0:0:0:
265,58,145551,5,0,0:0:0:0:
101,150,145728,1,0,0:0:0:0:
155,25,145904,1,0,0:0:0:0:
378,103,146081,2,0,L|434:117,1,49.5000015106202
348,191,146257,2,0,L|413:224,1,49.5000015106202
288,259,146434,2,0,L|309:318,1,49.5000015106202
203,247,146610,1,0,0:0:0:0:
164,224,146698,1,0,0:0:0:0:
119,221,146787,1,0,0:0:0:0:
79,241,146875,1,0,0:0:0:0:
52,270,146963,6,0,P|50:312|80:375,1,99.0000030212403
286,236,147316,1,0,0:0:0:0:
365,95,147492,1,0,0:0:0:0:
389,70,147581,1,0,0:0:0:0:
421,57,147669,1,0,0:0:0:0:
455,59,147757,1,0,0:0:0:0:
486,73,147845,1,0,0:0:0:0:
402,265,148022,1,0,0:0:0:0:
402,265,148110,1,0,0:0:0:0:
402,265,148198,1,0,0:0:0:0:
249,167,148375,6,0,P|223:125|234:63,1,99.0000030212403
57,219,148728,1,0,0:0:0:0:
299,97,148904,1,0,0:0:0:0:
331,86,148992,1,0,0:0:0:0:
365,83,149081,1,0,0:0:0:0:
398,89,149169,1,0,0:0:0:0:
430,100,149257,2,0,L|458:206,1,99.0000030212403
222,134,149610,1,0,0:0:0:0:
418,262,149787,6,0,P|473:270|519:229,1,99.0000030212403
252,268,150139,1,0,0:0:0:0:
322,133,150316,1,0,0:0:0:0:
328,99,150404,1,0,0:0:0:0:
323,64,150492,1,0,0:0:0:0:
304,34,150581,1,0,0:0:0:0:
276,13,150669,1,0,0:0:0:0:
194,222,150845,1,0,0:0:0:0:
179,253,150934,1,0,0:0:0:0:
177,287,151022,1,0,0:0:0:0:
192,317,151110,1,0,0:0:0:0:
221,335,151198,5,0,0:0:0:0:
381,214,151375,1,0,0:0:0:0:
401,185,151463,1,0,0:0:0:0:
405,150,151551,1,0,0:0:0:0:
396,116,151639,1,0,0:0:0:0:
372,90,151728,1,0,0:0:0:0:
124,140,151904,1,0,0:0:0:0:
105,169,151992,1,0,0:0:0:0:
99,203,152081,1,0,0:0:0:0:
103,237,152169,1,0,0:0:0:0:
121,266,152257,1,0,0:0:0:0:
250,92,152434,1,0,0:0:0:0:
307,326,152610,5,0,0:0:0:0:
214,261,152787,1,0,0:0:0:0:
401,206,152963,2,0,P|444:179|457:118,1,99.0000030212403
458,135,153228,1,0,0:0:0:0:
458,135,153316,1,0,0:0:0:0:
458,135,153404,1,0,0:0:0:0:
458,135,153492,1,0,0:0:0:0:
288,61,153669,1,0,0:0:0:0:
285,70,153757,1,0,0:0:0:0:
282,79,153845,1,0,0:0:0:0:
279,88,153934,1,0,0:0:0:0:
275,97,154022,6,0,L|278:202,1,99.0000030212403
157,300,154375,1,0,0:0:0:0:
359,235,154551,2,0,L|359:179,1,49.5000015106202
439,217,154728,2,0,L|439:153,1,49.5000015106202
385,111,154904,1,0,0:0:0:0:
275,255,155081,2,0,L|278:356,1,99.0000030212403
178,190,155434,6,0,P|127:155|74:163,1,99.0000030212403
66,294,155787,1,0,0:0:0:0:
239,118,155963,1,0,0:0:0:0:
267,98,156051,1,0,0:0:0:0:
300,89,156139,1,0,0:0:0:0:
334,91,156228,1,0,0:0:0:0:
366,103,156316,1,0,0:0:0:0:
289,297,156492,2,0,L|298:229,1,49.5000015106202
306,167,156669,1,0,0:0:0:0:
120,326,156845,5,0,0:0:0:0:
168,76,157022,1,0,0:0:0:0:
366,240,157198,1,0,0:0:0:0:
179,236,157375,2,0,L|219:195,1,49.5000015106202
69,164,157551,2,0,L|132:145,1,49.5000015106202
15,53,157728,2,0,L|76:47,1,49.5000015106202
139,43,157904,1,0,0:0:0:0:
184,62,157992,1,0,0:0:0:0:
214,101,158081,1,0,0:0:0:0:
259,120,158169,1,0,0:0:0:0:
308,122,158257,6,0,P|362:116|419:69,1,99.0000030212403
290,263,158610,2,0,P|228:259|186:225,1,99.0000030212403
172,215,158875,1,0,0:0:0:0:
145,193,158963,1,0,0:0:0:0:
110,190,159051,1,0,0:0:0:0:
75,195,159139,1,0,0:0:0:0:
354,158,159316,1,0,0:0:0:0:
384,173,159404,1,0,0:0:0:0:
418,176,159492,1,0,0:0:0:0:
451,165,159581,1,0,0:0:0:0:
478,144,159669,5,0,0:0:0:0:
282,292,159845,1,0,0:0:0:0:
404,90,160022,1,0,0:0:0:0:
184,198,160198,1,0,0:0:0:0:
156,209,160287,1,0,0:0:0:0:
126,214,160375,1,0,0:0:0:0:
96,208,160463,1,0,0:0:0:0:
68,197,160551,2,0,L|87:295,1,99.0000030212403
152,104,160904,1,0,0:0:0:0:
152,104,160992,1,0,0:0:0:0:
152,104,161081,1,0,0:0:0:0:
311,275,161257,5,0,0:0:0:0:
384,148,161434,2,0,P|443:118|498:141,1,99.0000030212403
472,123,161698,1,0,0:0:0:0:
472,123,161787,1,0,0:0:0:0:
357,335,161963,2,0,P|310:351|260:330,1,99.0000030212403
231,305,162228,1,0,0:0:0:0:
212,264,162316,1,0,0:0:0:0:
223,220,162404,1,0,0:0:0:0:
254,188,162492,5,0,0:0:0:0:
298,180,162581,1,0,0:0:0:0:
340,193,162669,1,0,0:0:0:0:
364,229,162757,1,0,0:0:0:0:
391,263,162845,1,0,0:0:0:0:
435,268,162934,1,0,0:0:0:0:
474,247,163022,2,0,L|474:177,1,49.5000015106202
394,71,163198,2,0,L|394:151,1,49.5000015106202
283,310,163375,2,0,L|283:235,1,49.5000015106202
186,333,163551,1,0,0:0:0:0:
139,316,163639,1,0,0:0:0:0:
113,272,163728,1,0,0:0:0:0:
116,222,163816,1,0,0:0:0:0:
144,176,163904,5,0,0:0:0:0:
359,20,164257,5,0,0:0:0:0:
238,251,164434,2,0,L|231:188,1,53.9999983520508
221,91,164610,1,0,0:0:0:0:
161,328,164787,5,0,0:0:0:0:
200,364,164875,1,0,0:0:0:0:
252,374,164963,1,0,0:0:0:0:
301,354,165051,1,0,0:0:0:0:
332,310,165139,2,0,P|446:253|511:302,1,215.999993408203
415,150,165669,5,0,0:0:0:0:
423,354,165845,1,0,0:0:0:0:
358,63,166022,1,0,0:0:0:0:
85,195,166198,2,0,L|21:186,1,53.9999983520508
266,215,166375,2,0,L|330:224,1,53.9999983520508
176,205,166551,1,0,0:0:0:0:
176,205,166728,5,0,0:0:0:0:
403,236,167081,5,0,0:0:0:0:
211,288,167257,1,0,0:0:0:0:
496,251,167434,1,0,0:0:0:0:
496,251,167522,1,0,0:0:0:0:
496,251,167610,2,0,L|483:152,1,53.9999983520508
467,26,167787,2,0,L|474:79,1,53.9999983520508
394,151,167963,1,0,0:0:0:0:
306,259,168316,5,0,0:0:0:0:
106,199,168492,1,0,0:0:0:0:
394,151,168845,6,0,L|302:165,1,53.9999983520508
195,181,169022,1,0,0:0:0:0:
488,137,169375,1,0,0:0:0:0:
251,74,169551,5,0,0:0:0:0:
306,348,169904,1,0,0:0:0:0:
36,160,170257,1,0,0:0:0:0:
67,118,170345,1,0,0:0:0:0:
119,103,170434,1,0,0:0:0:0:
168,123,170522,1,0,0:0:0:0:
206,161,170610,1,0,0:0:0:0:
258,174,170698,1,0,0:0:0:0:
308,153,170787,2,0,P|361:116|486:188,1,215.999993408203
123,293,171316,6,0,L|114:173,1,107.999996704102
406,37,171669,1,0,0:0:0:0:
365,247,171845,1,0,0:0:0:0:
320,277,171934,1,0,0:0:0:0:
267,290,172022,1,0,0:0:0:0:
216,274,172110,1,0,0:0:0:0:
186,227,172198,1,0,0:0:0:0:
147,13,172375,5,0,0:0:0:0:
273,210,172551,1,0,0:0:0:0:
37,118,172728,2,0,L|1:103,6,26.9999991760254
71,131,173081,1,0,0:0:0:0:
384,196,173257,2,0,L|466:187,1,53.9999983520508
168,221,173434,2,0,B|107:227|107:227,1,53.9999983520508
273,210,173610,1,0,0:0:0:0:
147,73,173787,5,0,0:0:0:0:
185,35,173875,1,0,0:0:0:0:
236,20,173963,1,0,0:0:0:0:
288,32,174051,1,0,0:0:0:0:
329,65,174139,1,0,0:0:0:0:
449,283,174316,1,0,0:0:0:0:
420,237,174404,1,0,0:0:0:0:
417,183,174492,1,0,0:0:0:0:
441,134,174581,1,0,0:0:0:0:
487,106,174669,1,0,0:0:0:0:
227,342,174845,5,0,0:0:0:0:
232,109,175022,1,0,0:0:0:0:
470,317,175198,6,0,P|396:260|276:302,1,215.999993408203
40,216,175728,2,0,L|107:208,1,53.9999983520508
257,192,175904,1,0,0:0:0:0:
108,21,176081,5,0,0:0:0:0:
118,45,176169,1,0,0:0:0:0:
128,69,176257,2,0,L|240:50,1,107.999996704102
453,11,176610,1,0,0:0:0:0:
32,89,176787,1,0,0:0:0:0:
32,89,176963,1,0,0:0:0:0:
77,317,177139,5,0,0:0:0:0:
77,317,177228,1,0,0:0:0:0:
77,317,177316,2,0,L|54:200,1,107.999996704102
297,330,177669,2,0,B|289:277|289:277|324:200,1,107.999996704102
391,99,178022,5,0,0:0:0:0:
208,215,178375,1,0,0:0:0:0:
462,168,178551,1,0,0:0:0:0:
93,45,178728,5,0,0:0:0:0:
93,45,178816,1,0,0:0:0:0:
93,45,178904,2,0,L|105:130,1,53.9999983520508
121,278,179081,2,0,L|113:215,1,53.9999983520508
191,138,179257,1,0,0:0:0:0:
232,340,179610,6,0,L|183:349,3,26.9999991760254
271,333,179787,1,0,0:0:0:0:
116,184,180139,6,0,L|192:212,1,53.9999983520508
311,256,180316,1,0,0:0:0:0:
31,151,180669,1,0,0:0:0:0:
311,256,180845,5,0,0:0:0:0:
440,45,181198,1,0,0:0:0:0:
402,274,181551,1,0,0:0:0:0:
372,318,181639,1,0,0:0:0:0:
321,338,181728,1,0,0:0:0:0:
268,327,181816,1,0,0:0:0:0:
229,289,181904,1,0,0:0:0:0:
52,90,182081,6,0,P|88:183|44:302,1,215.999993408203
166,27,182787,1,0,0:0:0:0:
253,269,182963,1,0,0:0:0:0:
316,70,183139,5,0,0:0:0:0:
350,27,183228,1,0,0:0:0:0:
400,7,183316,1,0,0:0:0:0:
453,7,183404,1,0,0:0:0:0:
500,32,183492,1,0,0:0:0:0:
381,307,183669,5,0,0:0:0:0:
418,97,183845,1,0,0:0:0:0:
204,172,184022,2,0,L|162:186,6,26.9999991760254
247,157,184375,1,0,0:0:0:0:
175,261,184551,5,0,0:0:0:0:
125,242,184639,1,0,0:0:0:0:
96,197,184728,1,0,0:0:0:0:
101,144,184816,1,0,0:0:0:0:
137,105,184904,1,0,0:0:0:0:
280,252,185081,5,0,0:0:0:0:
266,316,185169,1,0,0:0:0:0:
215,359,185257,1,0,0:0:0:0:
149,361,185345,1,0,0:0:0:0:
95,322,185434,1,0,0:0:0:0:
212,161,185610,5,0,0:0:0:0:
287,153,185698,1,0,0:0:0:0:
357,178,185787,1,0,0:0:0:0:
388,246,185875,1,0,0:0:0:0:
390,321,185963,1,0,0:0:0:0:
351,68,186139,1,0,0:0:0:0:
116,222,186316,1,0,0:0:0:0:
462,357,186492,1,0,0:0:0:0:
256,192,186845,12,0,197257,0:0:0:0:
99,257,197787,6,0,P|53:225|143:203,1,207.692307692308
141,197,199198,6,0,B|205:163|208:105|208:105|162:107|162:107|176:59,1,207.692307692308
173,66,200610,6,0,B|270:40|270:40|375:72,1,207.692307692308
372,71,202022,6,0,B|441:42|441:42|375:158,1,207.692307692308
375,157,203434,6,0,P|292:180|314:97,1,207.692307692308
314,97,204845,6,0,P|269:97|241:63,1,92.3076923076923
241,63,205551,6,0,L|320:27,1,73.8461538461539
207,280,206257,1,0,0:0:0:0:
147,142,206610,1,0,0:0:0:0:
325,222,206875,1,0,0:0:0:0:
117,252,207198,6,0,L|141:151,1,92.3076923076923
167,58,208375,5,0,0:0:0:0:
320,256,208728,1,0,0:0:0:0:
112,298,208963,5,0,0:0:0:0:
122,283,209081,2,0,B|145:244|145:244|135:165,1,90.0000034332277
137,181,209434,1,0,0:0:0:0:
245,314,209787,1,0,0:0:0:0:
396,97,210139,1,0,0:0:0:0:
434,348,210492,5,0,0:0:0:0:
320,203,210728,1,0,0:0:0:0:
311,187,210845,2,0,B|293:141|293:141|310:41,1,135.000005149842
153,174,211551,1,0,0:0:0:0:
296,268,211787,5,0,0:0:0:0:
285,287,211904,1,0,0:0:0:0:
73,246,212139,1,0,0:0:0:0:
68,223,212257,1,0,0:0:0:0:
284,187,212610,2,0,L|305:47,1,135.000005149842
147,302,213316,5,0,0:0:0:0:
372,243,213551,1,0,0:0:0:0:
383,223,213669,2,0,B|410:164|410:164|401:93,1,135.000005149842
228,7,214375,1,0,0:0:0:0:
125,159,214610,1,0,0:0:0:0:
119,180,214728,6,0,B|114:229|114:229|136:293,1,90.0000034332277
137,287,215081,1,0,0:0:0:0:
283,207,215434,2,0,P|347:171|418:218,1,135.000005149842
270,78,216022,1,0,0:0:0:0:
265,56,216139,5,0,0:0:0:0:
184,215,216375,1,0,0:0:0:0:
181,237,216492,2,0,B|162:309|162:309|116:352,1,135.000005149842
458,250,217198,1,0,0:0:0:0:
248,189,217434,5,0,0:0:0:0:
248,189,217492,1,0,0:0:0:0:
248,189,217551,2,0,B|231:145|231:145|244:91,1,90.0000034332277
252,73,217904,1,0,0:0:0:0:
283,271,218257,1,0,0:0:0:0:
154,55,218492,1,0,0:0:0:0:
159,33,218610,1,0,0:0:0:0:
96,328,218845,1,0,0:0:0:0:
102,301,218963,6,0,L|127:180,1,90.0000034332277
189,265,219316,2,0,B|269:277|269:277|344:253,1,135.000005149842
324,109,219904,1,0,0:0:0:0:
318,87,220022,1,0,0:0:0:0:
140,32,220257,1,0,0:0:0:0:
133,53,220375,6,0,B|119:97|119:97|141:170|139:169,1,90.0000034332277
138,160,220728,1,0,0:0:0:0:
366,222,221081,1,0,0:0:0:0:
180,334,221434,1,0,0:0:0:0:
298,138,221787,5,0,0:0:0:0:
173,209,222022,1,0,0:0:0:0:
160,192,222139,2,0,B|141:146|141:146|150:57,1,135.000005149842
331,15,222845,1,0,0:0:0:0:
243,216,223081,1,0,0:0:0:0:
243,216,223198,6,0,P|203:255|134:235,1,120
183,191,223551,2,0,P|263:151|311:227,1,180
327,347,224257,1,0,0:0:0:0:
375,76,224610,5,0,0:0:0:0:
174,111,224845,1,0,0:0:0:0:
153,121,224963,2,0,L|17:100,1,135.000005149842
186,290,225551,1,0,0:0:0:0:
207,298,225669,1,0,0:0:0:0:
346,172,225904,5,0,0:0:0:0:
346,172,225963,1,0,0:0:0:0:
346,172,226022,2,0,P|395:133|463:159,1,120
408,199,226375,2,0,P|335:242|279:174,1,180
293,23,227081,1,0,0:0:0:0:
141,276,227434,5,0,0:0:0:0:
326,289,227669,1,0,0:0:0:0:
348,284,227787,2,0,L|482:260,1,135.000005149842
352,82,228492,1,0,0:0:0:0:
197,228,228728,1,0,0:0:0:0:
197,228,228845,6,0,P|128:218|105:157,1,120
171,164,229198,2,0,P|255:187|247:277,1,180
251,77,229904,5,0,0:0:0:0:
283,62,230022,1,0,0:0:0:0:
316,49,230139,1,0,0:0:0:0:
245,139,230257,5,0,0:0:0:0:
278,124,230375,1,0,0:0:0:0:
310,108,230492,1,0,0:0:0:0:
343,94,230610,2,0,B|393:76|393:76|483:91,1,135.000005149842
406,229,231198,1,0,0:0:0:0:
399,250,231316,1,0,0:0:0:0:
251,334,231551,1,0,0:0:0:0:
248,311,231669,6,0,B|240:264|240:264|199:219,1,90.0000034332277
194,218,232022,1,0,0:0:0:0:
300,61,232375,2,0,B|291:125|291:125|315:230,1,135.000005149842
217,89,233081,5,0,0:0:0:0:
408,282,233316,1,0,0:0:0:0:
403,259,233434,2,0,L|377:94,1,135.000005149842
358,163,234139,1,0,0:0:0:0:
151,262,234375,1,0,0:0:0:0:
151,262,234434,1,0,0:0:0:0:
151,262,234492,6,0,B|129:215|129:215|140:142,1,101.250003862381
141,146,234845,1,0,0:0:0:0:
340,187,235198,2,0,L|185:200,1,135.000005149842
341,341,235904,1,0,0:0:0:0:
451,250,236139,1,0,0:0:0:0:
459,229,236257,2,0,B|476:181|476:181|458:73,1,135.000005149842
323,172,236845,5,0,0:0:0:0:
320,149,236963,1,0,0:0:0:0:
166,243,237198,1,0,0:0:0:0:
158,264,237316,6,0,B|108:283|108:283|35:272,1,90.0000034332277
50,270,237669,1,0,0:0:0:0:
148,78,238022,1,0,0:0:0:0:
258,315,238375,1,0,0:0:0:0:
431,201,238610,1,0,0:0:0:0:
420,181,238728,6,0,B|408:135|408:135|420:67,1,90.0000034332277
341,174,239081,2,0,B|277:150|277:150|207:164,1,135.000005149842
148,78,239787,1,0,0:0:0:0:
289,242,240022,1,0,0:0:0:0:
289,242,240081,1,0,0:0:0:0:
289,242,240139,6,0,L|302:357,1,90.0000034332277
302,358,240492,1,0,0:0:0:0:
115,241,240845,1,0,0:0:0:0:
466,199,241081,1,0,0:0:0:0:
483,196,241198,1,0,0:0:0:0:
59,154,241434,1,0,0:0:0:0:
41,152,241551,1,0,0:0:0:0:
290,224,241787,5,0,0:0:0:0:
308,210,241904,2,0,L|477:189,1,135.000005149842
202,116,242492,1,0,0:0:0:0:
195,94,242610,1,0,0:0:0:0:
163,316,242845,1,0,0:0:0:0:
171,294,242963,6,0,B|217:278|217:278|283:288,1,90.0000034332277
280,287,243316,1,0,0:0:0:0:
177,199,243669,2,0,L|143:34,1,135.000005149842
350,95,244375,1,0,0:0:0:0:
89,142,244610,1,0,0:0:0:0:
95,163,244728,2,0,B|109:222|109:222|93:329,1,135.000005149842
174,77,245434,1,0,0:0:0:0:
317,245,245669,1,0,0:0:0:0:
317,245,245787,6,0,P|376:239|400:157,1,120
338,183,246139,2,0,P|270:197|275:302,1,180
309,61,246845,1,0,0:0:0:0:
214,337,247198,1,0,0:0:0:0:
421,123,247434,1,0,0:0:0:0:
401,133,247551,2,0,B|334:160|334:160|260:144,1,135.000005149842
91,111,248139,1,0,0:0:0:0:
87,87,248257,1,0,0:0:0:0:
126,281,248492,1,0,0:0:0:0:
126,281,248566,1,0,0:0:0:0:
126,281,248610,6,0,P|188:257|196:194,1,120
134,214,248963,2,0,P|64:247|91:341,1,180
221,103,249669,1,0,0:0:0:0:
340,300,250022,2,0,L|345:177,1,90.0000034332277
346,183,250375,1,0,0:0:0:0:
144,268,250728,2,0,B|208:240|208:240|286:257,1,135.000005149842
421,124,251316,1,0,0:0:0:0:
421,124,251434,6,0,P|438:67|396:15,1,120
371,77,251787,2,0,P|388:185|467:174,1,180
228,310,252492,1,0,0:0:0:0:
162,223,252845,2,0,L|174:95,1,90.0000034332277
173,111,253198,1,0,0:0:0:0:
279,175,253551,2,0,L|294:22,1,135.000005149842
63,277,254257,6,0,L|74:178,1,71.9999978027344
73,187,254610,1,0,0:0:0:0:
183,72,254963,2,0,B|194:128|194:128|177:182,1,107.999996704102
241,311,255669,1,0,0:0:0:0:
328,159,255904,1,0,0:0:0:0:
322,141,256022,2,0,B|311:85|311:85|325:30,1,107.999996704102
425,210,256728,1,0,0:0:0:0:
242,118,256963,1,0,0:0:0:0:
242,118,257022,1,0,0:0:0:0:
242,118,257081,6,0,L|264:216,1,71.9999978027344
262,205,257434,1,0,0:0:0:0:
176,290,257787,2,0,L|147:169,1,107.999996704102
291,313,258492,1,0,0:0:0:0:
393,222,258728,1,0,0:0:0:0:
400,205,258845,2,0,B|417:151|417:151|406:98,1,107.999996704102
262,205,259551,1,0,0:0:0:0:
165,100,259787,5,0,0:0:0:0:
156,116,259904,2,0,B|144:150|144:150|152:190,1,71.9999978027344
156,202,260257,1,0,0:0:0:0:
40,275,260610,2,0,L|22:153,1,107.999996704102
109,64,261198,1,0,0:0:0:0:
112,42,261316,1,0,0:0:0:0:
221,152,261551,1,0,0:0:0:0:
224,173,261669,2,0,L|236:284,1,107.999996704102
298,54,262375,1,0,0:0:0:0:
436,180,262610,1,0,0:0:0:0:
436,180,262669,1,0,0:0:0:0:
436,180,262728,6,0,L|447:77,1,71.9999978027344
446,86,263081,1,0,0:0:0:0:
357,271,263434,1,0,0:0:0:0:
298,54,263669,1,0,0:0:0:0:
293,40,263787,1,0,0:0:0:0:
234,336,264022,1,0,0:0:0:0:
228,349,264139,1,0,0:0:0:0:
154,237,264375,5,0,0:0:0:0:
164,218,264492,2,0,B|187:167|187:167|183:111,1,107.999996704102
331,163,265081,1,0,0:0:0:0:
339,143,265198,1,0,0:0:0:0:
116,132,265434,1,0,0:0:0:0:
111,110,265551,6,0,B|107:68|107:68|131:13,1,71.9999978027344
129,21,265904,1,0,0:0:0:0:
56,337,266257,2,0,L|74:222,1,107.999996704102
200,299,266963,1,0,0:0:0:0:
292,177,267198,1,0,0:0:0:0:
288,155,267316,2,0,B|280:97|280:97|298:49,1,107.999996704102
151,108,268022,1,0,0:0:0:0:
95,39,268257,1,0,0:0:0:0:
84,57,268375,6,0,B|67:93|67:93|73:148,1,71.9999978027344
73,146,268728,1,0,0:0:0:0:
97,273,269081,1,0,0:0:0:0:
217,195,269434,1,0,0:0:0:0:
304,274,269787,1,0,0:0:0:0:
393,353,270022,1,0,0:0:0:0:
392,335,270139,2,0,L|387:221,1,90
331,155,270728,2,0,L|353:102,1,30
470,127,271081,6,0,L|483:103,1,15
470,127,271198,2,0,L|473:232,1,90
392,61,271904,1,0,0:0:0:0:
316,151,272257,1,0,0:0:0:0:
263,28,272610,1,0,0:0:0:0:
191,120,272845,1,0,0:0:0:0:
183,136,272963,2,0,B|168:179|168:179|178:231,1,90
200,331,273669,1,0,0:0:0:0:
49,275,274022,6,0,L|64:183,1,90
85,67,274728,1,0,0:0:0:0:
182,183,275081,1,0,0:0:0:0:
103,89,275434,1,0,0:0:0:0:
97,82,275787,1,0,0:0:0:0:
91,74,276139,1,0,0:0:0:0:
85,67,276492,1,0,0:0:0:0:
223,149,276845,5,0,0:0:0:0:
168,337,277198,2,0,B|200:312|192:229|192:229|228:245|262:221|262:221|265:281|265:281|337:260|343:193|343:193|311:145|311:145|338:59,1,523.125
251,23,279669,2,0,B|234:83|234:83|195:65|162:82|162:82|183:119|169:155,1,213.75
168,155,280904,1,0,0:0:0:0:
314,99,281522,6,0,B|295:116|302:148|302:148|261:135|261:135|268:194|231:218,1,185.625
204,247,283198,5,0,0:0:0:0:
204,247,284213,5,0,0:0:0:0:
335,246,284610,1,0,0:0:0:0:
256,192,284963,12,0,287257,0:0:0:0:
135,32,287478,6,0,B|160:71|121:74|121:74|174:127|174:127|173:176|173:176|145:254|145:254|224:207|224:207|217:292|217:292|298:229|298:229|301:315|301:315|371:246|417:278|417:278|408:238|375:190,1,860.625
85,189,291845,6,0,B|101:146|101:146|153:206|192:197|192:197|194:128|194:128|257:163|257:163|333:118|405:153,1,450
339,261,294139,6,0,L|338:212,1,45
128,29,294581,2,0,B|75:65|75:65|124:81|124:81|165:198|301:158,1,331.875
414,282,296787,6,0,B|408:254|417:241|417:241|338:246|307:314|307:314|253:256|253:256|256:230|256:230|233:227|233:227|237:203|237:203|204:191|204:191|239:122|239:122|267:134|283:121|283:121|274:69|274:69|300:80|300:80|313:54|313:54|366:86|397:51|397:51|465:39,1,765
183,72,300206,6,0,B|148:137|148:137|105:63|105:63|73:84|36:67|36:67,1,230.625
87,230,302345,5,0,0:0:0:0:
87,230,303669,5,0,0:0:0:0:
87,230,304728,5,0,0:0:0:0:
165,156,305434,5,0,0:0:0:0:
157,236,306669,6,0,L|253:236,1,90
457,235,307287,2,0,L|389:236,1,60
314,237,307992,1,0,0:0:0:0:
314,237,308434,1,0,0:0:0:0:
256,192,308610,12,0,311257,0:0:0:0:
