osu file format v14

[General]
AudioFilename: audio.mp3
AudioLeadIn: 0
PreviewTime: 77846
Countdown: 0
SampleSet: Normal
StackLeniency: 0.7
Mode: 1
LetterboxInBreaks: 0
WidescreenStoryboard: 1

[Editor]
DistanceSpacing: 1
BeatDivisor: 4
GridSize: 32
TimelineZoom: 1

[Metadata]
Title:Time Traveler
TitleUnicode:Time Traveler
Artist:KNOWER
ArtistUnicode:KNOWER
Creator:Nifty
Version:Muzukashii
Source:
Tags:Let Go Louis Cole Genevieve Artadi dnb d&b drum and & bass jazz
BeatmapID:1362732
BeatmapSetID:622136

[Difficulty]
HPDrainRate:6
CircleSize:5
OverallDifficulty:4.5
ApproachRate:1
SliderMultiplier:1.4
SliderTickRate:1

[Events]
//Background and Video events
0,0,"makoto-konno-the-girl-who-leapt-through-time-32620-1920x1080.jpg",0,40
//Break Periods
2,58734,62854
2,127359,131854
//Storyboard Layer 0 (Background)
//Storyboard Layer 1 (Fail)
//Storyboard Layer 2 (Pass)
//Storyboard Layer 3 (Foreground)
//Storyboard Sound Samples

[TimingPoints]
9034,375,4,1,0,70,1,0
9034,-111.111111111111,4,1,0,70,0,0
20659,-108.108108108108,4,1,0,70,0,0
20846,-102.564102564103,4,1,0,70,0,0
21034,-100,4,1,0,70,0,0
32284,-105.263157894737,4,1,0,70,0,0
33034,-111.111111111111,4,1,0,70,0,0
33784,-117.647058823529,4,1,0,70,0,0
34534,-125,4,1,0,60,0,0
40159,-117.647058823529,4,1,0,60,0,0
40534,-111.111111111111,4,1,0,60,0,0
45784,-105.263157894737,4,1,0,5,0,0
46440,-100,4,1,0,70,0,0
48971,-98.0392156862745,4,1,0,70,0,0
50471,-96.1538461538461,4,1,0,70,0,0
51971,-94.3396226415094,4,1,0,70,0,0
52346,-92.5925925925926,4,1,0,70,0,0
52534,-90.9090909090909,4,1,0,70,0,0
57971,-92.5925925925926,4,1,0,70,0,0
58159,-94.3396226415094,4,1,0,70,0,0
58346,-98.0392156862745,4,1,0,70,0,0
58534,-100,4,1,0,70,0,0
58909,-125,4,1,0,60,0,0
67534,-111.111111111111,4,1,0,60,0,0
69034,-109.89010989011,4,1,0,60,0,0
69784,-108.695652173913,4,1,0,60,0,0
70534,-107.52688172043,4,1,0,60,0,0
70909,-105.263157894737,4,1,0,60,0,0
71096,-104.166666666667,4,1,0,60,0,0
71284,-103.092783505155,4,1,0,60,0,0
71471,-102.040816326531,4,1,0,60,0,0
71659,-101.010101010101,4,1,0,65,0,0
72034,-100,4,1,0,70,0,0
73909,-99.009900990099,4,1,0,70,0,0
74096,-98.0392156862745,4,1,0,70,0,0
74471,-97.0873786407767,4,1,0,70,0,0
74659,-96.1538461538461,4,1,0,70,0,0
75034,-95.2380952380952,4,1,0,70,0,0
77284,-94.3396226415094,4,1,0,70,0,0
77471,-93.4579439252336,4,1,0,75,0,0
77659,-92.5925925925926,4,1,0,80,0,0
77846,-91.743119266055,4,1,0,85,0,0
78034,-90.9090909090909,4,1,0,90,0,1
83565,-90.9090909090909,4,1,0,90,0,0
84034,-90.9090909090909,4,1,0,90,0,1
89565,-90.9090909090909,4,1,0,90,0,0
90034,-90.9090909090909,4,1,0,90,0,1
95190,-90.9090909090909,4,1,0,90,0,0
96034,-90.9090909090909,4,1,0,90,0,1
100534,-90.9090909090909,4,1,0,80,0,0
101284,-95.2380952380952,4,1,0,80,0,0
102034,-100,4,1,0,80,0,0
102784,-111.111111111111,4,1,0,80,0,0
103534,-125,4,1,0,60,0,0
109159,-117.647058823529,4,1,0,60,0,0
109534,-111.111111111111,4,1,0,60,0,0
112534,-109.89010989011,4,1,0,60,0,0
112909,-108.695652173913,4,1,0,60,0,0
113659,-107.52688172043,4,1,0,60,0,0
114034,-106.382978723404,4,1,0,60,0,0
114409,-105.263157894737,4,1,0,60,0,0
114784,-100,4,1,0,5,0,0
115440,-100,4,1,0,70,0,0
116471,-98.0392156862745,4,1,0,70,0,0
117971,-96.1538461538461,4,1,0,70,0,0
119471,-94.3396226415094,4,1,0,70,0,0
120971,-92.5925925925926,4,1,0,70,0,0
121346,-90.9090909090909,4,1,0,70,0,0
126409,-92.5925925925926,4,1,0,70,0,0
126596,-94.3396226415094,4,1,0,70,0,0
126784,-96.1538461538461,4,1,0,70,0,0
126971,-98.0392156862745,4,1,0,70,0,0
127159,-100,4,1,0,70,0,0
127534,-125,4,1,0,60,0,0
136534,-111.111111111111,4,1,0,60,0,0
139534,-108.695652173913,4,1,0,60,0,0
141034,-106.382978723404,4,1,0,60,0,0
143284,-104.166666666667,4,1,0,60,0,0
143659,-102.040816326531,4,1,0,65,0,0
144034,-100,4,1,0,70,0,0
145909,-99.009900990099,4,1,0,70,0,0
146471,-98.0392156862745,4,1,0,70,0,0
146659,-97.0873786407767,4,1,0,70,0,0
146846,-96.1538461538461,4,1,0,70,0,0
147034,-95.2380952380952,4,1,0,70,0,0
149096,-94.3396226415094,4,1,0,70,0,0
149284,-93.4579439252336,4,1,0,75,0,0
149471,-92.5925925925926,4,1,0,80,0,0
149659,-91.743119266055,4,1,0,85,0,0
150034,-90.9090909090909,4,1,0,90,0,1
155190,-90.9090909090909,4,1,0,90,0,0
156034,-90.9090909090909,4,1,0,90,0,1
160815,-95.2380952380952,4,1,0,90,0,1
161096,-100,4,1,0,90,0,1
161190,-104.166666666667,4,1,0,90,0,0
161471,-104.166666666667,4,1,0,90,0,0
161659,-106.382978723404,4,1,0,90,0,0
161846,-108.695652173913,4,1,0,90,0,0
162034,-111.111111111111,4,1,0,70,0,0
172534,-108.695652173913,4,1,0,70,0,0
172909,-106.382978723404,4,1,0,70,0,0
173284,-104.166666666667,4,1,0,70,0,0
173659,-102.040816326531,4,1,0,70,0,0
174034,-100,4,1,0,80,0,0
191659,-111.111111111111,4,1,0,80,0,0
192784,-117.647058823529,4,1,0,80,0,0
193534,-125,4,1,0,80,0,0

[HitObjects]
256,64,9409,5,8,0:0:0:0:
256,64,9784,1,8,0:0:0:0:
256,64,9971,1,0,0:0:0:0:
256,64,10159,1,0,0:0:0:0:
256,64,10252,1,0,0:0:0:0:
256,64,10346,1,0,0:0:0:0:
256,64,10534,1,8,0:0:0:0:
256,64,10909,1,8,0:0:0:0:
256,64,12409,1,8,0:0:0:0:
256,64,12784,1,8,0:0:0:0:
256,64,12971,1,0,0:0:0:0:
256,64,13159,1,0,0:0:0:0:
256,64,13252,1,0,0:0:0:0:
256,64,13346,1,0,0:0:0:0:
160,192,13534,2,0,L|192:192,10,31.4999990386963
256,64,15409,1,8,0:0:0:0:
256,64,15784,1,8,0:0:0:0:
256,64,15971,1,0,0:0:0:0:
256,64,16159,1,0,0:0:0:0:
256,64,16252,1,0,0:0:0:0:
256,64,16346,1,0,0:0:0:0:
256,64,16534,1,8,0:0:0:0:
256,64,16909,1,8,0:0:0:0:
256,64,18409,1,8,0:0:0:0:
256,64,18784,1,8,0:0:0:0:
256,64,18971,1,0,0:0:0:0:
256,64,19159,1,0,0:0:0:0:
256,64,19252,1,0,0:0:0:0:
256,64,19346,1,0,0:0:0:0:
448,224,19534,2,0,L|416:224,10,31.4999990386963
256,64,20659,1,8,0:0:0:0:
256,64,20846,1,8,0:0:0:0:
256,64,21034,1,4,0:0:0:0:
256,64,21409,1,8,0:0:0:0:
256,64,21596,1,0,0:0:0:0:
256,64,21784,1,8,0:0:0:0:
256,64,22534,1,8,0:0:0:0:
256,64,22721,1,0,0:0:0:0:
256,64,22909,1,8,0:0:0:0:
256,64,23096,1,0,0:0:0:0:
256,64,23471,1,0,0:0:0:0:
256,64,23659,1,8,0:0:0:0:
256,64,23846,1,0,0:0:0:0:
256,64,23940,1,0,0:0:0:0:
256,64,24034,1,0,0:0:0:0:
256,64,24409,1,8,0:0:0:0:
256,64,24596,1,0,0:0:0:0:
256,64,24784,1,8,0:0:0:0:
256,64,25159,1,0,0:0:0:0:
256,64,25252,1,0,0:0:0:0:
256,64,25346,1,0,0:0:0:0:
256,64,25534,1,12,0:0:0:0:
256,64,25815,1,12,0:0:0:0:
256,64,26096,1,12,0:0:0:0:
256,64,26471,1,12,0:0:0:0:
256,64,27034,1,4,0:0:0:0:
256,64,27409,1,8,0:0:0:0:
256,64,27596,1,0,0:0:0:0:
256,64,27784,1,8,0:0:0:0:
256,64,28534,1,8,0:0:0:0:
256,64,28909,1,8,0:0:0:0:
256,64,29096,1,0,0:0:0:0:
256,64,29190,1,0,0:0:0:0:
256,64,29284,1,0,0:0:0:0:
256,64,29471,1,0,0:0:0:0:
256,64,29659,1,8,0:0:0:0:
256,64,30034,1,0,0:0:0:0:
256,64,30409,1,8,0:0:0:0:
256,64,30596,1,0,0:0:0:0:
256,64,30784,1,8,0:0:0:0:
256,64,30971,1,8,0:0:0:0:
256,64,31159,1,0,0:0:0:0:
256,64,31252,1,0,0:0:0:0:
256,64,31346,1,0,0:0:0:0:
256,64,31534,1,12,0:0:0:0:
256,64,31815,1,0,0:0:0:0:
256,64,32284,1,12,0:0:0:0:
256,64,32565,1,0,0:0:0:0:
256,64,33034,1,12,0:0:0:0:
256,64,33315,1,0,0:0:0:0:
256,64,33784,1,12,0:0:0:0:
256,64,34065,1,0,0:0:0:0:
256,64,34534,1,0,0:0:0:0:
320,64,34909,1,8,0:0:0:0:
256,64,35096,1,0,0:0:0:0:
256,64,35659,1,8,0:0:0:0:
256,64,36409,1,8,0:0:0:0:
256,64,36596,1,0,0:0:0:0:
256,64,36784,1,0,0:0:0:0:
256,64,37159,1,8,0:0:0:0:
256,64,37534,1,0,0:0:0:0:
256,64,37909,1,8,0:0:0:0:
256,64,38659,1,8,0:0:0:0:
256,64,39034,1,0,0:0:0:0:
256,64,39409,1,8,0:0:0:0:
256,64,40159,1,8,0:0:0:0:
256,64,40534,1,0,0:0:0:0:
256,64,40909,1,8,0:0:0:0:
256,64,41096,1,0,0:0:0:0:
256,64,41659,1,8,0:0:0:0:
256,64,42034,1,0,0:0:0:0:
256,64,42409,1,8,0:0:0:0:
256,64,42596,1,0,0:0:0:0:
256,64,43159,1,8,0:0:0:0:
256,64,43534,1,0,0:0:0:0:
256,64,43909,1,8,0:0:0:0:
256,64,44096,1,0,0:0:0:0:
256,64,44659,1,8,0:0:0:0:
256,64,45034,1,0,0:0:0:0:
256,64,45409,1,8,0:0:0:0:
256,64,45596,1,0,0:0:0:0:
256,192,45784,12,0,46346,0:0:0:0:
256,64,46534,5,4,0:0:0:0:
256,64,46721,1,8,0:0:0:0:
256,64,46909,1,8,0:0:0:0:
256,64,47096,1,0,0:0:0:0:
256,64,47471,1,0,0:0:0:0:
256,64,47659,1,8,0:0:0:0:
256,64,47846,1,0,0:0:0:0:
256,64,47940,1,0,0:0:0:0:
256,64,48034,1,0,0:0:0:0:
256,64,48221,1,8,0:0:0:0:
256,64,48409,1,8,0:0:0:0:
256,64,48596,1,0,0:0:0:0:
256,64,48971,1,0,0:0:0:0:
256,64,49159,1,8,0:0:0:0:
256,64,49346,1,0,0:0:0:0:
256,64,49440,1,0,0:0:0:0:
256,64,49534,1,0,0:0:0:0:
256,64,49721,1,0,0:0:0:0:
256,64,49909,1,8,0:0:0:0:
256,64,50096,1,0,0:0:0:0:
256,64,50471,1,8,0:0:0:0:
256,64,50659,1,8,0:0:0:0:
288,64,50846,1,0,0:0:0:0:
288,64,50940,1,0,0:0:0:0:
288,64,51034,1,0,0:0:0:0:
288,64,51221,1,0,0:0:0:0:
288,64,51409,1,8,0:0:0:0:
288,64,51596,1,0,0:0:0:0:
288,64,51971,1,8,0:0:0:0:
288,64,52065,1,8,0:0:0:0:
288,64,52159,1,8,0:0:0:0:
288,64,52346,1,0,0:0:0:0:
288,64,52534,1,0,0:0:0:0:
288,64,52721,1,8,0:0:0:0:
288,64,52909,1,8,0:0:0:0:
288,64,53096,1,0,0:0:0:0:
288,64,53471,1,0,0:0:0:0:
288,64,53659,1,8,0:0:0:0:
288,64,53846,1,0,0:0:0:0:
288,64,53940,1,0,0:0:0:0:
288,64,54034,1,0,0:0:0:0:
288,64,54221,1,8,0:0:0:0:
288,64,54409,1,8,0:0:0:0:
288,64,54596,1,0,0:0:0:0:
288,64,54971,1,0,0:0:0:0:
288,64,55159,1,8,0:0:0:0:
288,64,55346,1,0,0:0:0:0:
288,64,55440,1,0,0:0:0:0:
288,64,55534,1,0,0:0:0:0:
288,64,55721,1,0,0:0:0:0:
288,64,55909,1,8,0:0:0:0:
288,64,56096,1,0,0:0:0:0:
288,64,56471,1,8,0:0:0:0:
288,64,56659,1,8,0:0:0:0:
288,64,56846,1,0,0:0:0:0:
288,64,56940,1,0,0:0:0:0:
288,64,57034,1,0,0:0:0:0:
288,64,57221,1,0,0:0:0:0:
288,64,57409,1,8,0:0:0:0:
288,64,57596,1,0,0:0:0:0:
288,64,57971,1,0,0:0:0:0:
256,64,58159,1,8,0:0:0:0:
256,64,58346,1,0,0:0:0:0:
256,64,58534,1,0,0:0:0:0:
256,64,64534,5,0,0:0:0:0:
256,64,65284,1,0,0:0:0:0:
256,64,66034,1,0,0:0:0:0:
256,64,66784,1,0,0:0:0:0:
256,64,67534,1,0,0:0:0:0:
256,64,67909,1,0,0:0:0:0:
256,64,68284,1,0,0:0:0:0:
256,64,68659,1,0,0:0:0:0:
256,64,69034,1,0,0:0:0:0:
256,64,69409,1,8,0:0:0:0:
256,64,69784,1,0,0:0:0:0:
256,64,70159,1,8,0:0:0:0:
256,64,70534,1,0,0:0:0:0:
256,64,70909,1,8,0:0:0:0:
256,64,71096,1,0,0:0:0:0:
256,64,71284,1,8,0:0:0:0:
256,64,71471,1,8,0:0:0:0:
256,64,71659,1,0,0:0:0:0:
256,64,71752,1,0,0:0:0:0:
256,64,71846,1,0,0:0:0:0:
256,64,72034,1,4,0:0:0:0:
256,64,72409,1,8,0:0:0:0:
256,64,72596,1,0,0:0:0:0:
256,64,72690,1,0,0:0:0:0:
256,64,72784,1,0,0:0:0:0:
256,64,72971,1,0,0:0:0:0:
256,64,73159,1,8,0:0:0:0:
256,64,73534,1,0,0:0:0:0:
256,64,73721,1,0,0:0:0:0:
256,64,73909,1,8,0:0:0:0:
256,64,74096,1,0,0:0:0:0:
256,64,74190,1,0,0:0:0:0:
256,64,74284,1,0,0:0:0:0:
256,64,74471,1,0,0:0:0:0:
256,64,74659,1,8,0:0:0:0:
256,64,75034,1,0,0:0:0:0:
256,64,75409,1,8,0:0:0:0:
256,64,75596,1,0,0:0:0:0:
256,64,75690,1,0,0:0:0:0:
256,64,75784,1,0,0:0:0:0:
256,64,75971,1,0,0:0:0:0:
256,64,76159,1,8,0:0:0:0:
256,64,76534,1,0,0:0:0:0:
256,64,76909,1,8,0:0:0:0:
256,64,77096,1,0,0:0:0:0:
256,64,77284,1,8,0:0:0:0:
256,64,77471,1,0,0:0:0:0:
256,64,77659,1,8,0:0:0:0:
256,64,77846,1,8,0:0:0:0:
256,64,78034,1,4,0:0:0:0:
256,64,78409,1,8,0:0:0:0:
256,64,78596,1,0,0:0:0:0:
256,64,78784,1,8,0:0:0:0:
256,64,79159,1,0,0:0:0:0:
256,64,79346,1,8,0:0:0:0:
256,64,79440,1,8,0:0:0:0:
256,64,79534,1,8,0:0:0:0:
256,64,79721,1,0,0:0:0:0:
256,64,79909,1,8,0:0:0:0:
256,64,80096,1,0,0:0:0:0:
256,64,80471,1,8,0:0:0:0:
256,64,80659,1,0,0:0:0:0:
256,64,80752,1,0,0:0:0:0:
256,64,80846,1,0,0:0:0:0:
256,64,81034,1,8,0:0:0:0:
256,64,81221,1,0,0:0:0:0:
256,64,81409,1,8,0:0:0:0:
256,64,81784,1,8,0:0:0:0:
256,64,81971,1,0,0:0:0:0:
256,64,82159,1,8,0:0:0:0:
256,64,82252,1,8,0:0:0:0:
256,64,82346,1,8,0:0:0:0:
256,64,82534,1,4,0:0:0:0:
256,64,82815,1,4,0:0:0:0:
256,64,83096,1,4,0:0:0:0:
256,64,83471,1,8,0:0:0:0:
256,64,84034,1,4,0:0:0:0:
256,64,84409,1,8,0:0:0:0:
256,64,84596,1,0,0:0:0:0:
256,64,84784,1,8,0:0:0:0:
256,64,85159,1,0,0:0:0:0:
256,64,85346,1,8,0:0:0:0:
256,32,85440,1,8,0:0:0:0:
256,64,85534,1,8,0:0:0:0:
256,64,85721,1,0,0:0:0:0:
256,64,85909,1,8,0:0:0:0:
256,64,86096,1,0,0:0:0:0:
256,64,86471,1,0,0:0:0:0:
256,64,86659,1,8,0:0:0:0:
256,64,86752,1,8,0:0:0:0:
256,64,86846,1,8,0:0:0:0:
256,64,87034,1,0,0:0:0:0:
256,64,87221,1,0,0:0:0:0:
256,64,87409,1,8,0:0:0:0:
256,64,87784,1,8,0:0:0:0:
256,64,87971,1,0,0:0:0:0:
256,64,88159,1,0,0:0:0:0:
256,64,88252,1,0,0:0:0:0:
256,64,88346,1,0,0:0:0:0:
256,64,88534,1,12,0:0:0:0:
256,64,88815,1,12,0:0:0:0:
256,64,89096,1,12,0:0:0:0:
256,64,89471,1,8,0:0:0:0:
256,64,90034,1,4,0:0:0:0:
256,64,90409,1,8,0:0:0:0:
256,64,90596,1,0,0:0:0:0:
256,64,90784,1,8,0:0:0:0:
256,64,90971,1,8,0:0:0:0:
256,64,91159,1,0,0:0:0:0:
256,64,91252,1,0,0:0:0:0:
256,64,91346,1,0,0:0:0:0:
256,64,91534,1,8,0:0:0:0:
256,64,91721,1,0,0:0:0:0:
256,64,91909,1,8,0:0:0:0:
256,64,92096,1,0,0:0:0:0:
256,64,92471,1,8,0:0:0:0:
256,64,92565,1,8,0:0:0:0:
256,64,92659,1,8,0:0:0:0:
256,64,93034,1,0,0:0:0:0:
256,64,93221,1,0,0:0:0:0:
256,64,93409,1,8,0:0:0:0:
256,64,93784,1,8,0:0:0:0:
256,64,93971,1,0,0:0:0:0:
256,64,94159,1,8,0:0:0:0:
256,64,94252,1,8,0:0:0:0:
256,64,94346,1,8,0:0:0:0:
256,64,94534,1,4,0:0:0:0:
256,64,94815,1,4,0:0:0:0:
256,64,95096,1,4,0:0:0:0:
256,64,95471,1,4,0:0:0:0:
256,64,96034,1,8,0:0:0:0:
256,64,96221,1,8,0:0:0:0:
256,64,96409,1,0,0:0:0:0:
256,64,96596,1,0,0:0:0:0:
256,64,96971,1,8,0:0:0:0:
256,64,97159,1,0,0:0:0:0:
256,64,97252,1,0,0:0:0:0:
256,64,97346,1,0,0:0:0:0:
256,64,97534,1,8,0:0:0:0:
256,64,97721,1,0,0:0:0:0:
256,64,97909,1,8,0:0:0:0:
256,64,98096,1,0,0:0:0:0:
256,64,98190,1,0,0:0:0:0:
256,64,98284,1,0,0:0:0:0:
256,64,98471,1,0,0:0:0:0:
256,64,98659,1,8,0:0:0:0:
256,64,99034,1,0,0:0:0:0:
256,64,99409,1,8,0:0:0:0:
256,64,99596,1,0,0:0:0:0:
256,64,99784,1,8,0:0:0:0:
256,64,99971,1,8,0:0:0:0:
256,64,100159,1,0,0:0:0:0:
256,64,100252,1,0,0:0:0:0:
256,64,100346,1,0,0:0:0:0:
256,64,100534,1,12,0:0:0:0:
256,64,100815,1,0,0:0:0:0:
256,64,101284,1,12,0:0:0:0:
256,64,101565,1,0,0:0:0:0:
256,64,102034,1,12,0:0:0:0:
256,64,102315,1,0,0:0:0:0:
256,64,102784,1,12,0:0:0:0:
256,64,103065,1,0,0:0:0:0:
256,64,103534,1,0,0:0:0:0:
256,64,103909,1,8,0:0:0:0:
256,64,104659,1,8,0:0:0:0:
256,64,105409,1,8,0:0:0:0:
256,64,106159,1,8,0:0:0:0:
256,64,106909,1,8,0:0:0:0:
256,64,107659,1,8,0:0:0:0:
256,64,108409,1,8,0:0:0:0:
256,64,109159,1,8,0:0:0:0:
256,64,109534,1,0,0:0:0:0:
256,64,109909,1,8,0:0:0:0:
256,64,110096,1,0,0:0:0:0:
256,64,110659,1,8,0:0:0:0:
256,64,111034,1,0,0:0:0:0:
256,64,111409,1,8,0:0:0:0:
256,64,111596,1,0,0:0:0:0:
256,64,112159,1,8,0:0:0:0:
256,64,112534,1,0,0:0:0:0:
256,64,112909,1,8,0:0:0:0:
256,64,113096,5,0,0:0:0:0:
256,64,113659,5,8,0:0:0:0:
256,64,114034,1,0,0:0:0:0:
256,64,114409,1,8,0:0:0:0:
256,64,114596,1,0,0:0:0:0:
256,192,114784,12,0,115346,0:0:0:0:
256,64,115534,5,0,0:0:0:0:
256,64,115721,1,8,0:0:0:0:
256,64,115815,1,8,0:0:0:0:
256,64,115909,1,8,0:0:0:0:
256,64,116096,1,0,0:0:0:0:
256,64,116471,1,0,0:0:0:0:
256,64,116659,1,8,0:0:0:0:
256,64,116846,1,0,0:0:0:0:
256,64,116940,1,0,0:0:0:0:
256,64,117034,1,0,0:0:0:0:
256,64,117221,1,8,0:0:0:0:
256,64,117409,1,8,0:0:0:0:
256,64,117596,1,0,0:0:0:0:
256,64,117971,1,0,0:0:0:0:
256,64,118159,1,8,0:0:0:0:
256,64,118346,1,0,0:0:0:0:
256,64,118440,1,0,0:0:0:0:
256,64,118534,1,0,0:0:0:0:
256,64,118721,1,0,0:0:0:0:
256,64,118909,1,8,0:0:0:0:
256,64,119096,1,0,0:0:0:0:
256,64,119471,1,8,0:0:0:0:
256,64,119659,1,8,0:0:0:0:
256,64,119846,1,0,0:0:0:0:
256,64,119940,1,0,0:0:0:0:
256,64,120034,1,0,0:0:0:0:
256,64,120221,1,0,0:0:0:0:
256,64,120409,1,8,0:0:0:0:
256,64,120596,1,0,0:0:0:0:
256,64,120971,1,8,0:0:0:0:
256,64,121065,1,8,0:0:0:0:
256,64,121159,1,8,0:0:0:0:
256,64,121346,1,0,0:0:0:0:
256,64,121440,1,0,0:0:0:0:
256,64,121534,1,0,0:0:0:0:
256,64,121721,1,0,0:0:0:0:
256,64,121909,1,8,0:0:0:0:
256,64,122096,1,0,0:0:0:0:
256,64,122471,1,0,0:0:0:0:
256,64,122659,1,8,0:0:0:0:
256,64,122846,1,0,0:0:0:0:
256,64,122940,1,0,0:0:0:0:
256,64,123034,1,0,0:0:0:0:
256,64,123221,1,8,0:0:0:0:
256,64,123409,1,8,0:0:0:0:
256,64,123596,1,0,0:0:0:0:
256,64,123971,1,0,0:0:0:0:
256,64,124159,1,8,0:0:0:0:
256,64,124346,1,0,0:0:0:0:
256,64,124440,1,0,0:0:0:0:
256,64,124534,1,0,0:0:0:0:
256,64,124721,1,0,0:0:0:0:
256,64,124909,1,8,0:0:0:0:
256,64,125096,1,0,0:0:0:0:
256,64,125471,1,8,0:0:0:0:
256,64,125659,1,8,0:0:0:0:
256,64,125846,1,0,0:0:0:0:
256,64,125940,1,0,0:0:0:0:
256,64,126034,1,0,0:0:0:0:
256,64,126221,1,0,0:0:0:0:
256,64,126409,1,8,0:0:0:0:
256,64,126596,1,0,0:0:0:0:
256,64,126784,1,8,0:0:0:0:
256,64,126971,1,0,0:0:0:0:
256,64,127159,1,8,0:0:0:0:
256,64,133534,5,0,0:0:0:0:
256,64,134284,1,0,0:0:0:0:
256,64,135034,1,0,0:0:0:0:
256,64,135784,1,0,0:0:0:0:
256,64,136534,1,0,0:0:0:0:
256,64,136909,1,0,0:0:0:0:
256,64,137284,1,0,0:0:0:0:
256,64,137659,1,0,0:0:0:0:
256,64,138034,1,8,0:0:0:0:
256,64,138409,1,8,0:0:0:0:
256,64,138784,1,8,0:0:0:0:
256,64,139159,1,8,0:0:0:0:
256,64,139534,1,8,0:0:0:0:
256,64,139721,1,0,0:0:0:0:
256,64,139909,1,8,0:0:0:0:
256,64,140284,1,8,0:0:0:0:
256,64,140471,1,0,0:0:0:0:
256,64,140659,1,8,0:0:0:0:
256,64,141034,1,8,0:0:0:0:
256,64,141221,1,0,0:0:0:0:
256,64,141409,1,8,0:0:0:0:
256,64,141596,1,8,0:0:0:0:
256,64,141784,1,0,0:0:0:0:
256,64,142159,1,8,0:0:0:0:
256,64,142346,1,0,0:0:0:0:
256,64,142534,1,8,0:0:0:0:
256,64,142721,1,8,0:0:0:0:
256,64,142909,1,0,0:0:0:0:
256,64,143096,1,0,0:0:0:0:
256,64,143284,1,8,0:0:0:0:
256,64,143377,1,8,0:0:0:0:
256,64,143471,1,8,0:0:0:0:
256,64,143659,1,0,0:0:0:0:
256,64,143752,1,0,0:0:0:0:
256,64,143846,1,0,0:0:0:0:
256,64,144034,1,4,0:0:0:0:
256,64,144409,1,8,0:0:0:0:
256,64,144596,1,0,0:0:0:0:
256,64,144690,1,0,0:0:0:0:
256,64,144784,1,0,0:0:0:0:
256,64,144971,1,0,0:0:0:0:
256,64,145159,1,8,0:0:0:0:
256,64,145534,1,0,0:0:0:0:
256,64,145721,1,0,0:0:0:0:
256,64,145909,1,8,0:0:0:0:
256,64,146096,1,0,0:0:0:0:
256,64,146190,1,0,0:0:0:0:
256,64,146284,1,0,0:0:0:0:
256,64,146471,1,0,0:0:0:0:
256,64,146659,1,8,0:0:0:0:
256,64,146846,1,8,0:0:0:0:
256,64,147034,1,0,0:0:0:0:
256,64,147409,1,8,0:0:0:0:
256,64,147596,1,0,0:0:0:0:
256,64,147690,1,0,0:0:0:0:
256,64,147784,1,0,0:0:0:0:
256,64,147971,1,0,0:0:0:0:
256,64,148159,1,8,0:0:0:0:
256,64,148534,1,0,0:0:0:0:
256,64,148909,1,8,0:0:0:0:
256,64,149096,1,0,0:0:0:0:
256,64,149284,1,8,0:0:0:0:
256,64,149471,1,0,0:0:0:0:
288,64,149659,1,8,0:0:0:0:
256,64,149846,1,8,0:0:0:0:
256,64,150034,1,4,0:0:0:0:
256,64,150409,1,0,0:0:0:0:
256,64,150596,1,0,0:0:0:0:
256,64,150784,1,8,0:0:0:0:
256,64,151159,1,0,0:0:0:0:
256,64,151346,1,8,0:0:0:0:
256,64,151440,1,8,0:0:0:0:
256,64,151534,1,8,0:0:0:0:
256,64,151721,1,0,0:0:0:0:
256,64,151909,1,8,0:0:0:0:
256,64,152096,1,0,0:0:0:0:
256,64,152471,1,0,0:0:0:0:
256,64,152659,1,8,0:0:0:0:
256,64,152752,1,8,0:0:0:0:
256,64,152846,1,8,0:0:0:0:
256,64,153034,1,0,0:0:0:0:
256,64,153221,1,0,0:0:0:0:
256,64,153409,1,8,0:0:0:0:
256,64,153784,1,8,0:0:0:0:
256,64,153971,1,0,0:0:0:0:
256,64,154159,1,0,0:0:0:0:
256,64,154252,1,0,0:0:0:0:
256,64,154346,1,0,0:0:0:0:
256,64,154534,1,12,0:0:0:0:
256,64,154815,1,12,0:0:0:0:
256,64,155096,1,12,0:0:0:0:
256,64,155471,1,8,0:0:0:0:
256,64,155659,1,0,0:0:0:0:
256,64,155846,1,0,0:0:0:0:
256,64,156034,1,4,0:0:0:0:
256,64,156409,1,0,0:0:0:0:
256,64,156596,1,0,0:0:0:0:
256,64,156784,1,8,0:0:0:0:
256,64,156971,1,0,0:0:0:0:
256,64,157159,1,8,0:0:0:0:
256,64,157346,1,8,0:0:0:0:
256,64,157534,1,8,0:0:0:0:
256,64,157909,1,8,0:0:0:0:
256,64,158096,1,0,0:0:0:0:
256,64,158471,1,8,0:0:0:0:
256,64,158659,1,0,0:0:0:0:
256,64,158752,1,0,0:0:0:0:
256,64,158846,1,0,0:0:0:0:
256,64,159034,1,8,0:0:0:0:
256,64,159221,1,0,0:0:0:0:
256,64,159409,1,8,0:0:0:0:
256,64,159784,1,8,0:0:0:0:
256,64,159971,1,0,0:0:0:0:
256,64,160159,1,8,0:0:0:0:
256,64,160252,1,8,0:0:0:0:
256,64,160346,1,8,0:0:0:0:
256,64,160534,1,4,0:0:0:0:
256,64,160815,1,4,0:0:0:0:
256,64,161096,1,4,0:0:0:0:
256,64,161471,1,8,0:0:0:0:
256,64,161659,1,0,0:0:0:0:
256,64,161846,1,0,0:0:0:0:
256,64,162034,1,0,0:0:0:0:
256,64,162409,1,8,0:0:0:0:
256,64,162784,1,8,0:0:0:0:
256,64,163159,1,0,0:0:0:0:
256,64,163534,1,8,0:0:0:0:
256,64,163721,1,0,0:0:0:0:
256,64,163909,1,8,0:0:0:0:
256,64,164659,1,8,0:0:0:0:
256,64,165034,1,0,0:0:0:0:
256,64,165409,1,8,0:0:0:0:
256,64,165596,1,0,0:0:0:0:
256,64,165784,1,8,0:0:0:0:
256,64,165971,1,8,0:0:0:0:
256,64,166159,1,0,0:0:0:0:
256,64,166346,1,8,0:0:0:0:
256,64,166534,1,0,0:0:0:0:
256,64,166909,1,8,0:0:0:0:
256,64,167284,1,0,0:0:0:0:
256,64,167471,1,0,0:0:0:0:
256,64,167659,1,8,0:0:0:0:
256,64,168409,1,8,0:0:0:0:
256,64,168784,1,8,0:0:0:0:
256,64,169159,1,0,0:0:0:0:
256,32,169534,1,8,0:0:0:0:
256,64,169721,1,0,0:0:0:0:
256,64,169909,1,8,0:0:0:0:
256,64,170659,1,8,0:0:0:0:
256,64,171034,1,0,0:0:0:0:
256,64,171409,1,8,0:0:0:0:
256,64,171596,1,0,0:0:0:0:
256,64,171784,1,8,0:0:0:0:
256,64,171971,1,0,0:0:0:0:
256,64,172159,1,8,0:0:0:0:
256,64,172252,1,8,0:0:0:0:
256,64,172346,1,8,0:0:0:0:
256,64,172534,1,0,0:0:0:0:
256,64,172909,1,8,0:0:0:0:
256,64,173284,1,0,0:0:0:0:
256,64,173659,1,0,0:0:0:0:
256,64,173752,1,0,0:0:0:0:
256,64,173846,1,0,0:0:0:0:
256,64,174034,1,0,0:0:0:0:
256,64,174221,1,0,0:0:0:0:
256,64,174409,1,8,0:0:0:0:
256,64,174596,1,0,0:0:0:0:
256,64,174784,1,8,0:0:0:0:
256,64,175159,1,0,0:0:0:0:
256,64,175346,1,0,0:0:0:0:
256,64,175534,1,8,0:0:0:0:
256,64,175721,1,0,0:0:0:0:
256,64,175909,1,8,0:0:0:0:
256,64,176096,1,0,0:0:0:0:
256,64,176471,1,8,0:0:0:0:
256,64,176565,1,8,0:0:0:0:
256,64,176659,1,8,0:0:0:0:
256,64,177034,1,8,0:0:0:0:
256,64,177221,1,0,0:0:0:0:
256,64,177409,1,8,0:0:0:0:
256,64,177784,1,8,0:0:0:0:
256,64,177971,1,0,0:0:0:0:
256,64,178159,1,0,0:0:0:0:
256,64,178252,1,0,0:0:0:0:
256,64,178346,1,0,0:0:0:0:
256,64,178534,1,12,0:0:0:0:
256,64,178815,1,12,0:0:0:0:
256,64,179096,1,12,0:0:0:0:
256,64,179471,1,8,0:0:0:0:
256,64,179659,1,0,0:0:0:0:
256,64,180034,1,0,0:0:0:0:
256,64,180221,1,0,0:0:0:0:
256,64,180409,1,8,0:0:0:0:
256,64,180596,1,0,0:0:0:0:
256,64,180784,1,8,0:0:0:0:
256,64,181159,1,0,0:0:0:0:
256,64,181346,1,0,0:0:0:0:
256,64,181534,1,8,0:0:0:0:
256,64,181721,1,0,0:0:0:0:
256,64,181909,1,8,0:0:0:0:
256,64,182096,1,0,0:0:0:0:
256,64,182190,1,0,0:0:0:0:
256,64,182284,1,0,0:0:0:0:
256,64,182471,1,0,0:0:0:0:
256,64,182659,1,8,0:0:0:0:
256,64,183034,1,8,0:0:0:0:
256,64,183221,1,0,0:0:0:0:
256,64,183315,1,0,0:0:0:0:
256,64,183409,1,0,0:0:0:0:
256,64,183596,1,0,0:0:0:0:
256,64,183784,1,8,0:0:0:0:
256,64,183971,1,0,0:0:0:0:
256,64,184159,1,8,0:0:0:0:
256,64,184252,1,8,0:0:0:0:
256,64,184346,1,8,0:0:0:0:
256,64,184534,1,4,0:0:0:0:
256,64,184815,1,4,0:0:0:0:
256,64,185096,1,4,0:0:0:0:
256,64,185471,1,0,0:0:0:0:
256,64,185659,1,8,0:0:0:0:
256,64,185846,1,8,0:0:0:0:
256,64,186034,1,0,0:0:0:0:
256,64,186409,1,8,0:0:0:0:
256,64,186596,1,0,0:0:0:0:
256,64,186784,1,8,0:0:0:0:
256,64,186971,1,0,0:0:0:0:
256,64,187065,1,0,0:0:0:0:
256,64,187159,1,0,0:0:0:0:
256,64,187534,1,8,0:0:0:0:
256,64,187721,1,0,0:0:0:0:
256,64,187909,1,8,0:0:0:0:
256,64,188002,1,8,0:0:0:0:
256,64,188096,1,8,0:0:0:0:
256,64,188284,1,8,0:0:0:0:
256,64,188471,1,0,0:0:0:0:
256,64,188659,1,0,0:0:0:0:
256,64,189034,1,0,0:0:0:0:
256,64,189221,1,8,0:0:0:0:
256,64,189409,1,8,0:0:0:0:
256,64,189596,1,0,0:0:0:0:
256,64,189784,1,8,0:0:0:0:
256,64,189971,1,8,0:0:0:0:
256,64,190159,1,8,0:0:0:0:
256,64,190252,1,8,0:0:0:0:
256,64,190346,1,8,0:0:0:0:
256,64,190534,1,4,0:0:0:0:
256,64,191659,1,8,0:0:0:0:
256,64,191846,1,0,0:0:0:0:
256,64,192034,1,4,0:0:0:0:
256,64,192784,1,8,0:0:0:0:
256,64,193534,1,4,0:0:0:0:
