osu file format v14

[General]
AudioFilename: audio.mp3
AudioLeadIn: 0
PreviewTime: 77846
Countdown: 0
SampleSet: Normal
StackLeniency: 0.7
Mode: 1
LetterboxInBreaks: 0
WidescreenStoryboard: 0

[Editor]
DistanceSpacing: 1
BeatDivisor: 2
GridSize: 32
TimelineZoom: 1

[Metadata]
Title:Time Traveler
TitleUnicode:Time Traveler
Artist:KNOWER
ArtistUnicode:KNOWER
Creator:Nifty
Version:Kantan
Source:
Tags:Let Go Louis Cole Genevieve Artadi dnb d&b drum and & bass jazz
BeatmapID:1362731
BeatmapSetID:622136

[Difficulty]
HPDrainRate:8
CircleSize:2
OverallDifficulty:2
ApproachRate:1
SliderMultiplier:1.4
SliderTickRate:1

[Events]
//Background and Video events
0,0,"makoto-konno-the-girl-who-leapt-through-time-32620-1920x1080.jpg",0,40
//Break Periods
2,58734,62854
2,127359,131854
//Storyboard Layer 0 (Background)
//Storyboard Layer 1 (Fail)
//Storyboard Layer 2 (Pass)
//Storyboard Layer 3 (Foreground)
//Storyboard Sound Samples

[TimingPoints]
9034,375,4,1,0,60,1,0
78034,-100,4,1,0,90,0,1
83190,-100,4,1,0,90,0,0
84034,-100,4,1,0,90,0,1
89190,-100,4,1,0,90,0,0
90034,-100,4,1,0,90,0,1
95190,-100,4,1,0,90,0,0
96034,-100,4,1,0,90,0,1
100534,-100,4,1,0,80,0,0
150034,-100,4,1,0,90,0,1
155190,-100,4,1,0,90,0,0
156034,-100,4,1,0,90,0,1
161471,-100,4,1,0,90,0,0

[HitObjects]
256,96,9409,5,0,0:0:0:0:
256,96,9784,1,0,0:0:0:0:
256,96,10534,1,8,0:0:0:0:
256,64,10909,1,8,0:0:0:0:
256,64,12409,1,0,0:0:0:0:
256,64,12784,1,0,0:0:0:0:
256,64,13534,2,8,L|608:64,1,350
256,64,15409,1,0,0:0:0:0:
256,64,15784,1,0,0:0:0:0:
256,64,16534,1,8,0:0:0:0:
256,64,16909,1,8,0:0:0:0:
256,64,18409,1,0,0:0:0:0:
256,64,18784,1,0,0:0:0:0:
256,64,19534,2,8,L|608:64,1,350
256,64,21034,1,4,0:0:0:0:
256,64,21409,1,0,0:0:0:0:
256,64,21784,1,0,0:0:0:0:
256,64,22534,1,8,0:0:0:0:
256,64,22909,1,8,0:0:0:0:
256,64,24409,1,0,0:0:0:0:
256,64,24784,1,0,0:0:0:0:
256,64,25534,1,12,0:0:0:0:
256,64,26096,1,12,0:0:0:0:
256,96,27034,1,0,0:0:0:0:
256,96,27409,1,0,0:0:0:0:
256,96,27784,1,0,0:0:0:0:
256,96,28534,1,8,0:0:0:0:
256,96,28909,1,8,0:0:0:0:
256,96,30409,1,0,0:0:0:0:
256,96,30784,1,0,0:0:0:0:
256,96,31534,1,12,0:0:0:0:
256,64,32284,1,12,0:0:0:0:
256,64,33034,1,12,0:0:0:0:
256,64,33784,1,12,0:0:0:0:
256,64,34534,1,0,0:0:0:0:
256,64,34909,1,8,0:0:0:0:
256,64,36409,1,8,0:0:0:0:
256,64,37159,1,8,0:0:0:0:
256,64,37909,1,8,0:0:0:0:
256,64,39409,1,8,0:0:0:0:
256,64,40159,1,8,0:0:0:0:
256,64,40534,1,0,0:0:0:0:
256,64,40909,1,8,0:0:0:0:
256,64,42409,1,8,0:0:0:0:
256,64,43159,1,8,0:0:0:0:
256,64,43534,1,0,0:0:0:0:
256,64,43909,1,8,0:0:0:0:
256,64,45034,1,0,0:0:0:0:
256,96,45784,1,8,0:0:0:0:
256,96,46534,5,4,0:0:0:0:
256,64,46909,1,8,0:0:0:0:
256,64,47659,1,0,0:0:0:0:
256,64,48409,1,8,0:0:0:0:
256,64,49159,1,8,0:0:0:0:
256,64,49534,1,0,0:0:0:0:
256,64,49909,1,8,0:0:0:0:
256,64,50659,1,0,0:0:0:0:
256,64,51409,1,8,0:0:0:0:
256,64,52159,1,8,0:0:0:0:
256,64,52534,1,0,0:0:0:0:
256,64,52909,1,8,0:0:0:0:
256,64,53659,1,0,0:0:0:0:
256,64,54409,1,8,0:0:0:0:
256,64,55159,1,8,0:0:0:0:
256,64,55534,1,0,0:0:0:0:
256,64,55909,1,8,0:0:0:0:
256,64,56659,1,0,0:0:0:0:
256,64,57409,1,8,0:0:0:0:
256,64,58159,1,0,0:0:0:0:
256,64,58534,1,0,0:0:0:0:
256,96,64534,5,0,0:0:0:0:
256,64,66034,1,0,0:0:0:0:
256,96,67534,1,0,0:0:0:0:
256,96,68284,1,0,0:0:0:0:
256,96,69034,1,8,0:0:0:0:
256,96,69784,1,8,0:0:0:0:
256,96,70159,1,0,0:0:0:0:
256,96,70534,1,8,0:0:0:0:
256,96,71284,1,8,0:0:0:0:
256,96,71659,1,0,0:0:0:0:
256,96,72034,1,4,0:0:0:0:
256,64,73159,1,8,0:0:0:0:
256,64,73534,1,0,0:0:0:0:
256,64,74659,1,8,0:0:0:0:
256,64,75034,1,0,0:0:0:0:
256,64,76159,1,8,0:0:0:0:
256,64,76534,1,0,0:0:0:0:
256,64,77284,1,8,0:0:0:0:
256,64,77659,1,8,0:0:0:0:
256,64,78034,1,4,0:0:0:0:
256,64,78784,1,0,0:0:0:0:
256,64,79534,1,8,0:0:0:0:
256,64,79909,1,8,0:0:0:0:
256,64,81034,1,0,0:0:0:0:
256,64,81409,1,8,0:0:0:0:
256,64,81784,1,0,0:0:0:0:
256,64,82534,1,12,0:0:0:0:
256,64,83096,1,12,0:0:0:0:
256,64,84034,1,4,0:0:0:0:
256,64,84784,1,0,0:0:0:0:
256,64,85534,1,8,0:0:0:0:
256,64,85909,1,8,0:0:0:0:
256,64,87034,1,0,0:0:0:0:
256,64,87409,1,8,0:0:0:0:
256,64,87784,1,0,0:0:0:0:
256,64,88534,1,12,0:0:0:0:
256,64,89096,1,12,0:0:0:0:
256,64,90034,1,4,0:0:0:0:
256,64,90784,1,0,0:0:0:0:
256,64,91534,1,8,0:0:0:0:
256,64,91909,1,8,0:0:0:0:
256,64,93034,1,0,0:0:0:0:
256,64,93409,1,8,0:0:0:0:
256,64,93784,1,0,0:0:0:0:
256,64,94534,1,12,0:0:0:0:
256,64,95096,1,12,0:0:0:0:
256,64,96034,1,4,0:0:0:0:
256,64,97534,1,0,0:0:0:0:
256,64,97909,1,8,0:0:0:0:
256,64,98659,1,8,0:0:0:0:
256,64,99034,1,0,0:0:0:0:
256,64,99784,1,0,0:0:0:0:
256,64,100534,1,12,0:0:0:0:
256,64,101284,1,12,0:0:0:0:
256,64,102034,1,12,0:0:0:0:
256,64,102784,1,12,0:0:0:0:
256,64,103534,1,0,0:0:0:0:
256,64,103909,1,8,0:0:0:0:
256,64,105409,1,8,0:0:0:0:
256,64,106159,1,8,0:0:0:0:
256,64,106909,1,8,0:0:0:0:
256,64,108409,1,8,0:0:0:0:
256,64,109159,1,8,0:0:0:0:
256,64,109534,1,0,0:0:0:0:
256,64,109909,1,8,0:0:0:0:
256,64,111409,1,8,0:0:0:0:
256,64,112159,1,8,0:0:0:0:
256,64,112534,1,0,0:0:0:0:
256,64,112909,1,8,0:0:0:0:
256,64,114034,1,0,0:0:0:0:
256,64,114784,1,8,0:0:0:0:
256,64,115534,1,4,0:0:0:0:
256,64,115909,1,8,0:0:0:0:
256,64,116659,1,0,0:0:0:0:
256,64,117409,1,8,0:0:0:0:
256,64,118159,1,8,0:0:0:0:
256,64,118534,1,0,0:0:0:0:
256,32,118909,1,8,0:0:0:0:
256,64,119659,1,0,0:0:0:0:
256,64,120409,1,8,0:0:0:0:
256,64,121159,1,8,0:0:0:0:
256,64,121534,1,0,0:0:0:0:
256,64,121909,1,8,0:0:0:0:
256,64,122659,1,0,0:0:0:0:
256,64,123409,1,8,0:0:0:0:
256,64,124159,1,8,0:0:0:0:
256,64,124534,1,0,0:0:0:0:
256,64,124909,1,8,0:0:0:0:
256,64,125659,1,0,0:0:0:0:
256,96,126409,1,8,0:0:0:0:
256,96,127159,1,0,0:0:0:0:
256,128,133534,5,0,0:0:0:0:
256,96,135034,1,0,0:0:0:0:
256,96,136534,1,0,0:0:0:0:
256,96,137284,1,0,0:0:0:0:
256,96,138034,1,8,0:0:0:0:
256,96,138784,1,0,0:0:0:0:
256,96,139534,1,8,0:0:0:0:
256,96,140284,1,0,0:0:0:0:
256,96,141034,1,8,0:0:0:0:
256,96,141784,1,8,0:0:0:0:
256,96,142159,1,0,0:0:0:0:
256,96,142534,1,8,0:0:0:0:
256,96,143284,1,8,0:0:0:0:
256,96,143659,1,0,0:0:0:0:
256,96,144034,1,4,0:0:0:0:
256,96,145159,1,8,0:0:0:0:
256,96,145534,1,0,0:0:0:0:
256,96,146659,1,8,0:0:0:0:
256,96,147034,1,0,0:0:0:0:
256,96,148159,1,8,0:0:0:0:
256,96,148534,1,0,0:0:0:0:
256,96,149284,1,8,0:0:0:0:
256,96,149659,1,8,0:0:0:0:
256,96,150034,1,4,0:0:0:0:
256,96,150784,1,0,0:0:0:0:
256,96,151534,1,8,0:0:0:0:
256,96,151909,1,8,0:0:0:0:
256,96,153034,1,0,0:0:0:0:
256,96,153409,1,8,0:0:0:0:
256,96,153784,1,0,0:0:0:0:
256,96,154534,1,12,0:0:0:0:
256,96,155096,1,12,0:0:0:0:
256,96,156034,1,4,0:0:0:0:
256,96,156784,1,0,0:0:0:0:
256,96,157534,1,8,0:0:0:0:
256,96,157909,1,8,0:0:0:0:
256,96,159034,1,0,0:0:0:0:
256,96,159409,1,8,0:0:0:0:
256,96,159784,1,0,0:0:0:0:
256,96,160534,1,12,0:0:0:0:
256,96,161096,1,12,0:0:0:0:
256,96,162409,1,0,0:0:0:0:
256,96,162784,1,0,0:0:0:0:
256,96,163534,1,8,0:0:0:0:
256,96,163909,1,8,0:0:0:0:
256,96,165409,1,0,0:0:0:0:
256,96,165784,1,0,0:0:0:0:
256,96,166534,1,0,0:0:0:0:
256,96,168409,1,0,0:0:0:0:
256,96,168784,1,0,0:0:0:0:
256,96,169534,1,8,0:0:0:0:
256,96,169909,1,8,0:0:0:0:
256,96,171409,1,0,0:0:0:0:
256,96,171784,1,0,0:0:0:0:
256,96,172534,1,0,0:0:0:0:
256,96,174034,1,4,0:0:0:0:
256,96,174784,1,0,0:0:0:0:
256,96,175534,1,8,0:0:0:0:
256,96,175909,1,8,0:0:0:0:
256,96,177409,1,0,0:0:0:0:
256,96,177784,1,0,0:0:0:0:
256,96,178534,1,12,0:0:0:0:
256,96,179471,1,12,0:0:0:0:
256,96,180034,1,4,0:0:0:0:
256,96,180784,1,0,0:0:0:0:
256,96,181534,1,8,0:0:0:0:
256,96,181909,1,8,0:0:0:0:
256,96,183034,1,0,0:0:0:0:
256,96,183409,1,8,0:0:0:0:
256,96,183784,1,0,0:0:0:0:
256,96,184534,1,12,0:0:0:0:
256,96,185471,1,12,0:0:0:0:
256,96,186034,1,4,0:0:0:0:
256,96,186784,1,0,0:0:0:0:
256,96,187534,1,8,0:0:0:0:
256,96,187909,1,8,0:0:0:0:
256,96,189034,1,0,0:0:0:0:
224,96,189409,1,8,0:0:0:0:
256,96,189784,1,0,0:0:0:0:
256,96,190534,1,4,0:0:0:0:
256,96,192034,1,12,0:0:0:0:
256,96,192784,1,0,0:0:0:0:
256,96,193534,1,4,0:0:0:0:
