osu file format v14

[General]
AudioFilename: audio.mp3
AudioLeadIn: 0
PreviewTime: 77846
Countdown: 0
SampleSet: Normal
StackLeniency: 0.7
Mode: 1
LetterboxInBreaks: 0
WidescreenStoryboard: 0

[Editor]
DistanceSpacing: 1
BeatDivisor: 4
GridSize: 32
TimelineZoom: 1.2

[Metadata]
Title:Time Traveler
TitleUnicode:Time Traveler
Artist:KNOWER
ArtistUnicode:KNOWER
Creator:Nifty
Version:Inner Oni
Source:
Tags:Let Go Louis Cole Genevieve Artadi dnb d&b drum and & bass jazz
BeatmapID:1312589
BeatmapSetID:622136

[Difficulty]
HPDrainRate:5
CircleSize:5
OverallDifficulty:6
ApproachRate:1
SliderMultiplier:1.4
SliderTickRate:1

[Events]
//Background and Video events
0,0,"makoto-konno-the-girl-who-leapt-through-time-32620-1920x1080.jpg",0,40
//Break Periods
//Storyboard Layer 0 (Background)
//Storyboard Layer 1 (Fail)
//Storyboard Layer 2 (Pass)
//Storyboard Layer 3 (Foreground)
//Storyboard Sound Samples

[TimingPoints]
9034,375,4,1,0,60,1,0
20659,-98.0392156862745,4,1,0,65,0,0
20752,-96.1538461538461,4,1,0,70,0,0
20846,-94.3396226415094,4,1,0,80,0,0
20940,-92.5925925925926,4,1,0,90,0,0
21034,-90.9090909090909,4,1,0,80,0,0
25252,-88.4955752212389,4,1,0,80,0,0
25346,-86.9565217391304,4,1,0,80,0,0
25440,-84.7457627118644,4,1,0,80,0,0
25534,-83.3333333333333,4,1,0,80,0,0
27034,-90.9090909090909,4,1,0,80,0,0
31252,-88.4955752212389,4,1,0,80,0,0
31346,-86.9565217391304,4,1,0,80,0,0
31440,-84.7457627118644,4,1,0,80,0,0
31534,-83.3333333333333,4,1,0,80,0,0
32565,-86.9565217391304,4,1,0,80,0,0
33315,-90.9090909090909,4,1,0,80,0,0
34065,-100,4,1,0,70,0,0
34159,-101.010101010101,4,1,0,70,0,0
34252,-102.040816326531,4,1,0,70,0,0
34346,-103.092783505155,4,1,0,70,0,0
34440,-104.166666666667,4,1,0,70,0,0
34534,-105.263157894737,4,1,0,70,0,0
36971,-104.166666666667,4,1,0,70,0,0
37065,-103.092783505155,4,1,0,70,0,0
37159,-102.040816326531,4,1,0,70,0,0
37721,-101.010101010101,4,1,0,70,0,0
37909,-100,4,1,0,75,0,0
38471,-98.0392156862745,4,1,0,75,0,0
38659,-96.1538461538461,4,1,0,80,0,0
39971,-94.3396226415094,4,1,0,80,0,0
40065,-92.5925925925926,4,1,0,80,0,0
40159,-90.9090909090909,4,1,0,85,0,0
40252,-89.2857142857143,4,1,0,85,0,0
40440,-88.4955752212389,4,1,0,85,0,0
40534,-86.9565217391304,4,1,0,90,0,0
45784,-80,4,1,0,5,0,0
46440,-86.9565217391304,4,1,0,90,0,0
52159,-86.2068965517241,4,1,0,90,0,0
52252,-85.4700854700855,4,1,0,90,0,0
52346,-84.7457627118644,4,1,0,90,0,0
52440,-84.0336134453781,4,1,0,90,0,0
52534,-83.3333333333333,4,1,0,90,0,0
57784,-82.6446280991736,4,1,0,90,0,0
57971,-81.9672131147541,4,1,0,90,0,0
58065,-81.3008130081301,4,1,0,90,0,0
58159,-80.6451612903226,4,1,0,80,0,0
58252,-80,4,1,0,70,0,0
58346,-79.3650793650794,4,1,0,60,0,0
58440,-78.7401574803149,4,1,0,50,0,0
58534,-78.125,4,1,0,50,0,0
58784,-79.3650793650794,4,1,0,50,0,0
58909,-80,4,1,0,50,0,0
59159,-81.3008130081301,4,1,0,50,0,0
59284,-81.9672131147541,4,1,0,50,0,0
59534,-83.3333333333333,4,1,0,50,0,0
59659,-84.0336134453781,4,1,0,50,0,0
59784,-84.7457627118644,4,1,0,50,0,0
59909,-85.4700854700855,4,1,0,50,0,0
60034,-86.2068965517241,4,1,0,50,0,0
60284,-87.719298245614,4,1,0,50,0,0
60409,-88.4955752212389,4,1,0,50,0,0
60659,-90.0900900900901,4,1,0,50,0,0
60784,-90.9090909090909,4,1,0,50,0,0
61034,-92.5925925925926,4,1,0,50,0,0
61159,-93.4579439252336,4,1,0,50,0,0
61284,-94.3396226415094,4,1,0,50,0,0
61409,-95.2380952380952,4,1,0,50,0,0
61534,-96.1538461538461,4,1,0,50,0,0
61909,-97.0873786407767,4,1,0,50,0,0
62159,-99.009900990099,4,1,0,50,0,0
62284,-100,4,1,0,50,0,0
62534,-102.040816326531,4,1,0,50,0,0
62659,-103.092783505155,4,1,0,50,0,0
62784,-104.166666666667,4,1,0,50,0,0
62909,-105.263157894737,4,1,0,50,0,0
63034,-106.382978723404,4,1,0,50,0,0
63284,-108.695652173913,4,1,0,50,0,0
63409,-109.89010989011,4,1,0,50,0,0
63659,-112.359550561798,4,1,0,50,0,0
63784,-113.636363636364,4,1,0,50,0,0
63909,-114.942528735632,4,1,0,50,0,0
64034,-116.279069767442,4,1,0,50,0,0
64159,-117.647058823529,4,1,0,50,0,0
64284,-119.047619047619,4,1,0,50,0,0
64409,-120.481927710843,4,1,0,50,0,0
64534,-121.951219512195,4,1,0,50,0,0
64784,-125,4,1,0,50,0,0
67721,-120.481927710843,4,1,0,60,0,0
68096,-116.279069767442,4,1,0,65,0,0
68471,-112.359550561798,4,1,0,70,0,0
68846,-108.695652173913,4,1,0,80,0,0
69221,-105.263157894737,4,1,0,80,0,0
69409,-100,4,1,0,80,0,0
69784,-95.2380952380952,4,1,0,80,0,0
69971,-90.9090909090909,4,1,0,80,0,0
70159,-86.9565217391304,4,1,0,80,0,0
70534,-80,4,1,0,80,0,0
70721,-76.9230769230769,4,1,0,80,0,0
70909,-74.0740740740741,4,1,0,80,0,0
71096,-71.4285714285714,4,1,0,80,0,0
71284,-68.9655172413793,4,1,0,80,0,0
71471,-66.6666666666667,4,1,0,80,0,0
71659,-64.1025641025641,4,1,0,80,0,0
71752,-65.7894736842105,4,1,0,80,0,0
71846,-67.5675675675676,4,1,0,80,0,0
71940,-69.4444444444444,4,1,0,80,0,0
72034,-71.4285714285714,4,1,0,80,0,0
72221,-72.992700729927,4,1,0,80,0,0
72315,-74.6268656716418,4,1,0,80,0,0
72409,-76.3358778625954,4,1,0,80,0,0
72596,-76.9230769230769,4,1,0,80,0,0
75222,-75.7575757575758,4,1,0,90,0,0
75315,-75.187969924812,4,1,0,90,0,0
75409,-74.6268656716418,4,1,0,90,0,0
75597,-73.5294117647059,4,1,0,90,0,0
75784,-72.463768115942,4,1,0,90,0,0
75972,-71.4285714285714,4,1,0,90,0,0
76065,-70.9219858156028,4,1,0,90,0,0
76159,-70.4225352112676,4,1,0,90,0,0
76253,-69.9300699300699,4,1,0,90,0,0
76347,-69.4444444444444,4,1,0,90,0,0
76534,-68.4931506849315,4,1,0,90,0,0
76722,-67.5675675675676,4,1,0,90,0,0
76815,-67.1140939597315,4,1,0,90,0,0
76909,-66.6666666666667,4,1,0,90,0,0
77097,-65.7894736842105,4,1,0,90,0,0
77284,-64.9350649350649,4,1,0,90,0,0
77472,-64.1025641025641,4,1,0,90,0,0
77659,-63.2911392405063,4,1,0,90,0,0
77753,-62.8930817610063,4,1,0,90,0,0
78034,-62.5,4,1,0,90,0,1
82815,-66.6666666666667,4,1,0,90,0,1
83096,-71.4285714285714,4,1,0,90,0,1
83190,-71.4285714285714,4,1,0,90,0,0
83471,-76.9230769230769,4,1,0,90,0,0
83659,-71.4285714285714,4,1,0,90,0,0
83846,-66.6666666666667,4,1,0,90,0,0
83940,-64.5161290322581,4,1,0,90,0,0
84034,-62.5,4,1,0,90,0,1
89096,-66.6666666666667,4,1,0,90,0,1
89190,-71.4285714285714,4,1,0,90,0,0
89471,-76.9230769230769,4,1,0,90,0,0
89659,-71.4285714285714,4,1,0,90,0,0
89846,-66.6666666666667,4,1,0,90,0,0
89940,-64.5161290322581,4,1,0,90,0,0
90034,-62.5,4,1,0,90,0,1
94815,-66.6666666666667,4,1,0,90,0,1
95096,-71.4285714285714,4,1,0,90,0,1
95190,-71.4285714285714,4,1,0,90,0,0
95471,-76.9230769230769,4,1,0,90,0,0
95846,-66.6666666666667,4,1,0,90,0,0
96034,-62.5,4,1,0,90,0,1
100534,-62.5,4,1,0,90,0,0
100721,-66.6666666666667,4,1,0,80,0,0
101471,-71.4285714285714,4,1,0,75,0,0
102221,-76.9230769230769,4,1,0,70,0,0
102971,-83.3333333333333,4,1,0,65,0,0
103159,-90.9090909090909,4,1,0,60,0,0
103534,-100,4,1,0,60,0,0
109159,-97.0873786407767,4,1,0,60,0,0
109252,-95.2380952380952,4,1,0,65,0,0
109440,-92.5925925925926,4,1,0,70,0,0
109534,-90.9090909090909,4,1,0,75,0,0
114784,-80,4,1,0,5,0,0
115440,-86.9565217391304,4,1,0,85,0,0
121159,-86.2068965517241,4,1,0,85,0,0
121252,-85.4700854700855,4,1,0,85,0,0
121346,-84.7457627118644,4,1,0,85,0,0
121440,-84.0336134453781,4,1,0,90,0,0
121534,-83.3333333333333,4,1,0,90,0,0
126784,-82.6446280991736,4,1,0,90,0,0
126971,-81.9672131147541,4,1,0,90,0,0
127065,-81.3008130081301,4,1,0,90,0,0
127159,-80.6451612903226,4,1,0,80,0,0
127252,-80,4,1,0,70,0,0
127346,-79.3650793650794,4,1,0,60,0,0
127440,-78.7401574803149,4,1,0,50,0,0
127534,-78.125,4,1,0,50,0,0
127784,-79.3650793650794,4,1,0,50,0,0
127909,-80,4,1,0,50,0,0
128159,-81.3008130081301,4,1,0,50,0,0
128284,-81.9672131147541,4,1,0,50,0,0
128534,-83.3333333333333,4,1,0,50,0,0
128659,-84.0336134453781,4,1,0,50,0,0
128784,-84.7457627118644,4,1,0,50,0,0
128909,-85.4700854700855,4,1,0,50,0,0
129034,-86.2068965517241,4,1,0,50,0,0
129284,-87.719298245614,4,1,0,50,0,0
129409,-88.4955752212389,4,1,0,50,0,0
129659,-90.0900900900901,4,1,0,50,0,0
129784,-90.9090909090909,4,1,0,50,0,0
130034,-92.5925925925926,4,1,0,50,0,0
130159,-93.4579439252336,4,1,0,50,0,0
130284,-94.3396226415094,4,1,0,50,0,0
130409,-95.2380952380952,4,1,0,50,0,0
130534,-96.1538461538461,4,1,0,50,0,0
130909,-97.0873786407767,4,1,0,50,0,0
131159,-99.009900990099,4,1,0,50,0,0
131284,-100,4,1,0,50,0,0
131534,-102.040816326531,4,1,0,50,0,0
131659,-103.092783505155,4,1,0,50,0,0
131784,-104.166666666667,4,1,0,50,0,0
131909,-105.263157894737,4,1,0,50,0,0
132034,-106.382978723404,4,1,0,50,0,0
132284,-108.695652173913,4,1,0,50,0,0
132409,-109.89010989011,4,1,0,50,0,0
132659,-112.359550561798,4,1,0,50,0,0
132784,-113.636363636364,4,1,0,50,0,0
132909,-114.942528735632,4,1,0,50,0,0
133034,-116.279069767442,4,1,0,50,0,0
133159,-117.647058823529,4,1,0,50,0,0
133284,-119.047619047619,4,1,0,50,0,0
133409,-120.481927710843,4,1,0,50,0,0
133534,-121.951219512195,4,1,0,50,0,0
133784,-125,4,1,0,50,0,0
136534,-125,4,1,0,50,0,0
136721,-120.481927710843,4,1,0,60,0,0
137096,-116.279069767442,4,1,0,65,0,0
137471,-112.359550561798,4,1,0,70,0,0
137846,-109.89010989011,4,1,0,80,0,0
138784,-105.263157894737,4,1,0,80,0,0
138971,-100,4,1,0,80,0,0
139159,-95.2380952380952,4,1,0,80,0,0
139534,-90.9090909090909,4,1,0,80,0,0
140096,-86.9565217391304,4,1,0,80,0,0
141034,-83.3333333333333,4,1,0,80,0,0
141596,-80,4,1,0,80,0,0
141784,-76.9230769230769,4,1,0,80,0,0
142346,-74.0740740740741,4,1,0,80,0,0
142534,-71.4285714285714,4,1,0,80,0,0
143096,-68.9655172413793,4,1,0,80,0,0
143284,-66.6666666666667,4,1,0,80,0,0
143659,-64.1025641025641,4,1,0,80,0,0
143752,-64.5161290322581,4,1,0,80,0,0
143846,-66.6666666666667,4,1,0,80,0,0
143940,-68.9655172413793,4,1,0,80,0,0
144034,-71.4285714285714,4,1,0,80,0,0
144221,-72.992700729927,4,1,0,80,0,0
144315,-74.0740740740741,4,1,0,80,0,0
144409,-75.7575757575758,4,1,0,80,0,0
147221,-76.3358778625954,4,1,0,90,0,0
147315,-75.7575757575758,4,1,0,90,0,0
147408,-75.187969924812,4,1,0,90,0,0
147596,-74.0740740740741,4,1,0,90,0,0
147783,-72.992700729927,4,1,0,90,0,0
147971,-71.9424460431655,4,1,0,90,0,0
148065,-71.4285714285714,4,1,0,90,0,0
148158,-70.9219858156028,4,1,0,90,0,0
148252,-70.4225352112676,4,1,0,90,0,0
148346,-69.9300699300699,4,1,0,90,0,0
148533,-68.9655172413793,4,1,0,90,0,0
148721,-68.0272108843537,4,1,0,90,0,0
148815,-67.5675675675676,4,1,0,90,0,0
148908,-67.1140939597315,4,1,0,90,0,0
149096,-66.2251655629139,4,1,0,90,0,0
149283,-65.359477124183,4,1,0,90,0,0
149471,-64.5161290322581,4,1,0,90,0,0
149658,-63.6942675159236,4,1,0,90,0,0
149752,-63.2911392405063,4,1,0,90,0,0
149846,-62.8930817610063,4,1,0,90,0,0
149940,-62.5,4,1,0,90,0,0
150034,-62.5,4,1,0,90,0,1
154815,-66.6666666666667,4,1,0,90,0,1
155096,-71.4285714285714,4,1,0,90,0,1
155190,-71.4285714285714,4,1,0,90,0,0
155471,-76.9230769230769,4,1,0,90,0,0
155659,-71.4285714285714,4,1,0,90,0,0
155846,-66.6666666666667,4,1,0,90,0,0
156034,-62.5,4,1,0,90,0,1
160815,-66.6666666666667,4,1,0,90,0,1
161096,-71.4285714285714,4,1,0,90,0,1
161471,-76.9230769230769,4,1,0,90,0,0
161659,-83.3333333333333,4,1,0,85,0,0
161846,-90.9090909090909,4,1,0,80,0,0
162034,-100,4,1,0,70,0,0
172909,-99.009900990099,4,1,0,70,0,0
173284,-98.0392156862745,4,1,0,70,0,0
173377,-97.0873786407767,4,1,0,70,0,0
173471,-96.1538461538461,4,1,0,70,0,0
173565,-95.2380952380952,4,1,0,70,0,0
173659,-94.3396226415094,4,1,0,70,0,0
173752,-93.4579439252336,4,1,0,70,0,0
173846,-92.5925925925926,4,1,0,70,0,0
173940,-91.743119266055,4,1,0,70,0,0
174034,-90.9090909090909,4,1,0,80,0,0
178252,-89.2857142857143,4,1,0,80,0,0
178346,-86.9565217391304,4,1,0,80,0,0
178440,-84.7457627118644,4,1,0,80,0,0
178534,-83.3333333333333,4,1,0,80,0,0
179471,-86.9565217391304,4,1,0,80,0,0
180034,-90.9090909090909,4,1,0,80,0,0
184252,-89.2857142857143,4,1,0,80,0,0
184346,-86.9565217391304,4,1,0,80,0,0
184440,-84.7457627118644,4,1,0,80,0,0
184534,-83.3333333333333,4,1,0,80,0,0
185471,-84.7457627118644,4,1,0,80,0,0
185659,-86.9565217391304,4,1,0,80,0,0
185846,-89.2857142857143,4,1,0,80,0,0
186034,-90.9090909090909,4,1,0,80,0,0
192784,-111.111111111111,4,1,0,80,0,0
193534,-125,4,1,0,80,0,0

[HitObjects]
256,96,9409,5,8,0:0:0:0:
256,96,9784,1,8,0:0:0:0:
256,96,9971,1,0,0:0:0:0:
256,96,10159,1,8,0:0:0:0:
256,96,10252,1,0,0:0:0:0:
256,96,10346,1,8,0:0:0:0:
256,96,10534,1,0,0:0:0:0:
256,96,10909,1,8,0:0:0:0:
256,96,11659,1,8,0:0:0:0:
256,96,12409,1,8,0:0:0:0:
256,96,12784,1,8,0:0:0:0:
256,96,12971,1,0,0:0:0:0:
256,96,13159,1,8,0:0:0:0:
256,96,13252,1,0,0:0:0:0:
256,96,13346,1,8,0:0:0:0:
256,96,13534,1,0,0:0:0:0:
256,64,13909,1,8,0:0:0:0:
256,64,14284,1,0,0:0:0:0:
256,64,14659,1,8,0:0:0:0:
256,64,15409,1,8,0:0:0:0:
256,64,15784,1,8,0:0:0:0:
256,64,15971,1,0,0:0:0:0:
256,64,16159,1,8,0:0:0:0:
256,64,16252,1,0,0:0:0:0:
256,64,16346,1,8,0:0:0:0:
256,64,16534,1,0,0:0:0:0:
256,64,16909,1,8,0:0:0:0:
256,64,17659,1,8,0:0:0:0:
256,64,18409,1,8,0:0:0:0:
256,64,18784,1,8,0:0:0:0:
256,64,18971,1,0,0:0:0:0:
256,64,19159,1,8,0:0:0:0:
256,64,19252,1,0,0:0:0:0:
256,64,19346,1,8,0:0:0:0:
256,64,19534,1,0,0:0:0:0:
256,64,19909,1,8,0:0:0:0:
256,64,20284,1,0,0:0:0:0:
256,64,20471,1,0,0:0:0:0:
256,64,20659,1,8,0:0:0:0:
256,64,20752,1,8,0:0:0:0:
256,64,20846,1,0,0:0:0:0:
256,64,20940,1,0,0:0:0:0:
256,64,21034,1,0,0:0:0:0:
256,64,21221,1,0,0:0:0:0:
256,64,21315,1,0,0:0:0:0:
256,64,21409,1,8,0:0:0:0:
256,64,21596,1,0,0:0:0:0:
256,64,21784,1,8,0:0:0:0:
256,64,21877,1,0,0:0:0:0:
256,64,21971,1,0,0:0:0:0:
256,64,22159,1,8,0:0:0:0:
256,64,22346,1,0,0:0:0:0:
256,64,22440,1,8,0:0:0:0:
256,64,22534,1,8,0:0:0:0:
256,64,22721,1,0,0:0:0:0:
256,64,22909,1,8,0:0:0:0:
256,64,23096,1,0,0:0:0:0:
256,64,23471,1,0,0:0:0:0:
256,64,23565,1,0,0:0:0:0:
256,64,23659,1,8,0:0:0:0:
256,64,23846,1,0,0:0:0:0:
256,64,23940,1,8,0:0:0:0:
256,64,24034,1,8,0:0:0:0:
256,64,24127,1,8,0:0:0:0:
256,64,24221,1,0,0:0:0:0:
256,64,24409,1,8,0:0:0:0:
256,64,24596,1,0,0:0:0:0:
256,64,24784,1,8,0:0:0:0:
256,64,24971,1,0,0:0:0:0:
256,64,25159,1,8,0:0:0:0:
256,64,25252,1,0,0:0:0:0:
256,64,25346,1,8,0:0:0:0:
256,64,25440,1,0,0:0:0:0:
256,64,25534,1,12,0:0:0:0:
256,64,25815,1,12,0:0:0:0:
256,64,26096,1,12,0:0:0:0:
256,64,26471,1,12,0:0:0:0:
256,64,27034,1,4,0:0:0:0:
256,64,27221,1,0,0:0:0:0:
256,64,27409,1,8,0:0:0:0:
256,64,27596,1,8,0:0:0:0:
256,64,27690,1,0,0:0:0:0:
256,64,27784,1,8,0:0:0:0:
256,64,27877,1,0,0:0:0:0:
256,64,27971,1,0,0:0:0:0:
256,64,28159,1,8,0:0:0:0:
256,64,28346,1,0,0:0:0:0:
256,64,28440,1,0,0:0:0:0:
256,64,28534,1,8,0:0:0:0:
256,64,28721,1,0,0:0:0:0:
256,64,28909,1,8,0:0:0:0:
256,64,29096,1,0,0:0:0:0:
256,64,29190,1,8,0:0:0:0:
256,64,29284,1,8,0:0:0:0:
256,64,29471,1,0,0:0:0:0:
256,64,29565,1,0,0:0:0:0:
256,64,29659,1,8,0:0:0:0:
256,64,29752,1,8,0:0:0:0:
256,64,29846,1,8,0:0:0:0:
256,64,29940,1,0,0:0:0:0:
256,64,30034,1,8,0:0:0:0:
256,64,30221,1,8,0:0:0:0:
256,64,30315,1,0,0:0:0:0:
256,64,30409,1,8,0:0:0:0:
256,64,30502,1,0,0:0:0:0:
256,64,30596,1,0,0:0:0:0:
256,64,30784,1,8,0:0:0:0:
256,64,30971,1,0,0:0:0:0:
256,64,31159,1,8,0:0:0:0:
256,64,31252,1,0,0:0:0:0:
256,64,31346,1,8,0:0:0:0:
256,64,31440,1,0,0:0:0:0:
256,64,31534,1,12,0:0:0:0:
256,64,31815,1,0,0:0:0:0:
256,64,31909,1,8,0:0:0:0:
256,64,32096,1,0,0:0:0:0:
256,64,32284,1,12,0:0:0:0:
256,64,32565,1,0,0:0:0:0:
256,64,32659,1,8,0:0:0:0:
256,64,32846,1,0,0:0:0:0:
256,64,33034,1,12,0:0:0:0:
256,64,33315,1,0,0:0:0:0:
256,64,33409,1,8,0:0:0:0:
256,64,33596,1,0,0:0:0:0:
256,64,33784,1,12,0:0:0:0:
256,64,34065,1,0,0:0:0:0:
256,64,34159,1,8,0:0:0:0:
256,64,34252,1,8,0:0:0:0:
256,64,34346,1,0,0:0:0:0:
256,64,34440,1,0,0:0:0:0:
256,64,34534,1,0,0:0:0:0:
256,64,34909,1,8,0:0:0:0:
256,64,35096,1,0,0:0:0:0:
256,64,35471,1,0,0:0:0:0:
256,64,35659,1,8,0:0:0:0:
256,64,35752,1,0,0:0:0:0:
256,64,36034,1,0,0:0:0:0:
256,64,36409,1,8,0:0:0:0:
256,64,36502,1,0,0:0:0:0:
256,64,36596,1,8,0:0:0:0:
256,64,36690,1,0,0:0:0:0:
256,64,36784,1,0,0:0:0:0:
256,64,36971,1,0,0:0:0:0:
256,64,37065,1,0,0:0:0:0:
256,64,37159,1,8,0:0:0:0:
256,64,37252,1,0,0:0:0:0:
256,64,37440,1,0,0:0:0:0:
256,64,37534,1,0,0:0:0:0:
256,64,37721,1,0,0:0:0:0:
256,64,37909,1,8,0:0:0:0:
256,64,38096,1,0,0:0:0:0:
256,64,38471,1,0,0:0:0:0:
256,64,38659,1,8,0:0:0:0:
256,64,38752,1,0,0:0:0:0:
256,64,39034,1,0,0:0:0:0:
256,64,39409,1,8,0:0:0:0:
256,64,39596,1,0,0:0:0:0:
256,64,39971,1,0,0:0:0:0:
256,64,40065,1,0,0:0:0:0:
256,64,40159,1,8,0:0:0:0:
256,64,40252,1,0,0:0:0:0:
256,64,40440,1,0,0:0:0:0:
256,64,40534,1,0,0:0:0:0:
256,64,40721,1,0,0:0:0:0:
256,64,40815,1,0,0:0:0:0:
256,64,40909,1,8,0:0:0:0:
256,64,41096,1,0,0:0:0:0:
256,64,41471,1,0,0:0:0:0:
256,64,41659,1,8,0:0:0:0:
256,64,41752,1,0,0:0:0:0:
256,64,41940,1,0,0:0:0:0:
256,64,42034,1,0,0:0:0:0:
256,64,42221,1,0,0:0:0:0:
256,64,42409,1,8,0:0:0:0:
256,64,42596,1,0,0:0:0:0:
256,64,42784,1,8,0:0:0:0:
256,64,42971,1,0,0:0:0:0:
256,64,43065,1,0,0:0:0:0:
256,64,43159,1,8,0:0:0:0:
256,64,43252,1,0,0:0:0:0:
256,64,43440,1,0,0:0:0:0:
256,64,43534,1,0,0:0:0:0:
256,64,43721,1,0,0:0:0:0:
256,64,43909,1,8,0:0:0:0:
256,64,44096,1,0,0:0:0:0:
256,64,44471,1,0,0:0:0:0:
256,64,44659,1,8,0:0:0:0:
256,64,44752,1,0,0:0:0:0:
256,64,44940,1,0,0:0:0:0:
256,64,45034,1,0,0:0:0:0:
256,64,45221,1,0,0:0:0:0:
256,64,45409,1,8,0:0:0:0:
256,64,45596,1,0,0:0:0:0:
256,192,45784,12,0,46346,0:0:0:0:
256,64,46534,5,0,0:0:0:0:
256,64,46627,1,8,0:0:0:0:
256,64,46815,1,0,0:0:0:0:
256,64,46909,1,8,0:0:0:0:
256,64,47002,1,0,0:0:0:0:
256,64,47096,1,0,0:0:0:0:
256,64,47284,1,0,0:0:0:0:
256,64,47471,1,8,0:0:0:0:
256,64,47565,1,0,0:0:0:0:
256,64,47659,1,0,0:0:0:0:
256,64,47752,1,8,0:0:0:0:
256,64,47940,1,8,0:0:0:0:
256,64,48034,1,0,0:0:0:0:
256,64,48127,1,8,0:0:0:0:
256,64,48221,1,0,0:0:0:0:
256,64,48315,1,0,0:0:0:0:
256,64,48409,1,8,0:0:0:0:
256,64,48596,1,0,0:0:0:0:
256,64,48784,1,0,0:0:0:0:
256,64,48971,1,8,0:0:0:0:
256,64,49065,1,0,0:0:0:0:
256,64,49159,1,0,0:0:0:0:
256,64,49252,1,8,0:0:0:0:
256,64,49346,1,0,0:0:0:0:
256,64,49440,1,8,0:0:0:0:
256,64,49534,1,8,0:0:0:0:
256,64,49721,1,0,0:0:0:0:
256,64,49815,1,0,0:0:0:0:
256,64,49909,1,8,0:0:0:0:
256,64,50002,1,8,0:0:0:0:
256,64,50096,1,0,0:0:0:0:
256,64,50190,1,0,0:0:0:0:
256,64,50284,1,8,0:0:0:0:
256,64,50471,1,0,0:0:0:0:
256,64,50565,1,0,0:0:0:0:
256,64,50659,1,8,0:0:0:0:
256,64,50752,1,0,0:0:0:0:
256,64,50846,1,0,0:0:0:0:
256,64,50940,1,8,0:0:0:0:
256,64,51034,1,0,0:0:0:0:
256,64,51127,1,8,0:0:0:0:
256,64,51221,1,0,0:0:0:0:
256,64,51315,1,0,0:0:0:0:
256,64,51409,1,8,0:0:0:0:
256,64,51596,1,0,0:0:0:0:
256,64,51784,1,0,0:0:0:0:
256,64,51971,1,8,0:0:0:0:
256,64,52065,1,0,0:0:0:0:
256,64,52159,1,8,0:0:0:0:
256,64,52252,1,8,0:0:0:0:
256,64,52346,1,0,0:0:0:0:
256,64,52440,1,0,0:0:0:0:
256,64,52534,1,0,0:0:0:0:
256,64,52627,1,8,0:0:0:0:
256,64,52815,1,0,0:0:0:0:
256,64,52909,1,8,0:0:0:0:
256,64,53002,1,8,0:0:0:0:
256,64,53096,1,0,0:0:0:0:
256,64,53284,1,8,0:0:0:0:
256,64,53471,1,0,0:0:0:0:
256,64,53659,1,8,0:0:0:0:
256,64,53752,1,0,0:0:0:0:
256,64,53940,1,0,0:0:0:0:
256,64,54034,1,0,0:0:0:0:
256,64,54127,1,8,0:0:0:0:
256,64,54315,1,0,0:0:0:0:
256,64,54409,1,8,0:0:0:0:
256,64,54502,1,8,0:0:0:0:
256,64,54596,1,0,0:0:0:0:
256,64,54784,1,0,0:0:0:0:
256,64,54877,1,8,0:0:0:0:
256,64,54971,1,8,0:0:0:0:
256,64,55065,1,0,0:0:0:0:
256,64,55159,1,8,0:0:0:0:
256,64,55346,1,0,0:0:0:0:
256,64,55440,1,8,0:0:0:0:
256,64,55534,1,0,0:0:0:0:
256,64,55627,1,0,0:0:0:0:
256,64,55815,1,0,0:0:0:0:
256,64,55909,1,8,0:0:0:0:
256,64,56002,1,0,0:0:0:0:
256,64,56096,1,8,0:0:0:0:
256,64,56284,1,8,0:0:0:0:
256,64,56471,1,0,0:0:0:0:
256,64,56565,1,0,0:0:0:0:
256,64,56659,1,8,0:0:0:0:
256,64,56752,1,0,0:0:0:0:
256,64,56940,1,8,0:0:0:0:
256,64,57034,1,0,0:0:0:0:
256,64,57127,1,8,0:0:0:0:
256,64,57315,1,0,0:0:0:0:
256,64,57409,1,8,0:0:0:0:
256,64,57502,1,0,0:0:0:0:
256,64,57596,1,8,0:0:0:0:
256,64,57784,1,8,0:0:0:0:
256,64,57971,1,0,0:0:0:0:
256,64,58065,1,8,0:0:0:0:
256,64,58159,1,8,0:0:0:0:
256,64,58252,1,8,0:0:0:0:
256,64,58346,1,0,0:0:0:0:
256,64,58440,1,0,0:0:0:0:
256,64,58534,1,0,0:0:0:0:
256,64,58784,1,8,0:0:0:0:
256,64,58909,1,0,0:0:0:0:
256,64,59159,1,8,0:0:0:0:
256,64,59284,1,0,0:0:0:0:
256,64,59534,1,8,0:0:0:0:
256,64,59659,1,0,0:0:0:0:
256,64,59784,1,0,0:0:0:0:
256,64,59909,1,8,0:0:0:0:
256,64,60034,1,0,0:0:0:0:
256,64,60284,1,8,0:0:0:0:
256,64,60409,1,0,0:0:0:0:
256,64,60659,1,8,0:0:0:0:
256,64,60784,1,0,0:0:0:0:
256,64,61034,1,8,0:0:0:0:
256,64,61159,1,0,0:0:0:0:
256,64,61284,1,8,0:0:0:0:
256,64,61409,1,8,0:0:0:0:
256,64,61534,1,0,0:0:0:0:
256,64,61784,1,8,0:0:0:0:
256,64,61909,1,0,0:0:0:0:
256,64,62159,1,8,0:0:0:0:
256,64,62284,1,0,0:0:0:0:
256,64,62534,1,8,0:0:0:0:
256,64,62659,1,0,0:0:0:0:
256,64,62784,1,0,0:0:0:0:
256,64,62909,1,8,0:0:0:0:
256,64,63034,1,0,0:0:0:0:
256,64,63284,1,8,0:0:0:0:
256,64,63409,1,0,0:0:0:0:
256,64,63659,1,8,0:0:0:0:
256,64,63784,1,0,0:0:0:0:
256,64,63909,1,0,0:0:0:0:
256,64,64034,1,8,0:0:0:0:
256,64,64159,1,0,0:0:0:0:
256,64,64284,1,8,0:0:0:0:
256,64,64409,1,8,0:0:0:0:
256,64,64534,1,0,0:0:0:0:
256,64,64784,1,8,0:0:0:0:
256,64,64909,1,0,0:0:0:0:
256,64,65159,1,8,0:0:0:0:
256,64,65284,1,0,0:0:0:0:
256,64,65534,1,8,0:0:0:0:
256,64,65659,1,0,0:0:0:0:
256,64,65784,1,8,0:0:0:0:
256,64,65909,1,8,0:0:0:0:
256,64,66034,1,0,0:0:0:0:
256,64,66284,1,8,0:0:0:0:
256,64,66409,1,0,0:0:0:0:
256,64,66659,1,8,0:0:0:0:
256,64,66784,1,0,0:0:0:0:
256,64,67034,1,8,0:0:0:0:
256,64,67159,1,0,0:0:0:0:
256,64,67284,1,8,0:0:0:0:
256,64,67409,1,0,0:0:0:0:
256,64,67534,1,0,0:0:0:0:
256,64,67784,1,0,0:0:0:0:
256,64,67909,1,0,0:0:0:0:
256,64,68159,1,0,0:0:0:0:
256,64,68284,1,0,0:0:0:0:
256,64,68534,1,0,0:0:0:0:
256,64,68659,1,0,0:0:0:0:
256,64,68909,1,0,0:0:0:0:
256,64,69034,1,8,0:0:0:0:
256,64,69221,1,0,0:0:0:0:
256,64,69409,1,8,0:0:0:0:
256,64,69784,1,8,0:0:0:0:
256,64,69971,1,0,0:0:0:0:
256,64,70159,1,8,0:0:0:0:
256,64,70534,1,8,0:0:0:0:
256,64,70721,1,0,0:0:0:0:
256,64,70909,1,8,0:0:0:0:
256,64,71096,1,0,0:0:0:0:
256,64,71284,1,8,0:0:0:0:
256,64,71471,1,0,0:0:0:0:
256,64,71659,1,8,0:0:0:0:
256,64,71752,1,8,0:0:0:0:
256,64,71846,1,0,0:0:0:0:
256,64,71940,1,0,0:0:0:0:
256,64,72034,1,0,0:0:0:0:
256,64,72221,1,8,0:0:0:0:
256,64,72315,1,0,0:0:0:0:
256,64,72409,1,8,0:0:0:0:
256,64,72596,1,0,0:0:0:0:
256,64,72784,1,8,0:0:0:0:
256,64,72971,1,0,0:0:0:0:
256,64,73065,1,0,0:0:0:0:
256,64,73159,1,8,0:0:0:0:
256,64,73252,1,8,0:0:0:0:
256,64,73346,1,0,0:0:0:0:
256,64,73534,1,0,0:0:0:0:
256,64,73721,1,8,0:0:0:0:
256,64,73815,1,0,0:0:0:0:
256,64,73909,1,8,0:0:0:0:
256,64,74002,1,8,0:0:0:0:
256,64,74096,1,0,0:0:0:0:
256,64,74284,1,8,0:0:0:0:
256,64,74471,1,0,0:0:0:0:
256,64,74659,1,8,0:0:0:0:
256,64,74752,1,8,0:0:0:0:
256,64,74846,1,0,0:0:0:0:
256,64,74940,1,8,0:0:0:0:
256,64,75034,1,0,0:0:0:0:
256,64,75221,1,0,0:0:0:0:
256,64,75315,1,0,0:0:0:0:
256,64,75409,1,8,0:0:0:0:
256,64,75596,1,0,0:0:0:0:
256,64,75784,1,8,0:0:0:0:
256,64,75971,1,0,0:0:0:0:
256,64,76065,1,0,0:0:0:0:
256,64,76159,1,8,0:0:0:0:
256,64,76252,1,0,0:0:0:0:
256,64,76346,1,8,0:0:0:0:
256,64,76534,5,0,0:0:0:0:
256,64,76721,1,0,0:0:0:0:
256,64,76815,1,0,0:0:0:0:
256,64,76909,1,8,0:0:0:0:
256,64,77096,1,0,0:0:0:0:
256,64,77284,1,8,0:0:0:0:
256,64,77471,1,0,0:0:0:0:
256,64,77659,1,8,0:0:0:0:
256,64,77752,1,0,0:0:0:0:
256,64,77846,1,8,0:0:0:0:
256,64,77940,1,8,0:0:0:0:
256,64,78034,5,4,0:0:0:0:
256,64,78221,1,0,0:0:0:0:
256,64,78315,1,0,0:0:0:0:
256,64,78409,1,8,0:0:0:0:
256,64,78502,1,0,0:0:0:0:
256,64,78596,1,8,0:0:0:0:
256,64,78784,1,8,0:0:0:0:
256,64,78971,1,0,0:0:0:0:
256,64,79065,1,0,0:0:0:0:
256,64,79159,1,8,0:0:0:0:
256,64,79346,1,0,0:0:0:0:
256,64,79440,1,8,0:0:0:0:
256,64,79534,1,0,0:0:0:0:
256,64,79627,1,0,0:0:0:0:
256,64,79721,1,8,0:0:0:0:
256,64,79815,1,0,0:0:0:0:
256,64,79909,1,8,0:0:0:0:
256,32,80096,1,8,0:0:0:0:
256,64,80471,1,0,0:0:0:0:
256,64,80565,1,0,0:0:0:0:
256,64,80659,1,8,0:0:0:0:
256,64,80752,1,0,0:0:0:0:
256,64,80846,1,8,0:0:0:0:
256,64,80940,1,8,0:0:0:0:
256,64,81034,1,0,0:0:0:0:
256,64,81221,1,0,0:0:0:0:
256,64,81315,1,0,0:0:0:0:
256,64,81409,1,8,0:0:0:0:
256,64,81596,1,0,0:0:0:0:
256,64,81784,1,8,0:0:0:0:
256,64,81877,1,0,0:0:0:0:
256,64,81971,1,8,0:0:0:0:
256,64,82065,1,0,0:0:0:0:
256,64,82159,1,8,0:0:0:0:
256,64,82252,1,8,0:0:0:0:
256,64,82346,1,0,0:0:0:0:
256,64,82440,1,0,0:0:0:0:
256,64,82534,1,12,0:0:0:0:
256,64,82815,1,12,0:0:0:0:
256,64,83096,1,12,0:0:0:0:
256,64,83471,1,8,0:0:0:0:
256,64,83659,1,0,0:0:0:0:
256,64,83846,1,0,0:0:0:0:
256,64,84034,1,4,0:0:0:0:
256,64,84221,1,8,0:0:0:0:
256,64,84409,1,8,0:0:0:0:
256,64,84502,1,0,0:0:0:0:
256,64,84596,1,8,0:0:0:0:
256,64,84690,1,0,0:0:0:0:
256,64,84784,1,0,0:0:0:0:
256,64,84971,1,8,0:0:0:0:
256,64,85065,1,0,0:0:0:0:
256,64,85159,1,8,0:0:0:0:
256,64,85346,1,8,0:0:0:0:
256,64,85440,1,0,0:0:0:0:
256,64,85534,1,0,0:0:0:0:
256,64,85721,1,8,0:0:0:0:
256,64,85909,1,0,0:0:0:0:
256,64,86002,1,0,0:0:0:0:
256,64,86096,1,8,0:0:0:0:
256,64,86471,1,0,0:0:0:0:
256,64,86659,1,8,0:0:0:0:
256,64,86752,1,0,0:0:0:0:
256,64,86846,1,8,0:0:0:0:
256,64,87034,1,0,0:0:0:0:
256,64,87127,1,0,0:0:0:0:
256,64,87221,1,8,0:0:0:0:
256,64,87315,1,0,0:0:0:0:
256,64,87409,1,8,0:0:0:0:
256,64,87596,1,0,0:0:0:0:
256,64,87784,1,8,0:0:0:0:
256,64,87877,1,0,0:0:0:0:
256,64,87971,1,8,0:0:0:0:
256,64,88065,1,0,0:0:0:0:
256,64,88159,1,8,0:0:0:0:
256,64,88252,1,0,0:0:0:0:
256,64,88346,1,0,0:0:0:0:
256,64,88440,1,0,0:0:0:0:
256,64,88534,1,12,0:0:0:0:
256,64,88815,1,12,0:0:0:0:
256,64,89096,1,12,0:0:0:0:
256,64,89471,1,8,0:0:0:0:
256,64,89659,1,0,0:0:0:0:
256,64,89846,1,0,0:0:0:0:
256,64,90034,1,4,0:0:0:0:
256,64,90221,1,0,0:0:0:0:
256,64,90409,1,8,0:0:0:0:
256,64,90502,1,0,0:0:0:0:
256,64,90596,1,8,0:0:0:0:
256,64,90784,1,8,0:0:0:0:
256,64,90971,1,0,0:0:0:0:
256,64,91065,1,0,0:0:0:0:
256,64,91159,1,8,0:0:0:0:
256,64,91252,1,0,0:0:0:0:
256,64,91346,1,8,0:0:0:0:
256,64,91440,1,8,0:0:0:0:
256,64,91534,1,8,0:0:0:0:
256,64,91721,1,0,0:0:0:0:
256,64,91815,1,8,0:0:0:0:
256,64,91909,1,8,0:0:0:0:
256,64,92096,1,0,0:0:0:0:
256,64,92471,1,8,0:0:0:0:
256,64,92565,1,0,0:0:0:0:
256,64,92659,1,8,0:0:0:0:
256,64,93034,1,0,0:0:0:0:
256,64,93127,1,0,0:0:0:0:
256,64,93221,1,8,0:0:0:0:
256,64,93409,1,8,0:0:0:0:
256,64,93502,1,8,0:0:0:0:
256,64,93596,1,0,0:0:0:0:
256,64,93690,1,0,0:0:0:0:
256,64,93784,1,8,0:0:0:0:
256,64,93971,1,0,0:0:0:0:
256,64,94159,1,8,0:0:0:0:
256,64,94252,1,0,0:0:0:0:
256,64,94346,1,8,0:0:0:0:
256,64,94440,1,0,0:0:0:0:
256,64,94534,1,12,0:0:0:0:
256,64,94815,1,12,0:0:0:0:
256,64,95096,1,12,0:0:0:0:
256,64,95471,1,12,0:0:0:0:
256,64,95846,1,8,0:0:0:0:
256,64,96034,1,4,0:0:0:0:
256,64,96221,1,0,0:0:0:0:
256,64,96409,1,8,0:0:0:0:
256,64,96596,1,0,0:0:0:0:
256,64,96971,1,0,0:0:0:0:
256,64,97159,1,8,0:0:0:0:
256,64,97252,1,0,0:0:0:0:
256,64,97346,1,0,0:0:0:0:
256,64,97440,1,8,0:0:0:0:
256,64,97534,1,8,0:0:0:0:
256,64,97721,1,0,0:0:0:0:
256,64,97815,1,0,0:0:0:0:
256,64,97909,1,8,0:0:0:0:
256,64,98096,1,0,0:0:0:0:
256,64,98190,1,8,0:0:0:0:
256,64,98284,1,0,0:0:0:0:
256,64,98377,1,0,0:0:0:0:
256,64,98471,1,8,0:0:0:0:
256,64,98659,1,8,0:0:0:0:
256,64,98752,1,8,0:0:0:0:
256,64,98846,1,0,0:0:0:0:
256,64,98940,1,0,0:0:0:0:
256,64,99034,1,0,0:0:0:0:
256,64,99127,1,8,0:0:0:0:
256,64,99221,1,8,0:0:0:0:
256,64,99315,1,0,0:0:0:0:
256,64,99409,1,8,0:0:0:0:
256,64,99596,1,0,0:0:0:0:
256,64,99784,1,8,0:0:0:0:
256,64,99877,1,8,0:0:0:0:
256,64,99971,1,0,0:0:0:0:
256,64,100159,1,8,0:0:0:0:
256,64,100252,1,0,0:0:0:0:
256,64,100346,1,0,0:0:0:0:
256,64,100440,1,8,0:0:0:0:
256,64,100534,1,4,0:0:0:0:
256,64,100815,1,8,0:0:0:0:
256,64,101096,1,8,0:0:0:0:
256,64,101284,1,4,0:0:0:0:
256,64,101565,1,8,0:0:0:0:
256,64,101846,1,8,0:0:0:0:
256,64,102034,1,4,0:0:0:0:
256,64,102315,1,8,0:0:0:0:
256,64,102596,1,8,0:0:0:0:
256,64,102784,1,4,0:0:0:0:
256,64,103065,1,8,0:0:0:0:
256,64,103346,1,8,0:0:0:0:
256,64,103534,1,0,0:0:0:0:
256,64,103721,1,0,0:0:0:0:
256,64,103909,1,8,0:0:0:0:
256,64,104096,1,0,0:0:0:0:
256,64,104471,1,0,0:0:0:0:
256,64,104659,1,8,0:0:0:0:
256,64,104752,1,0,0:0:0:0:
256,64,104940,1,0,0:0:0:0:
256,64,105034,1,0,0:0:0:0:
256,64,105221,1,0,0:0:0:0:
256,64,105409,1,8,0:0:0:0:
256,64,105596,1,0,0:0:0:0:
256,64,105971,1,0,0:0:0:0:
256,64,106159,1,8,0:0:0:0:
256,64,106252,1,0,0:0:0:0:
256,64,106440,1,0,0:0:0:0:
256,64,106534,1,0,0:0:0:0:
256,64,106627,1,8,0:0:0:0:
256,64,106721,1,0,0:0:0:0:
256,64,106909,1,8,0:0:0:0:
256,64,107096,1,0,0:0:0:0:
256,64,107471,1,0,0:0:0:0:
256,64,107659,1,8,0:0:0:0:
256,64,107752,1,0,0:0:0:0:
256,64,107940,1,0,0:0:0:0:
256,64,108034,1,0,0:0:0:0:
256,64,108221,1,0,0:0:0:0:
256,64,108409,1,8,0:0:0:0:
256,64,108596,1,0,0:0:0:0:
256,64,108971,1,0,0:0:0:0:
256,64,109159,1,8,0:0:0:0:
256,64,109252,1,0,0:0:0:0:
256,64,109440,1,8,0:0:0:0:
256,64,109534,1,0,0:0:0:0:
256,64,109721,1,0,0:0:0:0:
256,64,109909,1,8,0:0:0:0:
256,64,110096,1,0,0:0:0:0:
256,64,110471,1,0,0:0:0:0:
256,64,110659,1,8,0:0:0:0:
256,64,110752,1,0,0:0:0:0:
256,64,110940,1,8,0:0:0:0:
256,64,111034,1,0,0:0:0:0:
256,64,111221,1,0,0:0:0:0:
256,64,111409,1,8,0:0:0:0:
256,64,111596,1,0,0:0:0:0:
256,64,111971,1,0,0:0:0:0:
256,64,112065,1,0,0:0:0:0:
256,64,112159,1,8,0:0:0:0:
256,64,112252,1,0,0:0:0:0:
256,64,112440,1,8,0:0:0:0:
256,64,112534,1,0,0:0:0:0:
256,64,112721,1,0,0:0:0:0:
256,64,112909,1,8,0:0:0:0:
256,64,113096,1,0,0:0:0:0:
256,64,113471,1,0,0:0:0:0:
256,64,113659,1,8,0:0:0:0:
256,64,113752,1,0,0:0:0:0:
256,64,113940,1,8,0:0:0:0:
256,64,114034,1,0,0:0:0:0:
256,64,114221,1,0,0:0:0:0:
256,64,114409,1,8,0:0:0:0:
256,64,114596,1,0,0:0:0:0:
256,192,114784,12,0,115346,0:0:0:0:
256,64,115534,5,0,0:0:0:0:
256,64,115627,1,8,0:0:0:0:
256,64,115815,1,0,0:0:0:0:
256,64,115909,1,8,0:0:0:0:
256,64,116002,1,0,0:0:0:0:
256,64,116096,1,0,0:0:0:0:
256,64,116284,1,8,0:0:0:0:
256,64,116471,1,0,0:0:0:0:
256,64,116565,1,0,0:0:0:0:
256,64,116659,1,8,0:0:0:0:
256,64,116752,1,0,0:0:0:0:
256,64,116940,1,8,0:0:0:0:
256,64,117034,1,0,0:0:0:0:
256,64,117127,1,8,0:0:0:0:
256,64,117221,1,0,0:0:0:0:
256,64,117315,1,0,0:0:0:0:
256,64,117409,1,8,0:0:0:0:
256,64,117502,1,8,0:0:0:0:
256,64,117596,1,0,0:0:0:0:
256,64,117784,1,0,0:0:0:0:
256,64,117971,1,8,0:0:0:0:
256,64,118065,1,0,0:0:0:0:
256,64,118159,1,0,0:0:0:0:
256,64,118252,1,8,0:0:0:0:
256,64,118346,1,8,0:0:0:0:
256,64,118440,1,8,0:0:0:0:
256,64,118534,1,0,0:0:0:0:
256,64,118627,1,8,0:0:0:0:
256,64,118815,1,0,0:0:0:0:
256,64,118909,1,8,0:0:0:0:
256,64,119002,1,8,0:0:0:0:
256,64,119190,1,0,0:0:0:0:
256,64,119284,1,8,0:0:0:0:
256,64,119377,1,0,0:0:0:0:
256,64,119471,1,8,0:0:0:0:
256,64,119659,1,0,0:0:0:0:
256,64,119752,1,8,0:0:0:0:
256,64,119940,1,0,0:0:0:0:
256,64,120034,1,0,0:0:0:0:
256,64,120127,1,8,0:0:0:0:
256,64,120221,1,0,0:0:0:0:
256,64,120315,1,0,0:0:0:0:
256,64,120409,1,8,0:0:0:0:
256,64,120596,1,0,0:0:0:0:
256,64,120784,1,0,0:0:0:0:
256,64,120971,1,8,0:0:0:0:
256,64,121065,1,8,0:0:0:0:
256,64,121159,1,0,0:0:0:0:
256,64,121252,1,0,0:0:0:0:
256,64,121346,1,8,0:0:0:0:
256,64,121440,1,8,0:0:0:0:
256,64,121534,1,0,0:0:0:0:
256,64,121721,1,8,0:0:0:0:
256,64,121815,1,0,0:0:0:0:
256,64,121909,1,8,0:0:0:0:
256,64,122002,1,0,0:0:0:0:
256,64,122096,1,0,0:0:0:0:
256,64,122284,1,8,0:0:0:0:
256,64,122471,1,0,0:0:0:0:
256,64,122565,1,0,0:0:0:0:
256,64,122659,1,8,0:0:0:0:
256,64,122752,1,0,0:0:0:0:
256,64,122940,1,0,0:0:0:0:
256,64,123034,1,0,0:0:0:0:
256,64,123127,1,8,0:0:0:0:
256,64,123221,1,0,0:0:0:0:
256,64,123315,1,0,0:0:0:0:
256,64,123409,1,8,0:0:0:0:
256,64,123596,1,0,0:0:0:0:
256,64,123784,1,8,0:0:0:0:
256,64,123971,1,0,0:0:0:0:
256,64,124065,1,0,0:0:0:0:
256,64,124159,1,8,0:0:0:0:
256,64,124252,1,0,0:0:0:0:
256,64,124346,1,8,0:0:0:0:
256,64,124440,1,8,0:0:0:0:
256,64,124534,1,0,0:0:0:0:
256,64,124721,1,8,0:0:0:0:
256,64,124815,1,0,0:0:0:0:
256,64,124909,1,8,0:0:0:0:
256,64,125002,1,0,0:0:0:0:
256,64,125096,1,0,0:0:0:0:
256,64,125284,1,8,0:0:0:0:
256,64,125471,1,0,0:0:0:0:
256,64,125565,1,0,0:0:0:0:
256,64,125659,1,8,0:0:0:0:
256,64,125752,1,0,0:0:0:0:
256,64,125940,1,0,0:0:0:0:
256,64,126034,1,8,0:0:0:0:
256,64,126127,1,8,0:0:0:0:
256,64,126221,1,0,0:0:0:0:
256,64,126315,1,0,0:0:0:0:
256,64,126409,1,8,0:0:0:0:
256,64,126596,1,0,0:0:0:0:
256,64,126784,1,8,0:0:0:0:
256,64,126971,1,0,0:0:0:0:
256,64,127065,1,0,0:0:0:0:
256,64,127159,1,8,0:0:0:0:
256,64,127252,1,8,0:0:0:0:
256,64,127346,1,0,0:0:0:0:
256,64,127440,1,0,0:0:0:0:
256,64,127534,1,0,0:0:0:0:
256,64,127784,1,8,0:0:0:0:
256,64,127909,1,0,0:0:0:0:
256,64,128159,1,8,0:0:0:0:
256,64,128284,1,0,0:0:0:0:
256,64,128534,1,8,0:0:0:0:
256,64,128659,1,0,0:0:0:0:
256,64,128784,1,0,0:0:0:0:
256,64,128909,1,8,0:0:0:0:
256,64,129034,1,0,0:0:0:0:
256,64,129284,1,8,0:0:0:0:
256,64,129409,1,0,0:0:0:0:
256,64,129659,1,8,0:0:0:0:
256,64,129784,1,0,0:0:0:0:
256,64,130034,1,8,0:0:0:0:
256,64,130159,1,0,0:0:0:0:
256,64,130284,1,8,0:0:0:0:
256,64,130409,1,8,0:0:0:0:
256,64,130534,1,0,0:0:0:0:
256,64,130784,1,8,0:0:0:0:
256,64,130909,1,0,0:0:0:0:
256,64,131159,1,8,0:0:0:0:
256,64,131284,1,0,0:0:0:0:
256,64,131534,1,8,0:0:0:0:
256,64,131659,1,0,0:0:0:0:
256,64,131784,1,0,0:0:0:0:
256,64,131909,1,8,0:0:0:0:
256,64,132034,1,0,0:0:0:0:
256,64,132284,1,8,0:0:0:0:
256,64,132409,1,0,0:0:0:0:
256,64,132659,1,8,0:0:0:0:
256,64,132784,1,0,0:0:0:0:
256,64,132909,1,0,0:0:0:0:
256,64,133034,1,8,0:0:0:0:
256,64,133159,1,0,0:0:0:0:
256,64,133284,1,8,0:0:0:0:
256,64,133409,1,8,0:0:0:0:
256,64,133534,1,0,0:0:0:0:
256,64,133784,1,8,0:0:0:0:
256,64,133909,1,0,0:0:0:0:
256,64,134159,1,8,0:0:0:0:
256,64,134284,1,0,0:0:0:0:
256,64,134534,1,8,0:0:0:0:
256,64,134659,1,0,0:0:0:0:
256,64,134784,1,8,0:0:0:0:
256,64,134909,1,8,0:0:0:0:
256,64,135034,1,0,0:0:0:0:
256,64,135284,1,8,0:0:0:0:
256,64,135409,1,0,0:0:0:0:
256,64,135659,1,8,0:0:0:0:
256,64,135784,1,0,0:0:0:0:
256,64,136034,1,8,0:0:0:0:
256,64,136159,1,0,0:0:0:0:
256,64,136284,1,8,0:0:0:0:
256,64,136409,1,0,0:0:0:0:
256,64,136534,1,0,0:0:0:0:
256,64,136784,5,0,0:0:0:0:
256,64,136909,1,0,0:0:0:0:
256,64,137159,1,0,0:0:0:0:
256,64,137284,1,0,0:0:0:0:
256,64,137534,1,0,0:0:0:0:
256,64,137659,1,0,0:0:0:0:
256,64,137909,1,0,0:0:0:0:
256,64,138034,1,8,0:0:0:0:
256,64,138221,1,0,0:0:0:0:
256,64,138409,1,8,0:0:0:0:
256,64,138784,1,8,0:0:0:0:
256,64,138971,1,0,0:0:0:0:
256,64,139159,1,8,0:0:0:0:
256,64,139534,1,8,0:0:0:0:
256,64,139721,1,0,0:0:0:0:
256,64,139909,1,8,0:0:0:0:
256,64,140096,1,8,0:0:0:0:
256,64,140284,1,8,0:0:0:0:
256,64,140471,1,0,0:0:0:0:
256,64,140659,1,8,0:0:0:0:
256,64,140846,1,8,0:0:0:0:
256,64,141034,1,8,0:0:0:0:
256,64,141221,1,0,0:0:0:0:
256,64,141409,1,8,0:0:0:0:
256,64,141596,1,8,0:0:0:0:
256,64,141784,1,0,0:0:0:0:
256,64,141971,1,0,0:0:0:0:
256,64,142159,1,8,0:0:0:0:
256,64,142346,1,8,0:0:0:0:
256,64,142534,1,0,0:0:0:0:
256,64,142721,1,0,0:0:0:0:
256,64,142909,1,8,0:0:0:0:
256,64,143096,1,8,0:0:0:0:
256,64,143284,1,0,0:0:0:0:
256,64,143471,1,0,0:0:0:0:
256,64,143659,1,8,0:0:0:0:
256,64,143752,1,8,0:0:0:0:
256,64,143846,1,0,0:0:0:0:
256,64,143940,1,0,0:0:0:0:
256,64,144034,1,0,0:0:0:0:
256,64,144221,1,8,0:0:0:0:
256,64,144315,1,0,0:0:0:0:
256,64,144409,1,8,0:0:0:0:
256,64,144596,1,0,0:0:0:0:
256,64,144784,1,8,0:0:0:0:
256,64,144971,1,0,0:0:0:0:
256,64,145065,1,0,0:0:0:0:
256,64,145159,1,8,0:0:0:0:
256,64,145252,1,8,0:0:0:0:
256,64,145346,1,0,0:0:0:0:
256,64,145534,1,0,0:0:0:0:
256,64,145721,1,8,0:0:0:0:
256,64,145815,1,0,0:0:0:0:
256,64,145909,1,8,0:0:0:0:
256,64,146002,1,8,0:0:0:0:
256,64,146096,1,0,0:0:0:0:
256,64,146284,1,8,0:0:0:0:
256,64,146471,1,0,0:0:0:0:
256,64,146659,1,8,0:0:0:0:
256,64,146752,1,8,0:0:0:0:
256,64,146846,1,0,0:0:0:0:
256,64,146940,1,8,0:0:0:0:
256,64,147034,1,0,0:0:0:0:
256,64,147221,1,0,0:0:0:0:
256,64,147315,1,0,0:0:0:0:
256,64,147409,1,8,0:0:0:0:
256,64,147596,1,0,0:0:0:0:
256,64,147784,1,8,0:0:0:0:
256,64,147971,1,0,0:0:0:0:
256,64,148065,1,0,0:0:0:0:
256,64,148159,1,8,0:0:0:0:
256,64,148252,1,0,0:0:0:0:
256,64,148346,1,8,0:0:0:0:
256,64,148534,5,0,0:0:0:0:
256,64,148721,1,0,0:0:0:0:
256,64,148815,1,0,0:0:0:0:
256,64,148909,1,8,0:0:0:0:
256,64,149096,1,0,0:0:0:0:
256,64,149284,1,8,0:0:0:0:
256,64,149471,1,0,0:0:0:0:
256,64,149659,1,8,0:0:0:0:
256,64,149752,1,0,0:0:0:0:
256,64,149846,1,8,0:0:0:0:
256,64,149940,1,8,0:0:0:0:
256,64,150034,5,4,0:0:0:0:
256,64,150221,5,0,0:0:0:0:
256,64,150315,1,0,0:0:0:0:
256,64,150409,1,8,0:0:0:0:
256,64,150596,1,0,0:0:0:0:
256,64,150784,1,8,0:0:0:0:
256,64,150877,1,0,0:0:0:0:
256,64,150971,1,0,0:0:0:0:
256,64,151065,1,0,0:0:0:0:
256,64,151159,1,8,0:0:0:0:
256,64,151346,1,0,0:0:0:0:
256,64,151440,1,8,0:0:0:0:
256,64,151534,1,8,0:0:0:0:
256,64,151721,1,0,0:0:0:0:
256,64,151909,1,8,0:0:0:0:
256,64,152002,1,0,0:0:0:0:
256,64,152096,1,0,0:0:0:0:
256,64,152471,1,0,0:0:0:0:
256,64,152659,1,8,0:0:0:0:
256,64,152752,1,0,0:0:0:0:
256,64,152846,1,8,0:0:0:0:
256,64,153034,1,8,0:0:0:0:
256,64,153127,1,8,0:0:0:0:
256,64,153221,1,0,0:0:0:0:
256,64,153315,1,0,0:0:0:0:
256,64,153409,1,8,0:0:0:0:
256,64,153596,1,0,0:0:0:0:
256,64,153784,1,8,0:0:0:0:
256,64,153971,1,0,0:0:0:0:
256,64,154065,1,0,0:0:0:0:
256,64,154159,1,8,0:0:0:0:
256,64,154252,1,0,0:0:0:0:
256,64,154346,1,8,0:0:0:0:
256,64,154440,1,8,0:0:0:0:
256,64,154534,1,4,0:0:0:0:
256,64,154815,1,4,0:0:0:0:
256,64,155096,1,4,0:0:0:0:
256,64,155471,1,8,0:0:0:0:
256,64,155659,1,0,0:0:0:0:
256,64,155846,1,0,0:0:0:0:
256,64,156034,1,4,0:0:0:0:
256,64,156221,1,0,0:0:0:0:
256,64,156315,1,0,0:0:0:0:
256,64,156409,1,8,0:0:0:0:
256,64,156596,1,0,0:0:0:0:
256,64,156784,1,8,0:0:0:0:
256,64,156877,1,0,0:0:0:0:
256,64,156971,1,0,0:0:0:0:
256,64,157065,1,8,0:0:0:0:
256,64,157159,1,8,0:0:0:0:
256,64,157346,1,0,0:0:0:0:
256,64,157440,1,0,0:0:0:0:
256,64,157534,1,8,0:0:0:0:
256,64,157721,1,8,0:0:0:0:
256,64,157815,1,0,0:0:0:0:
256,64,157909,1,8,0:0:0:0:
224,96,158002,1,0,0:0:0:0:
256,64,158096,1,0,0:0:0:0:
256,64,158471,1,0,0:0:0:0:
256,64,158659,1,8,0:0:0:0:
256,64,158752,1,0,0:0:0:0:
256,64,158846,1,8,0:0:0:0:
256,64,158940,1,8,0:0:0:0:
256,64,159034,1,0,0:0:0:0:
256,64,159221,1,0,0:0:0:0:
256,64,159409,1,8,0:0:0:0:
256,64,159596,1,0,0:0:0:0:
256,64,159690,1,0,0:0:0:0:
256,64,159784,1,8,0:0:0:0:
256,64,159971,1,8,0:0:0:0:
256,64,160065,1,0,0:0:0:0:
256,64,160159,1,0,0:0:0:0:
256,64,160252,1,0,0:0:0:0:
256,64,160346,1,8,0:0:0:0:
256,64,160440,1,0,0:0:0:0:
256,64,160534,1,12,0:0:0:0:
256,64,160815,1,12,0:0:0:0:
256,64,161096,1,12,0:0:0:0:
256,64,161471,1,8,0:0:0:0:
256,64,161659,1,0,0:0:0:0:
256,64,161846,1,0,0:0:0:0:
256,64,162034,1,0,0:0:0:0:
256,64,162221,1,0,0:0:0:0:
256,64,162409,1,8,0:0:0:0:
256,64,162596,1,0,0:0:0:0:
256,64,162690,1,0,0:0:0:0:
256,64,162784,1,8,0:0:0:0:
256,64,162971,1,8,0:0:0:0:
256,64,163159,1,0,0:0:0:0:
256,64,163346,1,0,0:0:0:0:
256,64,163534,1,8,0:0:0:0:
256,64,163721,1,0,0:0:0:0:
256,64,163815,1,0,0:0:0:0:
256,64,163909,1,8,0:0:0:0:
256,64,164096,1,8,0:0:0:0:
256,64,164284,1,0,0:0:0:0:
256,64,164471,1,0,0:0:0:0:
256,64,164659,1,8,0:0:0:0:
256,64,165034,1,0,0:0:0:0:
256,64,165221,1,0,0:0:0:0:
256,64,165409,1,8,0:0:0:0:
256,64,165596,1,0,0:0:0:0:
256,64,165690,1,0,0:0:0:0:
256,64,165784,1,8,0:0:0:0:
256,64,165971,1,8,0:0:0:0:
256,64,166159,1,0,0:0:0:0:
256,64,166346,1,8,0:0:0:0:
256,64,166440,1,0,0:0:0:0:
256,64,166534,1,8,0:0:0:0:
256,64,166721,1,0,0:0:0:0:
256,64,166909,1,0,0:0:0:0:
256,64,167096,1,8,0:0:0:0:
256,64,167284,1,0,0:0:0:0:
256,64,167471,1,0,0:0:0:0:
256,64,167565,1,0,0:0:0:0:
256,64,167659,1,8,0:0:0:0:
256,64,167752,1,0,0:0:0:0:
256,64,167846,1,8,0:0:0:0:
256,64,167940,1,0,0:0:0:0:
256,64,168034,1,0,0:0:0:0:
256,64,168221,1,0,0:0:0:0:
256,64,168409,1,8,0:0:0:0:
256,64,168596,1,0,0:0:0:0:
256,64,168784,1,8,0:0:0:0:
256,64,168877,1,0,0:0:0:0:
256,64,168971,1,8,0:0:0:0:
256,64,169159,1,0,0:0:0:0:
256,64,169346,1,0,0:0:0:0:
256,64,169534,1,8,0:0:0:0:
256,64,169721,1,0,0:0:0:0:
256,64,169909,1,8,0:0:0:0:
256,64,170002,1,0,0:0:0:0:
256,64,170096,1,8,0:0:0:0:
256,64,170284,1,0,0:0:0:0:
256,64,170471,1,0,0:0:0:0:
256,64,170659,1,8,0:0:0:0:
256,64,171034,1,0,0:0:0:0:
256,64,171221,1,0,0:0:0:0:
256,64,171409,1,8,0:0:0:0:
256,64,171596,1,0,0:0:0:0:
256,64,171784,1,8,0:0:0:0:
256,64,171971,1,8,0:0:0:0:
256,64,172065,1,0,0:0:0:0:
256,64,172159,1,8,0:0:0:0:
256,64,172252,1,8,0:0:0:0:
256,64,172346,1,8,0:0:0:0:
256,64,172534,1,8,0:0:0:0:
256,64,172627,1,8,0:0:0:0:
256,64,172721,1,0,0:0:0:0:
256,64,172909,1,8,0:0:0:0:
256,64,173002,1,0,0:0:0:0:
256,64,173096,1,8,0:0:0:0:
256,64,173284,1,8,0:0:0:0:
256,64,173377,1,8,0:0:0:0:
256,64,173471,1,0,0:0:0:0:
256,64,173565,1,0,0:0:0:0:
256,64,173659,1,8,0:0:0:0:
256,64,173752,1,8,0:0:0:0:
256,64,173846,1,0,0:0:0:0:
256,64,173940,1,0,0:0:0:0:
256,64,174034,1,0,0:0:0:0:
256,64,174221,1,0,0:0:0:0:
256,64,174409,1,8,0:0:0:0:
256,64,174596,1,8,0:0:0:0:
256,64,174690,1,0,0:0:0:0:
256,64,174784,1,8,0:0:0:0:
256,64,174971,1,0,0:0:0:0:
256,64,175159,1,8,0:0:0:0:
256,64,175252,1,0,0:0:0:0:
256,64,175346,1,0,0:0:0:0:
256,64,175440,1,8,0:0:0:0:
256,64,175534,1,0,0:0:0:0:
256,64,175721,1,8,0:0:0:0:
256,64,175815,1,0,0:0:0:0:
256,64,175909,1,0,0:0:0:0:
256,64,176096,1,8,0:0:0:0:
256,64,176284,1,0,0:0:0:0:
256,64,176471,1,8,0:0:0:0:
256,64,176565,1,0,0:0:0:0:
256,64,176659,1,8,0:0:0:0:
256,64,177034,1,4,0:0:0:0:
256,64,177221,1,0,0:0:0:0:
256,64,177315,1,0,0:0:0:0:
256,64,177409,1,8,0:0:0:0:
256,64,177596,1,0,0:0:0:0:
256,64,177784,1,8,0:0:0:0:
256,64,177877,1,0,0:0:0:0:
256,64,177971,1,0,0:0:0:0:
256,64,178159,1,8,0:0:0:0:
256,64,178252,1,0,0:0:0:0:
256,64,178346,1,8,0:0:0:0:
256,64,178440,1,0,0:0:0:0:
256,64,178534,1,12,0:0:0:0:
256,64,178815,1,12,0:0:0:0:
256,64,179096,1,12,0:0:0:0:
256,64,179471,1,8,0:0:0:0:
256,64,179659,1,0,0:0:0:0:
256,64,180034,1,4,0:0:0:0:
256,64,180221,1,8,0:0:0:0:
256,64,180315,1,0,0:0:0:0:
256,64,180409,1,8,0:0:0:0:
256,64,180596,1,0,0:0:0:0:
256,64,180690,1,0,0:0:0:0:
256,64,180784,1,8,0:0:0:0:
256,64,180971,1,0,0:0:0:0:
256,64,181159,1,8,0:0:0:0:
256,64,181346,1,8,0:0:0:0:
256,64,181440,1,0,0:0:0:0:
256,64,181534,1,8,0:0:0:0:
256,64,181721,1,0,0:0:0:0:
256,64,181815,1,0,0:0:0:0:
256,64,181909,1,8,0:0:0:0:
256,64,182002,1,8,0:0:0:0:
256,64,182096,1,8,0:0:0:0:
256,64,182190,1,0,0:0:0:0:
256,64,182284,1,8,0:0:0:0:
256,64,182471,1,0,0:0:0:0:
256,64,182659,1,8,0:0:0:0:
256,64,182752,1,8,0:0:0:0:
256,64,182846,1,0,0:0:0:0:
256,64,183034,1,8,0:0:0:0:
256,64,183127,1,0,0:0:0:0:
256,64,183315,1,0,0:0:0:0:
256,64,183409,1,8,0:0:0:0:
256,64,183502,1,0,0:0:0:0:
256,64,183596,1,0,0:0:0:0:
256,64,183690,1,8,0:0:0:0:
256,64,183784,1,8,0:0:0:0:
256,64,183971,1,0,0:0:0:0:
256,64,184159,1,8,0:0:0:0:
256,64,184252,1,0,0:0:0:0:
256,64,184346,1,8,0:0:0:0:
256,64,184440,1,8,0:0:0:0:
256,64,184534,1,4,0:0:0:0:
256,64,184815,1,4,0:0:0:0:
256,64,185096,1,4,0:0:0:0:
256,64,185471,1,0,0:0:0:0:
256,64,185659,1,8,0:0:0:0:
256,64,185846,1,8,0:0:0:0:
256,64,186034,1,4,0:0:0:0:
256,64,186221,1,0,0:0:0:0:
256,64,186409,1,8,0:0:0:0:
256,64,186596,1,0,0:0:0:0:
256,64,186690,1,0,0:0:0:0:
256,64,186784,1,8,0:0:0:0:
256,64,186877,1,8,0:0:0:0:
256,64,186971,1,0,0:0:0:0:
256,64,187159,1,8,0:0:0:0:
256,64,187534,1,8,0:0:0:0:
256,64,187721,1,0,0:0:0:0:
256,64,187909,1,8,0:0:0:0:
256,64,188002,1,0,0:0:0:0:
256,64,188096,1,8,0:0:0:0:
256,64,188190,1,8,0:0:0:0:
256,64,188284,1,0,0:0:0:0:
256,64,188471,1,0,0:0:0:0:
256,64,188565,1,0,0:0:0:0:
256,64,188659,1,8,0:0:0:0:
256,64,188846,1,0,0:0:0:0:
256,64,189034,1,0,0:0:0:0:
256,64,189127,1,0,0:0:0:0:
256,64,189221,1,8,0:0:0:0:
256,64,189315,1,0,0:0:0:0:
256,64,189409,1,8,0:0:0:0:
256,64,189596,1,0,0:0:0:0:
256,64,189784,1,8,0:0:0:0:
256,64,189877,1,0,0:0:0:0:
256,64,189971,1,8,0:0:0:0:
256,64,190065,1,0,0:0:0:0:
256,64,190159,1,8,0:0:0:0:
256,64,190252,1,0,0:0:0:0:
256,64,190346,1,8,0:0:0:0:
256,64,190440,1,8,0:0:0:0:
256,64,190534,1,4,0:0:0:0:
256,64,191659,1,8,0:0:0:0:
256,64,191846,1,0,0:0:0:0:
256,64,192034,1,12,0:0:0:0:
256,64,192784,1,0,0:0:0:0:
256,64,193534,1,4,0:0:0:0:
