osu file format v14

[General]
AudioFilename: audio.mp3
AudioLeadIn: 0
PreviewTime: 77846
Countdown: 0
SampleSet: Normal
StackLeniency: 0.7
Mode: 1
LetterboxInBreaks: 0
WidescreenStoryboard: 0

[Editor]
DistanceSpacing: 1
BeatDivisor: 4
GridSize: 32
TimelineZoom: 1

[Metadata]
Title:Time Traveler
TitleUnicode:Time Traveler
Artist:KNOWER
ArtistUnicode:KNOWER
Creator:Nifty
Version:Futsuu
Source:
Tags:Let Go Louis Cole Genevieve Artadi dnb d&b drum and & bass jazz
BeatmapID:1362730
BeatmapSetID:622136

[Difficulty]
HPDrainRate:7
CircleSize:5
OverallDifficulty:4
ApproachRate:1
SliderMultiplier:1.4
SliderTickRate:1

[Events]
//Background and Video events
0,0,"makoto-konno-the-girl-who-leapt-through-time-32620-1920x1080.jpg",0,40
//Break Periods
2,58734,62854
2,127359,131854
//Storyboard Layer 0 (Background)
//Storyboard Layer 1 (Fail)
//Storyboard Layer 2 (Pass)
//Storyboard Layer 3 (Foreground)
//Storyboard Sound Samples

[TimingPoints]
9034,375,4,1,0,60,1,0
64534,-100,4,1,0,60,0,0
69784,-100,4,1,0,70,0,0
70159,-100,4,1,0,80,0,0
70534,-100,4,1,0,90,0,0
71659,-100,4,1,0,90,0,0
72034,-100,4,1,0,90,0,0
78034,-100,4,1,0,90,0,1
83190,-100,4,1,0,90,0,0
84034,-100,4,1,0,90,0,1
89190,-100,4,1,0,90,0,0
90034,-100,4,1,0,90,0,1
95190,-100,4,1,0,90,0,0
96034,-100,4,1,0,90,0,1
100534,-100,4,1,0,80,0,0
133534,-100,4,1,0,60,0,0
137284,-100,4,1,0,70,0,0
138034,-100,4,1,0,90,0,0
150034,-100,4,1,0,90,0,1
155190,-100,4,1,0,90,0,0
156034,-100,4,1,0,90,0,1
161471,-100,4,1,0,70,0,0

[HitObjects]
256,64,9409,5,0,0:0:0:0:
256,64,9784,1,8,0:0:0:0:
256,64,10534,1,8,0:0:0:0:
256,64,10909,1,8,0:0:0:0:
256,64,12409,1,8,0:0:0:0:
256,64,12784,1,0,0:0:0:0:
256,64,13534,2,0,L|608:64,1,350
256,64,15409,1,0,0:0:0:0:
256,64,15784,1,8,0:0:0:0:
256,64,16534,1,8,0:0:0:0:
256,64,16909,1,8,0:0:0:0:
256,64,18409,1,8,0:0:0:0:
256,64,18784,1,0,0:0:0:0:
256,64,19534,2,0,L|608:64,1,350
256,64,21034,1,4,0:0:0:0:
256,64,21409,1,0,0:0:0:0:
256,64,21784,1,8,0:0:0:0:
256,64,22534,1,8,0:0:0:0:
256,64,22721,1,0,0:0:0:0:
256,64,22909,1,8,0:0:0:0:
256,64,23659,1,8,0:0:0:0:
256,64,24034,1,0,0:0:0:0:
256,64,24409,1,8,0:0:0:0:
256,64,24596,1,0,0:0:0:0:
256,64,24784,1,0,0:0:0:0:
256,64,25159,1,0,0:0:0:0:
256,64,25534,1,12,0:0:0:0:
256,64,26096,1,12,0:0:0:0:
256,64,26471,1,8,0:0:0:0:
256,64,27034,1,4,0:0:0:0:
256,64,27409,1,0,0:0:0:0:
256,64,27784,1,8,0:0:0:0:
256,64,28534,1,8,0:0:0:0:
256,64,28721,1,0,0:0:0:0:
256,64,28909,1,8,0:0:0:0:
256,64,29659,1,8,0:0:0:0:
256,64,30034,1,0,0:0:0:0:
256,64,30409,1,8,0:0:0:0:
256,64,30596,1,0,0:0:0:0:
256,64,30784,1,0,0:0:0:0:
256,64,31159,1,0,0:0:0:0:
256,64,31534,1,12,0:0:0:0:
288,64,32096,1,0,0:0:0:0:
288,64,32284,1,12,0:0:0:0:
288,64,32846,1,0,0:0:0:0:
288,64,33034,1,12,0:0:0:0:
288,64,33596,1,0,0:0:0:0:
256,64,33784,1,12,0:0:0:0:
256,64,34346,1,0,0:0:0:0:
256,64,34534,1,0,0:0:0:0:
256,64,34909,1,8,0:0:0:0:
256,64,35659,1,8,0:0:0:0:
256,64,36409,1,8,0:0:0:0:
256,64,37159,1,8,0:0:0:0:
256,64,37534,1,0,0:0:0:0:
256,64,37909,1,8,0:0:0:0:
256,64,38659,1,8,0:0:0:0:
256,64,39409,1,8,0:0:0:0:
256,64,40159,1,8,0:0:0:0:
256,64,40534,1,0,0:0:0:0:
256,64,41096,1,0,0:0:0:0:
256,64,41659,1,8,0:0:0:0:
256,64,42034,1,0,0:0:0:0:
256,64,42596,1,0,0:0:0:0:
256,64,43159,1,8,0:0:0:0:
256,64,43534,1,0,0:0:0:0:
256,64,44096,1,0,0:0:0:0:
256,64,44659,1,8,0:0:0:0:
256,64,45034,1,0,0:0:0:0:
256,64,45596,1,0,0:0:0:0:
256,64,46534,5,4,0:0:0:0:
224,64,46909,1,8,0:0:0:0:
256,64,47096,1,0,0:0:0:0:
256,64,47659,1,8,0:0:0:0:
256,64,48034,1,0,0:0:0:0:
256,64,48409,1,8,0:0:0:0:
256,64,48596,1,0,0:0:0:0:
256,64,49159,1,8,0:0:0:0:
256,64,49534,1,0,0:0:0:0:
256,64,49909,1,8,0:0:0:0:
256,64,50096,1,0,0:0:0:0:
256,64,50659,1,8,0:0:0:0:
256,64,51034,1,0,0:0:0:0:
256,64,51221,1,8,0:0:0:0:
256,64,51409,1,8,0:0:0:0:
256,64,51596,1,0,0:0:0:0:
256,64,51971,1,8,0:0:0:0:
256,64,52159,1,8,0:0:0:0:
256,64,52534,1,0,0:0:0:0:
256,64,52909,1,8,0:0:0:0:
256,64,53096,1,0,0:0:0:0:
256,64,53659,1,8,0:0:0:0:
256,64,54034,1,0,0:0:0:0:
256,64,54409,1,8,0:0:0:0:
256,64,54596,1,0,0:0:0:0:
256,64,55159,1,8,0:0:0:0:
256,64,55534,1,0,0:0:0:0:
256,64,55909,1,8,0:0:0:0:
256,64,56096,1,0,0:0:0:0:
256,64,56659,1,8,0:0:0:0:
256,64,57034,1,0,0:0:0:0:
256,64,57221,1,0,0:0:0:0:
256,64,57409,1,8,0:0:0:0:
256,64,57596,1,0,0:0:0:0:
256,64,58159,1,8,0:0:0:0:
256,64,58534,1,0,0:0:0:0:
256,64,64534,5,0,0:0:0:0:
256,64,66034,1,0,0:0:0:0:
256,64,67534,1,0,0:0:0:0:
256,64,68284,1,0,0:0:0:0:
256,64,69034,1,8,0:0:0:0:
256,64,69409,1,8,0:0:0:0:
256,64,69784,1,0,0:0:0:0:
256,64,70159,1,0,0:0:0:0:
256,64,70534,1,8,0:0:0:0:
256,32,70909,1,8,0:0:0:0:
256,64,71284,1,0,0:0:0:0:
256,64,71659,1,8,0:0:0:0:
256,64,71846,1,0,0:0:0:0:
256,64,72034,1,4,0:0:0:0:
256,64,72409,1,8,0:0:0:0:
256,64,72596,1,0,0:0:0:0:
256,64,73159,1,8,0:0:0:0:
256,64,73534,1,0,0:0:0:0:
256,64,73909,1,8,0:0:0:0:
256,64,74096,1,0,0:0:0:0:
256,64,74659,1,8,0:0:0:0:
256,64,75034,1,0,0:0:0:0:
256,64,75409,1,8,0:0:0:0:
256,64,75596,1,0,0:0:0:0:
256,64,76159,1,8,0:0:0:0:
256,64,76534,1,0,0:0:0:0:
256,64,76909,1,8,0:0:0:0:
256,64,77284,1,8,0:0:0:0:
256,64,77659,1,8,0:0:0:0:
256,64,77846,1,8,0:0:0:0:
256,64,78034,1,4,0:0:0:0:
256,64,78409,1,0,0:0:0:0:
256,64,78784,1,8,0:0:0:0:
256,64,79534,1,8,0:0:0:0:
256,64,79721,1,0,0:0:0:0:
256,64,79909,1,8,0:0:0:0:
256,64,80096,1,0,0:0:0:0:
256,64,80471,1,0,0:0:0:0:
256,64,80659,1,8,0:0:0:0:
256,64,81034,1,0,0:0:0:0:
256,64,81409,1,8,0:0:0:0:
256,64,81596,1,0,0:0:0:0:
256,64,81784,1,0,0:0:0:0:
256,64,82534,1,12,0:0:0:0:
256,64,83096,1,12,0:0:0:0:
256,64,83471,1,8,0:0:0:0:
256,64,84034,1,4,0:0:0:0:
256,64,84409,1,0,0:0:0:0:
256,64,84784,1,8,0:0:0:0:
256,64,85534,1,8,0:0:0:0:
256,64,85721,1,0,0:0:0:0:
256,64,85909,1,8,0:0:0:0:
256,64,86096,1,0,0:0:0:0:
256,64,86471,1,0,0:0:0:0:
256,64,86659,1,8,0:0:0:0:
256,64,87034,1,0,0:0:0:0:
256,64,87409,1,8,0:0:0:0:
256,64,87596,1,0,0:0:0:0:
256,64,87784,1,0,0:0:0:0:
256,64,88534,1,12,0:0:0:0:
256,64,89096,1,12,0:0:0:0:
256,64,89471,1,8,0:0:0:0:
256,64,90034,1,4,0:0:0:0:
256,64,90409,1,0,0:0:0:0:
256,64,90784,1,8,0:0:0:0:
256,64,91534,1,0,0:0:0:0:
256,64,91721,1,0,0:0:0:0:
256,64,91909,1,8,0:0:0:0:
256,64,92096,1,0,0:0:0:0:
256,64,92471,1,8,0:0:0:0:
256,64,92659,1,8,0:0:0:0:
256,64,93034,1,0,0:0:0:0:
256,64,93409,1,8,0:0:0:0:
256,64,93596,1,0,0:0:0:0:
256,64,93784,1,0,0:0:0:0:
256,64,94534,1,12,0:0:0:0:
256,64,95096,1,12,0:0:0:0:
256,64,95471,1,8,0:0:0:0:
256,64,96034,1,4,0:0:0:0:
256,64,96409,1,8,0:0:0:0:
256,64,96596,1,0,0:0:0:0:
256,64,97159,1,8,0:0:0:0:
256,64,97534,1,8,0:0:0:0:
256,64,97721,1,0,0:0:0:0:
256,64,97909,1,8,0:0:0:0:
256,64,98096,1,0,0:0:0:0:
256,64,98659,1,8,0:0:0:0:
256,64,99034,1,0,0:0:0:0:
256,64,99409,1,8,0:0:0:0:
256,64,99596,1,0,0:0:0:0:
256,64,99784,1,0,0:0:0:0:
256,64,100534,1,12,0:0:0:0:
256,64,101096,1,0,0:0:0:0:
256,64,101284,1,12,0:0:0:0:
256,64,101846,1,0,0:0:0:0:
256,64,102034,1,12,0:0:0:0:
256,64,102596,1,0,0:0:0:0:
256,64,102784,1,12,0:0:0:0:
256,64,103346,1,0,0:0:0:0:
256,64,103534,1,0,0:0:0:0:
256,64,103909,1,8,0:0:0:0:
224,96,104659,1,8,0:0:0:0:
256,64,105409,1,8,0:0:0:0:
256,64,106159,1,8,0:0:0:0:
256,96,106534,1,0,0:0:0:0:
256,64,106909,1,8,0:0:0:0:
256,64,107659,1,8,0:0:0:0:
256,64,108409,1,8,0:0:0:0:
256,64,109159,1,8,0:0:0:0:
256,64,109534,1,0,0:0:0:0:
256,64,110096,1,0,0:0:0:0:
256,64,110659,1,8,0:0:0:0:
256,64,111034,1,0,0:0:0:0:
256,64,111596,1,0,0:0:0:0:
256,64,112159,1,8,0:0:0:0:
256,64,112534,1,0,0:0:0:0:
256,64,113096,1,0,0:0:0:0:
288,64,113659,1,8,0:0:0:0:
288,64,114034,1,0,0:0:0:0:
256,64,114596,1,0,0:0:0:0:
256,64,115534,5,0,0:0:0:0:
224,64,115909,1,8,0:0:0:0:
256,64,116096,1,0,0:0:0:0:
256,64,116659,1,8,0:0:0:0:
256,64,117034,1,0,0:0:0:0:
256,64,117409,1,8,0:0:0:0:
256,64,117596,1,0,0:0:0:0:
256,64,118159,1,8,0:0:0:0:
256,64,118534,1,0,0:0:0:0:
256,64,118909,1,8,0:0:0:0:
288,64,119096,1,0,0:0:0:0:
256,64,119659,1,8,0:0:0:0:
256,64,120034,1,0,0:0:0:0:
256,64,120221,1,8,0:0:0:0:
256,64,120409,1,8,0:0:0:0:
256,64,120596,1,0,0:0:0:0:
256,64,120971,1,8,0:0:0:0:
256,64,121159,1,8,0:0:0:0:
256,64,121534,1,0,0:0:0:0:
256,64,121909,1,8,0:0:0:0:
256,64,122096,1,0,0:0:0:0:
256,64,122659,1,8,0:0:0:0:
256,64,123034,1,0,0:0:0:0:
256,64,123409,1,8,0:0:0:0:
256,64,123596,1,0,0:0:0:0:
256,64,124159,1,8,0:0:0:0:
256,64,124534,1,0,0:0:0:0:
256,64,124909,1,8,0:0:0:0:
256,64,125096,1,0,0:0:0:0:
256,64,125659,1,8,0:0:0:0:
256,64,126034,1,0,0:0:0:0:
256,64,126221,1,0,0:0:0:0:
256,64,126409,1,8,0:0:0:0:
256,64,126596,1,0,0:0:0:0:
256,64,127159,1,8,0:0:0:0:
256,64,133534,5,0,0:0:0:0:
256,64,135034,1,0,0:0:0:0:
256,64,136534,1,8,0:0:0:0:
256,64,137284,1,8,0:0:0:0:
256,64,138034,1,0,0:0:0:0:
256,64,138784,1,0,0:0:0:0:
256,64,139534,1,8,0:0:0:0:
256,64,140284,1,8,0:0:0:0:
256,64,141034,1,0,0:0:0:0:
256,64,141409,1,0,0:0:0:0:
256,64,141784,1,8,0:0:0:0:
256,64,142159,1,8,0:0:0:0:
256,64,142534,1,0,0:0:0:0:
256,64,142909,1,0,0:0:0:0:
256,64,143284,1,8,0:0:0:0:
256,64,143659,1,8,0:0:0:0:
256,64,143846,1,0,0:0:0:0:
256,64,144034,1,4,0:0:0:0:
256,64,144409,1,8,0:0:0:0:
256,64,144596,1,0,0:0:0:0:
256,64,145159,1,8,0:0:0:0:
256,64,145534,1,0,0:0:0:0:
256,64,145909,1,8,0:0:0:0:
256,64,146096,1,0,0:0:0:0:
256,64,146659,1,8,0:0:0:0:
256,64,147034,1,0,0:0:0:0:
256,64,147409,1,8,0:0:0:0:
256,64,147596,1,0,0:0:0:0:
256,64,148159,1,8,0:0:0:0:
256,64,148534,1,0,0:0:0:0:
256,64,148909,1,8,0:0:0:0:
256,64,149284,1,8,0:0:0:0:
256,64,149659,1,8,0:0:0:0:
256,64,149846,1,8,0:0:0:0:
256,64,150034,1,4,0:0:0:0:
256,64,150409,1,0,0:0:0:0:
256,64,150784,1,8,0:0:0:0:
256,64,151534,1,8,0:0:0:0:
256,64,151721,1,0,0:0:0:0:
256,64,151909,1,8,0:0:0:0:
256,64,152096,1,0,0:0:0:0:
256,64,152471,1,0,0:0:0:0:
256,64,152659,1,8,0:0:0:0:
256,64,153034,1,0,0:0:0:0:
256,64,153409,1,8,0:0:0:0:
256,64,153596,1,0,0:0:0:0:
256,64,153784,1,0,0:0:0:0:
256,64,154534,1,12,0:0:0:0:
256,64,155096,1,12,0:0:0:0:
256,64,155471,1,12,0:0:0:0:
256,64,156034,1,4,0:0:0:0:
224,64,156409,1,0,0:0:0:0:
256,64,156784,1,8,0:0:0:0:
256,64,157534,1,0,0:0:0:0:
256,64,157721,1,0,0:0:0:0:
256,64,157909,1,8,0:0:0:0:
256,64,158096,1,0,0:0:0:0:
256,64,158471,1,0,0:0:0:0:
256,64,158659,1,8,0:0:0:0:
256,64,159034,1,0,0:0:0:0:
256,64,159409,1,8,0:0:0:0:
256,64,159596,1,0,0:0:0:0:
256,64,159784,1,0,0:0:0:0:
256,96,160534,1,12,0:0:0:0:
256,96,161096,1,12,0:0:0:0:
256,96,161471,1,8,0:0:0:0:
256,96,162034,1,0,0:0:0:0:
256,64,162409,1,0,0:0:0:0:
256,96,162784,1,8,0:0:0:0:
256,64,163534,1,8,0:0:0:0:
256,96,163721,1,0,0:0:0:0:
256,96,163909,1,8,0:0:0:0:
256,96,164284,1,0,0:0:0:0:
256,96,164659,1,8,0:0:0:0:
256,96,165409,1,8,0:0:0:0:
256,64,165784,1,0,0:0:0:0:
256,96,166534,1,0,0:0:0:0:
256,96,166909,1,8,0:0:0:0:
256,96,167284,1,0,0:0:0:0:
256,96,167659,1,8,0:0:0:0:
256,96,167846,1,0,0:0:0:0:
256,96,168034,1,0,0:0:0:0:
256,64,168409,1,0,0:0:0:0:
256,96,168784,1,8,0:0:0:0:
256,96,169534,1,8,0:0:0:0:
256,96,169721,1,0,0:0:0:0:
256,96,169909,1,8,0:0:0:0:
256,96,170284,1,0,0:0:0:0:
256,96,170659,1,8,0:0:0:0:
256,64,171409,1,8,0:0:0:0:
256,64,171784,1,0,0:0:0:0:
256,64,172534,1,0,0:0:0:0:
256,64,172909,1,8,0:0:0:0:
256,64,173659,1,8,0:0:0:0:
256,64,173846,1,0,0:0:0:0:
256,64,174034,1,4,0:0:0:0:
256,96,174409,1,0,0:0:0:0:
256,64,174784,1,8,0:0:0:0:
256,64,175534,1,8,0:0:0:0:
256,64,175721,1,0,0:0:0:0:
256,64,175909,1,8,0:0:0:0:
256,64,176659,1,8,0:0:0:0:
256,64,177034,1,0,0:0:0:0:
256,64,177409,1,8,0:0:0:0:
256,64,177596,1,0,0:0:0:0:
256,64,177784,1,0,0:0:0:0:
256,64,178159,1,0,0:0:0:0:
256,64,178534,1,12,0:0:0:0:
256,64,179096,1,12,0:0:0:0:
256,64,179471,1,8,0:0:0:0:
256,64,180034,1,4,0:0:0:0:
256,64,180409,1,0,0:0:0:0:
256,64,180784,1,8,0:0:0:0:
256,64,181534,1,8,0:0:0:0:
256,64,181721,1,0,0:0:0:0:
256,64,181909,1,8,0:0:0:0:
256,64,182659,1,8,0:0:0:0:
256,64,183034,1,8,0:0:0:0:
256,64,183221,1,0,0:0:0:0:
256,64,183409,1,0,0:0:0:0:
256,64,183784,1,8,0:0:0:0:
256,64,184159,1,0,0:0:0:0:
256,64,184534,1,12,0:0:0:0:
256,64,185096,1,12,0:0:0:0:
256,64,185471,1,8,0:0:0:0:
256,64,186034,1,4,0:0:0:0:
256,64,186784,1,8,0:0:0:0:
256,64,186971,1,0,0:0:0:0:
256,64,187159,1,0,0:0:0:0:
256,64,187534,1,0,0:0:0:0:
256,64,187909,1,8,0:0:0:0:
256,64,188284,1,8,0:0:0:0:
256,64,188471,1,8,0:0:0:0:
256,64,188659,1,0,0:0:0:0:
256,32,189034,1,0,0:0:0:0:
256,64,189784,1,8,0:0:0:0:
256,64,190159,1,8,0:0:0:0:
256,64,190346,1,8,0:0:0:0:
256,64,190534,1,4,0:0:0:0:
256,64,191659,1,0,0:0:0:0:
256,64,191846,1,0,0:0:0:0:
256,64,192034,1,12,0:0:0:0:
256,64,192784,1,0,0:0:0:0:
256,64,193534,1,4,0:0:0:0:
