osu file format v14

[General]
AudioFilename: audio.mp3
AudioLeadIn: 0
PreviewTime: 101582
Countdown: 0
SampleSet: Normal
StackLeniency: 0.7
Mode: 1
LetterboxInBreaks: 0
WidescreenStoryboard: 0

[Editor]
Bookmarks: 35228,49686,72457,84385,104626,127759,139325
DistanceSpacing: 0.8
BeatDivisor: 4
GridSize: 8
TimelineZoom: 1.4

[Metadata]
Title:Things About You
TitleUnicode:Things About You
Artist:KNOWER
ArtistUnicode:KNOWER
Creator:Nifty
Version:Muzukashii
Source:
Tags:think thoughts genevieve artadi louis cole breakbeat electronic funk
BeatmapID:1490384
BeatmapSetID:666935

[Difficulty]
HPDrainRate:6
CircleSize:2
OverallDifficulty:4
ApproachRate:10
SliderMultiplier:1.4
SliderTickRate:1

[Events]
//Background and Video events
0,0,"boi.jpg",0,80
//Break Periods
2,72685,78361
//Storyboard Layer 0 (Background)
//Storyboard Layer 1 (Fail)
//Storyboard Layer 2 (Pass)
//Storyboard Layer 3 (Foreground)
//Storyboard Sound Samples

[TimingPoints]
12124.4698791594,361.44578313253,4,1,0,60,1,0
49714,-100,4,1,0,70,0,1
60377,-100,4,1,0,70,0,0
61281,-100,4,1,0,60,0,0
72847,-100,4,1,0,40,0,0
83329,-100,4,1,0,45,0,0
83690,-100,4,1,0,50,0,0
84052,-100,4,1,0,55,0,0
84413,-100,4,1,0,60,0,0
104654,-100,4,1,0,70,0,1
127787,-100,4,1,0,70,0,0

[HitObjects]
256,144,12124,5,0,0:0:0:0:
273,116,12214,1,0,0:0:0:0:
256,144,12305,1,0,0:0:0:0:
256,144,12485,1,8,0:0:0:0:
256,144,12666,1,0,0:0:0:0:
264,136,13028,1,0,0:0:0:0:
264,136,13208,1,8,0:0:0:0:
264,136,13570,1,0,0:0:0:0:
264,136,13750,1,0,0:0:0:0:
264,136,13931,1,8,0:0:0:0:
264,136,14022,1,0,0:0:0:0:
272,128,14293,1,0,0:0:0:0:
264,128,14473,1,8,0:0:0:0:
264,128,14654,1,8,0:0:0:0:
247,115,15016,1,0,0:0:0:0:
256,143,15106,1,0,0:0:0:0:
272,120,15196,1,0,0:0:0:0:
264,120,15377,1,8,0:0:0:0:
264,120,15558,1,0,0:0:0:0:
272,120,16100,1,8,0:0:0:0:
272,112,16461,1,0,0:0:0:0:
272,112,16642,1,0,0:0:0:0:
272,112,16823,1,8,0:0:0:0:
272,112,16913,1,0,0:0:0:0:
272,112,17184,1,8,0:0:0:0:
272,112,17365,1,0,0:0:0:0:
272,112,17546,1,8,0:0:0:0:
256,144,17907,1,0,0:0:0:0:
265,139,17997,1,0,0:0:0:0:
256,144,18088,1,0,0:0:0:0:
256,144,18268,1,8,0:0:0:0:
274,133,18630,1,0,0:0:0:0:
272,139,18811,1,0,0:0:0:0:
272,139,18991,1,8,0:0:0:0:
264,136,19353,1,0,0:0:0:0:
264,136,19533,1,0,0:0:0:0:
264,136,19714,1,8,0:0:0:0:
264,136,19805,1,0,0:0:0:0:
272,128,20076,1,8,0:0:0:0:
264,127,20256,1,0,0:0:0:0:
264,127,20437,1,8,0:0:0:0:
264,128,20799,1,0,0:0:0:0:
264,139,20889,1,0,0:0:0:0:
272,120,20979,1,0,0:0:0:0:
264,120,21160,1,8,0:0:0:0:
264,120,21341,1,0,0:0:0:0:
272,120,21883,1,8,0:0:0:0:
272,112,22244,1,0,0:0:0:0:
272,112,22425,1,0,0:0:0:0:
272,112,22606,1,8,0:0:0:0:
272,112,22696,1,0,0:0:0:0:
272,112,22967,1,8,0:0:0:0:
272,112,23148,1,0,0:0:0:0:
272,112,23329,1,8,0:0:0:0:
264,112,23690,1,0,0:0:0:0:
264,125,23781,1,0,0:0:0:0:
263,126,23871,1,0,0:0:0:0:
272,112,24052,1,8,0:0:0:0:
272,112,24232,1,0,0:0:0:0:
262,107,24413,1,8,0:0:0:0:
272,104,24594,1,0,0:0:0:0:
272,104,24775,1,8,0:0:0:0:
264,96,25136,1,0,0:0:0:0:
272,104,25317,1,8,0:0:0:0:
272,104,25497,1,8,0:0:0:0:
272,104,25588,1,0,0:0:0:0:
272,96,25859,1,8,0:0:0:0:
272,96,26040,1,0,0:0:0:0:
272,96,26220,1,8,0:0:0:0:
264,96,26401,1,8,0:0:0:0:
264,96,26582,1,0,0:0:0:0:
277,93,26672,1,0,0:0:0:0:
272,96,26763,1,0,0:0:0:0:
264,96,26943,1,8,0:0:0:0:
272,86,27124,1,0,0:0:0:0:
272,96,27666,1,8,0:0:0:0:
264,96,28028,1,0,0:0:0:0:
264,96,28208,1,0,0:0:0:0:
264,96,28389,1,8,0:0:0:0:
264,96,28479,1,0,0:0:0:0:
264,96,28750,1,8,0:0:0:0:
264,96,28931,1,0,0:0:0:0:
264,96,29112,1,8,0:0:0:0:
264,112,29473,1,0,0:0:0:0:
284,145,29564,1,0,0:0:0:0:
284,145,29654,1,0,0:0:0:0:
272,112,29835,1,8,0:0:0:0:
272,112,30015,1,0,0:0:0:0:
264,96,30196,1,8,0:0:0:0:
263,118,30377,1,0,0:0:0:0:
272,104,30558,1,8,0:0:0:0:
264,96,30919,1,0,0:0:0:0:
272,104,31100,1,8,0:0:0:0:
272,104,31280,1,8,0:0:0:0:
272,104,31371,1,0,0:0:0:0:
272,96,31642,1,8,0:0:0:0:
272,96,31823,1,0,0:0:0:0:
272,96,32003,1,8,0:0:0:0:
264,96,32365,1,0,0:0:0:0:
256,96,34172,1,12,0:0:0:0:
272,96,35256,1,4,0:0:0:0:
272,96,35618,1,8,0:0:0:0:
272,96,35799,1,0,0:0:0:0:
272,96,35979,1,8,0:0:0:0:
272,96,36160,1,0,0:0:0:0:
272,96,36341,1,8,0:0:0:0:
272,96,36702,1,0,0:0:0:0:
272,80,36883,1,0,0:0:0:0:
272,80,37064,1,8,0:0:0:0:
272,80,37244,1,0,0:0:0:0:
264,80,37606,1,0,0:0:0:0:
272,88,37787,1,8,0:0:0:0:
272,80,37967,1,8,0:0:0:0:
272,88,38148,1,0,0:0:0:0:
264,80,38510,1,8,0:0:0:0:
264,80,38690,1,8,0:0:0:0:
264,88,38871,1,0,0:0:0:0:
264,88,38961,1,8,0:0:0:0:
264,88,39142,1,0,0:0:0:0:
264,80,39232,1,8,0:0:0:0:
272,88,39594,1,0,0:0:0:0:
264,88,39775,1,8,0:0:0:0:
264,88,39955,1,0,0:0:0:0:
256,90,40136,1,0,0:0:0:0:
256,80,40678,1,8,0:0:0:0:
264,72,40859,1,8,0:0:0:0:
256,80,41040,1,0,0:0:0:0:
256,72,41220,1,8,0:0:0:0:
256,80,41401,1,8,0:0:0:0:
248,72,41763,1,0,0:0:0:0:
264,80,41943,1,8,0:0:0:0:
264,80,42124,1,8,0:0:0:0:
251,78,42305,1,8,0:0:0:0:
264,80,42666,1,0,0:0:0:0:
256,80,42847,1,8,0:0:0:0:
256,80,43028,1,8,0:0:0:0:
264,80,43208,1,0,0:0:0:0:
264,80,43389,1,8,0:0:0:0:
256,80,43750,1,8,0:0:0:0:
256,80,43931,1,0,0:0:0:0:
256,80,44112,1,0,0:0:0:0:
256,80,44293,1,8,0:0:0:0:
256,80,44473,1,8,0:0:0:0:
256,80,44654,1,0,0:0:0:0:
261,76,44744,1,8,0:0:0:0:
261,76,44925,1,0,0:0:0:0:
257,76,45016,1,8,0:0:0:0:
240,80,45377,1,0,0:0:0:0:
240,80,45558,1,8,0:0:0:0:
252,71,45738,1,8,0:0:0:0:
240,80,45829,1,8,0:0:0:0:
240,80,46010,1,8,0:0:0:0:
240,80,46371,1,0,0:0:0:0:
240,80,46461,1,8,0:0:0:0:
240,80,46642,1,8,0:0:0:0:
232,72,46823,1,0,0:0:0:0:
232,64,47003,1,8,0:0:0:0:
240,80,47365,1,8,0:0:0:0:
272,96,49714,1,4,0:0:0:0:
256,120,50076,1,8,0:0:0:0:
256,120,50618,1,0,0:0:0:0:
256,120,50799,1,8,0:0:0:0:
256,120,50889,1,0,0:0:0:0:
256,120,51160,1,0,0:0:0:0:
256,120,51341,1,0,0:0:0:0:
256,120,51522,1,8,0:0:0:0:
256,120,51702,1,0,0:0:0:0:
272,120,51883,1,8,0:0:0:0:
264,120,51973,1,8,0:0:0:0:
264,120,52064,1,8,0:0:0:0:
272,120,52244,1,8,0:0:0:0:
272,120,52606,1,0,0:0:0:0:
272,120,52787,1,0,0:0:0:0:
264,120,52967,1,8,0:0:0:0:
272,120,53148,1,0,0:0:0:0:
272,120,53510,1,8,0:0:0:0:
272,120,53690,1,0,0:0:0:0:
272,120,53781,1,8,0:0:0:0:
272,112,54052,1,0,0:0:0:0:
272,112,54232,1,8,0:0:0:0:
272,112,54413,1,8,0:0:0:0:
272,112,54594,1,0,0:0:0:0:
272,112,54775,1,8,0:0:0:0:
272,112,54955,1,0,0:0:0:0:
272,112,55046,1,0,0:0:0:0:
272,112,55136,1,0,0:0:0:0:
272,112,55497,1,0,0:0:0:0:
288,128,55859,1,8,0:0:0:0:
272,104,56401,1,0,0:0:0:0:
272,104,56582,1,8,0:0:0:0:
272,104,56672,1,0,0:0:0:0:
272,112,56943,1,0,0:0:0:0:
272,104,57124,1,0,0:0:0:0:
272,104,57305,1,8,0:0:0:0:
272,104,57485,1,0,0:0:0:0:
280,112,57666,1,8,0:0:0:0:
272,112,57756,1,8,0:0:0:0:
272,112,57847,1,8,0:0:0:0:
272,112,58028,1,8,0:0:0:0:
272,104,58389,1,0,0:0:0:0:
285,88,58570,1,0,0:0:0:0:
272,112,58750,1,8,0:0:0:0:
272,112,58931,1,0,0:0:0:0:
272,104,59293,1,8,0:0:0:0:
272,112,59473,1,0,0:0:0:0:
272,112,59564,1,8,0:0:0:0:
272,112,59835,1,0,0:0:0:0:
264,112,60016,1,8,0:0:0:0:
264,112,60106,1,8,0:0:0:0:
264,112,60196,1,8,0:0:0:0:
264,112,60377,1,0,0:0:0:0:
248,104,61281,1,0,0:0:0:0:
248,104,61461,1,8,0:0:0:0:
248,96,61642,1,8,0:0:0:0:
240,112,61823,1,0,0:0:0:0:
250,114,62184,1,0,0:0:0:0:
250,114,62365,1,8,0:0:0:0:
248,104,62726,1,0,0:0:0:0:
248,104,62907,1,8,0:0:0:0:
248,104,63088,1,0,0:0:0:0:
250,111,63269,1,0,0:0:0:0:
240,96,63449,1,8,0:0:0:0:
262,110,63630,1,0,0:0:0:0:
248,104,63991,1,8,0:0:0:0:
248,96,64172,1,0,0:0:0:0:
248,104,64534,1,8,0:0:0:0:
248,104,64714,1,8,0:0:0:0:
248,104,64895,1,0,0:0:0:0:
248,96,65076,1,0,0:0:0:0:
260,116,65256,1,8,0:0:0:0:
240,96,65618,1,0,0:0:0:0:
248,104,65799,1,8,0:0:0:0:
248,96,65979,1,8,0:0:0:0:
258,109,66160,1,0,0:0:0:0:
240,96,66702,1,8,0:0:0:0:
240,96,66883,1,0,0:0:0:0:
240,96,67064,1,8,0:0:0:0:
240,104,67244,1,0,0:0:0:0:
240,96,67425,1,0,0:0:0:0:
240,96,67606,1,8,0:0:0:0:
240,96,67967,1,0,0:0:0:0:
248,96,68148,1,8,0:0:0:0:
240,96,68510,1,0,0:0:0:0:
240,96,68690,1,8,0:0:0:0:
240,96,68871,1,0,0:0:0:0:
247,92,69052,1,0,0:0:0:0:
247,92,69232,1,8,0:0:0:0:
240,96,69594,1,8,0:0:0:0:
240,96,69775,1,8,0:0:0:0:
240,96,69955,1,0,0:0:0:0:
240,96,70226,1,8,0:0:0:0:
240,96,70497,1,0,0:0:0:0:
240,96,70678,1,0,0:0:0:0:
248,112,70769,1,8,0:0:0:0:
266,89,70949,1,0,0:0:0:0:
248,101,71040,1,8,0:0:0:0:
240,88,71401,1,0,0:0:0:0:
248,96,71582,1,8,0:0:0:0:
255,86,71763,1,8,0:0:0:0:
256,96,71853,1,8,0:0:0:0:
240,80,72034,1,8,0:0:0:0:
296,80,72485,5,12,0:0:0:0:
248,128,78811,5,8,0:0:0:0:
248,128,79172,1,8,0:0:0:0:
248,128,79534,1,8,0:0:0:0:
193,124,79895,1,8,0:0:0:0:
248,128,80256,1,8,0:0:0:0:
248,128,80618,1,8,0:0:0:0:
248,128,80979,1,8,0:0:0:0:
261,103,81341,1,8,0:0:0:0:
248,128,81702,1,8,0:0:0:0:
248,128,82064,1,8,0:0:0:0:
248,128,82425,1,8,0:0:0:0:
261,102,82787,1,8,0:0:0:0:
248,128,83148,1,8,0:0:0:0:
248,128,83510,1,8,0:0:0:0:
248,128,83871,1,8,0:0:0:0:
248,128,84232,1,8,0:0:0:0:
248,128,84413,1,0,0:0:0:0:
248,128,84503,1,0,0:0:0:0:
248,128,84775,1,8,0:0:0:0:
248,128,84955,1,0,0:0:0:0:
248,128,85497,1,8,0:0:0:0:
248,128,85859,1,0,0:0:0:0:
248,128,85949,1,0,0:0:0:0:
248,128,86220,1,8,0:0:0:0:
248,128,86401,1,0,0:0:0:0:
248,128,86582,1,8,0:0:0:0:
248,128,86672,1,8,0:0:0:0:
248,120,86853,1,0,0:0:0:0:
248,128,86943,1,8,0:0:0:0:
240,112,87305,1,0,0:0:0:0:
240,112,87395,1,0,0:0:0:0:
240,112,87666,1,8,0:0:0:0:
240,112,87847,1,0,0:0:0:0:
240,112,88028,1,8,0:0:0:0:
240,112,88118,1,8,0:0:0:0:
240,112,88299,1,0,0:0:0:0:
240,112,88389,1,0,0:0:0:0:
240,112,88750,1,0,0:0:0:0:
240,112,88841,1,0,0:0:0:0:
240,120,89112,1,8,0:0:0:0:
240,120,89293,1,0,0:0:0:0:
240,120,89473,1,8,0:0:0:0:
240,120,89654,1,8,0:0:0:0:
240,120,89835,1,8,0:0:0:0:
248,120,89925,1,8,0:0:0:0:
240,120,90016,1,8,0:0:0:0:
240,112,90196,1,0,0:0:0:0:
224,120,90558,1,8,0:0:0:0:
224,104,90738,1,0,0:0:0:0:
244,99,91100,1,0,0:0:0:0:
232,104,91281,1,8,0:0:0:0:
232,112,91461,1,8,0:0:0:0:
232,104,91642,1,0,0:0:0:0:
232,104,91823,1,8,0:0:0:0:
232,104,92003,1,8,0:0:0:0:
232,112,92365,1,0,0:0:0:0:
232,112,92546,1,0,0:0:0:0:
232,112,92726,1,8,0:0:0:0:
232,104,92907,1,8,0:0:0:0:
232,104,93088,1,0,0:0:0:0:
216,112,93449,1,8,0:0:0:0:
224,112,93630,1,0,0:0:0:0:
229,100,93811,1,0,0:0:0:0:
229,100,93991,1,8,0:0:0:0:
225,110,94172,1,8,0:0:0:0:
224,112,94714,1,8,0:0:0:0:
224,112,94895,1,8,0:0:0:0:
240,119,94985,1,8,0:0:0:0:
224,112,95256,1,0,0:0:0:0:
224,112,95437,1,0,0:0:0:0:
224,112,95618,1,8,0:0:0:0:
224,112,95799,1,8,0:0:0:0:
224,112,95979,1,0,0:0:0:0:
224,112,96341,1,8,0:0:0:0:
224,112,96522,1,0,0:0:0:0:
224,112,96702,1,0,0:0:0:0:
224,112,96883,1,8,0:0:0:0:
224,112,97244,1,8,0:0:0:0:
224,112,97425,1,0,0:0:0:0:
224,112,97606,1,8,0:0:0:0:
224,112,97787,1,8,0:0:0:0:
224,104,97967,1,0,0:0:0:0:
224,104,98148,1,8,0:0:0:0:
237,90,98510,1,8,0:0:0:0:
224,104,98871,1,0,0:0:0:0:
224,104,99052,1,8,0:0:0:0:
224,104,99232,1,8,0:0:0:0:
247,106,99413,1,0,0:0:0:0:
224,104,99594,1,0,0:0:0:0:
224,104,99684,1,8,0:0:0:0:
236,99,99865,1,8,0:0:0:0:
224,104,100317,1,0,0:0:0:0:
224,104,100497,1,8,0:0:0:0:
224,104,100769,1,8,0:0:0:0:
224,104,100949,1,8,0:0:0:0:
224,96,101311,1,8,0:0:0:0:
224,96,101401,1,8,0:0:0:0:
224,96,101582,1,0,0:0:0:0:
232,96,101763,1,8,0:0:0:0:
232,96,101943,1,8,0:0:0:0:
232,96,102124,1,0,0:0:0:0:
232,96,102214,1,0,0:0:0:0:
232,96,102305,1,0,0:0:0:0:
224,88,102485,1,0,0:0:0:0:
224,88,102666,1,0,0:0:0:0:
224,88,102847,1,8,0:0:0:0:
224,88,103028,1,0,0:0:0:0:
224,88,103118,1,0,0:0:0:0:
224,88,103208,1,0,0:0:0:0:
272,96,104654,1,4,0:0:0:0:
256,120,105016,1,8,0:0:0:0:
256,120,105558,1,0,0:0:0:0:
256,120,105739,1,8,0:0:0:0:
256,120,105829,1,0,0:0:0:0:
256,120,106100,1,0,0:0:0:0:
256,120,106281,1,0,0:0:0:0:
256,120,106462,1,8,0:0:0:0:
256,120,106642,1,0,0:0:0:0:
272,120,106823,1,8,0:0:0:0:
264,120,106913,1,8,0:0:0:0:
264,120,107004,1,8,0:0:0:0:
272,120,107184,1,8,0:0:0:0:
272,120,107546,1,0,0:0:0:0:
272,120,107727,1,0,0:0:0:0:
264,120,107907,1,8,0:0:0:0:
272,120,108088,1,0,0:0:0:0:
272,120,108450,1,8,0:0:0:0:
272,120,108630,1,0,0:0:0:0:
272,120,108721,1,8,0:0:0:0:
272,112,108992,1,0,0:0:0:0:
272,112,109172,1,8,0:0:0:0:
272,112,109353,1,8,0:0:0:0:
272,112,109534,1,0,0:0:0:0:
272,112,109715,1,8,0:0:0:0:
272,112,109895,1,0,0:0:0:0:
272,112,110257,1,8,0:0:0:0:
272,112,110437,1,0,0:0:0:0:
288,128,110799,1,8,0:0:0:0:
272,104,111341,1,0,0:0:0:0:
272,104,111522,1,8,0:0:0:0:
272,104,111612,1,0,0:0:0:0:
272,112,111883,1,0,0:0:0:0:
272,104,112064,1,0,0:0:0:0:
272,104,112245,1,8,0:0:0:0:
272,104,112425,1,0,0:0:0:0:
280,112,112606,1,8,0:0:0:0:
272,112,112696,1,8,0:0:0:0:
272,112,112787,1,8,0:0:0:0:
272,112,112968,1,8,0:0:0:0:
272,104,113329,1,0,0:0:0:0:
272,112,113690,1,8,0:0:0:0:
272,112,113871,1,0,0:0:0:0:
272,104,114233,1,8,0:0:0:0:
272,112,114413,1,0,0:0:0:0:
272,112,114504,1,8,0:0:0:0:
272,112,114775,1,0,0:0:0:0:
264,112,114956,1,8,0:0:0:0:
264,112,115136,1,8,0:0:0:0:
264,112,115317,1,0,0:0:0:0:
270,108,115678,1,0,0:0:0:0:
272,96,116220,1,0,0:0:0:0:
277,109,116582,1,8,0:0:0:0:
277,87,116763,1,0,0:0:0:0:
256,120,117124,1,0,0:0:0:0:
256,120,117305,1,8,0:0:0:0:
256,120,117395,1,0,0:0:0:0:
256,120,117666,1,0,0:0:0:0:
256,120,117847,1,0,0:0:0:0:
256,120,118028,1,8,0:0:0:0:
256,120,118208,1,0,0:0:0:0:
272,120,118389,1,8,0:0:0:0:
264,120,118479,1,8,0:0:0:0:
264,120,118570,1,8,0:0:0:0:
272,120,118750,1,8,0:0:0:0:
272,120,119112,1,0,0:0:0:0:
272,120,119293,1,0,0:0:0:0:
264,120,119473,1,8,0:0:0:0:
272,120,119654,1,0,0:0:0:0:
272,120,120016,1,8,0:0:0:0:
272,120,120196,1,0,0:0:0:0:
272,120,120287,1,8,0:0:0:0:
272,112,120558,1,0,0:0:0:0:
272,112,120738,1,8,0:0:0:0:
272,112,120919,1,8,0:0:0:0:
272,112,121100,1,0,0:0:0:0:
272,112,121281,1,8,0:0:0:0:
272,112,121461,1,0,0:0:0:0:
272,112,121823,1,8,0:0:0:0:
272,112,122003,1,0,0:0:0:0:
272,112,122365,1,8,0:0:0:0:
272,104,122907,1,0,0:0:0:0:
272,104,123088,1,8,0:0:0:0:
272,104,123178,1,0,0:0:0:0:
272,112,123449,1,0,0:0:0:0:
272,104,123630,1,0,0:0:0:0:
272,104,123811,1,8,0:0:0:0:
272,104,123991,1,0,0:0:0:0:
280,112,124172,1,8,0:0:0:0:
272,112,124262,1,8,0:0:0:0:
272,112,124353,1,8,0:0:0:0:
272,112,124534,1,8,0:0:0:0:
272,104,124895,1,0,0:0:0:0:
272,112,125256,1,8,0:0:0:0:
272,112,125437,1,0,0:0:0:0:
272,104,125799,1,8,0:0:0:0:
272,112,125979,1,0,0:0:0:0:
272,112,126070,1,8,0:0:0:0:
272,112,126341,1,0,0:0:0:0:
264,112,126522,1,8,0:0:0:0:
264,112,126702,1,8,0:0:0:0:
264,112,126883,1,0,0:0:0:0:
272,112,127064,1,0,0:0:0:0:
272,112,127154,1,0,0:0:0:0:
272,112,127244,1,0,0:0:0:0:
272,120,127425,1,8,0:0:0:0:
264,112,127787,1,4,0:0:0:0:
264,112,128148,1,8,0:0:0:0:
264,112,128690,1,0,0:0:0:0:
264,112,128871,1,8,0:0:0:0:
264,112,128961,1,0,0:0:0:0:
264,112,129232,1,0,0:0:0:0:
264,112,129413,1,0,0:0:0:0:
264,112,129594,1,8,0:0:0:0:
264,112,129775,1,0,0:0:0:0:
264,112,129955,1,8,0:0:0:0:
264,112,130136,1,8,0:0:0:0:
264,104,130317,1,0,0:0:0:0:
264,104,130678,1,0,0:0:0:0:
264,104,131040,1,8,0:0:0:0:
264,104,131220,1,0,0:0:0:0:
264,104,131582,1,0,0:0:0:0:
264,104,131763,1,8,0:0:0:0:
264,104,131853,1,8,0:0:0:0:
264,104,132124,1,0,0:0:0:0:
264,104,132305,1,0,0:0:0:0:
264,104,132485,1,8,0:0:0:0:
264,104,132666,1,0,0:0:0:0:
264,104,133028,1,0,0:0:0:0:
264,96,133208,1,8,0:0:0:0:
272,96,133299,1,8,0:0:0:0:
272,96,133389,1,8,0:0:0:0:
264,112,133570,1,0,0:0:0:0:
264,112,133931,1,8,0:0:0:0:
264,112,134473,1,0,0:0:0:0:
264,112,134654,1,8,0:0:0:0:
264,112,134744,1,0,0:0:0:0:
264,112,135015,1,0,0:0:0:0:
264,112,135196,1,0,0:0:0:0:
264,112,135377,1,8,0:0:0:0:
264,112,135558,1,0,0:0:0:0:
264,112,135738,1,8,0:0:0:0:
264,112,135919,1,8,0:0:0:0:
264,104,136100,1,0,0:0:0:0:
264,104,136461,1,0,0:0:0:0:
264,104,136823,1,8,0:0:0:0:
264,104,137003,1,0,0:0:0:0:
264,104,137365,1,0,0:0:0:0:
264,104,137546,1,8,0:0:0:0:
264,104,137636,1,8,0:0:0:0:
264,104,137907,1,0,0:0:0:0:
264,104,138088,1,0,0:0:0:0:
264,104,138268,1,8,0:0:0:0:
264,104,138449,1,0,0:0:0:0:
264,104,138630,1,8,0:0:0:0:
264,104,138811,1,0,0:0:0:0:
264,96,138991,1,8,0:0:0:0:
272,96,139082,1,8,0:0:0:0:
272,96,139172,1,8,0:0:0:0:
264,96,139353,1,0,0:0:0:0:
272,96,139714,1,8,0:0:0:0:
288,96,140256,1,0,0:0:0:0:
288,88,140437,1,8,0:0:0:0:
272,80,140528,1,0,0:0:0:0:
280,88,140799,1,0,0:0:0:0:
264,80,140979,1,8,0:0:0:0:
264,96,141160,1,8,0:0:0:0:
256,80,141341,1,0,0:0:0:0:
264,72,141702,1,0,0:0:0:0:
264,80,141883,1,8,0:0:0:0:
272,72,142064,1,0,0:0:0:0:
272,72,142244,1,0,0:0:0:0:
272,64,142606,1,8,0:0:0:0:
272,64,142787,1,0,0:0:0:0:
272,72,143148,1,0,0:0:0:0:
272,64,143329,1,8,0:0:0:0:
272,64,143419,1,8,0:0:0:0:
272,64,143690,1,0,0:0:0:0:
272,64,143871,1,8,0:0:0:0:
272,56,144052,1,0,0:0:0:0:
272,56,144232,1,8,0:0:0:0:
272,64,144594,1,0,0:0:0:0:
272,56,144775,1,8,0:0:0:0:
264,56,144955,1,0,0:0:0:0:
272,56,145136,1,0,0:0:0:0:
272,56,145497,1,8,0:0:0:0:
264,56,146040,1,0,0:0:0:0:
272,56,146220,1,8,0:0:0:0:
272,56,146311,1,0,0:0:0:0:
272,56,146582,1,0,0:0:0:0:
264,56,146763,1,8,0:0:0:0:
264,56,146943,1,8,0:0:0:0:
272,56,147124,1,0,0:0:0:0:
272,56,147485,1,0,0:0:0:0:
272,64,147666,1,8,0:0:0:0:
264,56,147847,1,0,0:0:0:0:
256,56,148028,1,0,0:0:0:0:
240,48,148389,1,8,0:0:0:0:
240,48,148570,1,0,0:0:0:0:
248,48,148931,1,0,0:0:0:0:
248,48,149112,1,8,0:0:0:0:
248,48,149202,1,8,0:0:0:0:
248,48,149473,1,0,0:0:0:0:
248,40,149654,1,8,0:0:0:0:
248,40,149835,1,8,0:0:0:0:
248,40,150016,1,0,0:0:0:0:
248,40,150196,1,0,0:0:0:0:
248,40,150377,1,8,0:0:0:0:
248,40,150558,1,12,0:0:0:0:
