osu file format v14

[General]
AudioFilename: audio.mp3
AudioLeadIn: 0
PreviewTime: 68153
Countdown: 0
SampleSet: Soft
StackLeniency: 0.7
Mode: 3
LetterboxInBreaks: 0
SpecialStyle: 0
WidescreenStoryboard: 1

[Editor]
Bookmarks: 27418,27623,27829,169609
DistanceSpacing: 1.3
BeatDivisor: 4
GridSize: 16
TimelineZoom: 1.800006

[Metadata]
Title:The Government Knows
TitleUnicode:The Government Knows
Artist:KNOWER
ArtistUnicode:KNOWER
Creator:RemiFlan
Version:STICK IT TO THE MAN
Source:
Tags:govt sv
BeatmapID:1563097
BeatmapSetID:740972

[Difficulty]
HPDrainRate:9.1
CircleSize:4
OverallDifficulty:7.7
ApproachRate:9.6
SliderMultiplier:1.00000000596046
SliderTickRate:1

[Events]
//Background and Video events
0,0,"genebae.png",0,0
//Break Periods
//Storyboard Layer 0 (Background)
//Storyboard Layer 1 (Fail)
//Storyboard Layer 2 (Pass)
//Storyboard Layer 3 (Foreground)
//Storyboard Layer 4 (Overlay)
//Storyboard Sound Samples

[TimingPoints]
2400,410.958904109589,4,2,0,30,1,0
27468,410.958904109589,4,2,0,30,1,0
27470,410.958904109589,4,2,0,30,1,0
27472,410.958904109589,4,2,0,30,1,0
27474,410.958904109589,4,2,0,30,1,0
27476,410.958904109589,4,2,0,30,1,0
27478,410.958904109589,4,2,0,30,1,0
27480,410.958904109589,4,2,0,30,1,0
27482,410.958904109589,4,2,0,30,1,0
27484,410.958904109589,4,2,0,30,1,0
27486,410.958904109589,4,2,0,30,1,0
27488,410.958904109589,4,2,0,30,1,0
27490,410.958904109589,4,2,0,30,1,0
27492,410.958904109589,4,2,0,30,1,0
27494,410.958904109589,4,2,0,30,1,0
27496,410.958904109589,4,2,0,30,1,0
27498,410.958904109589,4,2,0,30,1,0
27500,410.958904109589,4,2,0,30,1,0
27502,410.958904109589,4,2,0,30,1,0
27504,410.958904109589,4,2,0,30,1,0
27506,410.958904109589,4,2,0,30,1,0
27508,410.958904109589,4,2,0,30,1,0
27510,410.958904109589,4,2,0,30,1,0
27512,410.958904109589,4,2,0,30,1,0
27514,410.958904109589,4,2,0,30,1,0
27516,410.958904109589,4,2,0,30,1,0
27518,410.958904109589,4,2,0,30,1,0
27520,410.958904109589,4,2,0,30,1,0
27522,410.958904109589,4,2,0,30,1,0
27524,410.958904109589,4,2,0,30,1,0
27526,410.958904109589,4,2,0,30,1,0
27528,410.958904109589,4,2,0,30,1,0
27530,410.958904109589,4,2,0,30,1,0
27532,410.958904109589,4,2,0,30,1,0
27534,410.958904109589,4,2,0,30,1,0
27536,410.958904109589,4,2,0,30,1,0
27538,410.958904109589,4,2,0,30,1,0
27540,410.958904109589,4,2,0,30,1,0
27542,410.958904109589,4,2,0,30,1,0
27544,410.958904109589,4,2,0,30,1,0
27546,410.958904109589,4,2,0,30,1,0
27548,410.958904109589,4,2,0,30,1,0
27550,410.958904109589,4,2,0,30,1,0
27552,410.958904109589,4,2,0,30,1,0
27554,410.958904109589,4,2,0,30,1,0
27556,410.958904109589,4,2,0,30,1,0
27558,410.958904109589,4,2,0,30,1,0
27560,410.958904109589,4,2,0,30,1,0
27562,410.958904109589,4,2,0,30,1,0
27564,410.958904109589,4,2,0,30,1,0
27566,410.958904109589,4,2,0,30,1,0
27568,410.958904109589,4,2,0,30,1,0
27570,410.958904109589,4,2,0,30,1,0
27572,410.958904109589,4,2,0,30,1,0
27574,410.958904109589,4,2,0,30,1,0
27576,410.958904109589,4,2,0,30,1,0
27578,410.958904109589,4,2,0,30,1,0
27580,410.958904109589,4,2,0,30,1,0
27582,410.958904109589,4,2,0,30,1,0
27584,410.958904109589,4,2,0,30,1,0
27586,410.958904109589,4,2,0,30,1,0
27588,410.958904109589,4,2,0,30,1,0
27590,410.958904109589,4,2,0,30,1,0
27592,410.958904109589,4,2,0,30,1,0
27594,410.958904109589,4,2,0,30,1,0
27596,410.958904109589,4,2,0,30,1,0
27598,410.958904109589,4,2,0,30,1,0
27600,410.958904109589,4,2,0,30,1,0
27602,410.958904109589,4,2,0,30,1,0
27604,410.958904109589,4,2,0,30,1,0
27606,410.958904109589,4,2,0,30,1,0
27608,410.958904109589,4,2,0,30,1,0
27610,410.958904109589,4,2,0,30,1,0
27612,410.958904109589,4,2,0,30,1,0
27614,410.958904109589,4,2,0,30,1,0
27616,410.958904109589,4,2,0,30,1,0
27618,410.958904109589,4,2,0,30,1,0
27620,410.958904109589,4,2,0,30,1,0
27622,410.958904109589,4,2,0,30,1,0
27624,410.958904109589,4,2,0,30,1,0
27626,410.958904109589,4,2,0,30,1,0
27628,410.958904109589,4,2,0,30,1,0
27630,410.958904109589,4,2,0,30,1,0
27632,410.958904109589,4,2,0,30,1,0
27634,410.958904109589,4,2,0,30,1,0
27636,410.958904109589,4,2,0,30,1,0
27638,410.958904109589,4,2,0,30,1,0
27640,410.958904109589,4,2,0,30,1,0
27642,410.958904109589,4,2,0,30,1,0
27644,410.958904109589,4,2,0,30,1,0
27646,410.958904109589,4,2,0,30,1,0
27648,410.958904109589,4,2,0,30,1,0
27650,410.958904109589,4,2,0,30,1,0
27652,410.958904109589,4,2,0,30,1,0
27654,410.958904109589,4,2,0,30,1,0
27656,410.958904109589,4,2,0,30,1,0
27658,410.958904109589,4,2,0,30,1,0
27660,410.958904109589,4,2,0,30,1,0
27662,410.958904109589,4,2,0,30,1,0
27664,410.958904109589,4,2,0,30,1,0
27666,410.958904109589,4,2,0,30,1,0
27668,410.958904109589,4,2,0,30,1,0
27670,410.958904109589,4,2,0,30,1,0
27672,410.958904109589,4,2,0,30,1,0
27673,410.958904109589,4,2,0,30,1,0
28700,410.958904109589,4,2,0,30,1,0
67742,821.917808219178,4,2,0,30,1,0
67744,821.917808219178,4,2,0,30,1,0
67746,821.917808219178,4,2,0,30,1,0
67748,821.917808219178,4,2,0,30,1,0
67750,821.917808219178,4,2,0,30,1,0
67752,821.917808219178,4,2,0,30,1,0
67754,821.917808219178,4,2,0,30,1,0
67756,821.917808219178,4,2,0,30,1,0
67758,821.917808219178,4,2,0,30,1,0
67760,821.917808219178,4,2,0,30,1,0
67762,821.917808219178,4,2,0,30,1,0
67764,821.917808219178,4,2,0,30,1,0
67766,821.917808219178,4,2,0,30,1,0
67768,821.917808219178,4,2,0,30,1,0
67770,821.917808219178,4,2,0,30,1,0
67772,821.917808219178,4,2,0,30,1,0
67774,821.917808219178,4,2,0,30,1,0
67776,821.917808219178,4,2,0,30,1,0
67778,821.917808219178,4,2,0,30,1,0
67780,821.917808219178,4,2,0,30,1,0
67782,821.917808219178,4,2,0,30,1,0
67784,821.917808219178,4,2,0,30,1,0
67786,821.917808219178,4,2,0,30,1,0
67788,821.917808219178,4,2,0,30,1,0
67790,821.917808219178,4,2,0,30,1,0
67792,821.917808219178,4,2,0,30,1,0
67794,821.917808219178,4,2,0,30,1,0
67796,821.917808219178,4,2,0,30,1,0
67798,821.917808219178,4,2,0,30,1,0
67800,821.917808219178,4,2,0,30,1,0
67802,821.917808219178,4,2,0,30,1,0
67804,821.917808219178,4,2,0,30,1,0
67806,821.917808219178,4,2,0,30,1,0
67808,821.917808219178,4,2,0,30,1,0
67810,821.917808219178,4,2,0,30,1,0
67812,821.917808219178,4,2,0,30,1,0
67814,821.917808219178,4,2,0,30,1,0
67816,821.917808219178,4,2,0,30,1,0
67818,821.917808219178,4,2,0,30,1,0
67820,821.917808219178,4,2,0,30,1,0
67822,821.917808219178,4,2,0,30,1,0
67824,821.917808219178,4,2,0,30,1,0
67826,821.917808219178,4,2,0,30,1,0
67828,821.917808219178,4,2,0,30,1,0
67830,821.917808219178,4,2,0,30,1,0
67832,821.917808219178,4,2,0,30,1,0
67834,821.917808219178,4,2,0,30,1,0
67836,821.917808219178,4,2,0,30,1,0
67838,821.917808219178,4,2,0,30,1,0
67840,821.917808219178,4,2,0,30,1,0
67842,821.917808219178,4,2,0,30,1,0
67844,821.917808219178,4,2,0,30,1,0
67846,821.917808219178,4,2,0,30,1,0
67848,821.917808219178,4,2,0,30,1,0
67850,821.917808219178,4,2,0,30,1,0
67852,821.917808219178,4,2,0,30,1,0
67854,821.917808219178,4,2,0,30,1,0
67856,821.917808219178,4,2,0,30,1,0
67858,821.917808219178,4,2,0,30,1,0
67860,821.917808219178,4,2,0,30,1,0
67862,821.917808219178,4,2,0,30,1,0
67864,821.917808219178,4,2,0,30,1,0
67866,821.917808219178,4,2,0,30,1,0
67868,821.917808219178,4,2,0,30,1,0
67870,821.917808219178,4,2,0,30,1,0
67872,821.917808219178,4,2,0,30,1,0
67874,821.917808219178,4,2,0,30,1,0
67876,821.917808219178,4,2,0,30,1,0
67878,821.917808219178,4,2,0,30,1,0
67880,821.917808219178,4,2,0,30,1,0
67882,821.917808219178,4,2,0,30,1,0
67884,821.917808219178,4,2,0,30,1,0
67886,821.917808219178,4,2,0,30,1,0
67888,821.917808219178,4,2,0,30,1,0
67890,821.917808219178,4,2,0,30,1,0
67892,821.917808219178,4,2,0,30,1,0
67894,821.917808219178,4,2,0,30,1,0
67896,821.917808219178,4,2,0,30,1,0
67898,821.917808219178,4,2,0,30,1,0
67900,821.917808219178,4,2,0,30,1,0
67902,821.917808219178,4,2,0,30,1,0
67904,821.917808219178,4,2,0,30,1,0
67906,821.917808219178,4,2,0,30,1,0
67908,821.917808219178,4,2,0,30,1,0
67910,821.917808219178,4,2,0,30,1,0
67912,821.917808219178,4,2,0,30,1,0
67914,821.917808219178,4,2,0,30,1,0
67916,821.917808219178,4,2,0,30,1,0
67918,821.917808219178,4,2,0,30,1,0
67920,821.917808219178,4,2,0,30,1,0
67922,821.917808219178,4,2,0,30,1,0
67924,821.917808219178,4,2,0,30,1,0
67926,821.917808219178,4,2,0,30,1,0
67928,821.917808219178,4,2,0,30,1,0
67930,821.917808219178,4,2,0,30,1,0
67932,821.917808219178,4,2,0,30,1,0
67934,821.917808219178,4,2,0,30,1,0
67936,821.917808219178,4,2,0,30,1,0
67938,821.917808219178,4,2,0,30,1,0
67940,821.917808219178,4,2,0,30,1,0
67942,821.917808219178,4,2,0,30,1,0
67944,821.917808219178,4,2,0,30,1,0
67946,821.917808219178,4,2,0,30,1,0
67948,821.917808219178,4,2,0,30,1,0
67950,821.917808219178,4,2,0,30,1,0
67952,821.917808219178,4,2,0,30,1,0
67954,821.917808219178,4,2,0,30,1,0
67956,821.917808219178,4,2,0,30,1,0
67958,821.917808219178,4,2,0,30,1,0
67960,821.917808219178,4,2,0,30,1,0
67962,821.917808219178,4,2,0,30,1,0
67964,821.917808219178,4,2,0,30,1,0
67966,821.917808219178,4,2,0,30,1,0
67968,821.917808219178,4,2,0,30,1,0
67970,821.917808219178,4,2,0,30,1,0
67972,821.917808219178,4,2,0,30,1,0
67974,821.917808219178,4,2,0,30,1,0
67976,821.917808219178,4,2,0,30,1,0
67978,821.917808219178,4,2,0,30,1,0
67980,821.917808219178,4,2,0,30,1,0
67982,821.917808219178,4,2,0,30,1,0
67984,821.917808219178,4,2,0,30,1,0
67986,821.917808219178,4,2,0,30,1,0
67988,821.917808219178,4,2,0,30,1,0
67990,821.917808219178,4,2,0,30,1,0
67992,821.917808219178,4,2,0,30,1,0
67994,821.917808219178,4,2,0,30,1,0
67996,821.917808219178,4,2,0,30,1,0
67998,821.917808219178,4,2,0,30,1,0
68000,821.917808219178,4,2,0,30,1,0
68002,821.917808219178,4,2,0,30,1,0
68004,821.917808219178,4,2,0,30,1,0
68006,821.917808219178,4,2,0,30,1,0
68008,821.917808219178,4,2,0,30,1,0
68010,821.917808219178,4,2,0,30,1,0
68012,821.917808219178,4,2,0,30,1,0
68014,821.917808219178,4,2,0,30,1,0
68016,821.917808219178,4,2,0,30,1,0
68018,821.917808219178,4,2,0,30,1,0
68020,821.917808219178,4,2,0,30,1,0
68022,821.917808219178,4,2,0,30,1,0
68024,821.917808219178,4,2,0,30,1,0
68026,821.917808219178,4,2,0,30,1,0
68028,821.917808219178,4,2,0,30,1,0
68030,821.917808219178,4,2,0,30,1,0
68032,821.917808219178,4,2,0,30,1,0
68034,821.917808219178,4,2,0,30,1,0
68036,821.917808219178,4,2,0,30,1,0
68038,821.917808219178,4,2,0,30,1,0
68040,821.917808219178,4,2,0,30,1,0
68042,821.917808219178,4,2,0,30,1,0
68044,821.917808219178,4,2,0,30,1,0
68046,821.917808219178,4,2,0,30,1,0
68048,821.917808219178,4,2,0,30,1,0
68050,821.917808219178,4,2,0,30,1,0
68052,821.917808219178,4,2,0,30,1,0
68054,821.917808219178,4,2,0,30,1,0
68056,821.917808219178,4,2,0,30,1,0
68058,821.917808219178,4,2,0,30,1,0
68060,821.917808219178,4,2,0,30,1,0
68062,821.917808219178,4,2,0,30,1,0
68064,821.917808219178,4,2,0,30,1,0
68066,821.917808219178,4,2,0,30,1,0
68068,821.917808219178,4,2,0,30,1,0
68070,821.917808219178,4,2,0,30,1,0
68072,821.917808219178,4,2,0,30,1,0
68074,821.917808219178,4,2,0,30,1,0
68076,821.917808219178,4,2,0,30,1,0
68078,821.917808219178,4,2,0,30,1,0
68080,821.917808219178,4,2,0,30,1,0
68082,821.917808219178,4,2,0,30,1,0
68084,821.917808219178,4,2,0,30,1,0
68086,821.917808219178,4,2,0,30,1,0
68088,821.917808219178,4,2,0,30,1,0
68090,821.917808219178,4,2,0,30,1,0
68092,821.917808219178,4,2,0,30,1,0
68094,821.917808219178,4,2,0,30,1,0
68096,821.917808219178,4,2,0,30,1,0
68098,821.917808219178,4,2,0,30,1,0
68100,821.917808219178,4,2,0,30,1,0
68102,821.917808219178,4,2,0,30,1,0
68104,821.917808219178,4,2,0,30,1,0
68106,821.917808219178,4,2,0,30,1,0
68108,821.917808219178,4,2,0,30,1,0
68110,821.917808219178,4,2,0,30,1,0
68112,821.917808219178,4,2,0,30,1,0
68114,821.917808219178,4,2,0,30,1,0
68116,821.917808219178,4,2,0,30,1,0
68118,821.917808219178,4,2,0,30,1,0
68120,821.917808219178,4,2,0,30,1,0
68122,821.917808219178,4,2,0,30,1,0
68124,821.917808219178,4,2,0,30,1,0
68126,821.917808219178,4,2,0,30,1,0
68128,821.917808219178,4,2,0,30,1,0
68130,821.917808219178,4,2,0,30,1,0
68132,821.917808219178,4,2,0,30,1,0
68134,821.917808219178,4,2,0,30,1,0
68136,821.917808219178,4,2,0,30,1,0
68138,821.917808219178,4,2,0,30,1,0
68140,821.917808219178,4,2,0,30,1,0
68142,821.917808219178,4,2,0,30,1,0
68144,821.917808219178,4,2,0,30,1,0
68146,821.917808219178,4,2,0,30,1,0
68148,821.917808219178,4,2,0,30,1,0
68150,821.917808219178,4,2,0,30,1,0
68152,821.917808219178,4,2,0,30,1,0
68153,410.958904109589,4,3,0,30,1,1
73906,-40,4,3,0,30,0,1
74009,-200,4,3,0,30,0,1
74214,-100,4,3,0,30,0,1
74317,-40,4,3,0,30,0,1
74420,-200,4,3,0,30,0,1
74728,-100,4,3,0,30,0,1
80481,-40,4,3,0,30,0,1
80584,-200,4,3,0,30,0,1
80789,-100,4,3,0,30,0,1
80892,-40,4,3,0,30,0,1
80995,-200,4,3,0,30,0,1
81303,-100,4,3,0,30,0,1
94454,-400,4,2,0,30,0,0
102673,-344.827586206897,4,2,0,30,0,0
104317,-303.030303030303,4,2,0,30,0,0
105961,-270.27027027027,4,2,0,30,0,0
107605,-243.90243902439,4,2,0,30,0,0
109249,-222.222222222222,4,2,0,30,0,0
110893,-204.081632653061,4,2,0,30,0,0
112536,-188.679245283019,4,2,0,30,0,0
114180,-175.438596491228,4,2,0,30,0,0
115824,-163.934426229508,4,2,0,30,0,0
117468,-153.846153846154,4,2,0,30,0,0
119112,-144.927536231884,4,2,0,30,0,0
120756,-136.986301369863,4,2,0,30,0,0
122399,-129.87012987013,4,2,0,30,0,0
124043,-123.456790123457,4,2,0,30,0,0
125687,-117.647058823529,4,2,0,30,0,0
127331,-112.359550561798,4,2,0,30,0,0
128564,-1,4,2,0,30,0,0
128615,-1000,4,2,0,30,0,0
128974,-100,4,3,0,30,0,1
134728,-40,4,3,0,30,0,1
134831,-200,4,3,0,30,0,1
135036,-100,4,3,0,30,0,1
135139,-40,4,3,0,30,0,1
135242,-200,4,3,0,30,0,1
135550,-100,4,3,0,30,0,1
141303,-40,4,3,0,30,0,1
141406,-200,4,3,0,30,0,1
141611,-100,4,3,0,30,0,1
141714,-40,4,3,0,30,0,1
141817,-200,4,3,0,30,0,1
142125,-100,4,2,0,30,0,0
171715,-40,4,3,0,30,0,0
171740,-400,4,3,0,30,0,0
171817,-100,4,3,0,30,0,0
171920,-40,4,3,0,30,0,0
171945,-400,4,3,0,30,0,0
172022,-100,4,3,0,30,0,0
172126,-40,4,3,0,30,0,0
172151,-400,4,3,0,30,0,0
172228,-100,4,3,0,30,0,0
172331,-40,4,3,0,30,0,0
172356,-400,4,3,0,30,0,0
172433,-100,4,3,0,30,0,0
172536,-40,4,3,0,30,0,0
172561,-400,4,3,0,30,0,0
172638,-100,4,3,0,30,0,0
172741,-40,4,3,0,30,0,0
172766,-400,4,3,0,30,0,0
172843,-100,4,3,0,30,0,0
172947,-40,4,3,0,30,0,0
172972,-400,4,3,0,30,0,0
173049,-100,4,3,0,30,0,0
173152,-40,4,3,0,30,0,0
173177,-400,4,3,0,30,0,0
173254,-100,4,3,0,30,0,0
173358,-40,4,3,0,30,0,0
173383,-400,4,3,0,30,0,0
173460,-100,4,3,0,30,0,0
173563,-40,4,3,0,30,0,0
173588,-400,4,3,0,30,0,0
173665,-100,4,3,0,30,0,0
173769,-40,4,3,0,30,0,0
173794,-400,4,3,0,30,0,0
173871,-100,4,3,0,30,0,0
173974,-40,4,3,0,30,0,0
173999,-400,4,3,0,30,0,0
174076,-100,4,3,0,30,0,0
174180,-40,4,3,0,30,0,0
174205,-400,4,3,0,30,0,0
174282,-100,4,3,0,30,0,0
174385,-40,4,3,0,30,0,0
174410,-400,4,3,0,30,0,0
174487,-100,4,3,0,30,0,0
174591,-40,4,3,0,30,0,0
174616,-400,4,3,0,30,0,0
174693,-100,4,3,0,30,0,0
174796,-40,4,3,0,30,0,0
174821,-400,4,3,0,30,0,0
174898,-100,4,3,0,30,0,0
175002,-40,4,3,0,30,0,0
175027,-400,4,3,0,30,0,0
175104,-100,4,3,0,30,0,0
175207,-40,4,3,0,30,0,0
175232,-400,4,3,0,30,0,0
175310,-100,4,3,0,30,0,0
175414,-40,4,3,0,30,0,0
175439,-400,4,3,0,30,0,0
175516,-100,4,3,0,30,0,0
175619,-40,4,3,0,30,0,0
175644,-400,4,3,0,30,0,0
175721,-100,4,3,0,30,0,0
175824,-40,4,3,0,30,0,0
175849,-400,4,3,0,30,0,0
175926,-100,4,3,0,30,0,0
176029,-40,4,3,0,30,0,0
176054,-400,4,3,0,30,0,0
176131,-100,4,3,0,30,0,0
176235,-40,4,3,0,30,0,0
176260,-400,4,3,0,30,0,0
176337,-100,4,3,0,30,0,0
176440,-40,4,3,0,30,0,0
176465,-400,4,3,0,30,0,0
176542,-100,4,3,0,30,0,0
176646,-40,4,3,0,30,0,0
176671,-400,4,3,0,30,0,0
176748,-100,4,3,0,30,0,0
176851,-40,4,3,0,30,0,0
176876,-400,4,3,0,30,0,0
176953,-100,4,3,0,30,0,0
177057,-40,4,3,0,30,0,0
177082,-400,4,3,0,30,0,0
177159,-100,4,3,0,30,0,0
177262,-40,4,3,0,30,0,0
177287,-400,4,3,0,30,0,0
177364,-100,4,3,0,30,0,0
177467,-40,4,3,0,30,0,0
177492,-400,4,3,0,30,0,0
177569,-100,4,3,0,30,0,0
177672,-40,4,3,0,30,0,0
177697,-400,4,3,0,30,0,0
177774,-100,4,3,0,30,0,0
177878,-40,4,3,0,30,0,0
177903,-400,4,3,0,30,0,0
177980,-100,4,3,0,30,0,0
178083,-40,4,3,0,30,0,0
178108,-400,4,3,0,30,0,0
178185,-100,4,3,0,30,0,0
178290,-40,4,3,0,30,0,0
178315,-400,4,3,0,30,0,0
178392,-100,4,3,0,30,0,0
178495,-40,4,3,0,30,0,0
178520,-400,4,3,0,30,0,0
178597,-100,4,3,0,30,0,0
178701,-40,4,3,0,30,0,0
178726,-400,4,3,0,30,0,0
178803,-100,4,3,0,30,0,0
178906,-40,4,3,0,30,0,0
178931,-400,4,3,0,30,0,0
179008,-100,4,3,0,30,0,0
179111,-40,4,3,0,30,0,0
179136,-400,4,3,0,30,0,0
179213,-100,4,3,0,30,0,0
179316,-40,4,3,0,30,0,0
179341,-400,4,3,0,30,0,0
179418,-100,4,3,0,30,0,0
179522,-40,4,3,0,30,0,0
179547,-400,4,3,0,30,0,0
179624,-100,4,3,0,30,0,0
179727,-40,4,3,0,30,0,0
179752,-400,4,3,0,30,0,0
179829,-100,4,3,0,30,0,0
179934,-40,4,3,0,30,0,0
179959,-400,4,3,0,30,0,0
180036,-100,4,3,0,30,0,0
180139,-40,4,3,0,30,0,0
180164,-400,4,3,0,30,0,0
180241,-100,4,3,0,30,0,0
180345,-40,4,3,0,30,0,0
180370,-400,4,3,0,30,0,0
180447,-100,4,3,0,30,0,0
180550,-40,4,3,0,30,0,0
180575,-400,4,3,0,30,0,0
180652,-100,4,3,0,30,0,0
180755,-40,4,3,0,30,0,0
180780,-400,4,3,0,30,0,0
180857,-100,4,3,0,30,0,0
180960,-40,4,3,0,30,0,0
180985,-400,4,3,0,30,0,0
181062,-100,4,3,0,30,0,0
181166,-40,4,3,0,30,0,0
181191,-400,4,3,0,30,0,0
181268,-100,4,3,0,30,0,0
181371,-40,4,3,0,30,0,0
181396,-400,4,3,0,30,0,0
181473,-100,4,3,0,30,0,0
181578,-40,4,3,0,30,0,0
181603,-400,4,3,0,30,0,0
181680,-100,4,3,0,30,0,0
181783,-40,4,3,0,30,0,0
181808,-400,4,3,0,30,0,0
181885,-100,4,3,0,30,0,0
181989,-40,4,3,0,30,0,0
182014,-400,4,3,0,30,0,0
182091,-100,4,3,0,30,0,0
182194,-40,4,3,0,30,0,0
182219,-400,4,3,0,30,0,0
182296,-100,4,3,0,30,0,0
182399,-40,4,3,0,30,0,0
182424,-400,4,3,0,30,0,0
182501,-100,4,3,0,30,0,0
182604,-40,4,3,0,30,0,0
182629,-400,4,3,0,30,0,0
182706,-100,4,3,0,30,0,0
182810,-40,4,3,0,30,0,0
182835,-400,4,3,0,30,0,0
182912,-100,4,3,0,30,0,0
183015,-40,4,3,0,30,0,0
183040,-400,4,3,0,30,0,0
183117,-100,4,3,0,30,0,0
183221,-40,4,3,0,30,0,0
183246,-400,4,3,0,30,0,0
183323,-100,4,3,0,30,0,0
183426,-40,4,3,0,30,0,0
183451,-400,4,3,0,30,0,0
183528,-100,4,3,0,30,0,0
183632,-40,4,3,0,30,0,0
183657,-400,4,3,0,30,0,0
183734,-100,4,3,0,30,0,0
183837,-40,4,3,0,30,0,0
183862,-400,4,3,0,30,0,0
183939,-100,4,3,0,30,0,0
184042,-40,4,3,0,30,0,0
184067,-400,4,3,0,30,0,0
184144,-100,4,3,0,30,0,0
184247,-40,4,3,0,30,0,0
184272,-400,4,3,0,30,0,0
184349,-100,4,3,0,30,0,0
184453,-40,4,3,0,30,0,0
184478,-400,4,3,0,30,0,0
184555,-100,4,3,0,30,0,0
184658,-40,4,3,0,30,0,0
184683,-400,4,3,0,30,0,0
184760,-100,4,3,0,30,0,0
184865,4109.58904109589,4,3,0,30,1,0
184865,-1000,4,3,0,30,0,0
197399,410.958904109589,4,2,0,30,1,0
198016,410.958904109589,4,2,0,30,1,0
198016,-100,4,2,0,30,0,1
217743,0.06,4,3,0,30,1,0
217746,410.958904109589,4,3,0,30,1,0
217748,410.958904109589,4,3,0,30,1,0
217750,410.958904109589,4,3,0,30,1,0
217752,410.958904109589,4,3,0,30,1,0
217754,410.958904109589,4,3,0,30,1,0
217756,410.958904109589,4,3,0,30,1,0
217758,410.958904109589,4,3,0,30,1,0
217760,410.958904109589,4,3,0,30,1,0
217762,410.958904109589,4,3,0,30,1,0
217764,410.958904109589,4,3,0,30,1,0
217766,410.958904109589,4,3,0,30,1,0
217768,410.958904109589,4,3,0,30,1,0
217770,410.958904109589,4,3,0,30,1,0
217772,410.958904109589,4,3,0,30,1,0
217774,410.958904109589,4,3,0,30,1,0
217776,410.958904109589,4,3,0,30,1,0
217778,410.958904109589,4,3,0,30,1,0
217780,410.958904109589,4,3,0,30,1,0
217782,410.958904109589,4,3,0,30,1,0
217784,410.958904109589,4,3,0,30,1,0
217786,410.958904109589,4,3,0,30,1,0
217788,410.958904109589,4,3,0,30,1,0
217790,410.958904109589,4,3,0,30,1,0
217792,410.958904109589,4,3,0,30,1,0
217794,410.958904109589,4,3,0,30,1,0
217796,410.958904109589,4,3,0,30,1,0
217798,410.958904109589,4,3,0,30,1,0
217800,410.958904109589,4,3,0,30,1,0
217802,410.958904109589,4,3,0,30,1,0
217804,410.958904109589,4,3,0,30,1,0
217806,410.958904109589,4,3,0,30,1,0
217808,410.958904109589,4,3,0,30,1,0
217810,410.958904109589,4,3,0,30,1,0
217812,410.958904109589,4,3,0,30,1,0
217814,410.958904109589,4,3,0,30,1,0
217816,410.958904109589,4,3,0,30,1,0
217818,410.958904109589,4,3,0,30,1,0
217820,410.958904109589,4,3,0,30,1,0
217822,410.958904109589,4,3,0,30,1,0
217824,410.958904109589,4,3,0,30,1,0
217826,410.958904109589,4,3,0,30,1,0
217828,410.958904109589,4,3,0,30,1,0
217830,410.958904109589,4,3,0,30,1,0
217832,410.958904109589,4,3,0,30,1,0
217834,410.958904109589,4,3,0,30,1,0
217836,410.958904109589,4,3,0,30,1,0
217838,410.958904109589,4,3,0,30,1,0
217840,410.958904109589,4,3,0,30,1,0
217842,410.958904109589,4,3,0,30,1,0
217844,410.958904109589,4,3,0,30,1,0
217846,410.958904109589,4,3,0,30,1,0
217848,410.958904109589,4,3,0,30,1,0
217850,410.958904109589,4,3,0,30,1,0
217852,410.958904109589,4,3,0,30,1,0
217854,410.958904109589,4,3,0,30,1,0
217856,410.958904109589,4,3,0,30,1,0
217858,410.958904109589,4,3,0,30,1,0
217860,410.958904109589,4,3,0,30,1,0
217862,410.958904109589,4,3,0,30,1,0
217864,410.958904109589,4,3,0,30,1,0
217866,410.958904109589,4,3,0,30,1,0
217868,410.958904109589,4,3,0,30,1,0
217870,410.958904109589,4,3,0,30,1,0
217872,410.958904109589,4,3,0,30,1,0
217874,410.958904109589,4,3,0,30,1,0
217876,410.958904109589,4,3,0,30,1,0
217878,410.958904109589,4,3,0,30,1,0
217880,410.958904109589,4,3,0,30,1,0
217882,410.958904109589,4,3,0,30,1,0
217884,410.958904109589,4,3,0,30,1,0
217886,410.958904109589,4,3,0,30,1,0
217888,410.958904109589,4,3,0,30,1,0
217890,410.958904109589,4,3,0,30,1,0
217892,410.958904109589,4,3,0,30,1,0
217894,410.958904109589,4,3,0,30,1,0
217896,410.958904109589,4,3,0,30,1,0
217898,410.958904109589,4,3,0,30,1,0
217900,410.958904109589,4,3,0,30,1,0
217902,410.958904109589,4,3,0,30,1,0
217904,410.958904109589,4,3,0,30,1,0
217906,410.958904109589,4,3,0,30,1,0
217908,410.958904109589,4,3,0,30,1,0
217910,410.958904109589,4,3,0,30,1,0
217912,410.958904109589,4,3,0,30,1,0
217914,410.958904109589,4,3,0,30,1,0
217916,410.958904109589,4,3,0,30,1,0
217918,410.958904109589,4,3,0,30,1,0
217920,410.958904109589,4,3,0,30,1,0
217922,410.958904109589,4,3,0,30,1,0
217924,410.958904109589,4,3,0,30,1,0
217926,410.958904109589,4,3,0,30,1,0
217928,410.958904109589,4,3,0,30,1,0
217930,410.958904109589,4,3,0,30,1,0
217932,410.958904109589,4,3,0,30,1,0
217934,410.958904109589,4,3,0,30,1,0
217936,410.958904109589,4,3,0,30,1,0
217938,410.958904109589,4,3,0,30,1,0
217940,410.958904109589,4,3,0,30,1,0
217942,410.958904109589,4,3,0,30,1,0
217944,410.958904109589,4,3,0,30,1,0
217946,410.958904109589,4,3,0,30,1,0
217948,410.958904109589,4,3,0,30,1,0
217950,410.958904109589,4,3,0,30,1,0
217952,410.958904109589,4,3,0,30,1,0
217954,410.958904109589,4,3,0,30,1,0
217956,410.958904109589,4,3,0,30,1,0
217958,410.958904109589,4,3,0,30,1,0
217960,410.958904109589,4,3,0,30,1,0
217962,410.958904109589,4,3,0,30,1,0
217964,410.958904109589,4,3,0,30,1,0
217966,410.958904109589,4,3,0,30,1,0
217968,410.958904109589,4,3,0,30,1,0
217970,410.958904109589,4,3,0,30,1,0
217972,410.958904109589,4,3,0,30,1,0
217974,410.958904109589,4,3,0,30,1,0
217976,410.958904109589,4,3,0,30,1,0
217978,410.958904109589,4,3,0,30,1,0
217980,410.958904109589,4,3,0,30,1,0
217982,410.958904109589,4,3,0,30,1,0
217984,410.958904109589,4,3,0,30,1,0
217986,410.958904109589,4,3,0,30,1,0
217988,410.958904109589,4,3,0,30,1,0
217990,410.958904109589,4,3,0,30,1,0
217992,410.958904109589,4,3,0,30,1,0
217994,410.958904109589,4,3,0,30,1,0
217996,410.958904109589,4,3,0,30,1,0
217998,410.958904109589,4,3,0,30,1,0
218000,410.958904109589,4,3,0,30,1,0
218002,410.958904109589,4,3,0,30,1,0
218004,410.958904109589,4,3,0,30,1,0
218006,410.958904109589,4,3,0,30,1,0
218008,410.958904109589,4,3,0,30,1,0
218010,410.958904109589,4,3,0,30,1,0
218012,410.958904109589,4,3,0,30,1,0
218014,410.958904109589,4,3,0,30,1,0
218016,410.958904109589,4,3,0,30,1,0
218018,410.958904109589,4,3,0,30,1,0
218020,410.958904109589,4,3,0,30,1,0
218022,410.958904109589,4,3,0,30,1,0
218024,410.958904109589,4,3,0,30,1,0
218026,410.958904109589,4,3,0,30,1,0
218028,410.958904109589,4,3,0,30,1,0
218030,410.958904109589,4,3,0,30,1,0
218032,410.958904109589,4,3,0,30,1,0
218034,410.958904109589,4,3,0,30,1,0
218036,410.958904109589,4,3,0,30,1,0
218038,410.958904109589,4,3,0,30,1,0
218040,410.958904109589,4,3,0,30,1,0
218042,410.958904109589,4,3,0,30,1,0
218044,410.958904109589,4,3,0,30,1,0
218046,410.958904109589,4,3,0,30,1,0
218048,410.958904109589,4,3,0,30,1,0
218050,410.958904109589,4,3,0,30,1,0
218052,410.958904109589,4,3,0,30,1,0
218054,410.958904109589,4,3,0,30,1,0
218056,410.958904109589,4,3,0,30,1,0
218058,410.958904109589,4,3,0,30,1,0
218060,410.958904109589,4,3,0,30,1,0
218062,410.958904109589,4,3,0,30,1,0
218064,410.958904109589,4,3,0,30,1,0
218066,410.958904109589,4,3,0,30,1,0
218068,410.958904109589,4,3,0,30,1,0
218070,410.958904109589,4,3,0,30,1,0
218072,410.958904109589,4,3,0,30,1,0
218074,410.958904109589,4,3,0,30,1,0
218076,410.958904109589,4,3,0,30,1,0
218078,410.958904109589,4,3,0,30,1,0
218080,410.958904109589,4,3,0,30,1,0
218082,410.958904109589,4,3,0,30,1,0
218084,410.958904109589,4,3,0,30,1,0
218086,410.958904109589,4,3,0,30,1,0
218088,410.958904109589,4,3,0,30,1,0
218090,410.958904109589,4,3,0,30,1,0
218092,410.958904109589,4,3,0,30,1,0
218094,410.958904109589,4,3,0,30,1,0
218096,410.958904109589,4,3,0,30,1,0
218098,410.958904109589,4,3,0,30,1,0
218100,410.958904109589,4,3,0,30,1,0
218102,410.958904109589,4,3,0,30,1,0
218104,410.958904109589,4,3,0,30,1,0
218106,410.958904109589,4,3,0,30,1,0
218108,410.958904109589,4,3,0,30,1,0
218110,410.958904109589,4,3,0,30,1,0
218112,410.958904109589,4,3,0,30,1,0
218114,410.958904109589,4,3,0,30,1,0
218116,410.958904109589,4,3,0,30,1,0
218118,410.958904109589,4,3,0,30,1,0
218120,410.958904109589,4,3,0,30,1,0
218122,410.958904109589,4,3,0,30,1,0
218124,410.958904109589,4,3,0,30,1,0
218126,410.958904109589,4,3,0,30,1,0
218128,410.958904109589,4,3,0,30,1,0
218130,410.958904109589,4,3,0,30,1,0
218132,410.958904109589,4,3,0,30,1,0
218134,410.958904109589,4,3,0,30,1,0
218136,410.958904109589,4,3,0,30,1,0
218138,410.958904109589,4,3,0,30,1,0
218140,410.958904109589,4,3,0,30,1,0
218142,410.958904109589,4,3,0,30,1,0
218144,410.958904109589,4,3,0,30,1,0
218146,410.958904109589,4,3,0,30,1,0
218148,410.958904109589,4,3,0,30,1,0
218150,410.958904109589,4,3,0,30,1,0
218152,410.958904109589,4,3,0,30,1,0
218154,410.958904109589,4,3,0,30,1,0
218156,410.958904109589,4,3,0,30,1,0
218158,410.958904109589,4,3,0,30,1,0
218160,410.958904109589,4,3,0,30,1,0
218162,410.958904109589,4,3,0,30,1,0
218164,410.958904109589,4,3,0,30,1,0
218166,410.958904109589,4,3,0,30,1,0
218168,410.958904109589,4,3,0,30,1,0
218170,410.958904109589,4,3,0,30,1,0
218172,410.958904109589,4,3,0,30,1,0
218174,410.958904109589,4,3,0,30,1,0
218176,410.958904109589,4,3,0,30,1,0
218178,410.958904109589,4,3,0,30,1,0
218180,410.958904109589,4,3,0,30,1,0
218182,410.958904109589,4,3,0,30,1,0
218184,410.958904109589,4,3,0,30,1,0
218186,410.958904109589,4,3,0,30,1,0
218188,410.958904109589,4,3,0,30,1,0
218190,410.958904109589,4,3,0,30,1,0
218192,410.958904109589,4,3,0,30,1,0
218194,410.958904109589,4,3,0,30,1,0
218196,410.958904109589,4,3,0,30,1,0
218198,410.958904109589,4,3,0,30,1,0
218200,410.958904109589,4,3,0,30,1,0
218202,410.958904109589,4,3,0,30,1,0
218204,410.958904109589,4,3,0,30,1,0
218206,410.958904109589,4,3,0,30,1,0
218208,410.958904109589,4,3,0,30,1,0
218210,410.958904109589,4,3,0,30,1,0
218212,410.958904109589,4,3,0,30,1,0
218214,410.958904109589,4,3,0,30,1,0
218216,410.958904109589,4,3,0,30,1,0
218218,410.958904109589,4,3,0,30,1,0
218220,410.958904109589,4,3,0,30,1,0
218222,410.958904109589,4,3,0,30,1,0
218224,410.958904109589,4,3,0,30,1,0
218226,410.958904109589,4,3,0,30,1,0
218228,410.958904109589,4,3,0,30,1,0
218230,410.958904109589,4,3,0,30,1,0
218232,410.958904109589,4,3,0,30,1,0
218234,410.958904109589,4,3,0,30,1,0
218236,410.958904109589,4,3,0,30,1,0
218238,410.958904109589,4,3,0,30,1,0
218240,410.958904109589,4,3,0,30,1,0
218242,410.958904109589,4,3,0,30,1,0
218244,410.958904109589,4,3,0,30,1,0
218246,410.958904109589,4,3,0,30,1,0
218248,410.958904109589,4,3,0,30,1,0
218250,410.958904109589,4,3,0,30,1,0
218252,410.958904109589,4,3,0,30,1,0
218254,410.958904109589,4,3,0,30,1,0
218256,410.958904109589,4,3,0,30,1,0
218258,410.958904109589,4,3,0,30,1,0
218260,410.958904109589,4,3,0,30,1,0
218262,410.958904109589,4,3,0,30,1,0
218264,410.958904109589,4,3,0,30,1,0
218266,410.958904109589,4,3,0,30,1,0
218268,410.958904109589,4,3,0,30,1,0
218270,410.958904109589,4,3,0,30,1,0
218272,410.958904109589,4,3,0,30,1,0
218274,410.958904109589,4,3,0,30,1,0
218276,410.958904109589,4,3,0,30,1,0
218278,410.958904109589,4,3,0,30,1,0
218280,410.958904109589,4,3,0,30,1,0
218282,410.958904109589,4,3,0,30,1,0
218284,410.958904109589,4,3,0,30,1,0
218286,410.958904109589,4,3,0,30,1,0
218288,410.958904109589,4,3,0,30,1,0
218290,410.958904109589,4,3,0,30,1,0
218292,410.958904109589,4,3,0,30,1,0
218294,410.958904109589,4,3,0,30,1,0
218296,410.958904109589,4,3,0,30,1,0
218298,410.958904109589,4,3,0,30,1,0
218300,410.958904109589,4,3,0,30,1,0
218302,410.958904109589,4,3,0,30,1,0
218304,410.958904109589,4,3,0,30,1,0
218306,410.958904109589,4,3,0,30,1,0
218308,410.958904109589,4,3,0,30,1,0
218310,410.958904109589,4,3,0,30,1,0
218312,410.958904109589,4,3,0,30,1,0
218314,410.958904109589,4,3,0,30,1,0
218316,410.958904109589,4,3,0,30,1,0
218318,410.958904109589,4,3,0,30,1,0
218320,410.958904109589,4,3,0,30,1,0
218322,410.958904109589,4,3,0,30,1,0
218324,410.958904109589,4,3,0,30,1,0
218326,410.958904109589,4,3,0,30,1,0
218328,410.958904109589,4,3,0,30,1,0
218330,410.958904109589,4,3,0,30,1,0
218332,410.958904109589,4,3,0,30,1,0
218334,410.958904109589,4,3,0,30,1,0
218336,410.958904109589,4,3,0,30,1,0
218338,410.958904109589,4,3,0,30,1,0
218340,410.958904109589,4,3,0,30,1,0
218342,410.958904109589,4,3,0,30,1,0
218344,410.958904109589,4,3,0,30,1,0
218346,410.958904109589,4,3,0,30,1,0
218348,410.958904109589,4,3,0,30,1,0
218350,410.958904109589,4,3,0,30,1,0
218352,410.958904109589,4,3,0,30,1,0
218354,410.958904109589,4,3,0,30,1,0
218356,410.958904109589,4,3,0,30,1,0
218358,410.958904109589,4,3,0,30,1,0
218360,410.958904109589,4,3,0,30,1,0
218362,410.958904109589,4,3,0,30,1,0
218364,410.958904109589,4,3,0,30,1,0
218366,410.958904109589,4,3,0,30,1,0
218368,410.958904109589,4,3,0,30,1,0
218370,410.958904109589,4,3,0,30,1,0
218372,410.958904109589,4,3,0,30,1,0
218374,410.958904109589,4,3,0,30,1,0
218376,410.958904109589,4,3,0,30,1,0
218378,410.958904109589,4,3,0,30,1,0
218380,410.958904109589,4,3,0,30,1,0
218382,410.958904109589,4,3,0,30,1,0
218384,410.958904109589,4,3,0,30,1,0
218386,410.958904109589,4,3,0,30,1,0
218388,410.958904109589,4,3,0,30,1,0
218390,410.958904109589,4,3,0,30,1,0
218392,410.958904109589,4,3,0,30,1,0
218394,410.958904109589,4,3,0,30,1,0
218396,410.958904109589,4,3,0,30,1,0
218398,410.958904109589,4,3,0,30,1,0
218400,410.958904109589,4,3,0,30,1,0
218402,410.958904109589,4,3,0,30,1,0
218404,410.958904109589,4,3,0,30,1,0
218406,410.958904109589,4,3,0,30,1,0
218408,410.958904109589,4,3,0,30,1,0
218410,410.958904109589,4,3,0,30,1,0
218412,410.958904109589,4,3,0,30,1,0
218414,410.958904109589,4,3,0,30,1,0
218416,410.958904109589,4,3,0,30,1,0
218418,410.958904109589,4,3,0,30,1,0
218420,410.958904109589,4,3,0,30,1,0
218422,410.958904109589,4,3,0,30,1,0
218424,410.958904109589,4,3,0,30,1,0
218426,410.958904109589,4,3,0,30,1,0
218428,410.958904109589,4,3,0,30,1,0
218430,410.958904109589,4,3,0,30,1,0
218432,410.958904109589,4,3,0,30,1,0
218434,410.958904109589,4,3,0,30,1,0
218436,410.958904109589,4,3,0,30,1,0
218438,410.958904109589,4,3,0,30,1,0
218440,410.958904109589,4,3,0,30,1,0
218442,410.958904109589,4,3,0,30,1,0
218444,410.958904109589,4,3,0,30,1,0
218446,410.958904109589,4,3,0,30,1,0
218448,410.958904109589,4,3,0,30,1,0
218450,410.958904109589,4,3,0,30,1,0
218452,410.958904109589,4,3,0,30,1,0
218454,410.958904109589,4,3,0,30,1,0
218456,410.958904109589,4,3,0,30,1,0
218458,410.958904109589,4,3,0,30,1,0
218460,410.958904109589,4,3,0,30,1,0
218462,410.958904109589,4,3,0,30,1,0
218464,410.958904109589,4,3,0,30,1,0
218466,410.958904109589,4,3,0,30,1,0
218468,410.958904109589,4,3,0,30,1,0
218470,410.958904109589,4,3,0,30,1,0
218472,410.958904109589,4,3,0,30,1,0
218474,410.958904109589,4,3,0,30,1,0
218476,410.958904109589,4,3,0,30,1,0
218478,410.958904109589,4,3,0,30,1,0
218480,410.958904109589,4,3,0,30,1,0
218482,410.958904109589,4,3,0,30,1,0
218484,410.958904109589,4,3,0,30,1,0
218486,410.958904109589,4,3,0,30,1,0
218488,410.958904109589,4,3,0,30,1,0
218490,410.958904109589,4,3,0,30,1,0
218492,410.958904109589,4,3,0,30,1,0
218494,410.958904109589,4,3,0,30,1,0
218496,410.958904109589,4,3,0,30,1,0
218498,410.958904109589,4,3,0,30,1,0
218500,410.958904109589,4,3,0,30,1,0
218502,410.958904109589,4,3,0,30,1,0
218504,410.958904109589,4,3,0,30,1,0
218506,410.958904109589,4,3,0,30,1,0
218508,410.958904109589,4,3,0,30,1,0
218510,410.958904109589,4,3,0,30,1,0
218512,410.958904109589,4,3,0,30,1,0
218514,410.958904109589,4,3,0,30,1,0
218516,410.958904109589,4,3,0,30,1,0
218518,410.958904109589,4,3,0,30,1,0
218520,410.958904109589,4,3,0,30,1,0
218522,410.958904109589,4,3,0,30,1,0
218524,410.958904109589,4,3,0,30,1,0
218526,410.958904109589,4,3,0,30,1,0
218528,410.958904109589,4,3,0,30,1,0
218530,410.958904109589,4,3,0,30,1,0
218532,410.958904109589,4,3,0,30,1,0
218534,410.958904109589,4,3,0,30,1,0
218536,410.958904109589,4,3,0,30,1,0
218538,410.958904109589,4,3,0,30,1,0
218540,410.958904109589,4,3,0,30,1,0
218542,410.958904109589,4,3,0,30,1,0
218544,410.958904109589,4,3,0,30,1,0
218546,410.958904109589,4,3,0,30,1,0
218548,410.958904109589,4,3,0,30,1,0
218550,410.958904109589,4,3,0,30,1,0
218552,410.958904109589,4,3,0,30,1,0
218554,410.958904109589,4,3,0,30,1,0
218556,410.958904109589,4,3,0,30,1,0
218558,410.958904109589,4,3,0,30,1,0
218560,410.958904109589,4,3,0,30,1,0
218562,410.958904109589,4,3,0,30,1,0
218564,410.958904109589,4,3,0,30,1,0
218566,410.958904109589,4,3,0,30,1,0
218568,410.958904109589,4,3,0,30,1,0
218570,410.958904109589,4,3,0,30,1,0
218572,410.958904109589,4,3,0,30,1,0
218574,410.958904109589,4,3,0,30,1,0
218576,410.958904109589,4,3,0,30,1,0
218578,410.958904109589,4,3,0,30,1,0
218580,410.958904109589,4,3,0,30,1,0
218582,410.958904109589,4,3,0,30,1,0
218584,410.958904109589,4,3,0,30,1,0
218586,410.958904109589,4,3,0,30,1,0
218588,410.958904109589,4,3,0,30,1,0
218590,410.958904109589,4,3,0,30,1,0
218592,410.958904109589,4,3,0,30,1,0
218594,410.958904109589,4,3,0,30,1,0
218596,410.958904109589,4,3,0,30,1,0
218598,410.958904109589,4,3,0,30,1,0
218600,410.958904109589,4,3,0,30,1,0
218602,410.958904109589,4,3,0,30,1,0
218604,410.958904109589,4,3,0,30,1,0
218606,410.958904109589,4,3,0,30,1,0
218608,410.958904109589,4,3,0,30,1,0
218610,410.958904109589,4,3,0,30,1,0
218612,410.958904109589,4,3,0,30,1,0
218614,410.958904109589,4,3,0,30,1,0
218616,410.958904109589,4,3,0,30,1,0
218618,410.958904109589,4,3,0,30,1,0
218620,410.958904109589,4,3,0,30,1,0
218622,410.958904109589,4,3,0,30,1,0
218624,410.958904109589,4,3,0,30,1,0
218626,410.958904109589,4,3,0,30,1,0
218628,410.958904109589,4,3,0,30,1,0
218630,410.958904109589,4,3,0,30,1,0
218632,410.958904109589,4,3,0,30,1,0
218634,410.958904109589,4,3,0,30,1,0
218636,410.958904109589,4,3,0,30,1,0
218638,410.958904109589,4,3,0,30,1,0
218640,410.958904109589,4,3,0,30,1,0
218642,410.958904109589,4,3,0,30,1,0
218644,410.958904109589,4,3,0,30,1,0
218646,410.958904109589,4,3,0,30,1,0
218648,410.958904109589,4,3,0,30,1,0
218650,410.958904109589,4,3,0,30,1,0
218652,410.958904109589,4,3,0,30,1,0
218654,410.958904109589,4,3,0,30,1,0
218656,410.958904109589,4,3,0,30,1,0
218658,410.958904109589,4,3,0,30,1,0
218660,410.958904109589,4,3,0,30,1,0
218662,410.958904109589,4,3,0,30,1,0
218664,410.958904109589,4,3,0,30,1,0
218666,410.958904109589,4,3,0,30,1,0
218668,410.958904109589,4,3,0,30,1,0
218670,410.958904109589,4,3,0,30,1,0
218672,410.958904109589,4,3,0,30,1,0
218674,410.958904109589,4,3,0,30,1,0
218676,410.958904109589,4,3,0,30,1,0
218678,410.958904109589,4,3,0,30,1,0
218680,410.958904109589,4,3,0,30,1,0
218682,410.958904109589,4,3,0,30,1,0
218684,410.958904109589,4,3,0,30,1,0
218686,410.958904109589,4,3,0,30,1,0
218688,410.958904109589,4,3,0,30,1,0
218690,410.958904109589,4,3,0,30,1,0
218692,410.958904109589,4,3,0,30,1,0
218694,410.958904109589,4,3,0,30,1,0
218696,410.958904109589,4,3,0,30,1,0
218698,410.958904109589,4,3,0,30,1,0
218700,410.958904109589,4,3,0,30,1,0
218702,410.958904109589,4,3,0,30,1,0
218704,410.958904109589,4,3,0,30,1,0
218706,410.958904109589,4,3,0,30,1,0
218708,410.958904109589,4,3,0,30,1,0
218710,410.958904109589,4,3,0,30,1,0
218712,410.958904109589,4,3,0,30,1,0
218714,410.958904109589,4,3,0,30,1,0
218716,410.958904109589,4,3,0,30,1,0
218718,410.958904109589,4,3,0,30,1,0
218720,410.958904109589,4,3,0,30,1,0
218722,410.958904109589,4,3,0,30,1,0
218724,410.958904109589,4,3,0,30,1,0
218726,410.958904109589,4,3,0,30,1,0
218728,410.958904109589,4,3,0,30,1,0
218730,410.958904109589,4,3,0,30,1,0
218732,410.958904109589,4,3,0,30,1,0
218734,410.958904109589,4,3,0,30,1,0
218736,410.958904109589,4,3,0,30,1,0
218738,410.958904109589,4,3,0,30,1,0
218740,410.958904109589,4,3,0,30,1,0
218742,410.958904109589,4,3,0,30,1,0
218744,410.958904109589,4,3,0,30,1,0
218746,410.958904109589,4,3,0,30,1,0
218748,410.958904109589,4,3,0,30,1,0
218750,410.958904109589,4,3,0,30,1,0
218752,410.958904109589,4,3,0,30,1,0
218754,410.958904109589,4,3,0,30,1,0
218756,410.958904109589,4,3,0,30,1,0
218758,410.958904109589,4,3,0,30,1,0
218760,410.958904109589,4,3,0,30,1,0
218762,410.958904109589,4,3,0,30,1,0
218764,410.958904109589,4,3,0,30,1,0
218766,410.958904109589,4,3,0,30,1,0
218768,410.958904109589,4,3,0,30,1,0
218770,410.958904109589,4,3,0,30,1,0
218772,410.958904109589,4,3,0,30,1,0
218774,410.958904109589,4,3,0,30,1,0
218776,410.958904109589,4,3,0,30,1,0
218778,410.958904109589,4,3,0,30,1,0
218780,410.958904109589,4,3,0,30,1,0
218782,410.958904109589,4,3,0,30,1,0
218784,410.958904109589,4,3,0,30,1,0
218786,410.958904109589,4,3,0,30,1,0
218788,410.958904109589,4,3,0,30,1,0
218790,410.958904109589,4,3,0,30,1,0
218792,410.958904109589,4,3,0,30,1,0
218794,410.958904109589,4,3,0,30,1,0
218796,410.958904109589,4,3,0,30,1,0
218798,410.958904109589,4,3,0,30,1,0
218800,410.958904109589,4,3,0,30,1,0
218802,410.958904109589,4,3,0,30,1,0
218804,410.958904109589,4,3,0,30,1,0
218806,410.958904109589,4,3,0,30,1,0
218808,410.958904109589,4,3,0,30,1,0
218810,410.958904109589,4,3,0,30,1,0
218812,410.958904109589,4,3,0,30,1,0
218814,410.958904109589,4,3,0,30,1,0
218816,410.958904109589,4,3,0,30,1,0
218818,410.958904109589,4,3,0,30,1,0
218820,410.958904109589,4,3,0,30,1,0
218822,410.958904109589,4,3,0,30,1,0
218824,410.958904109589,4,3,0,30,1,0
218826,410.958904109589,4,3,0,30,1,0
218828,410.958904109589,4,3,0,30,1,0
218830,410.958904109589,4,3,0,30,1,0
218832,410.958904109589,4,3,0,30,1,0
218834,410.958904109589,4,3,0,30,1,0
218836,410.958904109589,4,3,0,30,1,0
218838,410.958904109589,4,3,0,30,1,0
218840,410.958904109589,4,3,0,30,1,0
218842,410.958904109589,4,3,0,30,1,0
218844,410.958904109589,4,3,0,30,1,0
218846,410.958904109589,4,3,0,30,1,0
218848,410.958904109589,4,3,0,30,1,0
218850,410.958904109589,4,3,0,30,1,0
218852,410.958904109589,4,3,0,30,1,0
218854,410.958904109589,4,3,0,30,1,0
218856,410.958904109589,4,3,0,30,1,0
218858,410.958904109589,4,3,0,30,1,0
218860,410.958904109589,4,3,0,30,1,0
218862,410.958904109589,4,3,0,30,1,0
218864,410.958904109589,4,3,0,30,1,0
218866,410.958904109589,4,3,0,30,1,0
218868,410.958904109589,4,3,0,30,1,0
218870,410.958904109589,4,3,0,30,1,0
218872,410.958904109589,4,3,0,30,1,0
218874,410.958904109589,4,3,0,30,1,0
218876,410.958904109589,4,3,0,30,1,0
218878,410.958904109589,4,3,0,30,1,0
218880,410.958904109589,4,3,0,30,1,0
218882,410.958904109589,4,3,0,30,1,0
218884,410.958904109589,4,3,0,30,1,0
218886,410.958904109589,4,3,0,30,1,0
218888,410.958904109589,4,3,0,30,1,0
218890,410.958904109589,4,3,0,30,1,0
218892,410.958904109589,4,3,0,30,1,0
218894,410.958904109589,4,3,0,30,1,0
218896,410.958904109589,4,3,0,30,1,0
218898,410.958904109589,4,3,0,30,1,0
218900,410.958904109589,4,3,0,30,1,0
218902,410.958904109589,4,3,0,30,1,0
218904,410.958904109589,4,3,0,30,1,0
218906,410.958904109589,4,3,0,30,1,0
218908,410.958904109589,4,3,0,30,1,0
218910,410.958904109589,4,3,0,30,1,0
218912,410.958904109589,4,3,0,30,1,0
218914,410.958904109589,4,3,0,30,1,0
218916,410.958904109589,4,3,0,30,1,0
218918,410.958904109589,4,3,0,30,1,0
218920,410.958904109589,4,3,0,30,1,0
218922,410.958904109589,4,3,0,30,1,0
218924,410.958904109589,4,3,0,30,1,0
218926,410.958904109589,4,3,0,30,1,0
218928,410.958904109589,4,3,0,30,1,0
218930,410.958904109589,4,3,0,30,1,0
218932,410.958904109589,4,3,0,30,1,0
218934,410.958904109589,4,3,0,30,1,0
218936,410.958904109589,4,3,0,30,1,0
218938,410.958904109589,4,3,0,30,1,0
218940,410.958904109589,4,3,0,30,1,0
218942,410.958904109589,4,3,0,30,1,0
218944,410.958904109589,4,3,0,30,1,0
218946,410.958904109589,4,3,0,30,1,0
218948,410.958904109589,4,3,0,30,1,0
218950,410.958904109589,4,3,0,30,1,0
218952,410.958904109589,4,3,0,30,1,0
218954,410.958904109589,4,3,0,30,1,0
218956,410.958904109589,4,3,0,30,1,0
218958,410.958904109589,4,3,0,30,1,0
218960,410.958904109589,4,3,0,30,1,0
218962,410.958904109589,4,3,0,30,1,0
218964,410.958904109589,4,3,0,30,1,0
218966,410.958904109589,4,3,0,30,1,0
218968,410.958904109589,4,3,0,30,1,0
218970,410.958904109589,4,3,0,30,1,0
218972,410.958904109589,4,3,0,30,1,0
218974,410.958904109589,4,3,0,30,1,0
218976,410.958904109589,4,3,0,30,1,0
218978,410.958904109589,4,3,0,30,1,0
218980,410.958904109589,4,3,0,30,1,0
218982,410.958904109589,4,3,0,30,1,0
218984,410.958904109589,4,3,0,30,1,0
218986,410.958904109589,4,3,0,30,1,0
218988,410.958904109589,4,3,0,30,1,0
218990,410.958904109589,4,3,0,30,1,0
218992,410.958904109589,4,3,0,30,1,0
218994,410.958904109589,4,3,0,30,1,0
218996,410.958904109589,4,3,0,30,1,0
218998,410.958904109589,4,3,0,30,1,0
219000,410.958904109589,4,3,0,30,1,0
219002,410.958904109589,4,3,0,30,1,0
219004,410.958904109589,4,3,0,30,1,0
219006,410.958904109589,4,3,0,30,1,0
219008,410.958904109589,4,3,0,30,1,0
219010,410.958904109589,4,3,0,30,1,0
219012,410.958904109589,4,3,0,30,1,0
219014,410.958904109589,4,3,0,30,1,0
219016,410.958904109589,4,3,0,30,1,0
219018,410.958904109589,4,3,0,30,1,0
219020,410.958904109589,4,3,0,30,1,0
219022,410.958904109589,4,3,0,30,1,0
219024,410.958904109589,4,3,0,30,1,0

[Colours]
Combo1 : 85,85,255
Combo2 : 201,201,201
Combo3 : 192,130,255
Combo4 : 60,60,60

[HitObjects]
64,192,2400,5,0,0:0:0:0:
192,192,2400,1,0,0:0:0:0:
320,192,2605,1,0,0:0:0:0:
448,192,2708,1,0,0:0:0:0:
192,192,2810,1,0,0:0:0:0:
64,192,2810,1,0,0:0:0:0:
320,192,2913,1,0,0:0:0:0:
448,192,3221,1,0,0:0:0:0:
320,192,3324,1,0,0:0:0:0:
448,192,3427,1,0,0:0:0:0:
320,192,3530,1,0,0:0:0:0:
64,192,3632,1,0,0:0:0:0:
320,192,3838,1,0,0:0:0:0:
192,192,4249,1,0,0:0:0:0:
320,192,4352,1,0,0:0:0:0:
64,192,4454,1,0,0:0:0:0:
192,192,4454,1,0,0:0:0:0:
448,192,4557,1,0,0:0:0:0:
320,192,4865,1,0,0:0:0:0:
192,192,4968,1,0,0:0:0:0:
448,192,5071,1,0,0:0:0:0:
320,192,5173,1,0,0:0:0:0:
64,192,5276,1,0,0:0:0:0:
448,192,5482,1,0,0:0:0:0:
192,192,5893,1,0,0:0:0:0:
320,192,5995,1,0,0:0:0:0:
448,192,6098,1,0,0:0:0:0:
64,192,6098,1,0,0:0:0:0:
192,192,6201,1,0,0:0:0:0:
320,192,6509,1,0,0:0:0:0:
192,192,6612,1,0,0:0:0:0:
448,192,6715,1,0,0:0:0:0:
320,192,6817,1,0,0:0:0:0:
64,192,6920,1,0,0:0:0:0:
320,192,7126,1,0,0:0:0:0:
64,192,7536,1,0,0:0:0:0:
192,192,7639,1,0,0:0:0:0:
64,192,7742,1,0,0:0:0:0:
320,192,7742,1,0,0:0:0:0:
448,192,7845,1,0,0:0:0:0:
448,192,8153,1,0,0:0:0:0:
192,192,8256,1,0,0:0:0:0:
448,192,8358,1,0,0:0:0:0:
320,192,8461,1,0,0:0:0:0:
64,192,8564,1,0,0:0:0:0:
192,192,8769,1,0,0:0:0:0:
320,192,8975,128,0,9180:0:0:0:0:
448,192,8975,1,0,0:0:0:0:
64,192,8975,1,0,0:0:0:0:
192,192,9180,1,0,0:0:0:0:
320,192,9283,128,0,9489:0:0:0:0:
64,192,9283,1,0,0:0:0:0:
192,192,9386,1,0,0:0:0:0:
448,192,9386,1,0,0:0:0:0:
64,192,9489,1,0,0:0:0:0:
448,192,9591,128,0,10208:0:0:0:0:
320,192,9797,1,0,0:0:0:0:
192,192,9900,1,0,0:0:0:0:
320,192,10002,1,0,0:0:0:0:
192,192,10105,1,0,0:0:0:0:
64,192,10208,1,0,0:0:0:0:
320,192,10413,1,0,0:0:0:0:
192,192,10619,128,0,10824:0:0:0:0:
448,192,10824,1,0,0:0:0:0:
192,192,10927,128,0,11132:0:0:0:0:
320,192,10927,1,0,0:0:0:0:
64,192,11030,1,0,0:0:0:0:
448,192,11030,1,0,0:0:0:0:
320,192,11132,1,0,0:0:0:0:
64,192,11235,128,0,11852:0:0:0:0:
192,192,11441,1,0,0:0:0:0:
320,192,11543,1,0,0:0:0:0:
448,192,11646,1,0,0:0:0:0:
320,192,11749,1,0,0:0:0:0:
192,192,11852,1,0,0:0:0:0:
448,192,12057,1,0,0:0:0:0:
320,192,12263,128,0,12468:0:0:0:0:
192,192,12468,1,0,0:0:0:0:
448,192,12571,1,0,0:0:0:0:
320,192,12571,128,0,12776:0:0:0:0:
64,192,12673,1,0,0:0:0:0:
192,192,12673,1,0,0:0:0:0:
448,192,12776,1,0,0:0:0:0:
64,192,12879,128,0,13495:0:0:0:0:
192,192,13084,1,0,0:0:0:0:
320,192,13187,1,0,0:0:0:0:
448,192,13290,1,0,0:0:0:0:
192,192,13393,1,0,0:0:0:0:
448,192,13495,1,0,0:0:0:0:
320,192,13701,1,0,0:0:0:0:
64,192,13906,128,0,14112:0:0:0:0:
192,192,14009,1,0,0:0:0:0:
320,192,14112,1,0,0:0:0:0:
192,192,14215,1,0,0:0:0:0:
64,192,14215,128,0,14420:0:0:0:0:
448,192,14317,1,0,0:0:0:0:
320,192,14317,1,0,0:0:0:0:
448,192,14523,128,0,15139:0:0:0:0:
192,192,14728,1,0,0:0:0:0:
64,192,14831,1,0,0:0:0:0:
320,192,14934,1,0,0:0:0:0:
192,192,15036,1,0,0:0:0:0:
320,192,15139,1,0,0:0:0:0:
64,192,15345,1,0,0:0:0:0:
320,192,15447,1,0,0:0:0:0:
448,192,15550,1,0,0:0:0:0:
192,192,15550,128,0,15756:0:0:0:0:
320,192,15653,1,0,0:0:0:0:
448,192,15756,1,0,0:0:0:0:
192,192,15858,128,0,16064:0:0:0:0:
320,192,15961,1,0,0:0:0:0:
64,192,15961,1,0,0:0:0:0:
192,192,16167,1,0,0:0:0:0:
64,192,16167,128,0,16783:0:0:0:0:
320,192,16269,1,0,0:0:0:0:
448,192,16372,1,0,0:0:0:0:
192,192,16578,1,0,0:0:0:0:
448,192,16680,1,0,0:0:0:0:
320,192,16783,1,0,0:0:0:0:
64,192,17091,1,0,0:0:0:0:
320,192,17194,128,0,17400:0:0:0:0:
192,192,17194,1,0,0:0:0:0:
64,192,17297,1,0,0:0:0:0:
192,192,17400,1,0,0:0:0:0:
320,192,17502,128,0,17708:0:0:0:0:
448,192,17605,1,0,0:0:0:0:
64,192,17605,1,0,0:0:0:0:
192,192,17810,128,0,18427:0:0:0:0:
448,192,17810,1,0,0:0:0:0:
320,192,17913,1,0,0:0:0:0:
64,192,18016,1,0,0:0:0:0:
320,192,18221,1,0,0:0:0:0:
64,192,18324,1,0,0:0:0:0:
448,192,18427,1,0,0:0:0:0:
320,192,18735,1,0,0:0:0:0:
192,192,18838,128,0,19043:0:0:0:0:
448,192,18838,1,0,0:0:0:0:
320,192,18941,1,0,0:0:0:0:
64,192,19043,1,0,0:0:0:0:
192,192,19146,128,0,19352:0:0:0:0:
320,192,19249,1,0,0:0:0:0:
448,192,19249,1,0,0:0:0:0:
448,192,19454,128,0,20071:0:0:0:0:
64,192,19454,1,0,0:0:0:0:
192,192,19557,1,0,0:0:0:0:
64,192,19660,128,0,19865:0:0:0:0:
192,192,19865,1,0,0:0:0:0:
320,192,19968,1,0,0:0:0:0:
64,192,20071,1,0,0:0:0:0:
192,192,20276,1,0,0:0:0:0:
64,192,20379,1,0,0:0:0:0:
320,192,20482,128,0,20687:0:0:0:0:
192,192,20482,1,0,0:0:0:0:
64,192,20584,1,0,0:0:0:0:
320,192,20790,128,0,20995:0:0:0:0:
192,192,20790,1,0,0:0:0:0:
64,192,20893,1,0,0:0:0:0:
448,192,21098,128,0,21715:0:0:0:0:
192,192,21098,1,0,0:0:0:0:
64,192,21201,1,0,0:0:0:0:
320,192,21304,1,0,0:0:0:0:
192,192,21406,1,0,0:0:0:0:
64,192,21509,1,0,0:0:0:0:
320,192,21612,1,0,0:0:0:0:
64,192,21715,1,0,0:0:0:0:
192,192,21715,1,0,0:0:0:0:
64,192,22126,128,0,22331:0:0:0:0:
192,192,22126,1,0,0:0:0:0:
448,192,22126,1,0,0:0:0:0:
320,192,22228,1,0,0:0:0:0:
448,192,22331,1,0,0:0:0:0:
64,192,22434,128,0,22639:0:0:0:0:
192,192,22536,1,0,0:0:0:0:
448,192,22536,1,0,0:0:0:0:
320,192,22742,128,0,23358:0:0:0:0:
448,192,22742,1,0,0:0:0:0:
64,192,22947,1,0,0:0:0:0:
64,192,23358,1,0,0:0:0:0:
192,192,23358,1,0,0:0:0:0:
448,192,23769,128,0,23975:0:0:0:0:
192,192,23769,1,0,0:0:0:0:
320,192,23872,1,0,0:0:0:0:
192,192,23975,1,0,0:0:0:0:
448,192,24078,128,0,24283:0:0:0:0:
64,192,24180,1,0,0:0:0:0:
192,192,24180,1,0,0:0:0:0:
192,192,24386,128,0,25002:0:0:0:0:
320,192,24386,1,0,0:0:0:0:
448,192,24591,1,0,0:0:0:0:
448,192,24797,1,0,0:0:0:0:
64,192,25002,1,0,0:0:0:0:
448,192,25002,1,0,0:0:0:0:
64,192,25413,128,0,25619:0:0:0:0:
320,192,25413,1,0,0:0:0:0:
448,192,25516,1,0,0:0:0:0:
192,192,25619,1,0,0:0:0:0:
64,192,25721,128,0,25927:0:0:0:0:
320,192,25721,1,0,0:0:0:0:
448,192,25824,1,0,0:0:0:0:
192,192,25824,1,0,0:0:0:0:
320,192,26030,128,0,26646:0:0:0:0:
448,192,26030,1,0,0:0:0:0:
192,192,26132,1,0,0:0:0:0:
64,192,26235,1,0,0:0:0:0:
192,192,26441,1,0,0:0:0:0:
64,192,26543,1,0,0:0:0:0:
448,192,26646,1,0,0:0:0:0:
192,192,26646,1,0,0:0:0:0:
192,192,26852,1,0,0:0:0:0:
320,192,27057,1,0,0:0:0:0:
64,192,27057,128,0,27263:0:0:0:0:
448,192,27160,1,0,0:0:0:0:
192,192,27263,1,0,0:0:0:0:
64,192,27365,128,0,27570:0:0:0:0:
320,192,27365,1,0,0:0:0:0:
448,192,27468,1,0,0:0:0:0:
320,192,27468,128,0,27673:0:0:0:0:
192,192,27670,1,0,0:0:0:0:
64,192,27670,128,0,28289:0:0:0:0:
448,192,27878,1,0,0:0:0:0:
448,192,28289,1,0,0:0:0:0:
192,192,28494,1,0,0:0:0:0:
64,192,28700,1,0,0:0:0:0:
192,192,28700,1,0,0:0:0:0:
320,192,28700,128,0,29110:0:0:0:0:
192,192,28905,1,0,0:0:0:0:
64,192,29008,1,0,0:0:0:0:
448,192,29110,1,0,0:0:0:0:
192,192,29110,1,0,0:0:0:0:
320,192,29316,128,0,29932:0:0:0:0:
64,192,29316,1,0,0:0:0:0:
448,192,29521,1,0,0:0:0:0:
192,192,29727,1,0,0:0:0:0:
448,192,29932,1,0,0:0:0:0:
64,192,29932,1,0,0:0:0:0:
192,192,30241,1,0,0:0:0:0:
64,192,30343,128,0,30754:0:0:0:0:
320,192,30343,1,0,0:0:0:0:
320,192,30549,1,0,0:0:0:0:
192,192,30652,1,0,0:0:0:0:
448,192,30754,1,0,0:0:0:0:
64,192,30960,128,0,31576:0:0:0:0:
192,192,30960,1,0,0:0:0:0:
320,192,31165,1,0,0:0:0:0:
320,192,31371,1,0,0:0:0:0:
448,192,31576,1,0,0:0:0:0:
192,192,31576,1,0,0:0:0:0:
192,192,31987,128,0,32398:0:0:0:0:
320,192,31987,1,0,0:0:0:0:
448,192,32193,1,0,0:0:0:0:
64,192,32398,1,0,0:0:0:0:
320,192,32398,1,0,0:0:0:0:
192,192,32604,128,0,33220:0:0:0:0:
448,192,32604,1,0,0:0:0:0:
320,192,32809,1,0,0:0:0:0:
64,192,33015,1,0,0:0:0:0:
64,192,33220,1,0,0:0:0:0:
448,192,33220,1,0,0:0:0:0:
320,192,33426,1,0,0:0:0:0:
448,192,33528,1,0,0:0:0:0:
320,192,33631,1,0,0:0:0:0:
64,192,33631,128,0,34042:0:0:0:0:
448,192,33836,1,0,0:0:0:0:
320,192,33939,1,0,0:0:0:0:
448,192,34042,1,0,0:0:0:0:
192,192,34247,1,0,0:0:0:0:
448,192,34247,128,0,34864:0:0:0:0:
64,192,34350,1,0,0:0:0:0:
192,192,34453,1,0,0:0:0:0:
64,192,34658,1,0,0:0:0:0:
192,192,34761,1,0,0:0:0:0:
64,192,34864,1,0,0:0:0:0:
320,192,35275,128,0,35686:0:0:0:0:
64,192,35275,1,0,0:0:0:0:
192,192,35480,1,0,0:0:0:0:
448,192,35686,1,0,0:0:0:0:
192,192,35686,1,0,0:0:0:0:
64,192,35789,1,0,0:0:0:0:
320,192,35891,128,0,36508:0:0:0:0:
448,192,35891,1,0,0:0:0:0:
192,192,35994,1,0,0:0:0:0:
64,192,36097,1,0,0:0:0:0:
64,192,36302,1,0,0:0:0:0:
192,192,36405,1,0,0:0:0:0:
448,192,36508,1,0,0:0:0:0:
320,192,36713,1,0,0:0:0:0:
448,192,36816,1,0,0:0:0:0:
192,192,36919,128,0,37330:0:0:0:0:
320,192,36919,1,0,0:0:0:0:
448,192,37124,1,0,0:0:0:0:
320,192,37227,1,0,0:0:0:0:
64,192,37330,1,0,0:0:0:0:
192,192,37535,128,0,38152:0:0:0:0:
320,192,37535,1,0,0:0:0:0:
448,192,37638,1,0,0:0:0:0:
64,192,37741,1,0,0:0:0:0:
320,192,37946,1,0,0:0:0:0:
448,192,38049,1,0,0:0:0:0:
64,192,38152,1,0,0:0:0:0:
192,192,38357,1,0,0:0:0:0:
64,192,38460,1,0,0:0:0:0:
320,192,38563,128,0,38973:0:0:0:0:
192,192,38563,1,0,0:0:0:0:
448,192,38665,1,0,0:0:0:0:
64,192,38768,1,0,0:0:0:0:
192,192,38871,1,0,0:0:0:0:
64,192,38973,1,0,0:0:0:0:
448,192,38973,1,0,0:0:0:0:
320,192,39179,128,0,39795:0:0:0:0:
64,192,39384,128,0,41850:0:0:0:0:
192,192,39795,1,0,0:0:0:0:
192,192,40001,1,0,0:0:0:0:
448,192,40206,128,0,40617:0:0:0:0:
320,192,40206,1,0,0:0:0:0:
320,192,40412,1,0,0:0:0:0:
192,192,40515,1,0,0:0:0:0:
192,192,40617,1,0,0:0:0:0:
320,192,40617,1,0,0:0:0:0:
448,192,40823,128,0,41439:0:0:0:0:
320,192,40823,1,0,0:0:0:0:
192,192,41028,1,0,0:0:0:0:
192,192,41234,1,0,0:0:0:0:
320,192,41336,1,0,0:0:0:0:
192,192,41439,1,0,0:0:0:0:
192,192,41850,1,0,0:0:0:0:
320,192,41850,128,0,42261:0:0:0:0:
64,192,42056,1,0,0:0:0:0:
192,192,42261,1,0,0:0:0:0:
448,192,42261,1,0,0:0:0:0:
64,192,42261,1,0,0:0:0:0:
64,192,42467,128,0,43083:0:0:0:0:
320,192,42467,1,0,0:0:0:0:
448,192,42672,1,0,0:0:0:0:
192,192,42672,1,0,0:0:0:0:
320,192,42878,1,0,0:0:0:0:
192,192,42980,1,0,0:0:0:0:
448,192,43083,1,0,0:0:0:0:
320,192,43083,1,0,0:0:0:0:
192,192,43289,1,0,0:0:0:0:
64,192,43494,1,0,0:0:0:0:
448,192,43494,128,0,43905:0:0:0:0:
320,192,43494,1,0,0:0:0:0:
192,192,43700,1,0,0:0:0:0:
64,192,43905,1,0,0:0:0:0:
320,192,43905,1,0,0:0:0:0:
192,192,43905,1,0,0:0:0:0:
320,192,44110,128,0,44727:0:0:0:0:
64,192,44110,1,0,0:0:0:0:
448,192,44316,1,0,0:0:0:0:
192,192,44316,1,0,0:0:0:0:
64,192,44521,1,0,0:0:0:0:
448,192,44624,1,0,0:0:0:0:
64,192,44727,1,0,0:0:0:0:
192,192,44727,1,0,0:0:0:0:
320,192,45138,1,0,0:0:0:0:
192,192,45138,128,0,45549:0:0:0:0:
448,192,45138,1,0,0:0:0:0:
320,192,45343,1,0,0:0:0:0:
64,192,45549,1,0,0:0:0:0:
448,192,45549,1,0,0:0:0:0:
320,192,45549,1,0,0:0:0:0:
320,192,45754,128,0,46371:0:0:0:0:
192,192,45960,1,0,0:0:0:0:
64,192,45960,1,0,0:0:0:0:
192,192,46165,1,0,0:0:0:0:
448,192,46268,1,0,0:0:0:0:
64,192,46371,1,0,0:0:0:0:
192,192,46371,1,0,0:0:0:0:
192,192,46576,1,0,0:0:0:0:
448,192,46782,1,0,0:0:0:0:
320,192,46782,128,0,47193:0:0:0:0:
64,192,46782,1,0,0:0:0:0:
192,192,46987,1,0,0:0:0:0:
64,192,47193,1,0,0:0:0:0:
192,192,47193,1,0,0:0:0:0:
448,192,47193,1,0,0:0:0:0:
448,192,47398,128,0,48015:0:0:0:0:
192,192,47604,1,0,0:0:0:0:
64,192,47604,1,0,0:0:0:0:
192,192,47809,1,0,0:0:0:0:
64,192,48015,1,0,0:0:0:0:
320,192,48015,1,0,0:0:0:0:
192,192,48015,1,0,0:0:0:0:
320,192,48323,1,0,0:0:0:0:
192,192,48426,128,0,48836:0:0:0:0:
64,192,48426,1,0,0:0:0:0:
320,192,48528,1,0,0:0:0:0:
448,192,48631,1,0,0:0:0:0:
448,192,48836,128,0,49247:0:0:0:0:
64,192,48836,1,0,0:0:0:0:
320,192,48836,1,0,0:0:0:0:
192,192,49042,128,0,49658:0:0:0:0:
64,192,49247,1,0,0:0:0:0:
64,192,49658,1,0,0:0:0:0:
448,192,49658,1,0,0:0:0:0:
192,192,49967,1,0,0:0:0:0:
320,192,50069,128,0,50480:0:0:0:0:
448,192,50069,1,0,0:0:0:0:
64,192,50172,1,0,0:0:0:0:
192,192,50275,1,0,0:0:0:0:
64,192,50480,1,0,0:0:0:0:
448,192,50480,128,0,50891:0:0:0:0:
192,192,50480,1,0,0:0:0:0:
192,192,50686,128,0,51302:0:0:0:0:
320,192,50891,1,0,0:0:0:0:
64,192,51302,1,0,0:0:0:0:
448,192,51302,1,0,0:0:0:0:
320,192,51610,1,0,0:0:0:0:
192,192,51610,1,0,0:0:0:0:
448,192,51713,1,0,0:0:0:0:
64,192,51713,1,0,0:0:0:0:
320,192,51816,1,0,0:0:0:0:
192,192,51816,1,0,0:0:0:0:
448,192,51919,1,0,0:0:0:0:
64,192,51919,1,0,0:0:0:0:
64,192,52124,1,0,0:0:0:0:
192,192,52124,1,0,0:0:0:0:
320,192,52124,1,0,0:0:0:0:
448,192,52330,1,0,0:0:0:0:
320,192,52330,1,0,0:0:0:0:
64,192,52432,1,0,0:0:0:0:
192,192,52432,1,0,0:0:0:0:
320,192,52535,1,0,0:0:0:0:
448,192,52535,1,0,0:0:0:0:
64,192,52741,1,0,0:0:0:0:
320,192,52741,1,0,0:0:0:0:
192,192,52843,1,0,0:0:0:0:
448,192,52843,1,0,0:0:0:0:
64,192,52946,1,0,0:0:0:0:
320,192,52946,1,0,0:0:0:0:
448,192,53254,1,0,0:0:0:0:
320,192,53254,1,0,0:0:0:0:
64,192,53357,1,0,0:0:0:0:
192,192,53357,1,0,0:0:0:0:
320,192,53460,1,0,0:0:0:0:
448,192,53460,1,0,0:0:0:0:
192,192,53563,1,0,0:0:0:0:
64,192,53563,1,0,0:0:0:0:
64,192,53768,1,0,0:0:0:0:
192,192,53768,1,0,0:0:0:0:
448,192,53768,1,0,0:0:0:0:
448,192,53973,1,0,0:0:0:0:
192,192,53973,1,0,0:0:0:0:
320,192,54076,1,0,0:0:0:0:
64,192,54076,1,0,0:0:0:0:
448,192,54179,1,0,0:0:0:0:
192,192,54179,1,0,0:0:0:0:
448,192,54384,1,0,0:0:0:0:
64,192,54384,1,0,0:0:0:0:
192,192,54487,1,0,0:0:0:0:
320,192,54487,1,0,0:0:0:0:
64,192,54590,1,0,0:0:0:0:
448,192,54590,1,0,0:0:0:0:
192,192,54898,1,0,0:0:0:0:
64,192,55001,1,0,0:0:0:0:
320,192,55001,1,0,0:0:0:0:
448,192,55104,1,0,0:0:0:0:
192,192,55206,1,0,0:0:0:0:
64,192,55412,1,0,0:0:0:0:
448,192,55412,1,0,0:0:0:0:
320,192,55412,1,0,0:0:0:0:
192,192,55617,1,0,0:0:0:0:
64,192,55720,1,0,0:0:0:0:
320,192,55823,1,0,0:0:0:0:
192,192,55823,1,0,0:0:0:0:
320,192,56028,1,0,0:0:0:0:
192,192,56131,1,0,0:0:0:0:
64,192,56234,1,0,0:0:0:0:
448,192,56234,1,0,0:0:0:0:
320,192,56439,1,0,0:0:0:0:
448,192,56542,1,0,0:0:0:0:
192,192,56645,1,0,0:0:0:0:
64,192,56645,1,0,0:0:0:0:
320,192,56747,1,0,0:0:0:0:
448,192,56953,1,0,0:0:0:0:
64,192,57056,1,0,0:0:0:0:
320,192,57056,1,0,0:0:0:0:
448,192,57261,1,0,0:0:0:0:
64,192,57364,1,0,0:0:0:0:
192,192,57467,1,0,0:0:0:0:
320,192,57467,1,0,0:0:0:0:
448,192,57569,1,0,0:0:0:0:
64,192,57672,1,0,0:0:0:0:
320,192,57775,1,0,0:0:0:0:
64,192,57878,1,0,0:0:0:0:
448,192,57878,1,0,0:0:0:0:
320,192,58083,1,0,0:0:0:0:
192,192,58289,1,0,0:0:0:0:
448,192,58289,1,0,0:0:0:0:
320,192,58494,1,0,0:0:0:0:
192,192,58597,1,0,0:0:0:0:
64,192,58700,1,0,0:0:0:0:
320,192,58700,1,0,0:0:0:0:
64,192,59110,1,0,0:0:0:0:
192,192,59110,1,0,0:0:0:0:
320,192,59316,1,0,0:0:0:0:
192,192,59419,1,0,0:0:0:0:
64,192,59521,1,0,0:0:0:0:
448,192,59521,1,0,0:0:0:0:
448,192,59830,1,0,0:0:0:0:
192,192,59932,1,0,0:0:0:0:
320,192,59932,1,0,0:0:0:0:
448,192,60138,1,0,0:0:0:0:
64,192,60343,1,0,0:0:0:0:
448,192,60343,1,0,0:0:0:0:
320,192,60343,1,0,0:0:0:0:
192,192,60754,1,0,0:0:0:0:
320,192,60754,1,0,0:0:0:0:
192,192,60960,1,0,0:0:0:0:
320,192,61063,1,0,0:0:0:0:
64,192,61165,1,0,0:0:0:0:
448,192,61165,1,0,0:0:0:0:
64,192,61576,1,0,0:0:0:0:
320,192,61576,1,0,0:0:0:0:
192,192,61576,1,0,0:0:0:0:
320,192,61782,1,0,0:0:0:0:
448,192,61782,1,0,0:0:0:0:
64,192,61987,1,0,0:0:0:0:
448,192,61987,1,0,0:0:0:0:
192,192,61987,1,0,0:0:0:0:
320,192,62090,1,0,0:0:0:0:
448,192,62193,1,0,0:0:0:0:
64,192,62193,1,0,0:0:0:0:
320,192,62295,1,0,0:0:0:0:
64,192,62398,1,0,0:0:0:0:
192,192,62398,1,0,0:0:0:0:
448,192,62398,1,0,0:0:0:0:
448,192,62604,1,0,0:0:0:0:
320,192,62604,1,0,0:0:0:0:
64,192,62809,1,0,0:0:0:0:
448,192,62809,1,0,0:0:0:0:
192,192,62809,1,0,0:0:0:0:
320,192,63015,1,0,0:0:0:0:
64,192,63015,1,0,0:0:0:0:
448,192,63117,1,0,0:0:0:0:
64,192,63220,1,0,0:0:0:0:
192,192,63220,1,0,0:0:0:0:
320,192,63220,1,0,0:0:0:0:
192,192,63426,1,0,0:0:0:0:
448,192,63426,1,0,0:0:0:0:
64,192,63631,1,0,0:0:0:0:
448,192,63631,1,0,0:0:0:0:
320,192,63631,1,0,0:0:0:0:
192,192,63836,1,0,0:0:0:0:
448,192,63836,1,0,0:0:0:0:
64,192,64042,1,0,0:0:0:0:
192,192,64042,1,0,0:0:0:0:
320,192,64042,1,0,0:0:0:0:
192,192,64247,1,0,0:0:0:0:
448,192,64247,1,0,0:0:0:0:
320,192,64350,1,0,0:0:0:0:
64,192,64453,1,0,0:0:0:0:
448,192,64453,1,0,0:0:0:0:
192,192,64658,1,0,0:0:0:0:
448,192,64864,5,0,0:0:0:0:
64,192,64864,1,0,0:0:0:0:
192,192,64967,1,0,0:0:0:0:
320,192,65069,1,0,0:0:0:0:
64,192,65172,1,0,0:0:0:0:
448,192,65275,1,0,0:0:0:0:
192,192,65275,1,0,0:0:0:0:
320,192,65378,1,0,0:0:0:0:
64,192,65480,1,0,0:0:0:0:
448,192,65583,1,0,0:0:0:0:
192,192,65686,1,0,0:0:0:0:
320,192,65686,1,0,0:0:0:0:
64,192,65789,1,0,0:0:0:0:
448,192,65891,1,0,0:0:0:0:
320,192,65994,1,0,0:0:0:0:
64,192,66097,1,0,0:0:0:0:
192,192,66097,1,0,0:0:0:0:
448,192,66200,1,0,0:0:0:0:
64,192,66302,1,0,0:0:0:0:
192,192,66405,1,0,0:0:0:0:
448,192,66508,1,0,0:0:0:0:
320,192,66508,1,0,0:0:0:0:
64,192,66610,1,0,0:0:0:0:
192,192,66713,1,0,0:0:0:0:
320,192,66816,1,0,0:0:0:0:
64,192,66919,1,0,0:0:0:0:
192,192,66919,1,0,0:0:0:0:
448,192,67021,1,0,0:0:0:0:
192,192,67124,1,0,0:0:0:0:
448,192,67227,5,0,0:0:0:0:
320,192,67330,1,0,0:0:0:0:
192,192,67330,1,0,0:0:0:0:
64,192,67432,1,0,0:0:0:0:
192,192,67535,1,0,0:0:0:0:
320,192,67638,1,0,0:0:0:0:
448,192,67741,1,0,0:0:0:0:
64,192,67741,1,0,0:0:0:0:
192,192,68153,1,0,0:0:0:0:
320,192,68153,1,0,0:0:0:0:
448,192,68153,1,0,0:0:0:0:
64,192,68358,1,0,0:0:0:0:
320,192,68461,1,0,0:0:0:0:
192,192,68563,1,0,0:0:0:0:
448,192,68563,1,0,0:0:0:0:
64,192,68563,1,0,0:0:0:0:
320,192,68769,1,0,0:0:0:0:
448,192,68769,1,0,0:0:0:0:
64,192,68974,1,0,0:0:0:0:
192,192,68974,1,0,0:0:0:0:
448,192,69180,1,0,0:0:0:0:
64,192,69385,1,0,0:0:0:0:
192,192,69385,128,0,69694:0:0:0:0:
320,192,69385,1,0,0:0:0:0:
448,192,69591,1,0,0:0:0:0:
320,192,69694,1,0,0:0:0:0:
448,192,69796,1,0,0:0:0:0:
64,192,69796,1,0,0:0:0:0:
64,192,70002,1,0,0:0:0:0:
192,192,70105,1,0,0:0:0:0:
448,192,70207,1,0,0:0:0:0:
320,192,70207,1,0,0:0:0:0:
64,192,70207,1,0,0:0:0:0:
192,192,70413,1,0,0:0:0:0:
320,192,70413,1,0,0:0:0:0:
64,192,70618,1,0,0:0:0:0:
448,192,70618,1,0,0:0:0:0:
192,192,70824,1,0,0:0:0:0:
320,192,71029,1,0,0:0:0:0:
448,192,71029,1,0,0:0:0:0:
64,192,71029,1,0,0:0:0:0:
320,192,71132,1,0,0:0:0:0:
192,192,71235,1,0,0:0:0:0:
192,192,71337,1,0,0:0:0:0:
320,192,71440,1,0,0:0:0:0:
448,192,71440,1,0,0:0:0:0:
64,192,71646,1,0,0:0:0:0:
320,192,71748,1,0,0:0:0:0:
192,192,71851,1,0,0:0:0:0:
448,192,71851,1,0,0:0:0:0:
64,192,71851,1,0,0:0:0:0:
320,192,71954,1,0,0:0:0:0:
64,192,72057,1,0,0:0:0:0:
192,192,72057,1,0,0:0:0:0:
448,192,72262,128,0,72365:0:0:0:0:
192,192,72262,1,0,0:0:0:0:
320,192,72365,128,0,72468:0:0:0:0:
192,192,72468,128,0,72570:0:0:0:0:
64,192,72468,1,0,0:0:0:0:
448,192,72570,128,0,72673:0:0:0:0:
320,192,72673,128,0,72776:0:0:0:0:
64,192,72673,1,0,0:0:0:0:
192,192,72776,128,0,72879:0:0:0:0:
64,192,72879,128,0,72981:0:0:0:0:
448,192,72879,1,0,0:0:0:0:
448,192,73084,128,0,73289:0:0:0:0:
320,192,73084,1,0,0:0:0:0:
192,192,73084,1,0,0:0:0:0:
64,192,73289,1,0,0:0:0:0:
192,192,73392,1,0,0:0:0:0:
320,192,73495,1,0,0:0:0:0:
448,192,73495,1,0,0:0:0:0:
64,192,73495,1,0,0:0:0:0:
192,192,73700,1,0,0:0:0:0:
448,192,73700,1,0,0:0:0:0:
64,192,73906,128,0,74214:0:0:0:0:
192,192,73906,1,0,0:0:0:0:
320,192,73906,1,0,0:0:0:0:
448,192,73906,1,0,0:0:0:0:
64,192,74317,128,0,74625:0:0:0:0:
192,192,74317,1,0,0:0:0:0:
320,192,74317,1,0,0:0:0:0:
448,192,74317,1,0,0:0:0:0:
448,192,74728,1,0,0:0:0:0:
320,192,74728,1,0,0:0:0:0:
192,192,74728,1,0,0:0:0:0:
64,192,74933,1,0,0:0:0:0:
320,192,75036,1,0,0:0:0:0:
64,192,75139,1,0,0:0:0:0:
192,192,75139,1,0,0:0:0:0:
448,192,75139,1,0,0:0:0:0:
320,192,75242,1,0,0:0:0:0:
192,192,75344,1,0,0:0:0:0:
448,192,75344,1,0,0:0:0:0:
64,192,75550,1,0,0:0:0:0:
448,192,75550,1,0,0:0:0:0:
192,192,75755,1,0,0:0:0:0:
64,192,75961,1,0,0:0:0:0:
192,192,75961,128,0,76269:0:0:0:0:
320,192,75961,1,0,0:0:0:0:
320,192,76166,1,0,0:0:0:0:
448,192,76269,1,0,0:0:0:0:
320,192,76372,1,0,0:0:0:0:
64,192,76372,1,0,0:0:0:0:
192,192,76577,1,0,0:0:0:0:
320,192,76680,1,0,0:0:0:0:
448,192,76783,1,0,0:0:0:0:
64,192,76783,1,0,0:0:0:0:
192,192,76783,1,0,0:0:0:0:
448,192,76988,1,0,0:0:0:0:
320,192,76988,1,0,0:0:0:0:
64,192,77194,1,0,0:0:0:0:
320,192,77194,1,0,0:0:0:0:
448,192,77399,1,0,0:0:0:0:
192,192,77605,1,0,0:0:0:0:
64,192,77605,1,0,0:0:0:0:
320,192,77605,1,0,0:0:0:0:
64,192,77707,1,0,0:0:0:0:
448,192,77810,1,0,0:0:0:0:
448,192,77913,1,0,0:0:0:0:
192,192,78016,1,0,0:0:0:0:
64,192,78016,1,0,0:0:0:0:
320,192,78221,1,0,0:0:0:0:
192,192,78324,1,0,0:0:0:0:
64,192,78426,1,0,0:0:0:0:
448,192,78426,1,0,0:0:0:0:
320,192,78426,1,0,0:0:0:0:
192,192,78529,1,0,0:0:0:0:
64,192,78632,1,0,0:0:0:0:
320,192,78632,1,0,0:0:0:0:
448,192,78837,128,0,78940:0:0:0:0:
192,192,78837,1,0,0:0:0:0:
320,192,78940,128,0,79043:0:0:0:0:
448,192,79043,128,0,79146:0:0:0:0:
64,192,79043,1,0,0:0:0:0:
192,192,79146,128,0,79248:0:0:0:0:
320,192,79248,128,0,79351:0:0:0:0:
64,192,79248,1,0,0:0:0:0:
192,192,79351,128,0,79454:0:0:0:0:
64,192,79454,128,0,79557:0:0:0:0:
448,192,79454,1,0,0:0:0:0:
448,192,79659,128,0,79865:0:0:0:0:
320,192,79659,1,0,0:0:0:0:
192,192,79659,1,0,0:0:0:0:
64,192,79865,1,0,0:0:0:0:
192,192,79968,1,0,0:0:0:0:
320,192,80070,5,0,0:0:0:0:
448,192,80070,1,0,0:0:0:0:
64,192,80070,1,0,0:0:0:0:
64,192,80276,1,0,0:0:0:0:
320,192,80276,1,0,0:0:0:0:
64,192,80481,128,0,80789:0:0:0:0:
320,192,80481,1,0,0:0:0:0:
192,192,80481,1,0,0:0:0:0:
448,192,80481,1,0,0:0:0:0:
64,192,80892,128,0,81200:0:0:0:0:
448,192,80892,1,0,0:0:0:0:
320,192,80892,1,0,0:0:0:0:
192,192,80892,1,0,0:0:0:0:
192,192,81303,1,0,0:0:0:0:
448,192,81303,1,0,0:0:0:0:
320,192,81303,1,0,0:0:0:0:
64,192,81509,1,0,0:0:0:0:
192,192,81611,1,0,0:0:0:0:
64,192,81714,1,0,0:0:0:0:
320,192,81714,1,0,0:0:0:0:
448,192,81714,1,0,0:0:0:0:
192,192,81817,1,0,0:0:0:0:
448,192,81920,1,0,0:0:0:0:
320,192,81920,1,0,0:0:0:0:
192,192,82125,1,0,0:0:0:0:
320,192,82125,1,0,0:0:0:0:
320,192,82331,1,0,0:0:0:0:
64,192,82536,1,0,0:0:0:0:
192,192,82536,1,0,0:0:0:0:
320,192,82536,1,0,0:0:0:0:
320,192,82742,1,0,0:0:0:0:
192,192,82844,1,0,0:0:0:0:
448,192,82947,1,0,0:0:0:0:
64,192,82947,1,0,0:0:0:0:
192,192,83153,1,0,0:0:0:0:
64,192,83255,1,0,0:0:0:0:
192,192,83358,1,0,0:0:0:0:
320,192,83358,1,0,0:0:0:0:
448,192,83358,1,0,0:0:0:0:
64,192,83563,1,0,0:0:0:0:
448,192,83563,1,0,0:0:0:0:
64,192,83769,1,0,0:0:0:0:
320,192,83769,1,0,0:0:0:0:
448,192,83974,1,0,0:0:0:0:
64,192,84077,1,0,0:0:0:0:
192,192,84180,128,0,84283:0:0:0:0:
448,192,84180,1,0,0:0:0:0:
320,192,84180,1,0,0:0:0:0:
64,192,84283,1,0,0:0:0:0:
320,192,84385,128,0,84488:0:0:0:0:
192,192,84488,1,0,0:0:0:0:
448,192,84591,128,0,84694:0:0:0:0:
64,192,84591,1,0,0:0:0:0:
192,192,84796,1,0,0:0:0:0:
448,192,84899,1,0,0:0:0:0:
64,192,85002,1,0,0:0:0:0:
192,192,85002,1,0,0:0:0:0:
320,192,85002,1,0,0:0:0:0:
192,192,85207,1,0,0:0:0:0:
448,192,85207,1,0,0:0:0:0:
320,192,85413,1,0,0:0:0:0:
448,192,85413,1,0,0:0:0:0:
64,192,85618,1,0,0:0:0:0:
64,192,85824,1,0,0:0:0:0:
448,192,85824,1,0,0:0:0:0:
192,192,85824,1,0,0:0:0:0:
320,192,85926,1,0,0:0:0:0:
192,192,86029,1,0,0:0:0:0:
448,192,86132,1,0,0:0:0:0:
320,192,86235,1,0,0:0:0:0:
64,192,86235,1,0,0:0:0:0:
192,192,86440,1,0,0:0:0:0:
448,192,86543,1,0,0:0:0:0:
64,192,86646,1,0,0:0:0:0:
192,192,86646,1,0,0:0:0:0:
320,192,86646,1,0,0:0:0:0:
448,192,86851,1,0,0:0:0:0:
192,192,86851,1,0,0:0:0:0:
320,192,87057,1,0,0:0:0:0:
64,192,87057,1,0,0:0:0:0:
448,192,87262,1,0,0:0:0:0:
64,192,87468,1,0,0:0:0:0:
448,192,87468,1,0,0:0:0:0:
192,192,87468,1,0,0:0:0:0:
320,192,87570,1,0,0:0:0:0:
192,192,87673,1,0,0:0:0:0:
64,192,87776,1,0,0:0:0:0:
320,192,87879,1,0,0:0:0:0:
448,192,87879,1,0,0:0:0:0:
192,192,88084,1,0,0:0:0:0:
320,192,88187,1,0,0:0:0:0:
448,192,88289,1,0,0:0:0:0:
192,192,88289,1,0,0:0:0:0:
64,192,88289,1,0,0:0:0:0:
320,192,88392,1,0,0:0:0:0:
64,192,88495,1,0,0:0:0:0:
320,192,88700,1,0,0:0:0:0:
64,192,88700,1,0,0:0:0:0:
192,192,88803,1,0,0:0:0:0:
448,192,88906,1,0,0:0:0:0:
320,192,89009,1,0,0:0:0:0:
448,192,89111,128,0,89420:0:0:0:0:
64,192,89111,1,0,0:0:0:0:
192,192,89111,1,0,0:0:0:0:
320,192,89317,1,0,0:0:0:0:
192,192,89420,1,0,0:0:0:0:
320,192,89522,1,0,0:0:0:0:
64,192,89522,1,0,0:0:0:0:
192,192,89728,1,0,0:0:0:0:
448,192,89831,1,0,0:0:0:0:
320,192,89933,1,0,0:0:0:0:
192,192,89933,1,0,0:0:0:0:
64,192,89933,1,0,0:0:0:0:
448,192,90036,1,0,0:0:0:0:
64,192,90139,1,0,0:0:0:0:
320,192,90344,1,0,0:0:0:0:
448,192,90344,1,0,0:0:0:0:
192,192,90447,1,0,0:0:0:0:
64,192,90550,1,0,0:0:0:0:
320,192,90653,1,0,0:0:0:0:
192,192,90755,1,0,0:0:0:0:
448,192,90755,1,0,0:0:0:0:
64,192,90755,1,0,0:0:0:0:
192,192,90858,1,0,0:0:0:0:
448,192,90961,1,0,0:0:0:0:
448,192,91063,1,0,0:0:0:0:
192,192,91166,1,0,0:0:0:0:
64,192,91166,1,0,0:0:0:0:
320,192,91372,1,0,0:0:0:0:
192,192,91474,1,0,0:0:0:0:
64,192,91577,1,0,0:0:0:0:
448,192,91577,1,0,0:0:0:0:
320,192,91577,1,0,0:0:0:0:
192,192,91680,1,0,0:0:0:0:
448,192,91783,1,0,0:0:0:0:
320,192,91988,1,0,0:0:0:0:
64,192,91988,1,0,0:0:0:0:
192,192,92091,1,0,0:0:0:0:
448,192,92194,1,0,0:0:0:0:
320,192,92296,1,0,0:0:0:0:
64,192,92399,1,0,0:0:0:0:
192,192,92399,1,0,0:0:0:0:
448,192,92399,1,0,0:0:0:0:
320,192,92502,1,0,0:0:0:0:
192,192,92605,1,0,0:0:0:0:
64,192,92605,1,0,0:0:0:0:
448,192,92707,1,0,0:0:0:0:
64,192,92810,1,0,0:0:0:0:
192,192,92810,1,0,0:0:0:0:
192,192,93016,1,0,0:0:0:0:
320,192,93118,1,0,0:0:0:0:
448,192,93221,1,0,0:0:0:0:
64,192,93221,1,0,0:0:0:0:
192,192,93221,1,0,0:0:0:0:
320,192,93324,1,0,0:0:0:0:
192,192,93426,1,0,0:0:0:0:
64,192,93632,1,0,0:0:0:0:
320,192,93632,1,0,0:0:0:0:
448,192,93837,1,0,0:0:0:0:
320,192,93940,1,0,0:0:0:0:
192,192,94043,5,0,0:0:0:0:
64,192,94043,1,0,0:0:0:0:
448,192,94043,1,0,0:0:0:0:
320,192,94146,1,0,0:0:0:0:
192,192,94248,1,0,0:0:0:0:
64,192,94248,1,0,0:0:0:0:
448,192,94351,1,0,0:0:0:0:
64,192,94454,128,0,97742:0:0:0:0:
192,192,96098,1,0,0:0:0:0:
192,192,96406,1,0,0:0:0:0:
448,192,96714,1,0,0:0:0:0:
448,192,97742,1,0,0:0:0:0:
448,192,98050,1,0,0:0:0:0:
320,192,98358,1,0,0:0:0:0:
192,192,99385,1,0,0:0:0:0:
192,192,99694,1,0,0:0:0:0:
448,192,100002,1,0,0:0:0:0:
320,192,101029,1,0,0:0:0:0:
320,192,101337,1,0,0:0:0:0:
64,192,101440,1,0,0:0:0:0:
448,192,101646,128,0,102262:0:0:0:0:
64,192,102262,1,0,0:0:0:0:
192,192,102673,128,0,102879:0:0:0:0:
192,192,102981,128,0,103187:0:0:0:0:
64,192,103084,1,0,0:0:0:0:
448,192,103289,128,0,103906:0:0:0:0:
64,192,103906,1,0,0:0:0:0:
320,192,104317,128,0,104522:0:0:0:0:
320,192,104625,128,0,104831:0:0:0:0:
64,192,104728,1,0,0:0:0:0:
192,192,104933,128,0,105550:0:0:0:0:
64,192,105550,1,0,0:0:0:0:
192,192,105961,128,0,106166:0:0:0:0:
192,192,106269,128,0,106474:0:0:0:0:
64,192,106372,1,0,0:0:0:0:
320,192,106577,128,0,107194:0:0:0:0:
64,192,107194,1,0,0:0:0:0:
320,192,107605,128,0,107810:0:0:0:0:
320,192,107913,128,0,108118:0:0:0:0:
64,192,108016,1,0,0:0:0:0:
448,192,108221,128,0,108837:0:0:0:0:
64,192,108837,1,0,0:0:0:0:
192,192,109248,128,0,109454:0:0:0:0:
192,192,109557,128,0,109762:0:0:0:0:
64,192,109659,1,0,0:0:0:0:
448,192,109865,128,0,110481:0:0:0:0:
64,192,110481,1,0,0:0:0:0:
320,192,110892,128,0,111098:0:0:0:0:
320,192,111200,128,0,111406:0:0:0:0:
64,192,111303,1,0,0:0:0:0:
192,192,111509,128,0,112125:0:0:0:0:
64,192,112125,1,0,0:0:0:0:
192,192,112536,128,0,112742:0:0:0:0:
192,192,112844,128,0,113050:0:0:0:0:
64,192,112947,1,0,0:0:0:0:
320,192,113153,128,0,113769:0:0:0:0:
64,192,113769,1,0,0:0:0:0:
320,192,114180,128,0,114385:0:0:0:0:
320,192,114488,128,0,114694:0:0:0:0:
64,192,114591,1,0,0:0:0:0:
448,192,114796,128,0,115413:0:0:0:0:
64,192,115413,1,0,0:0:0:0:
192,192,115824,128,0,116029:0:0:0:0:
192,192,116132,128,0,116337:0:0:0:0:
64,192,116235,1,0,0:0:0:0:
320,192,116235,1,0,0:0:0:0:
448,192,116440,128,0,117057:0:0:0:0:
320,192,116646,1,0,0:0:0:0:
64,192,117057,1,0,0:0:0:0:
192,192,117057,1,0,0:0:0:0:
320,192,117468,128,0,117673:0:0:0:0:
64,192,117468,1,0,0:0:0:0:
320,192,117776,128,0,117981:0:0:0:0:
64,192,117879,1,0,0:0:0:0:
192,192,117879,1,0,0:0:0:0:
192,192,118084,128,0,118700:0:0:0:0:
320,192,118289,1,0,0:0:0:0:
64,192,118700,1,0,0:0:0:0:
448,192,118700,1,0,0:0:0:0:
192,192,119111,128,0,119317:0:0:0:0:
448,192,119111,1,0,0:0:0:0:
192,192,119420,128,0,119625:0:0:0:0:
64,192,119522,1,0,0:0:0:0:
448,192,119522,1,0,0:0:0:0:
320,192,119728,128,0,120344:0:0:0:0:
192,192,119933,1,0,0:0:0:0:
64,192,120344,1,0,0:0:0:0:
192,192,120344,1,0,0:0:0:0:
320,192,120755,128,0,120961:0:0:0:0:
64,192,120755,1,0,0:0:0:0:
320,192,121063,128,0,121269:0:0:0:0:
64,192,121166,1,0,0:0:0:0:
192,192,121166,1,0,0:0:0:0:
448,192,121372,128,0,121988:0:0:0:0:
192,192,121577,1,0,0:0:0:0:
64,192,121988,1,0,0:0:0:0:
320,192,121988,1,0,0:0:0:0:
64,192,122399,1,0,0:0:0:0:
192,192,122399,1,0,0:0:0:0:
448,192,122605,1,0,0:0:0:0:
64,192,122810,1,0,0:0:0:0:
320,192,122810,1,0,0:0:0:0:
192,192,123016,1,0,0:0:0:0:
64,192,123221,1,0,0:0:0:0:
192,192,123221,1,0,0:0:0:0:
320,192,123426,1,0,0:0:0:0:
64,192,123632,1,0,0:0:0:0:
448,192,123632,1,0,0:0:0:0:
320,192,123837,1,0,0:0:0:0:
64,192,124043,1,0,0:0:0:0:
320,192,124043,1,0,0:0:0:0:
192,192,124248,1,0,0:0:0:0:
64,192,124454,1,0,0:0:0:0:
192,192,124454,1,0,0:0:0:0:
320,192,124659,1,0,0:0:0:0:
64,192,124865,1,0,0:0:0:0:
448,192,124865,1,0,0:0:0:0:
192,192,125070,1,0,0:0:0:0:
448,192,125276,1,0,0:0:0:0:
64,192,125276,1,0,0:0:0:0:
320,192,125481,1,0,0:0:0:0:
64,192,125687,1,0,0:0:0:0:
192,192,125687,1,0,0:0:0:0:
448,192,125789,1,0,0:0:0:0:
192,192,125892,1,0,0:0:0:0:
320,192,125995,1,0,0:0:0:0:
64,192,126098,1,0,0:0:0:0:
448,192,126098,1,0,0:0:0:0:
192,192,126200,1,0,0:0:0:0:
448,192,126303,1,0,0:0:0:0:
192,192,126406,1,0,0:0:0:0:
64,192,126509,1,0,0:0:0:0:
320,192,126509,1,0,0:0:0:0:
448,192,126611,1,0,0:0:0:0:
320,192,126714,1,0,0:0:0:0:
192,192,126817,1,0,0:0:0:0:
64,192,126920,1,0,0:0:0:0:
448,192,126920,1,0,0:0:0:0:
320,192,127022,1,0,0:0:0:0:
448,192,127125,1,0,0:0:0:0:
192,192,127228,1,0,0:0:0:0:
64,192,127331,1,0,0:0:0:0:
448,192,127331,1,0,0:0:0:0:
192,192,127433,1,0,0:0:0:0:
320,192,127536,1,0,0:0:0:0:
192,192,127639,1,0,0:0:0:0:
64,192,127742,1,0,0:0:0:0:
320,192,127742,1,0,0:0:0:0:
448,192,127844,1,0,0:0:0:0:
192,192,127947,1,0,0:0:0:0:
320,192,128050,1,0,0:0:0:0:
64,192,128153,1,0,0:0:0:0:
448,192,128153,1,0,0:0:0:0:
192,192,128255,1,0,0:0:0:0:
448,192,128358,1,0,0:0:0:0:
192,192,128461,1,0,0:0:0:0:
64,192,128563,1,0,0:0:0:0:
192,192,128563,1,0,0:0:0:0:
320,192,128563,1,0,0:0:0:0:
448,192,128563,1,0,0:0:0:0:
64,192,128974,1,0,0:0:0:0:
320,192,128974,1,0,0:0:0:0:
448,192,128974,1,0,0:0:0:0:
320,192,129180,1,0,0:0:0:0:
192,192,129283,1,0,0:0:0:0:
320,192,129385,1,0,0:0:0:0:
448,192,129385,1,0,0:0:0:0:
64,192,129385,1,0,0:0:0:0:
320,192,129591,1,0,0:0:0:0:
192,192,129591,1,0,0:0:0:0:
64,192,129796,1,0,0:0:0:0:
192,192,129796,1,0,0:0:0:0:
448,192,130002,1,0,0:0:0:0:
64,192,130207,1,0,0:0:0:0:
192,192,130207,128,0,130516:0:0:0:0:
320,192,130207,1,0,0:0:0:0:
320,192,130413,1,0,0:0:0:0:
448,192,130516,1,0,0:0:0:0:
320,192,130618,1,0,0:0:0:0:
64,192,130618,1,0,0:0:0:0:
448,192,130824,1,0,0:0:0:0:
320,192,130926,1,0,0:0:0:0:
448,192,131029,1,0,0:0:0:0:
192,192,131029,1,0,0:0:0:0:
64,192,131029,1,0,0:0:0:0:
448,192,131235,1,0,0:0:0:0:
320,192,131235,1,0,0:0:0:0:
64,192,131440,1,0,0:0:0:0:
192,192,131440,1,0,0:0:0:0:
320,192,131646,1,0,0:0:0:0:
320,192,131851,1,0,0:0:0:0:
448,192,131851,1,0,0:0:0:0:
192,192,131851,1,0,0:0:0:0:
320,192,131954,1,0,0:0:0:0:
64,192,132057,1,0,0:0:0:0:
64,192,132159,1,0,0:0:0:0:
448,192,132262,1,0,0:0:0:0:
192,192,132262,1,0,0:0:0:0:
320,192,132468,1,0,0:0:0:0:
64,192,132570,1,0,0:0:0:0:
192,192,132673,1,0,0:0:0:0:
448,192,132673,1,0,0:0:0:0:
320,192,132673,1,0,0:0:0:0:
64,192,132776,1,0,0:0:0:0:
448,192,132879,1,0,0:0:0:0:
192,192,132879,1,0,0:0:0:0:
448,192,133084,128,0,133187:0:0:0:0:
64,192,133084,1,0,0:0:0:0:
320,192,133187,128,0,133289:0:0:0:0:
192,192,133289,128,0,133392:0:0:0:0:
64,192,133289,1,0,0:0:0:0:
448,192,133392,128,0,133495:0:0:0:0:
320,192,133495,128,0,133598:0:0:0:0:
64,192,133495,1,0,0:0:0:0:
192,192,133598,128,0,133700:0:0:0:0:
64,192,133700,128,0,133803:0:0:0:0:
448,192,133700,1,0,0:0:0:0:
448,192,133906,128,0,134111:0:0:0:0:
320,192,133906,1,0,0:0:0:0:
192,192,133906,1,0,0:0:0:0:
320,192,134111,1,0,0:0:0:0:
192,192,134214,1,0,0:0:0:0:
320,192,134317,1,0,0:0:0:0:
448,192,134317,1,0,0:0:0:0:
64,192,134317,1,0,0:0:0:0:
192,192,134522,1,0,0:0:0:0:
320,192,134522,1,0,0:0:0:0:
64,192,134728,128,0,135036:0:0:0:0:
192,192,134728,1,0,0:0:0:0:
320,192,134728,1,0,0:0:0:0:
448,192,134728,1,0,0:0:0:0:
64,192,135139,128,0,135447:0:0:0:0:
192,192,135139,1,0,0:0:0:0:
320,192,135139,1,0,0:0:0:0:
448,192,135139,1,0,0:0:0:0:
448,192,135550,1,0,0:0:0:0:
320,192,135550,1,0,0:0:0:0:
64,192,135550,1,0,0:0:0:0:
320,192,135755,1,0,0:0:0:0:
64,192,135858,1,0,0:0:0:0:
192,192,135961,1,0,0:0:0:0:
448,192,135961,1,0,0:0:0:0:
320,192,135961,1,0,0:0:0:0:
64,192,136063,1,0,0:0:0:0:
192,192,136166,1,0,0:0:0:0:
448,192,136166,1,0,0:0:0:0:
64,192,136372,1,0,0:0:0:0:
320,192,136372,1,0,0:0:0:0:
192,192,136577,1,0,0:0:0:0:
64,192,136783,1,0,0:0:0:0:
192,192,136783,128,0,137091:0:0:0:0:
320,192,136783,1,0,0:0:0:0:
448,192,136988,1,0,0:0:0:0:
320,192,137091,1,0,0:0:0:0:
64,192,137194,1,0,0:0:0:0:
448,192,137194,1,0,0:0:0:0:
448,192,137399,1,0,0:0:0:0:
64,192,137502,1,0,0:0:0:0:
192,192,137605,1,0,0:0:0:0:
320,192,137605,1,0,0:0:0:0:
448,192,137605,1,0,0:0:0:0:
64,192,137810,1,0,0:0:0:0:
192,192,137810,1,0,0:0:0:0:
320,192,138016,1,0,0:0:0:0:
64,192,138016,1,0,0:0:0:0:
448,192,138221,1,0,0:0:0:0:
192,192,138426,1,0,0:0:0:0:
64,192,138426,1,0,0:0:0:0:
320,192,138426,1,0,0:0:0:0:
320,192,138529,1,0,0:0:0:0:
64,192,138632,1,0,0:0:0:0:
64,192,138735,1,0,0:0:0:0:
320,192,138837,1,0,0:0:0:0:
448,192,138837,1,0,0:0:0:0:
64,192,139043,1,0,0:0:0:0:
320,192,139146,1,0,0:0:0:0:
64,192,139248,1,0,0:0:0:0:
448,192,139248,1,0,0:0:0:0:
192,192,139248,1,0,0:0:0:0:
320,192,139454,1,0,0:0:0:0:
448,192,139454,1,0,0:0:0:0:
192,192,139454,1,0,0:0:0:0:
448,192,139659,128,0,139762:0:0:0:0:
64,192,139659,1,0,0:0:0:0:
320,192,139762,128,0,139865:0:0:0:0:
448,192,139865,128,0,139968:0:0:0:0:
64,192,139865,1,0,0:0:0:0:
192,192,139968,128,0,140070:0:0:0:0:
320,192,140070,128,0,140173:0:0:0:0:
64,192,140070,1,0,0:0:0:0:
192,192,140173,128,0,140276:0:0:0:0:
64,192,140276,128,0,140379:0:0:0:0:
448,192,140276,1,0,0:0:0:0:
448,192,140481,128,0,140687:0:0:0:0:
320,192,140481,1,0,0:0:0:0:
192,192,140481,1,0,0:0:0:0:
64,192,140687,1,0,0:0:0:0:
192,192,140789,1,0,0:0:0:0:
320,192,140892,5,0,0:0:0:0:
448,192,140892,1,0,0:0:0:0:
64,192,140892,1,0,0:0:0:0:
192,192,141098,1,0,0:0:0:0:
320,192,141098,1,0,0:0:0:0:
64,192,141303,128,0,141611:0:0:0:0:
320,192,141303,1,0,0:0:0:0:
192,192,141303,1,0,0:0:0:0:
448,192,141303,1,0,0:0:0:0:
64,192,141714,128,0,142022:0:0:0:0:
448,192,141714,1,0,0:0:0:0:
320,192,141714,1,0,0:0:0:0:
192,192,141714,1,0,0:0:0:0:
448,192,142125,1,0,0:0:0:0:
320,192,142331,1,0,0:0:0:0:
448,192,142433,1,0,0:0:0:0:
192,192,142536,1,0,0:0:0:0:
320,192,142536,1,0,0:0:0:0:
64,192,142536,128,0,142639:0:0:0:0:
448,192,142639,1,0,0:0:0:0:
64,192,142742,128,0,142844:0:0:0:0:
448,192,142947,1,0,0:0:0:0:
320,192,143050,1,0,0:0:0:0:
448,192,143153,1,0,0:0:0:0:
64,192,143153,128,0,143255:0:0:0:0:
320,192,143255,1,0,0:0:0:0:
192,192,143358,1,0,0:0:0:0:
64,192,143358,128,0,143461:0:0:0:0:
320,192,143563,1,0,0:0:0:0:
192,192,143563,128,0,143666:0:0:0:0:
192,192,143769,128,0,143872:0:0:0:0:
448,192,143974,1,0,0:0:0:0:
320,192,143974,128,0,144077:0:0:0:0:
64,192,144077,1,0,0:0:0:0:
192,192,144180,1,0,0:0:0:0:
320,192,144180,128,0,144283:0:0:0:0:
448,192,144180,1,0,0:0:0:0:
64,192,144283,1,0,0:0:0:0:
448,192,144385,128,0,144488:0:0:0:0:
320,192,144591,1,0,0:0:0:0:
448,192,144591,128,0,144694:0:0:0:0:
192,192,144694,1,0,0:0:0:0:
448,192,144796,1,0,0:0:0:0:
64,192,144796,128,0,144899:0:0:0:0:
320,192,144899,1,0,0:0:0:0:
192,192,145002,1,0,0:0:0:0:
64,192,145002,128,0,145413:0:0:0:0:
448,192,145207,1,0,0:0:0:0:
192,192,145618,1,0,0:0:0:0:
320,192,145721,1,0,0:0:0:0:
64,192,145824,1,0,0:0:0:0:
192,192,145824,1,0,0:0:0:0:
448,192,145824,128,0,146440:0:0:0:0:
320,192,145926,1,0,0:0:0:0:
320,192,146235,1,0,0:0:0:0:
192,192,146337,1,0,0:0:0:0:
64,192,146440,1,0,0:0:0:0:
320,192,146543,1,0,0:0:0:0:
64,192,146646,1,0,0:0:0:0:
320,192,146851,1,0,0:0:0:0:
448,192,146851,128,0,146954:0:0:0:0:
448,192,147057,128,0,147159:0:0:0:0:
320,192,147262,128,0,147365:0:0:0:0:
448,192,147262,1,0,0:0:0:0:
64,192,147365,1,0,0:0:0:0:
448,192,147468,1,0,0:0:0:0:
320,192,147468,128,0,147570:0:0:0:0:
192,192,147468,1,0,0:0:0:0:
64,192,147570,1,0,0:0:0:0:
192,192,147673,128,0,147776:0:0:0:0:
448,192,147879,1,0,0:0:0:0:
320,192,147879,128,0,148495:0:0:0:0:
192,192,147981,1,0,0:0:0:0:
448,192,148084,1,0,0:0:0:0:
192,192,148187,1,0,0:0:0:0:
64,192,148289,1,0,0:0:0:0:
192,192,148495,1,0,0:0:0:0:
448,192,148700,1,0,0:0:0:0:
64,192,148700,1,0,0:0:0:0:
192,192,148906,1,0,0:0:0:0:
320,192,149009,1,0,0:0:0:0:
448,192,149111,1,0,0:0:0:0:
192,192,149111,1,0,0:0:0:0:
64,192,149111,128,0,149214:0:0:0:0:
320,192,149214,1,0,0:0:0:0:
64,192,149317,128,0,149420:0:0:0:0:
448,192,149522,1,0,0:0:0:0:
320,192,149625,1,0,0:0:0:0:
192,192,149728,1,0,0:0:0:0:
64,192,149728,128,0,149831:0:0:0:0:
320,192,149831,1,0,0:0:0:0:
192,192,149933,1,0,0:0:0:0:
64,192,149933,128,0,150036:0:0:0:0:
320,192,150139,1,0,0:0:0:0:
192,192,150139,128,0,150242:0:0:0:0:
192,192,150344,128,0,150447:0:0:0:0:
448,192,150550,1,0,0:0:0:0:
320,192,150550,128,0,150653:0:0:0:0:
192,192,150653,1,0,0:0:0:0:
64,192,150755,1,0,0:0:0:0:
320,192,150755,128,0,150858:0:0:0:0:
448,192,150755,1,0,0:0:0:0:
192,192,150858,1,0,0:0:0:0:
448,192,150961,128,0,151063:0:0:0:0:
64,192,151166,1,0,0:0:0:0:
448,192,151166,128,0,151269:0:0:0:0:
192,192,151269,1,0,0:0:0:0:
448,192,151372,1,0,0:0:0:0:
64,192,151372,128,0,151474:0:0:0:0:
320,192,151474,1,0,0:0:0:0:
192,192,151577,1,0,0:0:0:0:
64,192,151577,128,0,151988:0:0:0:0:
448,192,151783,1,0,0:0:0:0:
192,192,152194,1,0,0:0:0:0:
320,192,152296,1,0,0:0:0:0:
64,192,152399,1,0,0:0:0:0:
192,192,152399,1,0,0:0:0:0:
448,192,152399,128,0,153016:0:0:0:0:
320,192,152502,1,0,0:0:0:0:
320,192,152810,1,0,0:0:0:0:
192,192,152913,1,0,0:0:0:0:
64,192,153016,1,0,0:0:0:0:
320,192,153118,1,0,0:0:0:0:
64,192,153221,1,0,0:0:0:0:
320,192,153426,1,0,0:0:0:0:
448,192,153426,128,0,153529:0:0:0:0:
448,192,153632,128,0,153735:0:0:0:0:
320,192,153837,128,0,153940:0:0:0:0:
448,192,153837,1,0,0:0:0:0:
64,192,153940,1,0,0:0:0:0:
192,192,154043,1,0,0:0:0:0:
320,192,154043,128,0,154146:0:0:0:0:
448,192,154043,1,0,0:0:0:0:
64,192,154146,1,0,0:0:0:0:
192,192,154248,128,0,154351:0:0:0:0:
448,192,154454,1,0,0:0:0:0:
320,192,154454,128,0,155070:0:0:0:0:
192,192,154557,1,0,0:0:0:0:
448,192,154659,1,0,0:0:0:0:
192,192,154762,1,0,0:0:0:0:
64,192,154865,1,0,0:0:0:0:
192,192,155070,1,0,0:0:0:0:
448,192,155276,1,0,0:0:0:0:
192,192,155481,1,0,0:0:0:0:
448,192,155584,1,0,0:0:0:0:
192,192,155687,1,0,0:0:0:0:
320,192,155687,1,0,0:0:0:0:
64,192,155687,128,0,155789:0:0:0:0:
448,192,155789,1,0,0:0:0:0:
64,192,155892,128,0,155995:0:0:0:0:
448,192,156098,1,0,0:0:0:0:
320,192,156200,1,0,0:0:0:0:
64,192,156303,128,0,156406:0:0:0:0:
192,192,156303,1,0,0:0:0:0:
320,192,156406,1,0,0:0:0:0:
192,192,156509,1,0,0:0:0:0:
64,192,156509,128,0,156611:0:0:0:0:
320,192,156714,1,0,0:0:0:0:
192,192,156714,128,0,156817:0:0:0:0:
192,192,156920,128,0,157022:0:0:0:0:
448,192,157125,1,0,0:0:0:0:
320,192,157125,128,0,157228:0:0:0:0:
64,192,157228,1,0,0:0:0:0:
192,192,157331,1,0,0:0:0:0:
320,192,157331,128,0,157433:0:0:0:0:
448,192,157331,1,0,0:0:0:0:
64,192,157433,1,0,0:0:0:0:
448,192,157536,128,0,157639:0:0:0:0:
64,192,157742,1,0,0:0:0:0:
448,192,157742,128,0,157844:0:0:0:0:
320,192,157844,1,0,0:0:0:0:
192,192,157947,1,0,0:0:0:0:
64,192,157947,128,0,158050:0:0:0:0:
320,192,158050,1,0,0:0:0:0:
192,192,158153,1,0,0:0:0:0:
64,192,158153,128,0,158563:0:0:0:0:
448,192,158358,1,0,0:0:0:0:
448,192,158769,1,0,0:0:0:0:
192,192,158872,1,0,0:0:0:0:
320,192,158974,1,0,0:0:0:0:
64,192,158974,1,0,0:0:0:0:
448,192,158974,128,0,159591:0:0:0:0:
192,192,159077,1,0,0:0:0:0:
192,192,159385,1,0,0:0:0:0:
320,192,159488,1,0,0:0:0:0:
64,192,159591,1,0,0:0:0:0:
320,192,159694,1,0,0:0:0:0:
192,192,159796,1,0,0:0:0:0:
192,192,160002,128,0,160105:0:0:0:0:
64,192,160002,1,0,0:0:0:0:
320,192,160207,1,0,0:0:0:0:
320,192,160310,1,0,0:0:0:0:
64,192,160413,1,0,0:0:0:0:
192,192,160618,1,0,0:0:0:0:
192,192,160721,1,0,0:0:0:0:
448,192,160824,1,0,0:0:0:0:
192,192,161029,1,0,0:0:0:0:
192,192,161132,1,0,0:0:0:0:
320,192,161235,1,0,0:0:0:0:
320,192,161337,1,0,0:0:0:0:
448,192,161440,5,0,0:0:0:0:
448,192,161543,1,0,0:0:0:0:
64,192,161646,1,0,0:0:0:0:
64,192,161748,1,0,0:0:0:0:
448,192,161851,128,0,165139:0:0:0:0:
320,192,161851,1,0,0:0:0:0:
192,192,161851,1,0,0:0:0:0:
192,192,162057,1,0,0:0:0:0:
64,192,162159,1,0,0:0:0:0:
192,192,162262,1,0,0:0:0:0:
320,192,162262,1,0,0:0:0:0:
64,192,162468,1,0,0:0:0:0:
320,192,162570,1,0,0:0:0:0:
192,192,162673,1,0,0:0:0:0:
64,192,162673,1,0,0:0:0:0:
192,192,162879,1,0,0:0:0:0:
320,192,162879,1,0,0:0:0:0:
64,192,163084,1,0,0:0:0:0:
320,192,163084,1,0,0:0:0:0:
64,192,163289,1,0,0:0:0:0:
192,192,163392,1,0,0:0:0:0:
320,192,163495,1,0,0:0:0:0:
64,192,163495,1,0,0:0:0:0:
320,192,163700,1,0,0:0:0:0:
192,192,163803,1,0,0:0:0:0:
320,192,163906,1,0,0:0:0:0:
64,192,163906,1,0,0:0:0:0:
192,192,164111,1,0,0:0:0:0:
64,192,164214,1,0,0:0:0:0:
192,192,164317,1,0,0:0:0:0:
320,192,164317,1,0,0:0:0:0:
320,192,164522,1,0,0:0:0:0:
192,192,164625,1,0,0:0:0:0:
320,192,164728,1,0,0:0:0:0:
64,192,164728,1,0,0:0:0:0:
192,192,164831,1,0,0:0:0:0:
64,192,164933,1,0,0:0:0:0:
192,192,165036,1,0,0:0:0:0:
64,192,165139,128,0,168426:0:0:0:0:
320,192,165139,1,0,0:0:0:0:
192,192,165139,1,0,0:0:0:0:
320,192,165344,1,0,0:0:0:0:
448,192,165550,1,0,0:0:0:0:
192,192,165550,1,0,0:0:0:0:
448,192,165755,1,0,0:0:0:0:
320,192,165961,1,0,0:0:0:0:
192,192,165961,1,0,0:0:0:0:
448,192,166166,1,0,0:0:0:0:
448,192,166372,1,0,0:0:0:0:
320,192,166372,1,0,0:0:0:0:
192,192,166577,1,0,0:0:0:0:
320,192,166783,1,0,0:0:0:0:
448,192,166783,1,0,0:0:0:0:
192,192,166988,1,0,0:0:0:0:
320,192,167194,1,0,0:0:0:0:
192,192,167194,1,0,0:0:0:0:
448,192,167399,1,0,0:0:0:0:
320,192,167605,1,0,0:0:0:0:
192,192,167605,1,0,0:0:0:0:
448,192,167810,1,0,0:0:0:0:
192,192,168016,1,0,0:0:0:0:
448,192,168016,1,0,0:0:0:0:
320,192,168221,1,0,0:0:0:0:
448,192,168426,1,0,0:0:0:0:
320,192,168426,1,0,0:0:0:0:
192,192,168426,128,0,168837:0:0:0:0:
64,192,168529,1,0,0:0:0:0:
448,192,168632,1,0,0:0:0:0:
320,192,168837,128,0,169248:0:0:0:0:
64,192,168837,1,0,0:0:0:0:
448,192,168837,1,0,0:0:0:0:
192,192,168940,1,0,0:0:0:0:
64,192,169043,1,0,0:0:0:0:
448,192,169248,128,0,169659:0:0:0:0:
192,192,169248,1,0,0:0:0:0:
64,192,169248,1,0,0:0:0:0:
192,192,169454,1,0,0:0:0:0:
320,192,169557,1,0,0:0:0:0:
64,192,169659,128,0,170070:0:0:0:0:
320,192,169659,1,0,0:0:0:0:
192,192,169659,1,0,0:0:0:0:
448,192,169762,1,0,0:0:0:0:
192,192,169865,1,0,0:0:0:0:
448,192,169968,1,0,0:0:0:0:
192,192,170070,128,0,170481:0:0:0:0:
320,192,170070,1,0,0:0:0:0:
448,192,170070,1,0,0:0:0:0:
64,192,170173,1,0,0:0:0:0:
448,192,170276,1,0,0:0:0:0:
320,192,170481,128,0,170892:0:0:0:0:
64,192,170481,1,0,0:0:0:0:
448,192,170481,1,0,0:0:0:0:
192,192,170584,1,0,0:0:0:0:
64,192,170687,1,0,0:0:0:0:
192,192,170789,1,0,0:0:0:0:
448,192,170892,128,0,171303:0:0:0:0:
192,192,170892,1,0,0:0:0:0:
64,192,170892,1,0,0:0:0:0:
320,192,170995,1,0,0:0:0:0:
192,192,171098,1,0,0:0:0:0:
64,192,171303,128,0,171611:0:0:0:0:
192,192,171303,1,0,0:0:0:0:
320,192,171303,1,0,0:0:0:0:
448,192,171406,1,0,0:0:0:0:
192,192,171509,1,0,0:0:0:0:
64,192,171714,5,0,0:0:0:0:
192,192,171714,1,0,0:0:0:0:
320,192,171714,1,0,0:0:0:0:
448,192,171714,1,0,0:0:0:0:
448,192,171920,1,0,0:0:0:0:
192,192,171920,1,0,0:0:0:0:
64,192,172125,1,0,0:0:0:0:
192,192,172125,1,0,0:0:0:0:
320,192,172125,1,0,0:0:0:0:
448,192,172125,1,0,0:0:0:0:
448,192,172331,1,0,0:0:0:0:
64,192,172331,1,0,0:0:0:0:
320,192,172536,1,0,0:0:0:0:
448,192,172536,1,0,0:0:0:0:
192,192,172536,1,0,0:0:0:0:
64,192,172536,1,0,0:0:0:0:
320,192,172742,1,0,0:0:0:0:
192,192,172742,1,0,0:0:0:0:
64,192,172947,1,0,0:0:0:0:
192,192,172947,1,0,0:0:0:0:
320,192,172947,1,0,0:0:0:0:
448,192,172947,1,0,0:0:0:0:
64,192,173153,1,0,0:0:0:0:
192,192,173153,1,0,0:0:0:0:
320,192,173358,1,0,0:0:0:0:
448,192,173358,1,0,0:0:0:0:
192,192,173358,1,0,0:0:0:0:
64,192,173358,1,0,0:0:0:0:
64,192,173563,1,0,0:0:0:0:
320,192,173563,1,0,0:0:0:0:
448,192,173769,1,0,0:0:0:0:
320,192,173769,1,0,0:0:0:0:
192,192,173769,1,0,0:0:0:0:
64,192,173769,1,0,0:0:0:0:
448,192,173974,1,0,0:0:0:0:
320,192,173974,1,0,0:0:0:0:
320,192,174180,1,0,0:0:0:0:
448,192,174180,1,0,0:0:0:0:
64,192,174180,1,0,0:0:0:0:
192,192,174180,1,0,0:0:0:0:
192,192,174385,1,0,0:0:0:0:
448,192,174385,1,0,0:0:0:0:
320,192,174591,1,0,0:0:0:0:
448,192,174591,1,0,0:0:0:0:
64,192,174591,1,0,0:0:0:0:
192,192,174591,1,0,0:0:0:0:
64,192,174796,1,0,0:0:0:0:
448,192,174796,1,0,0:0:0:0:
192,192,175002,1,0,0:0:0:0:
64,192,175002,1,0,0:0:0:0:
320,192,175002,1,0,0:0:0:0:
448,192,175002,1,0,0:0:0:0:
192,192,175207,1,0,0:0:0:0:
320,192,175207,1,0,0:0:0:0:
320,192,175413,1,0,0:0:0:0:
448,192,175413,1,0,0:0:0:0:
64,192,175413,1,0,0:0:0:0:
192,192,175413,1,0,0:0:0:0:
192,192,175618,1,0,0:0:0:0:
64,192,175618,1,0,0:0:0:0:
192,192,175824,1,0,0:0:0:0:
64,192,175824,1,0,0:0:0:0:
320,192,175824,1,0,0:0:0:0:
448,192,175824,1,0,0:0:0:0:
320,192,176029,1,0,0:0:0:0:
64,192,176029,1,0,0:0:0:0:
192,192,176235,1,0,0:0:0:0:
64,192,176235,1,0,0:0:0:0:
448,192,176235,1,0,0:0:0:0:
320,192,176235,1,0,0:0:0:0:
320,192,176440,1,0,0:0:0:0:
448,192,176440,1,0,0:0:0:0:
64,192,176646,1,0,0:0:0:0:
192,192,176646,1,0,0:0:0:0:
320,192,176646,1,0,0:0:0:0:
448,192,176646,1,0,0:0:0:0:
448,192,176851,1,0,0:0:0:0:
192,192,176851,1,0,0:0:0:0:
64,192,177057,1,0,0:0:0:0:
192,192,177057,1,0,0:0:0:0:
320,192,177057,1,0,0:0:0:0:
448,192,177057,1,0,0:0:0:0:
448,192,177262,1,0,0:0:0:0:
64,192,177262,1,0,0:0:0:0:
64,192,177468,1,0,0:0:0:0:
192,192,177468,1,0,0:0:0:0:
320,192,177468,1,0,0:0:0:0:
448,192,177570,1,0,0:0:0:0:
192,192,177673,1,0,0:0:0:0:
320,192,177776,1,0,0:0:0:0:
64,192,177879,1,0,0:0:0:0:
448,192,177879,1,0,0:0:0:0:
192,192,177879,1,0,0:0:0:0:
320,192,177981,1,0,0:0:0:0:
64,192,178084,1,0,0:0:0:0:
192,192,178187,1,0,0:0:0:0:
320,192,178289,1,0,0:0:0:0:
448,192,178289,1,0,0:0:0:0:
64,192,178289,1,0,0:0:0:0:
192,192,178289,1,0,0:0:0:0:
192,192,178495,1,0,0:0:0:0:
448,192,178495,1,0,0:0:0:0:
320,192,178700,1,0,0:0:0:0:
448,192,178700,1,0,0:0:0:0:
64,192,178700,1,0,0:0:0:0:
192,192,178700,1,0,0:0:0:0:
64,192,178906,1,0,0:0:0:0:
448,192,178906,1,0,0:0:0:0:
192,192,179111,1,0,0:0:0:0:
64,192,179111,1,0,0:0:0:0:
320,192,179111,1,0,0:0:0:0:
448,192,179111,1,0,0:0:0:0:
192,192,179317,1,0,0:0:0:0:
320,192,179317,1,0,0:0:0:0:
320,192,179522,1,0,0:0:0:0:
448,192,179522,1,0,0:0:0:0:
64,192,179522,1,0,0:0:0:0:
192,192,179522,1,0,0:0:0:0:
192,192,179728,1,0,0:0:0:0:
64,192,179728,1,0,0:0:0:0:
192,192,179933,1,0,0:0:0:0:
64,192,179933,1,0,0:0:0:0:
320,192,179933,1,0,0:0:0:0:
448,192,179933,1,0,0:0:0:0:
320,192,180139,1,0,0:0:0:0:
64,192,180139,1,0,0:0:0:0:
192,192,180344,1,0,0:0:0:0:
64,192,180344,1,0,0:0:0:0:
448,192,180344,1,0,0:0:0:0:
320,192,180344,1,0,0:0:0:0:
320,192,180550,1,0,0:0:0:0:
448,192,180550,1,0,0:0:0:0:
64,192,180755,1,0,0:0:0:0:
192,192,180755,1,0,0:0:0:0:
320,192,180755,1,0,0:0:0:0:
448,192,180755,1,0,0:0:0:0:
448,192,180961,1,0,0:0:0:0:
192,192,180961,1,0,0:0:0:0:
64,192,181166,1,0,0:0:0:0:
192,192,181166,1,0,0:0:0:0:
320,192,181166,1,0,0:0:0:0:
448,192,181166,1,0,0:0:0:0:
448,192,181372,1,0,0:0:0:0:
64,192,181372,1,0,0:0:0:0:
320,192,181577,1,0,0:0:0:0:
448,192,181577,1,0,0:0:0:0:
192,192,181577,1,0,0:0:0:0:
64,192,181577,1,0,0:0:0:0:
320,192,181783,1,0,0:0:0:0:
192,192,181783,1,0,0:0:0:0:
64,192,181988,1,0,0:0:0:0:
192,192,181988,1,0,0:0:0:0:
320,192,181988,1,0,0:0:0:0:
448,192,181988,1,0,0:0:0:0:
64,192,182194,1,0,0:0:0:0:
192,192,182194,1,0,0:0:0:0:
320,192,182399,1,0,0:0:0:0:
448,192,182399,1,0,0:0:0:0:
192,192,182399,1,0,0:0:0:0:
64,192,182399,1,0,0:0:0:0:
64,192,182605,1,0,0:0:0:0:
320,192,182605,1,0,0:0:0:0:
448,192,182810,1,0,0:0:0:0:
320,192,182810,1,0,0:0:0:0:
192,192,182810,1,0,0:0:0:0:
64,192,182810,1,0,0:0:0:0:
448,192,183016,1,0,0:0:0:0:
320,192,183016,1,0,0:0:0:0:
320,192,183221,1,0,0:0:0:0:
448,192,183221,1,0,0:0:0:0:
64,192,183221,1,0,0:0:0:0:
192,192,183221,1,0,0:0:0:0:
192,192,183426,1,0,0:0:0:0:
448,192,183426,1,0,0:0:0:0:
320,192,183632,1,0,0:0:0:0:
448,192,183632,1,0,0:0:0:0:
64,192,183632,1,0,0:0:0:0:
192,192,183632,1,0,0:0:0:0:
64,192,183837,1,0,0:0:0:0:
448,192,183837,1,0,0:0:0:0:
64,192,184043,1,0,0:0:0:0:
192,192,184043,1,0,0:0:0:0:
320,192,184043,1,0,0:0:0:0:
448,192,184146,1,0,0:0:0:0:
192,192,184248,1,0,0:0:0:0:
320,192,184351,1,0,0:0:0:0:
64,192,184454,1,0,0:0:0:0:
448,192,184454,1,0,0:0:0:0:
192,192,184454,1,0,0:0:0:0:
320,192,184557,1,0,0:0:0:0:
64,192,184659,1,0,0:0:0:0:
192,192,184762,1,0,0:0:0:0:
64,192,184865,128,0,197399:0:0:0:0:
448,192,197399,1,0,0:0:0:0:
448,192,197501,1,0,0:0:0:0:
64,192,198016,1,0,0:0:0:0:
192,192,198016,1,0,0:0:0:0:
320,192,198016,1,0,0:0:0:0:
448,192,198221,1,0,0:0:0:0:
64,192,198426,1,0,0:0:0:0:
320,192,198426,1,0,0:0:0:0:
448,192,198426,1,0,0:0:0:0:
448,192,198632,1,0,0:0:0:0:
192,192,198632,1,0,0:0:0:0:
448,192,198735,1,0,0:0:0:0:
64,192,198837,1,0,0:0:0:0:
192,192,198837,1,0,0:0:0:0:
320,192,198940,1,0,0:0:0:0:
448,192,199043,1,0,0:0:0:0:
64,192,199043,1,0,0:0:0:0:
192,192,199146,1,0,0:0:0:0:
320,192,199248,1,0,0:0:0:0:
64,192,199248,1,0,0:0:0:0:
448,192,199248,128,0,199351:0:0:0:0:
192,192,199454,128,0,199659:0:0:0:0:
320,192,199454,1,0,0:0:0:0:
320,192,199659,1,0,0:0:0:0:
320,192,199762,1,0,0:0:0:0:
192,192,199865,1,0,0:0:0:0:
448,192,199865,1,0,0:0:0:0:
192,192,199968,1,0,0:0:0:0:
320,192,200070,1,0,0:0:0:0:
448,192,200070,1,0,0:0:0:0:
64,192,200070,1,0,0:0:0:0:
448,192,200276,1,0,0:0:0:0:
192,192,200276,1,0,0:0:0:0:
448,192,200379,1,0,0:0:0:0:
64,192,200481,1,0,0:0:0:0:
320,192,200481,1,0,0:0:0:0:
192,192,200481,128,0,200584:0:0:0:0:
448,192,200687,128,0,200789:0:0:0:0:
320,192,200687,1,0,0:0:0:0:
64,192,200892,1,0,0:0:0:0:
320,192,200892,1,0,0:0:0:0:
192,192,200892,1,0,0:0:0:0:
448,192,200995,1,0,0:0:0:0:
192,192,201098,1,0,0:0:0:0:
320,192,201200,1,0,0:0:0:0:
64,192,201303,1,0,0:0:0:0:
192,192,201303,1,0,0:0:0:0:
448,192,201303,128,0,201509:0:0:0:0:
320,192,201509,1,0,0:0:0:0:
448,192,201714,128,0,201920:0:0:0:0:
64,192,201714,1,0,0:0:0:0:
192,192,201714,1,0,0:0:0:0:
320,192,201714,1,0,0:0:0:0:
320,192,201920,1,0,0:0:0:0:
192,192,202022,1,0,0:0:0:0:
64,192,202125,1,0,0:0:0:0:
448,192,202125,1,0,0:0:0:0:
320,192,202228,1,0,0:0:0:0:
192,192,202331,1,0,0:0:0:0:
64,192,202331,1,0,0:0:0:0:
448,192,202433,1,0,0:0:0:0:
320,192,202536,1,0,0:0:0:0:
64,192,202536,1,0,0:0:0:0:
192,192,202536,1,0,0:0:0:0:
448,192,202639,1,0,0:0:0:0:
64,192,202742,128,0,202947:0:0:0:0:
320,192,202742,1,0,0:0:0:0:
448,192,202947,1,0,0:0:0:0:
192,192,202947,1,0,0:0:0:0:
320,192,203050,1,0,0:0:0:0:
64,192,203152,1,0,0:0:0:0:
320,192,203255,1,0,0:0:0:0:
448,192,203358,128,0,203461:0:0:0:0:
192,192,203358,1,0,0:0:0:0:
64,192,203358,1,0,0:0:0:0:
320,192,203461,128,0,203563:0:0:0:0:
448,192,203563,128,0,203666:0:0:0:0:
64,192,203563,1,0,0:0:0:0:
192,192,203666,128,0,203769:0:0:0:0:
320,192,203769,128,0,203872:0:0:0:0:
448,192,203769,1,0,0:0:0:0:
64,192,203769,1,0,0:0:0:0:
192,192,203872,128,0,203974:0:0:0:0:
64,192,203974,128,0,204077:0:0:0:0:
320,192,203974,1,0,0:0:0:0:
192,192,204077,128,0,204180:0:0:0:0:
320,192,204180,128,0,204283:0:0:0:0:
448,192,204180,1,0,0:0:0:0:
64,192,204180,1,0,0:0:0:0:
192,192,204283,128,0,204385:0:0:0:0:
64,192,204385,128,0,204488:0:0:0:0:
320,192,204385,1,0,0:0:0:0:
192,192,204488,128,0,204591:0:0:0:0:
448,192,204591,1,0,0:0:0:0:
320,192,204591,1,0,0:0:0:0:
64,192,204591,1,0,0:0:0:0:
192,192,204694,1,0,0:0:0:0:
64,192,204796,1,0,0:0:0:0:
320,192,204796,1,0,0:0:0:0:
448,192,205002,128,0,205207:0:0:0:0:
192,192,205002,1,0,0:0:0:0:
320,192,205002,1,0,0:0:0:0:
64,192,205207,1,0,0:0:0:0:
192,192,205310,1,0,0:0:0:0:
64,192,205413,1,0,0:0:0:0:
320,192,205413,1,0,0:0:0:0:
448,192,205413,128,0,205516:0:0:0:0:
192,192,205618,1,0,0:0:0:0:
320,192,205618,1,0,0:0:0:0:
64,192,205721,128,0,205824:0:0:0:0:
192,192,205824,1,0,0:0:0:0:
320,192,205824,1,0,0:0:0:0:
448,192,205824,1,0,0:0:0:0:
64,192,205926,1,0,0:0:0:0:
320,192,206029,128,0,206235:0:0:0:0:
448,192,206029,1,0,0:0:0:0:
448,192,206235,128,0,206337:0:0:0:0:
192,192,206235,1,0,0:0:0:0:
320,192,206440,1,0,0:0:0:0:
64,192,206440,1,0,0:0:0:0:
192,192,206543,1,0,0:0:0:0:
320,192,206646,1,0,0:0:0:0:
64,192,206646,1,0,0:0:0:0:
448,192,206697,128,0,206800:0:0:0:0:
192,192,206851,1,0,0:0:0:0:
64,192,206851,1,0,0:0:0:0:
320,192,206902,128,0,207005:0:0:0:0:
64,192,207057,128,0,207159:0:0:0:0:
448,192,207057,1,0,0:0:0:0:
192,192,207159,128,0,207262:0:0:0:0:
320,192,207262,1,0,0:0:0:0:
64,192,207365,128,0,207468:0:0:0:0:
448,192,207468,1,0,0:0:0:0:
320,192,207468,1,0,0:0:0:0:
192,192,207468,1,0,0:0:0:0:
64,192,207570,1,0,0:0:0:0:
192,192,207673,1,0,0:0:0:0:
320,192,207776,1,0,0:0:0:0:
448,192,207879,1,0,0:0:0:0:
64,192,207879,1,0,0:0:0:0:
192,192,207879,1,0,0:0:0:0:
448,192,208084,1,0,0:0:0:0:
448,192,208289,1,0,0:0:0:0:
192,192,208289,128,0,208495:0:0:0:0:
448,192,208495,1,0,0:0:0:0:
64,192,208495,1,0,0:0:0:0:
192,192,208598,1,0,0:0:0:0:
448,192,208700,1,0,0:0:0:0:
64,192,208700,128,0,208803:0:0:0:0:
448,192,208906,1,0,0:0:0:0:
320,192,208906,1,0,0:0:0:0:
64,192,209009,128,0,209111:0:0:0:0:
448,192,209111,1,0,0:0:0:0:
192,192,209214,1,0,0:0:0:0:
448,192,209317,1,0,0:0:0:0:
320,192,209317,128,0,209420:0:0:0:0:
448,192,209522,1,0,0:0:0:0:
192,192,209625,128,0,209728:0:0:0:0:
448,192,209728,1,0,0:0:0:0:
192,192,209831,128,0,209933:0:0:0:0:
448,192,209933,1,0,0:0:0:0:
64,192,210036,1,0,0:0:0:0:
448,192,210139,1,0,0:0:0:0:
320,192,210139,128,0,210242:0:0:0:0:
192,192,210242,128,0,210344:0:0:0:0:
64,192,210344,128,0,210447:0:0:0:0:
320,192,210447,128,0,210550:0:0:0:0:
192,192,210550,128,0,210652:0:0:0:0:
448,192,210652,128,0,210755:0:0:0:0:
320,192,210755,128,0,210858:0:0:0:0:
64,192,210858,128,0,210961:0:0:0:0:
448,192,210961,128,0,211063:0:0:0:0:
192,192,211063,128,0,211166:0:0:0:0:
64,192,211166,5,0,0:0:0:0:
320,192,211166,1,0,0:0:0:0:
448,192,211166,1,0,0:0:0:0:
64,192,211269,1,0,0:0:0:0:
192,192,211372,1,0,0:0:0:0:
320,192,211372,1,0,0:0:0:0:
64,192,211577,1,0,0:0:0:0:
192,192,211577,1,0,0:0:0:0:
448,192,211577,1,0,0:0:0:0:
320,192,211680,1,0,0:0:0:0:
192,192,211783,1,0,0:0:0:0:
448,192,211885,1,0,0:0:0:0:
64,192,211988,1,0,0:0:0:0:
192,192,211988,1,0,0:0:0:0:
320,192,211988,1,0,0:0:0:0:
448,192,212091,1,0,0:0:0:0:
192,192,212194,1,0,0:0:0:0:
64,192,212296,1,0,0:0:0:0:
448,192,212399,1,0,0:0:0:0:
320,192,212399,1,0,0:0:0:0:
192,192,212399,1,0,0:0:0:0:
64,192,212605,1,0,0:0:0:0:
448,192,212605,1,0,0:0:0:0:
64,192,212810,1,0,0:0:0:0:
192,192,212810,1,0,0:0:0:0:
320,192,212810,1,0,0:0:0:0:
448,192,212913,1,0,0:0:0:0:
320,192,213016,1,0,0:0:0:0:
192,192,213118,1,0,0:0:0:0:
448,192,213221,5,0,0:0:0:0:
320,192,213221,1,0,0:0:0:0:
64,192,213221,1,0,0:0:0:0:
192,192,213324,1,0,0:0:0:0:
320,192,213426,1,0,0:0:0:0:
64,192,213529,1,0,0:0:0:0:
448,192,213632,128,0,213837:0:0:0:0:
320,192,213632,1,0,0:0:0:0:
192,192,213632,1,0,0:0:0:0:
64,192,213837,128,0,213940:0:0:0:0:
192,192,213837,1,0,0:0:0:0:
320,192,214043,128,0,214248:0:0:0:0:
448,192,214043,1,0,0:0:0:0:
192,192,214043,1,0,0:0:0:0:
64,192,214248,1,0,0:0:0:0:
448,192,214248,128,0,214351:0:0:0:0:
64,192,214454,5,0,0:0:0:0:
192,192,214454,1,0,0:0:0:0:
448,192,214454,1,0,0:0:0:0:
192,192,214557,1,0,0:0:0:0:
320,192,214659,1,0,0:0:0:0:
448,192,214762,1,0,0:0:0:0:
64,192,214865,1,0,0:0:0:0:
192,192,214865,1,0,0:0:0:0:
320,192,214865,1,0,0:0:0:0:
448,192,214968,1,0,0:0:0:0:
192,192,215070,1,0,0:0:0:0:
64,192,215173,1,0,0:0:0:0:
448,192,215276,1,0,0:0:0:0:
192,192,215276,1,0,0:0:0:0:
320,192,215276,1,0,0:0:0:0:
64,192,215379,1,0,0:0:0:0:
192,192,215481,1,0,0:0:0:0:
320,192,215584,1,0,0:0:0:0:
64,192,215687,1,0,0:0:0:0:
192,192,215687,1,0,0:0:0:0:
448,192,215687,1,0,0:0:0:0:
320,192,215789,1,0,0:0:0:0:
192,192,215892,1,0,0:0:0:0:
320,192,215995,1,0,0:0:0:0:
64,192,216098,1,0,0:0:0:0:
448,192,216098,1,0,0:0:0:0:
320,192,216098,1,0,0:0:0:0:
192,192,216200,1,0,0:0:0:0:
448,192,216303,1,0,0:0:0:0:
320,192,216406,1,0,0:0:0:0:
64,192,216509,1,0,0:0:0:0:
192,192,216509,1,0,0:0:0:0:
448,192,216509,1,0,0:0:0:0:
320,192,216611,1,0,0:0:0:0:
64,192,216714,1,0,0:0:0:0:
448,192,216817,1,0,0:0:0:0:
64,192,216920,1,0,0:0:0:0:
320,192,216920,1,0,0:0:0:0:
192,192,216920,1,0,0:0:0:0:
448,192,217022,1,0,0:0:0:0:
320,192,217125,1,0,0:0:0:0:
192,192,217228,1,0,0:0:0:0:
64,192,217331,1,0,0:0:0:0:
320,192,217331,1,0,0:0:0:0:
448,192,217331,1,0,0:0:0:0:
192,192,217433,1,0,0:0:0:0:
320,192,217536,1,0,0:0:0:0:
448,192,217639,1,0,0:0:0:0:
192,192,217742,1,0,0:0:0:0:
448,192,217742,1,0,0:0:0:0:
320,192,217742,1,0,0:0:0:0:
64,192,217742,1,0,0:0:0:0:
