osu file format v14

[General]
AudioFilename: audio.mp3
AudioLeadIn: 0
PreviewTime: 72084
Countdown: 0
SampleSet: Soft
StackLeniency: 0.7
Mode: 0
LetterboxInBreaks: 0
WidescreenStoryboard: 1

[Editor]
DistanceSpacing: 1.4
BeatDivisor: 12
GridSize: 8
TimelineZoom: 1.2

[Metadata]
Title:The Government Knows
TitleUnicode:The Government Knows
Artist:KNOWER
ArtistUnicode:KNOWER
Creator:Pachiru
Version:Noz' Expert
Source:osu!
Tags:fieryrage govt featured artist fa mappers mappers' guild LIFE electronic drum and & bass dnb english gabe veus nozhomi
BeatmapID:2250659
BeatmapSetID:1075602

[Difficulty]
HPDrainRate:6
CircleSize:4.2
OverallDifficulty:8.6
ApproachRate:9
SliderMultiplier:2.2
SliderTickRate:1

[Events]
//Background and Video events
0,0,"How.jpg",0,0
//Break Periods
2,100640,104772
2,146565,152443
//Storyboard Layer 0 (Background)
//Storyboard Layer 1 (Fail)
//Storyboard Layer 2 (Pass)
//Storyboard Layer 3 (Foreground)
//Storyboard Layer 4 (Overlay)
//Storyboard Sound Samples

[TimingPoints]
167,410.958904109589,4,2,1,40,1,0
167,-100,4,2,1,40,0,0
6742,-133.333333333333,4,2,1,45,0,0
13317,-133.333333333333,4,2,1,50,0,0
19893,-133.333333333333,4,2,1,52,0,0
33043,-117.647058823529,4,2,1,55,0,0
46194,-117.647058823529,4,2,1,58,0,0
52769,-117.647058823529,4,2,1,60,0,0
56057,-117.647058823529,4,2,1,62,0,0
59345,-117.647058823529,4,2,1,65,0,0
69208,-117.647058823529,4,2,1,50,0,0
69310,-117.647058823529,4,2,1,40,0,0
69619,-117.647058823529,4,2,1,50,0,0
69721,-117.647058823529,4,2,1,40,0,0
70030,-117.647058823529,4,2,1,50,0,0
70132,-117.647058823529,4,2,1,40,0,0
70440,-117.647058823529,4,2,1,50,0,0
70543,-117.647058823529,4,2,1,40,0,0
70749,-117.647058823529,4,2,1,50,0,0
71160,-117.647058823529,4,2,1,40,0,0
71262,-117.647058823529,4,2,1,50,0,0
71365,-117.647058823529,4,2,1,40,0,0
71673,-117.647058823529,4,2,1,50,0,0
71776,-117.647058823529,4,2,1,40,0,0
71982,-117.647058823529,4,2,1,30,0,0
72084,-500,4,2,1,50,0,0
72187,-500,4,2,2,5,0,0
72495,-66.6666666666667,4,2,1,75,0,1
73317,-125,4,2,1,75,0,1
73728,-50,4,2,1,75,0,1
73934,-66.6666666666667,4,2,1,75,0,1
74961,-100,4,2,1,75,0,1
75372,-66.6666666666667,4,2,1,75,0,1
78249,-50,4,2,1,75,0,1
79071,-66.6666666666667,4,2,1,75,0,1
79893,-125,4,2,1,75,0,1
80303,-50,4,2,1,75,0,1
80509,-66.6666666666667,4,2,1,75,0,1
81536,-100,4,2,1,75,0,1
81947,-66.6666666666667,4,2,1,75,0,1
84824,-50,4,2,1,75,0,1
85646,-66.6666666666667,4,2,1,75,0,1
86468,-125,4,2,1,75,0,1
86879,-66.6666666666667,4,2,1,75,0,1
88112,-125,4,2,1,75,0,1
88420,-66.6666666666667,4,2,1,75,0,1
88934,-66.6666666666667,4,2,1,75,0,1
92221,-100,4,2,1,65,0,0
93454,-66.6666666666667,4,2,1,65,0,0
93660,-100,4,2,1,65,0,0
98797,-100,4,2,1,50,0,0
99002,-100,4,2,1,30,0,0
102495,-100,4,2,1,20,0,0
105783,-100,4,2,1,30,0,0
106605,-100,4,2,1,40,0,0
106913,-133.333333333333,4,2,1,40,0,0
107016,-133.333333333333,4,2,1,52,0,0
113591,-133.333333333333,4,2,1,55,0,0
120166,-133.333333333333,4,2,1,58,0,0
126742,-133.333333333333,4,2,1,60,0,0
128797,-133.333333333333,4,2,1,58,0,0
129208,-133.333333333333,4,2,1,55,0,0
129619,-133.333333333333,4,2,1,52,0,0
130030,-133.333333333333,4,2,1,50,0,0
130338,-133.333333333333,4,2,1,40,0,0
130440,-133.333333333333,4,2,1,50,0,0
130543,-133.333333333333,4,2,1,38,0,0
130851,-133.333333333333,4,2,1,50,0,0
130954,-133.333333333333,4,2,1,35,0,0
131262,-133.333333333333,4,2,1,50,0,0
131365,-133.333333333333,4,2,1,32,0,0
131571,-133.333333333333,4,2,1,42,0,0
131673,-133.333333333333,4,2,1,50,0,0
131776,-133.333333333333,4,2,1,42,0,0
131982,-133.333333333333,4,2,1,37,0,0
132084,-133.333333333333,4,2,1,40,0,0
132187,-133.333333333333,4,2,1,35,0,0
132495,-133.333333333333,4,2,1,40,0,0
132598,-133.333333333333,4,2,1,32,0,0
132906,-133.333333333333,4,2,1,50,0,0
133317,-66.6666666666667,4,2,1,75,0,1
134139,-125,4,2,1,75,0,1
134550,-50,4,2,1,75,0,1
134961,-66.6666666666667,4,2,1,75,0,1
135783,-100,4,2,1,75,0,1
136194,-66.6666666666667,4,2,1,75,0,1
139071,-50,4,2,1,75,0,1
139893,-66.6666666666667,4,2,1,75,0,1
140714,-125,4,2,1,75,0,1
141125,-57.1428571428571,4,2,1,75,0,1
141536,-66.6666666666667,4,2,1,75,0,1
142358,-100,4,2,1,75,0,1
142769,-66.6666666666667,4,2,1,75,0,1
145646,-50,4,2,1,75,0,1
146468,-100,4,2,1,50,0,0
153043,-125,4,2,1,52,0,0
159619,-125,4,2,1,55,0,0
161262,-125,4,2,1,58,0,0
162906,-125,4,2,1,60,0,0
164550,-125,4,2,1,63,0,0
165577,-125,4,2,1,65,0,0
165783,-125,4,2,1,68,0,0
166194,-125,4,2,1,75,0,0
166605,-90.9090909090909,4,2,1,75,0,0
167016,-83.3333333333333,4,2,1,75,0,0
167427,-90.9090909090909,4,2,1,75,0,0
167838,-83.3333333333333,4,2,1,75,0,0
168249,-76.9230769230769,4,2,1,75,0,0
168660,-71.4285714285714,4,2,1,75,0,0
169482,-100,4,2,1,75,0,0
169893,-90.9090909090909,4,2,1,75,0,0
170303,-83.3333333333333,4,2,1,75,0,0
170714,-76.9230769230769,4,2,1,75,0,0
171125,-71.4285714285714,4,2,1,75,0,0
171536,-66.6666666666667,4,2,1,75,0,0
171947,-62.5,4,2,1,75,0,0
172358,-58.8235294117647,4,2,1,75,0,0
172769,-90.9090909090909,4,2,1,75,0,0
173180,-83.3333333333333,4,2,1,75,0,0
173591,-76.9230769230769,4,2,1,75,0,0
174002,-71.4285714285714,4,2,1,75,0,0
174413,-66.6666666666667,4,2,1,75,0,0
174824,-62.5,4,2,1,75,0,0
175235,-58.8235294117647,4,2,1,75,0,0
175646,-55.5555555555556,4,2,1,75,0,0
176057,-100,4,2,1,85,0,0
176673,-66.6666666666667,4,2,1,85,0,0
177495,-100,4,2,1,85,0,0
178317,-66.6666666666667,4,2,1,85,0,0
179139,-100,4,2,1,85,0,0
181605,-66.6666666666667,4,2,1,85,0,0
182632,-100,4,2,1,85,0,0
183249,-66.6666666666667,4,2,1,85,0,0
184071,-100,4,2,1,85,0,0
184893,-66.6666666666667,4,2,1,85,0,0
185714,-100,4,2,1,85,0,0
188180,-66.6666666666667,4,2,1,85,0,0
189208,441.176470588235,4,2,1,40,1,0
189208,-125,4,2,1,40,0,0
190090,397.350993377483,4,2,1,40,1,0
190090,-100,4,2,1,40,0,0
190288,555.555555555556,4,2,1,43,1,0
190288,-100,4,2,1,43,0,0
191121,500,4,2,1,43,1,0
191121,-100,4,2,1,43,0,0
191371,500,4,2,1,45,1,0
191371,-100,4,2,1,45,0,0
192371,437.956204379562,4,2,1,47,1,0
192371,-100,4,2,1,47,0,0
193246,-100,4,2,1,50,0,0
193684,455.407969639469,4,2,1,50,1,0
193684,-100,4,2,1,50,0,0
194139,410.958904109589,4,2,1,55,1,0
194139,-100,4,2,1,55,0,0
194960,-125,4,2,1,55,0,0
195782,-125,4,2,1,58,0,0
199070,-125,4,2,1,50,0,0
199173,-125,4,2,1,45,0,0
199481,-125,4,2,1,57,0,0
199584,-125,4,2,1,47,0,0
199892,-125,4,2,1,60,0,0
199995,-125,4,2,1,50,0,0
200303,-125,4,2,1,63,0,0
200406,-125,4,2,1,53,0,0
200714,-125,4,2,1,65,0,0
200817,-125,4,2,1,55,0,0
201125,-125,4,2,1,68,0,0
201228,-125,4,2,1,58,0,0
201536,-125,4,2,1,70,0,0
202358,-66.6666666666667,4,2,5,75,0,1
212221,-100,4,2,5,65,0,0
215508,-66.6666666666667,4,2,5,75,0,1
222084,-50,4,2,5,65,0,0
222186,-100,4,2,5,65,0,0

[Colours]
Combo1 : 228,82,39
Combo2 : 84,120,188
Combo3 : 36,49,204
Combo4 : 153,129,79

[HitObjects]
64,192,372,5,2,0:0:0:0:
108,184,475,1,0,0:0:0:0:
152,180,577,1,10,0:0:0:0:
196,172,680,1,2,0:0:0:0:
56,268,988,5,2,0:0:0:0:
100,260,1091,1,0,0:0:0:0:
144,256,1193,1,2,0:0:0:0:
188,248,1297,2,0,L|264:252,1,55,2|8,0:0|0:0,0:0:0:0:
72,120,1605,1,2,0:0:0:0:
392,340,2016,5,0,0:0:0:0:
384,296,2119,1,0,0:0:0:0:
376,252,2221,1,10,0:0:0:0:
368,208,2324,1,2,0:0:0:0:
276,300,2632,5,2,0:0:0:0:
283,255,2735,1,0,0:0:0:0:
291,211,2837,1,2,0:0:0:0:
298,167,2940,2,0,L|292:100,1,55,2|8,0:0|0:0,0:0:0:0:
448,260,3249,1,2,0:0:0:0:
80,56,3660,5,2,0:0:0:0:
67,80,3762,1,0,0:0:0:0:
93,92,3865,1,10,0:0:0:0:
104,67,3968,1,2,0:0:0:0:
300,32,4276,5,2,0:0:0:0:
324,43,4378,1,0,0:0:0:0:
300,108,4481,1,2,0:0:0:0:
274,96,4584,2,0,L|216:100,1,55,2|8,0:0|0:0,0:0:0:0:
16,28,4893,1,2,0:0:0:0:
216,216,5303,5,2,0:0:0:0:
260,212,5406,1,0,0:0:0:0:
300,244,5509,1,10,0:0:0:0:
344,240,5612,1,2,0:0:0:0:
212,304,5920,5,2,0:0:0:0:
168,300,6023,1,0,0:0:0:0:
128,332,6126,1,2,0:0:0:0:
84,328,6228,2,0,B|56:324|56:324|29:328,1,55,2|8,0:0|0:0,0:0:0:0:
236,148,6536,1,2,0:0:0:0:
408,328,6742,6,0,L|396:144,1,165.000006294251,6|8,1:3|0:0,0:0:0:0:
436,312,7358,2,0,L|424:128,1,165.000006294251,2|2,0:0|0:0,0:0:0:0:
264,244,7975,1,8,0:0:0:0:
44,56,8386,6,0,P|88:48|136:64,1,82.5000031471254,2|0,0:0|0:0,0:0:0:0:
244,120,8694,2,0,P|204:129|164:121,1,82.5000031471254,2|0,0:0|0:0,0:0:0:0:
92,276,9002,2,0,P|56:208|92:120,1,165.000006294251,2|2,0:0|0:0,0:0:0:0:
204,44,9619,1,8,0:0:0:0:
456,184,10030,6,0,P|401:177|351:201,1,82.5000031471254,2|0,0:0|0:0,0:0:0:0:
348,100,10338,2,0,P|304:133|285:186,1,82.5000031471254,2|0,0:0|0:0,0:0:0:0:
203,119,10646,2,0,L|216:300,1,165.000006294251,2|2,0:0|0:0,0:0:0:0:
341,367,11262,1,8,0:0:0:0:
267,91,11673,2,0,P|259:19|275:-13,1,82.5000031471254,2|0,0:0|0:0,0:0:0:0:
319,151,11982,2,0,P|327:223|311:255,1,82.5000031471254,2|0,0:0|0:0,0:0:0:0:
103,213,12290,2,0,P|154:171|260:162,1,165.000006294251,2|2,0:0|0:0,0:0:0:0:
231,319,12906,1,8,0:0:0:0:
37,148,13214,1,0,0:0:0:0:
37,148,13317,6,0,L|31:74,1,41.2500015735627,6|0,1:3|0:0,0:0:0:0:
107,124,13523,2,0,L|101:50,1,41.2500015735627,0|2,0:0|0:0,0:0:0:0:
177,87,13728,1,8,0:0:0:0:
256,213,13934,1,2,0:0:0:0:
335,87,14139,1,0,0:0:0:0:
367,84,14242,1,0,0:0:0:0:
400,79,14345,1,2,0:0:0:0:
432,76,14447,1,0,0:0:0:0:
465,73,14550,2,0,L|449:181,1,82.5000031471254,8|2,0:0|0:0,0:0:0:0:
420,286,14858,5,0,0:0:0:0:
420,286,14961,2,0,L|411:222,1,41.2500015735627,2|0,0:0|0:0,0:0:0:0:
345,304,15166,2,0,L|336:240,1,41.2500015735627,0|2,0:0|0:0,0:0:0:0:
272,326,15372,1,8,0:0:0:0:
174,171,15577,1,2,0:0:0:0:
90,353,15783,1,0,0:0:0:0:
93,321,15886,1,0,0:0:0:0:
98,288,15989,1,2,0:0:0:0:
101,256,16091,1,0,0:0:0:0:
104,223,16194,2,0,P|59:243|-4:239,1,82.5000031471254,8|2,0:0|0:0,0:0:0:0:
231,319,16502,5,0,0:0:0:0:
231,319,16605,2,0,P|250:324|271:325,1,41.2500015735627,2|0,0:0|0:0,0:0:0:0:
349,246,16810,2,0,P|328:246|308:251,1,41.2500015735627,0|2,0:0|0:0,0:0:0:0:
359,326,17016,1,8,0:0:0:0:
449,204,17221,1,2,0:0:0:0:
358,73,17427,2,0,P|332:62|300:60,1,41.2500015735627,0|0,0:0|0:0,0:0:0:0:
269,146,17632,2,0,P|289:141|307:132,1,41.2500015735627,2|0,0:0|0:0,0:0:0:0:
395,145,17838,2,0,P|374:173|374:227,1,82.5000031471254,8|2,0:0|0:0,0:0:0:0:
456,333,18146,5,0,0:0:0:0:
456,333,18249,2,0,L|381:327,1,41.2500015735627,2|0,0:0|0:0,0:0:0:0:
325,299,18454,2,0,L|283:302,1,41.2500015735627,0|2,0:0|0:0,0:0:0:0:
202,260,18660,1,8,0:0:0:0:
55,342,18865,2,0,P|165:367|202:260,1,247.500009441376,2|8,0:0|0:0,0:0:0:0:
60,98,19790,5,0,0:0:0:0:
60,98,19893,1,6,1:3:0:0:
60,98,19995,1,0,0:0:0:0:
60,98,20098,1,0,0:0:0:0:
221,65,20303,1,8,0:0:0:0:
149,211,20509,2,0,L|146:150,1,41.2500015735627,2|0,0:0|0:0,0:0:0:0:
219,197,20714,2,0,L|287:146,1,82.5000031471254,0|2,0:0|0:0,0:0:0:0:
346,228,21023,2,0,L|283:220,1,41.2500015735627,2|8,0:0|0:0,0:0:0:0:
357,239,21434,5,0,0:0:0:0:
357,239,21536,1,2,0:0:0:0:
357,239,21639,1,0,0:0:0:0:
357,239,21742,1,0,0:0:0:0:
416,90,21947,1,8,0:0:0:0:
455,243,22153,2,0,B|458:266|458:266|457:284,1,41.2500015735627,2|0,0:0|0:0,0:0:0:0:
394,332,22358,2,0,B|417:299|417:299|462:281,1,82.5000031471254,0|2,0:0|0:0,0:0:0:0:
510,370,22667,2,0,L|469:364,1,41.2500015735627,2|8,0:0|0:0,0:0:0:0:
227,351,23077,5,0,0:0:0:0:
227,351,23180,1,2,0:0:0:0:
227,351,23283,1,0,0:0:0:0:
227,351,23386,1,0,0:0:0:0:
276,160,23591,1,8,0:0:0:0:
407,268,23797,2,0,L|353:264,1,41.2500015735627,2|0,0:0|0:0,0:0:0:0:
211,238,24002,2,0,L|293:234,1,82.5000031471254,2|0,0:0|0:0,0:0:0:0:
367,147,24310,2,0,L|354:197,1,41.2500015735627,2|8,0:0|0:0,0:0:0:0:
314,351,24619,5,2,0:0:0:0:
314,351,24721,1,0,0:0:0:0:
314,351,24824,2,0,L|301:301,1,41.2500015735627,2|0,0:0|0:0,0:0:0:0:
367,147,25132,1,2,0:0:0:0:
156,199,25440,1,2,0:0:0:0:
156,199,25543,1,0,0:0:0:0:
156,199,25646,2,0,L|226:196,1,41.2500015735627,2|0,0:0|0:0,0:0:0:0:
284,141,25851,1,2,0:0:0:0:
284,141,25954,2,0,L|214:138,1,41.2500015735627,2|8,0:0|0:0,0:0:0:0:
39,282,26468,5,6,1:3:0:0:
39,282,26571,1,0,0:0:0:0:
39,282,26673,1,2,0:0:0:0:
155,365,26879,1,10,0:0:0:0:
151,191,27084,1,0,0:0:0:0:
162,363,27290,2,0,L|155:174,1,165.000006294251,2|10,0:0|0:0,0:0:0:0:
170,212,28112,5,2,0:0:0:0:
170,212,28215,1,0,0:0:0:0:
170,212,28317,1,2,0:0:0:0:
43,57,28523,1,10,0:0:0:0:
87,208,28728,1,0,0:0:0:0:
222,99,28934,2,0,P|176:95|114:106,1,82.5000031471254,2|2,0:0|0:0,0:0:0:0:
281,151,29345,2,0,P|327:155|389:144,1,82.5000031471254,10|0,0:0|0:0,0:0:0:0:
392,352,29756,5,2,0:0:0:0:
396,320,29858,1,0,0:0:0:0:
400,288,29961,1,2,0:0:0:0:
404,256,30064,1,2,0:0:0:0:
408,224,30166,2,0,P|361:233|311:230,1,82.5000031471254,10|0,0:0|0:0,0:0:0:0:
303,330,30475,1,0,0:0:0:0:
303,330,30577,2,0,P|260:305|233:263,1,82.5000031471254,2|2,0:0|0:0,0:0:0:0:
146,306,30886,1,2,0:0:0:0:
146,306,30988,2,0,P|144:265|158:226,1,82.5000031471254,8|0,0:0|0:0,0:0:0:0:
20,152,31399,5,2,0:0:0:0:
52,149,31502,1,0,0:0:0:0:
84,147,31605,1,2,0:0:0:0:
116,145,31708,1,2,0:0:0:0:
148,142,31810,1,8,0:0:0:0:
97,277,32016,1,0,0:0:0:0:
0,131,32221,2,0,L|193:121,1,165.000006294251,2|8,0:0|0:0,0:0:0:0:
512,253,33043,6,0,L|418:248,1,93.500001783371,6|2,1:3|0:0,0:0:0:0:
333,313,33351,1,2,0:0:0:0:
333,313,33454,2,0,L|239:308,1,93.500001783371,8|0,0:0|0:0,0:0:0:0:
304,133,33865,1,2,0:0:0:0:
412,322,34071,1,2,0:0:0:0:
206,196,34276,1,8,0:0:0:0:
485,199,34584,5,0,0:0:0:0:
485,199,34687,2,0,B|440:214|440:214|380:209,1,93.500001783371,2|0,0:0|0:0,0:0:0:0:
257,133,34995,2,0,B|280:131|280:131|304:133,1,46.7500008916855,2|8,0:0|0:0,0:0:0:0:
289,311,35303,1,2,0:0:0:0:
168,140,35509,1,2,0:0:0:0:
204,318,35714,1,0,0:0:0:0:
304,133,35920,1,8,0:0:0:0:
304,133,36331,5,2,0:0:0:0:
99,141,36536,1,2,0:0:0:0:
204,318,36742,1,8,0:0:0:0:
201,113,36947,1,0,0:0:0:0:
75,276,37153,1,2,0:0:0:0:
277,239,37358,1,2,0:0:0:0:
137,80,37564,1,8,0:0:0:0:
204,318,37769,5,0,0:0:0:0:
204,318,37872,1,0,0:0:0:0:
204,318,37975,2,0,L|200:204,1,93.500001783371,2|2,0:0|0:0,0:0:0:0:
370,261,38283,1,2,0:0:0:0:
370,261,38386,2,0,L|256:265,1,93.500001783371,8|0,0:0|0:0,0:0:0:0:
315,95,38694,1,2,0:0:0:0:
315,95,38797,2,0,L|319:209,1,93.500001783371,2|2,0:0|0:0,0:0:0:0:
147,153,39105,1,2,0:0:0:0:
147,153,39208,2,0,L|261:149,1,93.500001783371,8|0,0:0|0:0,0:0:0:0:
329,339,39619,5,6,1:3:0:0:
201,224,39824,1,2,0:0:0:0:
410,225,40030,1,8,0:0:0:0:
374,214,40132,1,0,0:0:0:0:
372,176,40235,1,2,0:0:0:0:
403,155,40337,1,0,0:0:0:0:
436,171,40440,2,0,B|431:280,1,93.500001783371,2|0,0:0|0:0,0:0:0:0:
500,343,40749,1,2,0:0:0:0:
209,310,41057,5,0,0:0:0:0:
209,310,41160,1,0,0:0:0:0:
209,310,41262,2,0,P|259:278|283:239,1,93.500001783371,2|2,0:0|0:0,0:0:0:0:
228,132,41571,2,0,P|234:154|250:171,1,46.7500008916855,2|8,0:0|0:0,0:0:0:0:
460,183,41879,1,0,0:0:0:0:
460,183,41982,1,0,0:0:0:0:
460,183,42084,2,0,P|408:173|358:180,1,93.500001783371,2|2,0:0|0:0,0:0:0:0:
429,295,42393,2,0,P|423:272|410:253,1,46.7500008916855,2|8,0:0|0:0,0:0:0:0:
124,326,42701,5,0,0:0:0:0:
87,317,42803,1,0,0:0:0:0:
61,289,42906,1,2,0:0:0:0:
56,251,43009,1,0,0:0:0:0:
66,215,43112,1,2,0:0:0:0:
92,189,43214,1,2,0:0:0:0:
124,170,43317,1,8,0:0:0:0:
33,40,43523,2,0,P|43:129|124:170,1,187.000003566742,2|0,0:0|0:0,0:0:0:0:
230,23,44139,1,8,0:0:0:0:
330,181,44345,1,0,0:0:0:0:
124,170,44550,5,2,0:0:0:0:
335,78,44756,1,2,0:0:0:0:
335,78,44858,1,2,0:0:0:0:
335,78,44961,1,8,0:0:0:0:
234,245,45167,1,0,0:0:0:0:
147,57,45372,2,0,P|171:96|212:117,1,93.500001783371,2|2,0:0|0:0,0:0:0:0:
306,178,45680,2,0,P|330:175|349:163,1,46.7500008916855,2|8,0:0|0:0,0:0:0:0:
129,191,46194,5,6,1:3:0:0:
295,94,46399,1,0,0:0:0:0:
248,276,46605,1,8,0:2:0:0:
237,178,46810,1,2,0:0:0:0:
386,288,47016,2,0,P|424:263|447:205,1,93.500001783371,2|2,1:2|0:0,0:0:0:0:
348,162,47324,2,0,P|349:186|362:205,1,46.7500008916855,2|8,0:0|0:2,0:0:0:0:
452,76,47632,1,0,0:0:0:0:
249,57,47838,5,2,1:2:0:0:
419,152,48043,1,2,0:0:0:0:
216,171,48249,1,8,0:2:0:0:
452,76,48454,1,2,0:0:0:0:
316,281,48660,2,0,P|313:228|325:164,1,93.500001783371,2|2,1:2|0:0,0:0:0:0:
443,223,48968,2,0,P|420:228|397:225,1,46.7500008916855,2|8,0:0|0:2,0:0:0:0:
40,37,49482,5,0,1:2:0:0:
178,174,49687,1,2,0:0:0:0:
11,112,49893,1,8,0:2:0:0:
327,52,50303,2,0,L|233:56,1,93.500001783371,2|2,1:2|0:0,0:0:0:0:
178,174,50612,2,0,L|110:171,1,46.7500008916855,2|8,0:0|0:2,0:0:0:0:
316,180,50920,1,2,0:0:0:0:
132,172,51125,5,2,1:2:0:0:
234,57,51331,1,2,0:0:0:0:
418,65,51536,1,8,0:2:0:0:
49,49,51947,1,2,1:2:0:0:
234,57,52153,1,2,0:0:0:0:
418,65,52358,1,8,0:2:0:0:
368,344,52666,5,0,0:0:0:0:
364,308,52769,1,6,1:3:0:0:
360,272,52872,1,0,0:0:0:0:
356,236,52975,1,2,0:0:0:0:
510,284,53180,1,8,0:2:0:0:
301,338,53386,2,0,P|207:354|107:295,1,187.000003566742,2|0,0:0|0:0,0:0:0:0:
228,202,54002,1,8,0:2:0:0:
227,176,54310,5,0,0:0:0:0:
203,203,54413,1,2,1:2:0:0:
231,226,54516,1,0,0:0:0:0:
254,199,54619,1,2,0:0:0:0:
142,75,54824,1,8,0:2:0:0:
28,224,55030,2,0,P|119:241|203:203,1,187.000003566742,2|0,0:0|0:0,0:0:0:0:
302,74,55646,1,8,0:2:0:0:
277,73,55954,5,0,0:0:0:0:
304,49,56057,1,2,1:2:0:0:
327,77,56160,1,0,0:0:0:0:
300,100,56263,1,2,0:0:0:0:
141,28,56468,1,8,0:2:0:0:
265,178,56673,1,2,0:0:0:0:
265,178,56776,1,0,0:0:0:0:
264,177,56879,2,0,P|310:187|352:169,1,93.500001783371,2|2,1:2|0:0,0:0:0:0:
459,139,57187,2,0,P|437:127|390:123,1,46.7500008916855,2|8,0:0|0:2,0:0:0:0:
432,353,57598,5,0,0:0:0:0:
428,317,57701,1,2,1:2:0:0:
425,281,57803,1,0,0:0:0:0:
422,245,57906,1,2,0:0:0:0:
300,100,58112,1,8,0:2:0:0:
213,234,58317,1,2,0:0:0:0:
213,234,58420,1,0,0:0:0:0:
213,234,58523,2,0,P|266:236|311:228,1,93.500001783371,2|2,1:2|0:0,0:0:0:0:
387,143,58831,2,0,P|366:154|354:173,1,46.7500008916855,2|8,0:0|0:2,0:0:0:0:
492,316,59242,5,0,0:0:0:0:
470,279,59345,1,6,1:3:0:0:
433,259,59447,1,0,0:0:0:0:
390,257,59550,1,2,0:0:0:0:
273,361,59756,1,8,0:2:0:0:
283,160,59961,1,2,0:0:0:0:
283,160,60064,1,0,0:0:0:0:
282,159,60166,2,0,P|296:204|283:248,1,93.500001783371,2|2,1:2|0:0,0:0:0:0:
158,301,60475,2,0,P|184:303|204:298,1,46.7500008916855,2|8,0:0|0:2,0:0:0:0:
394,338,60783,6,0,P|368:340|348:335,1,46.7500008916855,2|0,0:0|0:0,0:0:0:0:
283,247,60988,1,2,1:2:0:0:
283,247,61091,2,0,L|280:132,1,93.500001783371,0|2,0:0|0:0,0:0:0:0:
305,59,61399,1,8,0:2:0:0:
453,85,61605,1,2,0:0:0:0:
438,124,61708,1,0,0:0:0:0:
404,149,61810,1,2,1:2:0:0:
364,163,61913,1,0,0:0:0:0:
321,165,62016,1,2,0:0:0:0:
280,152,62119,2,0,L|221:155,1,46.7500008916855,2|8,0:0|0:2,0:0:0:0:
56,44,62427,5,2,0:0:0:0:
85,223,62632,2,0,P|115:183|122:116,1,93.500001783371,2|2,1:2|0:0,0:0:0:0:
201,27,62940,2,0,P|196:95|232:154,1,140.250002675057,2|0,0:0|0:0,0:0:0:0:
414,212,63454,2,0,P|369:200|324:212,1,93.500001783371,2|2,1:2|0:0,0:0:0:0:
225,263,63762,2,0,P|192:323|130:354,1,140.250002675057,2|0,0:0|0:0,0:0:0:0:
53,324,64173,5,0,0:0:0:0:
53,324,64276,1,2,1:2:0:0:
92,160,64482,1,2,0:0:0:0:
225,263,64687,1,8,0:2:0:0:
225,263,65098,2,0,L|131:264,1,93.500001783371,2|2,1:2|0:0,0:0:0:0:
15,234,65406,2,0,L|61:233,1,46.7500008916855,2|8,0:0|0:2,0:0:0:0:
225,263,65920,5,6,1:3:0:0:
156,111,66125,1,2,0:0:0:0:
89,300,66331,1,8,1:2:0:0:
134,297,66434,1,0,0:0:0:0:
179,295,66536,1,2,0:0:0:0:
225,293,66639,1,2,0:0:0:0:
272,291,66742,5,8,1:2:0:0:
411,128,66947,1,2,0:0:0:0:
422,286,67153,1,8,1:2:0:0:
279,298,67358,5,2,0:0:0:0:
279,298,67461,1,2,0:0:0:0:
279,298,67564,1,8,1:2:0:0:
310,133,67769,1,2,0:0:0:0:
467,207,67975,1,8,1:2:0:0:
346,330,68180,1,2,0:0:0:0:
402,141,68386,2,0,P|406:92|384:40,1,93.500001783371,8|2,1:2|0:0,0:0:0:0:
290,17,68694,2,0,B|228:44|228:44|156:32,1,140.250002675057,2|0,0:0|0:0,0:0:0:0:
30,170,69208,5,8,1:2:0:0:
55,142,69311,1,8,0:0:0:0:
91,134,69413,1,8,0:0:0:0:
126,145,69516,1,8,0:0:0:0:
151,172,69619,1,8,1:2:0:0:
172,202,69722,1,8,0:0:0:0:
205,217,69824,1,8,0:0:0:0:
242,213,69927,1,8,0:0:0:0:
279,185,70029,5,8,1:2:0:0:
282,231,70132,1,8,0:0:0:0:
325,249,70235,1,8,0:0:0:0:
369,234,70338,1,8,0:0:0:0:
380,188,70440,1,8,1:2:0:0:
361,144,70543,1,8,0:0:0:0:
358,97,70646,1,8,0:0:0:0:
391,63,70749,1,8,0:0:0:0:
435,51,70851,6,0,P|456:62|479:63,1,46.7500008916855,10|8,1:2|0:0,0:0:0:0:
358,97,71057,2,0,P|337:107|314:108,1,46.7500008916855,10|8,0:0|0:0,0:0:0:0:
436,139,71262,2,0,P|456:149|479:150,1,46.7500008916855,10|8,1:2|0:0,0:0:0:0:
353,196,71468,1,8,0:0:0:0:
300,216,71571,1,8,0:0:0:0:
244,212,71673,1,8,1:2:0:0:
197,180,71776,1,8,0:0:0:0:
174,128,71879,1,8,0:0:0:0:
187,73,71982,1,8,0:0:0:0:
231,37,72084,6,0,P|214:40|198:41,1,33,2|0,0:0|0:0,0:0:0:0:
33,75,72495,6,0,P|93:128|173:127,1,165.000006294251,6|0,1:3|0:0,0:0:0:0:
331,47,72803,1,2,0:0:0:0:
331,47,72906,2,0,P|307:71|290:122,1,82.5000031471254,8|0,0:1|0:0,0:0:0:0:
203,281,73112,2,0,P|231:250|244:212,1,82.5000031471254,2|0,0:0|0:0,0:0:0:0:
399,220,73317,6,0,P|363:194|288:199,1,88,0|0,1:0|0:0,0:0:0:0:
58,351,73728,6,0,B|112:339|112:339|166:346,1,110,10|0,0:1|0:0,0:0:0:0:
327,350,73934,1,2,0:0:0:0:
327,350,74036,1,0,0:0:0:0:
327,350,74139,6,0,B|259:340|259:340|223:354|223:354|165:346,1,165.000006294251,2|0,1:0|0:0,0:0:0:0:
208,201,74447,1,2,0:0:0:0:
208,201,74551,2,0,P|214:245|202:283,1,82.5000031471254,8|0,0:1|0:0,0:0:0:0:
152,136,74756,2,0,P|150:91|162:52,1,82.5000031471254,2|0,0:0|0:0,0:0:0:0:
329,139,74961,6,0,P|279:117|221:132,1,110,0|0,1:0|0:0,0:0:0:0:
284,340,75372,5,10,0:1:0:0:
360,336,75475,1,2,0:0:0:0:
432,332,75577,1,2,0:0:0:0:
508,328,75680,1,2,0:0:0:0:
465,265,75783,6,0,P|434:190|446:110,1,165.000006294251,2|0,1:0|0:0,0:0:0:0:
371,22,76091,1,2,0:0:0:0:
371,22,76194,2,0,L|488:15,1,82.5000031471254,8|0,0:1|0:0,0:0:0:0:
348,108,76399,2,0,L|265:103,1,82.5000031471254,2|0,0:0|0:0,0:0:0:0:
54,39,76605,5,2,1:0:0:0:
105,63,76707,1,2,0:0:0:0:
127,116,76810,1,2,0:0:0:0:
64,237,76913,5,2,0:0:0:0:
44,182,77016,1,10,0:1:0:0:
73,132,77119,1,2,0:0:0:0:
127,116,77221,1,2,0:0:0:0:
325,293,77427,6,0,L|150:285,1,165.000006294251,2|0,1:0|0:0,0:0:0:0:
181,322,77735,2,0,L|345:329,1,165.000006294251,2|0,0:0|0:0,0:0:0:0:
312,253,78043,1,2,0:0:0:0:
123,89,78249,6,0,P|9:139|131:161,1,330,6|0,1:3|0:0,0:0:0:0:
258,55,78660,6,0,P|380:76|266:127,1,330,14|0,1:3|0:0,0:0:0:0:
206,259,79071,6,0,B|229:172|182:168|200:91,1,165.000006294251,6|0,1:0|0:0,0:0:0:0:
138,213,79379,1,2,0:0:0:0:
138,213,79482,2,0,P|94:233|58:229,1,82.5000031471254,8|0,0:1|0:0,0:0:0:0:
151,318,79687,2,0,P|195:338|231:334,1,82.5000031471254,2|0,0:0|0:0,0:0:0:0:
299,189,79893,2,0,P|312:253|297:302,1,88,0|0,1:0|0:0,0:0:0:0:
387,260,80303,6,0,B|440:271|440:271|494:258,1,110,10|0,0:1|0:0,0:0:0:0:
501,140,80509,1,2,0:0:0:0:
501,140,80612,1,0,0:0:0:0:
501,140,80714,6,0,P|450:190|514:260,1,165.000006294251,2|0,1:0|0:0,0:0:0:0:
386,174,81023,1,2,0:0:0:0:
386,174,81125,2,0,B|346:186|346:186|285:175,1,82.5000031471254,8|0,0:1|0:0,0:0:0:0:
157,134,81331,2,0,B|197:126|197:126|237:138,1,82.5000031471254,2|0,0:0|0:0,0:0:0:0:
232,376,81536,6,0,L|238:203,1,165,0|0,1:0|0:0,0:0:0:0:
297,30,81947,5,10,0:1:0:0:
301,106,82050,1,2,0:0:0:0:
305,178,82152,1,2,0:0:0:0:
309,254,82255,1,2,0:0:0:0:
377,207,82358,6,0,P|307:171|239:211,1,165.000006294251,2|0,1:0|0:0,0:0:0:0:
151,342,82667,1,2,0:0:0:0:
151,342,82769,2,0,P|182:301|191:263,1,82.5000031471254,8|0,0:1|0:0,0:0:0:0:
54,187,82975,2,0,P|66:225|93:257,1,82.5000031471254,2|0,0:0|0:0,0:0:0:0:
171,153,83180,5,2,1:0:0:0:
145,82,83283,1,2,0:0:0:0:
88,47,83386,1,2,0:0:0:0:
32,59,83488,1,2,0:0:0:0:
82,88,83591,1,10,0:1:0:0:
105,131,83694,1,2,0:0:0:0:
107,180,83797,1,2,0:0:0:0:
18,354,84002,6,0,P|47:279|123:256,1,165.000006294251,2|0,1:0|0:0,0:0:0:0:
105,131,84310,2,0,P|179:160|202:236,1,165.000006294251,2|0,0:0|0:0,0:0:0:0:
312,252,84619,2,0,P|300:292|270:323,1,82.5000031471254,2|0,0:0|0:0,0:0:0:0:
448,351,84824,6,0,B|300:325|156:348|156:348|207:318,1,330,6|0,1:3|0:0,0:0:0:0:
365,152,85235,2,0,B|397:134|397:134|253:157|105:131,1,330,14|0,1:3|0:0,0:0:0:0:
21,22,85646,6,0,P|94:52|105:130,1,165.000006294251,6|0,1:0|0:0,0:0:0:0:
14,249,85954,1,2,0:0:0:0:
14,249,86057,2,0,P|47:224|89:223,1,82.5000031471254,8|0,0:1|0:0,0:0:0:0:
147,349,86262,2,0,P|117:321|76:316,1,82.5000031471254,2|0,0:0|0:0,0:0:0:0:
223,325,86468,6,0,L|219:219,1,88,0|0,1:0|0:0,0:0:0:0:
453,99,86879,2,0,B|450:16,2,82.5000031471254,8|0|2,0:1|0:0|0:0,0:0:0:0:
356,57,87187,1,0,0:0:0:0:
284,88,87290,6,0,P|315:62|356:56,1,82.5000031471254,2|0,1:0|0:0,0:0:0:0:
318,210,87495,1,2,0:0:0:0:
318,210,87598,1,2,0:0:0:0:
318,210,87701,2,0,P|325:169|352:139,1,82.5000031471254,8|0,0:1|0:0,0:0:0:0:
403,289,87906,2,0,L|395:181,1,82.5000031471254,2|0,0:0|0:0,0:0:0:0:
215,36,88112,6,0,L|208:130,1,88,0|0,1:0|0:0,0:0:0:0:
83,265,88420,5,0,0:0:0:0:
83,265,88523,2,0,P|110:269|84:301,1,82.5000031471254,10|0,0:1|0:0,0:0:0:0:
106,139,88728,2,0,P|122:160|81:165,1,82.5000031471254,2|0,0:0|0:0,0:0:0:0:
215,36,88934,6,0,P|210:99|187:36,1,165.000006294251,2|0,1:0|0:0,0:0:0:0:
332,24,89242,1,2,0:0:0:0:
332,24,89345,2,0,P|340:64|335:104,1,82.5000031471254,8|0,0:1|0:0,0:0:0:0:
446,167,89550,2,0,P|423:201|391:226,1,82.5000031471254,2|0,0:0|0:0,0:0:0:0:
483,308,89756,2,0,P|363:298|231:309,1,247.500009441376,0|0,1:0|0:0,0:0:0:0:
181,362,90167,1,8,0:1:0:0:
236,308,90269,1,0,0:0:0:0:
234,225,90372,1,2,0:0:0:0:
190,154,90475,1,0,0:0:0:0:
110,135,90577,6,0,L|125:323,1,165.000006294251,2|0,1:0|0:0,0:0:0:0:
234,225,90886,2,0,L|220:60,1,165.000006294251,2|0,0:0|0:0,0:0:0:0:
110,135,91194,1,2,0:0:0:0:
331,207,91399,2,0,P|370:215|412:203,1,82.5000031471254,0|0,1:0|0:0,0:0:0:0:
512,291,91605,2,0,P|473:283|430:294,1,82.5000031471254,0|0,0:0|0:0,0:0:0:0:
497,168,91810,2,0,B|487:21|487:21|465:50,1,165.000006294251,8|2,0:1|0:0,0:0:0:0:
278,219,92221,6,0,P|305:216|331:206,1,55,0|0,1:0|0:0,0:0:0:0:
207,141,92427,1,2,0:0:0:0:
207,141,92530,1,0,0:0:0:0:
182,176,92632,1,8,0:1:0:0:
172,219,92735,2,0,P|175:246|184:271,1,55,2|0,0:0|0:0,0:0:0:0:
23,288,93043,1,2,1:0:0:0:
53,320,93146,1,0,0:0:0:0:
93,337,93249,2,0,P|119:343|147:344,1,55,2|2,0:0|0:0,0:0:0:0:
306,330,93454,6,0,P|266:340|225:335,1,82.5000031471254,8|0,0:1|0:0,0:0:0:0:
172,219,93660,1,2,0:0:0:0:
172,219,93762,1,0,0:0:0:0:
172,219,93865,1,0,1:0:0:0:
377,35,94071,5,2,0:0:0:0:
403,69,94173,1,0,0:0:0:0:
411,112,94276,1,8,0:1:0:0:
399,154,94379,1,2,0:0:0:0:
372,189,94482,2,0,L|427:185,1,55,0|0,0:0|0:0,0:0:0:0:
317,107,94687,1,2,1:0:0:0:
273,102,94790,1,0,0:0:0:0:
247,66,94893,1,2,0:0:0:0:
203,61,94995,1,2,0:0:0:0:
171,91,95098,2,0,L|91:86,1,55,8|0,0:1|0:0,0:0:0:0:
213,213,95303,1,2,0:0:0:0:
213,213,95406,1,2,0:0:0:0:
213,213,95509,1,0,1:0:0:0:
40,24,95714,5,2,0:0:0:0:
44,68,95817,1,0,0:0:0:0:
48,112,95920,1,8,0:1:0:0:
52,156,96023,1,2,0:0:0:0:
56,200,96125,2,0,L|112:192,1,55,0|0,0:0|0:0,0:0:0:0:
231,289,96331,2,0,L|175:281,1,55,2|0,1:0|0:0,0:0:0:0:
32,355,96536,1,2,0:0:0:0:
32,355,96639,1,2,0:0:0:0:
46,366,96742,2,0,L|102:358,1,55,8|0,0:1|0:0,0:0:0:0:
231,289,96947,1,2,0:0:0:0:
56,200,97153,1,0,1:0:0:0:
184,356,97358,5,2,0:0:0:0:
226,368,97461,1,0,0:0:0:0:
269,363,97564,1,8,0:1:0:0:
302,333,97667,1,2,0:0:0:0:
317,292,97769,2,0,P|336:313|362:321,1,55,0|0,0:0|0:0,0:0:0:0:
384,207,97975,2,0,P|411:208|435:196,1,55,2|0,1:0|0:0,0:0:0:0:
385,90,98180,1,2,0:0:0:0:
412,45,98283,2,0,P|404:71|385:90,1,55,2|8,0:0|0:1,0:0:0:0:
122,65,98591,1,2,0:0:0:0:
256,192,98797,12,2,100440,1:2:0:0:
256,192,105372,12,0,106810,0:0:0:0:
471,347,106913,5,0,0:0:0:0:
471,347,107016,1,2,0:0:0:0:
471,347,107118,1,0,0:0:0:0:
471,347,107221,1,2,0:0:0:0:
377,184,107426,1,8,0:0:0:0:
344,343,107632,2,0,L|341:282,1,41.2500015735627,0|0,0:0|0:0,0:0:0:0:
293,152,107837,2,0,P|287:197|310:242,1,82.5000031471254,2|2,0:0|0:0,0:0:0:0:
445,261,108146,2,0,L|382:253,1,41.2500015735627,2|8,0:0|0:0,0:0:0:0:
252,296,108557,5,0,0:0:0:0:
227,300,108659,1,2,0:0:0:0:
202,305,108762,1,0,0:0:0:0:
177,310,108865,1,2,0:0:0:0:
197,176,109070,1,8,0:0:0:0:
148,370,109276,2,0,B|89:363,1,41.2500015735627,0|0,0:0|0:0,0:0:0:0:
23,284,109481,2,0,P|66:277|104:253,1,82.5000031471254,2|2,0:0|0:0,0:0:0:0:
206,242,109790,2,0,P|180:242|165:236,1,41.2500015735627,2|8,0:0|0:0,0:0:0:0:
232,85,110200,5,0,0:0:0:0:
232,85,110303,1,2,0:0:0:0:
232,85,110406,1,0,0:0:0:0:
232,85,110509,1,2,0:0:0:0:
324,191,110714,1,8,0:0:0:0:
135,147,110920,2,0,L|191:142,1,41.2500015735627,2|0,0:0|0:0,0:0:0:0:
324,191,111125,2,0,L|242:195,1,82.5000031471254,2|2,0:0|0:0,0:0:0:0:
320,104,111434,2,0,L|376:99,1,41.2500015735627,2|8,0:0|0:0,0:0:0:0:
232,85,111742,5,2,0:0:0:0:
232,85,111844,1,0,0:0:0:0:
232,85,111947,2,0,B|226:58|226:58|231:31,1,41.2500015735627,2|2,0:0|0:0,0:0:0:0:
361,100,112255,1,2,0:0:0:0:
156,199,112563,1,2,0:0:0:0:
156,199,112666,1,0,0:0:0:0:
156,199,112769,2,0,B|129:205|129:205|102:200,1,41.2500015735627,2|0,0:0|0:0,0:0:0:0:
52,292,112974,1,2,0:0:0:0:
52,292,113077,2,0,B|28:277|28:277|13:254,1,41.2500015735627,2|8,0:0|0:0,0:0:0:0:
129,46,113591,5,2,0:0:0:0:
129,46,113694,1,0,0:0:0:0:
129,46,113796,1,2,0:0:0:0:
20,161,114002,1,8,0:0:0:0:
237,130,114207,1,2,0:0:0:0:
49,176,114413,2,0,L|227:159,1,165.000006294251,2|8,0:0|0:0,0:0:0:0:
221,167,115235,5,2,0:0:0:0:
221,167,115338,1,0,0:0:0:0:
221,167,115440,1,2,0:0:0:0:
368,45,115646,1,8,0:0:0:0:
369,235,115851,1,0,0:0:0:0:
255,69,116057,2,0,L|148:75,1,82.5000031471254,2|2,0:0|0:0,0:0:0:0:
368,141,116468,2,0,L|450:145,1,82.5000031471254,10|0,0:0|0:0,0:0:0:0:
403,352,116879,5,2,0:0:0:0:
416,322,116981,1,0,0:0:0:0:
422,289,117084,1,2,0:0:0:0:
420,255,117187,1,2,0:0:0:0:
408,224,117289,2,0,P|451:257|504:265,1,82.5000031471254,8|2,0:0|0:0,0:0:0:0:
343,279,117598,1,0,0:0:0:0:
343,279,117701,2,0,P|300:312|247:320,1,82.5000031471254,2|2,0:0|0:0,0:0:0:0:
416,322,118009,1,2,0:0:0:0:
416,322,118112,2,0,P|459:355|512:363,1,82.5000031471254,8|2,0:0|0:0,0:0:0:0:
418,96,118522,5,2,0:0:0:0:
415,128,118625,1,0,0:0:0:0:
413,160,118728,1,2,0:0:0:0:
411,192,118831,1,2,0:0:0:0:
408,224,118933,1,8,0:0:0:0:
253,136,119139,1,0,0:0:0:0:
422,66,119345,2,0,L|432:259,1,165.000006294251,2|10,0:0|0:0,0:0:0:0:
257,53,120166,6,0,L|253:136,1,82.5000031471254,2|0,0:0|0:0,0:0:0:0:
172,189,120475,1,2,0:0:0:0:
376,306,120783,1,2,0:0:0:0:
227,334,120988,2,0,L|115:323,1,82.5000031471254,2|2,0:0|0:0,0:0:0:0:
191,227,121297,1,2,0:0:0:0:
191,227,121399,2,0,L|108:235,1,82.5000031471254,8|0,0:0|0:0,0:0:0:0:
278,260,121810,5,2,0:0:0:0:
297,233,121913,1,0,0:0:0:0:
304,200,122016,1,2,0:0:0:0:
297,167,122119,1,2,0:0:0:0:
274,142,122221,2,0,P|270:98|299:60,1,82.5000031471254,8|2,0:0|0:0,0:0:0:0:
196,96,122530,1,0,0:0:0:0:
196,96,122632,2,0,P|200:52|171:14,1,82.5000031471254,2|0,0:0|0:0,0:0:0:0:
108,74,122940,1,2,0:0:0:0:
377,29,123249,5,2,0:0:0:0:
274,142,123454,2,0,L|277:224,1,82.5000031471254,2|2,0:0|0:0,0:0:0:0:
323,282,123762,2,0,P|381:303|445:273,1,123.750004720688,2|2,0:0|0:0,0:0:0:0:
204,188,124276,2,0,P|146:209|96:187,1,82.5000031471254,2|0,0:0|0:0,0:0:0:0:
51,111,124584,2,0,P|62:128|68:147,1,41.2500015735627,2|8,0:0|0:0,0:0:0:0:
50,227,124790,1,0,0:0:0:0:
193,61,124995,5,0,0:0:0:0:
195,92,125098,1,2,0:0:0:0:
198,124,125201,1,0,0:0:0:0:
201,156,125303,1,2,0:0:0:0:
204,188,125406,1,2,0:0:0:0:
206,220,125509,2,0,L|257:211,1,41.2500015735627,8|0,0:0|0:0,0:0:0:0:
144,298,125714,2,0,L|92:294,1,41.2500015735627,0|0,0:0|0:0,0:0:0:0:
229,349,125920,5,2,0:0:0:0:
321,183,126125,1,2,0:0:0:0:
90,199,126331,1,10,0:0:0:0:
295,276,126536,1,2,0:0:0:0:
164,62,126742,6,0,P|157:127|240:175,1,165.000006294251,10|8,1:2|0:2,0:0:0:0:
369,92,127358,2,0,P|316:53|233:101,1,165.000006294251,0|0,0:0|0:0,0:0:0:0:
341,217,127975,1,8,0:2:0:0:
75,292,128283,5,0,0:0:0:0:
107,289,128386,1,10,1:2:0:0:
139,287,128488,1,0,0:0:0:0:
171,285,128591,1,2,0:0:0:0:
309,362,128797,1,8,0:2:0:0:
235,165,129002,2,0,P|255:244|238:324,1,165.000006294251,0|0,0:0|0:0,0:0:0:0:
75,292,129619,1,8,0:2:0:0:
266,94,130030,5,10,1:2:0:0:
294,110,130133,1,8,0:0:0:0:
313,136,130235,1,10,0:0:0:0:
324,167,130338,1,8,0:0:0:0:
328,203,130441,1,10,1:2:0:0:
325,240,130544,1,8,0:0:0:0:
312,274,130646,1,8,0:0:0:0:
283,297,130749,1,8,0:0:0:0:
243,306,130851,5,8,1:2:0:0:
235,265,130954,1,8,0:0:0:0:
248,226,131057,1,8,0:0:0:0:
273,193,131160,1,8,0:0:0:0:
313,173,131262,1,8,1:2:0:0:
356,159,131365,1,8,0:0:0:0:
401,161,131468,1,8,0:0:0:0:
443,177,131571,1,8,0:0:0:0:
469,213,131673,6,0,L|463:264,1,41.2500015735627,10|8,1:2|0:0,0:0:0:0:
401,161,131879,2,0,L|395:110,1,41.2500015735627,10|8,0:0|0:0,0:0:0:0:
313,173,132084,2,0,L|307:224,1,41.2500015735627,10|8,1:2|0:0,0:0:0:0:
243,307,132290,1,8,0:0:0:0:
187,290,132393,1,8,0:0:0:0:
147,248,132495,1,8,1:2:0:0:
140,186,132598,1,8,0:0:0:0:
160,127,132701,1,8,0:0:0:0:
208,87,132804,1,8,0:0:0:0:
289,91,132906,5,2,1:0:0:0:
289,91,133317,6,0,L|295:255,1,165.000006294251,6|0,1:0|0:0,0:0:0:0:
421,340,133625,1,2,0:0:0:0:
421,340,133728,2,0,P|396:316|345:299,1,82.5000031471254,8|0,0:1|0:0,0:0:0:0:
182,362,133934,2,0,P|218:342|244:311,1,82.5000031471254,2|0,0:0|0:0,0:0:0:0:
151,165,134139,6,0,P|137:203|156:267,1,88,0|0,1:0|0:0,0:0:0:0:
6,322,134550,6,0,B|115:317,1,110,10|0,0:1|0:0,0:0:0:0:
316,173,134756,1,2,0:0:0:0:
316,173,134858,1,0,0:0:0:0:
316,173,134961,6,0,L|150:165,1,165.000006294251,2|0,1:0|0:0,0:0:0:0:
230,252,135269,1,2,0:0:0:0:
230,252,135372,2,0,L|312:255,1,82.5000031471254,8|0,0:1|0:0,0:0:0:0:
266,93,135577,2,0,L|183:89,1,82.5000031471254,2|0,0:0|0:0,0:0:0:0:
35,59,135783,6,0,P|82:30|55:96,1,165,0|0,1:0|0:0,0:0:0:0:
167,18,136194,5,10,0:1:0:0:
183,89,136297,1,2,0:0:0:0:
151,155,136399,1,2,0:0:0:0:
84,188,136502,1,2,0:0:0:0:
9,183,136605,6,0,P|86:189|115:275,1,165.000006294251,2|0,1:0|0:0,0:0:0:0:
24,369,136913,1,2,0:0:0:0:
24,369,137016,2,0,P|65:340|113:325,1,82.5000031471254,8|0,0:1|0:0,0:0:0:0:
245,313,137221,2,0,P|200:325|150:308,1,82.5000031471254,2|0,0:0|0:0,0:0:0:0:
262,222,137427,5,2,1:0:0:0:
311,251,137529,1,2,0:0:0:0:
334,303,137632,1,2,0:0:0:0:
324,174,137735,1,2,0:0:0:0:
366,135,137838,1,10,0:1:0:0:
423,137,137941,1,2,0:0:0:0:
468,172,138043,1,2,0:0:0:0:
169,310,138249,6,0,L|333:302,1,165.000006294251,2|0,1:0|0:0,0:0:0:0:
476,258,138557,2,0,L|312:251,1,165.000006294251,2|0,0:0|0:0,0:0:0:0:
355,344,138865,1,2,0:0:0:0:
307,134,139071,6,0,B|314:73|373:26|373:26|279:100|166:39,1,330,6|0,1:3|0:0,0:0:0:0:
39,15,139482,6,0,P|124:104|3:75,1,330,14|0,1:3|0:0,0:0:0:0:
193,130,139893,6,0,B|220:209|171:209|198:292,1,165.000006294251,6|0,1:0|0:0,0:0:0:0:
372,259,140201,1,2,0:0:0:0:
372,259,140304,2,0,P|335:240|294:241,1,82.5000031471254,8|0,0:1|0:0,0:0:0:0:
141,349,140509,2,0,P|177:367|218:365,1,82.5000031471254,2|0,0:0|0:0,0:0:0:0:
193,130,140715,6,0,L|201:226,1,88,0|0,0:0|0:0,0:0:0:0:
334,25,141125,6,0,B|325:124,1,96.2500009179115,10|0,0:1|0:0,0:0:0:0:
488,269,141331,1,2,0:0:0:0:
488,269,141434,1,0,0:0:0:0:
488,269,141536,6,0,P|458:203|373:171,1,165.000006294251,2|0,1:0|0:0,0:0:0:0:
305,291,141845,1,2,0:0:0:0:
305,291,141947,2,0,B|294:198,1,82.5000031471254,8|0,0:1|0:0,0:0:0:0:
227,332,142153,2,0,B|217:250,1,82.5000031471254,2|0,0:0|0:0,0:0:0:0:
146,369,142358,6,0,L|125:186,1,165,0|0,1:0|0:0,0:0:0:0:
9,49,142769,5,10,0:1:0:0:
12,122,142872,1,2,0:0:0:0:
58,178,142974,1,2,0:0:0:0:
127,205,143077,1,2,0:0:0:0:
196,177,143180,6,0,P|275:151|381:160,1,165.000006294251,2|0,1:0|0:0,0:0:0:0:
497,228,143489,1,2,0:0:0:0:
497,228,143591,2,0,P|445:213|397:176,1,82.5000031471254,8|0,0:1|0:0,0:0:0:0:
504,89,143797,2,0,P|452:103|404:140,1,82.5000031471254,2|0,0:0|0:0,0:0:0:0:
334,224,144002,5,2,1:0:0:0:
356,153,144105,1,2,0:0:0:0:
334,90,144208,1,2,0:0:0:0:
282,63,144310,1,2,0:0:0:0:
287,112,144413,1,10,0:1:0:0:
269,158,144516,1,2,0:0:0:0:
225,182,144619,1,2,0:0:0:0:
19,77,144824,6,0,P|104:74|171:147,1,165.000006294251,2|0,1:0|0:0,0:0:0:0:
225,7,145132,2,0,P|268:76|268:158,1,165.000006294251,2|0,0:0|0:0,0:0:0:0:
376,257,145441,2,0,L|271:252,1,82.5000031471254,2|0,0:0|0:0,0:0:0:0:
50,328,145646,6,0,B|156:352|156:352|264:317|264:317|207:283|207:283|151:299,1,330,6|0,1:3|0:0,0:0:0:0:
151,191,146057,2,0,B|111:202|111:202|54:168|54:168|162:133|162:133|268:157,1,330,14|0,1:3|0:0,0:0:0:0:
77,282,153043,6,0,L|266:274,1,176,2|8,0:0|0:0,0:0:0:0:
457,197,153660,2,0,L|268:189,1,176,2|2,0:0|0:0,0:0:0:0:
138,78,154276,1,8,0:0:0:0:
257,278,154482,1,2,0:0:0:0:
257,278,154687,1,2,0:0:0:0:
373,60,154893,1,0,0:0:0:0:
373,60,155098,1,8,0:0:0:0:
62,209,155303,1,2,0:0:0:0:
62,209,155509,1,0,0:0:0:0:
360,319,155714,1,2,0:0:0:0:
254,150,155920,2,0,P|240:213|256:277,1,132,8|0,0:0|0:0,0:0:0:0:
150,347,156331,6,0,P|172:263|147:179,1,176,2|8,0:0|0:0,0:0:0:0:
245,10,156947,2,0,P|222:93|247:177,1,176,2|0,0:0|0:0,0:0:0:0:
375,94,157564,1,8,0:0:0:0:
124,97,157769,1,2,0:0:0:0:
124,97,157975,1,2,0:0:0:0:
317,244,158180,1,2,0:0:0:0:
317,244,158386,1,8,0:0:0:0:
326,29,158591,1,2,0:0:0:0:
207,207,158797,2,0,P|259:140|345:135,1,176,2|8,0:0|0:0,0:0:0:0:
462,348,159619,5,0,1:0:0:0:
456,313,159721,1,0,0:0:0:0:
452,278,159824,1,2,0:0:0:0:
345,135,160030,1,8,0:0:0:0:
220,236,160235,2,0,P|304:253|384:220,1,176,0|0,0:0|0:0,0:0:0:0:
284,75,160851,1,8,0:0:0:0:
131,250,161160,5,0,0:0:0:0:
134,285,161262,1,2,1:0:0:0:
137,321,161365,1,0,0:0:0:0:
140,357,161468,1,2,0:0:0:0:
274,287,161673,1,8,0:0:0:0:
48,230,161879,2,0,L|62:54,1,176,0|2,0:0|0:0,0:0:0:0:
210,174,162495,1,8,0:0:0:0:
455,55,162803,5,0,0:0:0:0:
422,41,162906,1,2,1:0:0:0:
386,40,163009,1,0,0:0:0:0:
352,50,163112,1,2,0:0:0:0:
210,174,163317,1,8,0:0:0:0:
423,212,163523,1,0,0:0:0:0:
423,212,163626,1,0,0:0:0:0:
423,212,163728,2,0,P|424:165|393:116,1,88,2|2,1:0|0:0,0:0:0:0:
323,274,164036,1,2,0:0:0:0:
185,96,164447,5,0,0:0:0:0:
220,98,164550,1,2,1:0:0:0:
255,102,164653,1,8,0:0:0:0:
291,105,164756,1,10,0:0:0:0:
363,274,164961,1,10,0:0:0:0:
337,307,165064,1,8,0:0:0:0:
323,274,165167,1,8,0:0:0:0:
255,102,165372,5,8,1:2:0:0:
246,145,165475,1,8,0:0:0:0:
216,177,165577,1,8,0:0:0:0:
174,192,165680,1,8,0:0:0:0:
130,184,165783,1,8,1:2:0:0:
88,170,165886,1,8,0:0:0:0:
45,179,165988,1,8,0:0:0:0:
13,210,166091,1,8,0:0:0:0:
16,253,166194,6,0,P|81:282|152:256,1,132,6|2,1:0|0:0,0:0:0:0:
239,347,166605,2,0,P|268:282|242:213,1,121.000003692627,8|0,0:1|0:0,0:0:0:0:
176,118,166913,1,2,0:0:0:0:
176,118,167016,2,0,L|105:114,1,65.9999979858399,0|0,1:0|0:0,0:0:0:0:
238,163,167221,2,0,L|309:159,1,65.9999979858399,2|0,0:0|0:0,0:0:0:0:
419,67,167427,6,0,P|352:66|306:169,1,181.500005538941,8|2,0:1|0:0,0:0:0:0:
487,258,167838,2,0,P|487:189|382:141,1,197.99999395752,0|2,1:0|0:0,0:0:0:0:
369,361,168249,2,0,L|356:209,1,142.99999345398,8|0,0:1|0:0,0:0:0:0:
311,56,168557,1,2,0:0:0:0:
311,56,168660,6,0,L|304:132,1,76.9999976501466,0|0,1:0|0:0,0:0:0:0:
205,30,168865,2,0,L|211:106,1,76.9999976501466,2|2,0:0|0:0,0:0:0:0:
102,45,169071,1,8,0:1:0:0:
97,88,169173,1,0,0:0:0:0:
93,135,169276,1,2,0:0:0:0:
89,184,169379,1,2,0:0:0:0:
112,208,169482,6,0,P|137:225|167:225,1,55,6|0,1:0|0:0,0:0:0:0:
171,302,169687,2,0,P|200:296|221:275,1,55,0|0,0:0|0:0,0:0:0:0:
286,332,169893,2,0,P|303:307|302:274,1,60.5000018463135,8|0,0:1|0:0,0:0:0:0:
386,262,170098,2,0,P|380:232|356:210,1,60.5000018463135,0|0,0:0|0:0,0:0:0:0:
203,194,170303,6,0,P|228:177|263:178,1,65.9999979858399,2|0,1:0|0:0,0:0:0:0:
274,92,170509,2,0,P|303:97|328:124,1,65.9999979858399,0|0,0:0|0:0,0:0:0:0:
401,65,170714,2,0,P|418:90|416:131,1,71.4999967269899,8|0,0:1|0:0,0:0:0:0:
507,151,170920,2,0,P|501:180|472:210,1,71.4999967269899,0|0,0:0|0:0,0:0:0:0:
293,296,171125,6,0,L|390:293,1,76.9999976501466,2|0,1:0|0:0,0:0:0:0:
200,250,171331,2,0,L|103:247,1,76.9999976501466,0|0,0:0|0:0,0:0:0:0:
302,200,171536,2,0,L|405:197,1,82.5000031471254,8|0,0:1|0:0,0:0:0:0:
205,151,171742,2,0,L|102:148,1,82.5000031471254,0|0,0:0|0:0,0:0:0:0:
291,123,171947,2,0,L|294:16,1,88,2|0,1:0|0:0,0:0:0:0:
218,253,172153,2,0,L|221:360,1,88,0|0,0:0|0:0,0:0:0:0:
180,120,172358,2,0,L|183:10,1,93.500001783371,8|0,0:1|0:0,0:0:0:0:
107,250,172564,2,0,L|110:358,1,93.500001783371,0|0,0:0|0:0,0:0:0:0:
10,154,172769,6,0,P|65:178|124:170,1,121.000003692627,6|0,1:3|0:0,0:0:0:0:
303,140,173180,2,0,P|238:147|180:119,1,131.99999597168,10|0,1:0|0:0,0:0:0:0:
192,334,173591,2,0,L|190:246,1,71.4999967269899,6|0,1:3|0:0,0:0:0:0:
298,288,173797,1,0,0:0:0:0:
298,288,173899,1,0,0:0:0:0:
298,287,174002,2,0,P|315:259|282:253,1,76.9999976501466,10|0,1:0|0:0,0:0:0:0:
234,178,174208,2,0,P|227:145|199:162,1,76.9999976501466,0|0,0:0|0:0,0:0:0:0:
108,198,174413,6,0,P|59:203|118:236,1,165.000006294251,6|0,1:3|0:0,0:0:0:0:
404,198,174824,2,0,P|453:203|393:236,1,176,10|0,1:0|0:0,0:0:0:0:
260,144,175132,1,0,0:0:0:0:
260,144,175235,2,0,P|243:97|251:43,1,93.500001783371,6|0,1:3|0:0,0:0:0:0:
282,253,175440,2,0,P|285:299|268:342,1,93.500001783371,0|0,0:0|0:0,0:0:0:0:
29,224,175646,2,0,B|72:234|108:198|108:198|152:227|214:209,1,197.99999395752,10|0,1:0|0:0,0:0:0:0:
450,169,176057,5,2,1:0:0:0:
133,304,176262,2,0,L|210:300,1,55,6|0,0:3|0:0,0:0:0:0:
415,344,176468,1,8,0:1:0:0:
415,344,176673,2,0,L|329:340,1,82.5000031471254,2|0,0:0|0:0,0:0:0:0:
133,304,176879,1,0,1:0:0:0:
279,170,177084,2,0,P|277:211|282:253,1,82.5000031471254,2|0,0:0|0:0,0:0:0:0:
424,202,177290,1,8,0:1:0:0:
224,116,177495,2,0,P|188:118|157:128,1,55,0|0,0:0|0:0,0:0:0:0:
37,223,177701,5,2,1:0:0:0:
36,223,177906,2,0,P|61:211|79:190,1,55,6|0,0:3|0:0,0:0:0:0:
38,11,178112,1,8,0:1:0:0:
38,11,178317,2,0,P|52:48|87:69,1,82.5000031471254,2|0,0:0|0:0,0:0:0:0:
240,40,178523,1,0,1:0:0:0:
230,239,178728,2,0,L|235:129,1,82.5000031471254,2|0,0:0|0:0,0:0:0:0:
397,204,178934,1,8,0:1:0:0:
172,286,179139,2,0,L|116:284,1,55,0|0,0:0|0:0,0:0:0:0:
300,346,179345,5,2,1:0:0:0:
300,346,179550,2,0,L|356:344,1,55,2|0,0:0|0:0,0:0:0:0:
497,231,179756,1,6,0:3:0:0:
391,185,179961,1,2,0:0:0:0:
391,185,180064,1,0,0:0:0:0:
357,153,180167,6,0,P|352:139|350:126,2,27.5,2|0|0,1:0|0:0|0:0,0:0:0:0:
265,92,180372,2,0,P|271:79|279:68,2,27.5,2|0|0,0:0|0:0|0:0,0:0:0:0:
164,136,180577,2,0,P|150:131|137:129,2,27.5,10|0|0,0:1|0:0|0:0,0:0:0:0:
124,240,180783,2,0,P|111:246|100:254,2,27.5,2|0|0,0:0|0:0|0:0,0:0:0:0:
154,371,180988,5,2,1:0:0:0:
154,371,181194,2,0,L|150:295,1,55,6|0,0:3|0:0,0:0:0:0:
30,165,181399,1,8,0:1:0:0:
30,165,181605,2,0,L|26:258,1,82.5000031471254,2|0,0:0|0:0,0:0:0:0:
26,367,181810,1,0,1:0:0:0:
26,367,181913,1,2,0:0:0:0:
45,321,182016,1,2,0:0:0:0:
88,297,182119,1,2,0:0:0:0:
136,289,182221,1,10,0:1:0:0:
183,304,182324,1,2,0:0:0:0:
190,254,182427,1,2,0:0:0:0:
223,216,182530,1,2,0:0:0:0:
267,204,182632,5,2,1:0:0:0:
459,303,182838,2,0,L|401:302,1,55,6|0,0:3|0:0,0:0:0:0:
267,204,183043,1,8,0:1:0:0:
267,204,183249,2,0,L|357:203,1,82.5000031471254,2|0,0:0|0:0,0:0:0:0:
459,303,183454,1,0,1:0:0:0:
239,364,183660,2,0,P|257:337|248:266,1,82.5000031471254,2|0,0:0|0:0,0:0:0:0:
151,185,183865,1,8,0:1:0:0:
16,287,184071,2,0,P|47:314|91:317,1,55,0|0,0:0|0:0,0:0:0:0:
225,227,184276,5,2,1:0:0:0:
225,227,184482,2,0,L|222:146,1,55,6|0,0:3|0:0,0:0:0:0:
349,37,184687,1,8,0:1:0:0:
349,37,184893,2,0,L|352:132,1,82.5000031471254,2|0,0:0|0:0,0:0:0:0:
442,279,185098,1,0,1:0:0:0:
277,293,185303,2,0,P|314:278|371:276,1,82.5000031471254,2|0,0:0|0:0,0:0:0:0:
480,355,185509,1,8,0:1:0:0:
488,185,185714,2,0,P|488:157|484:130,1,55,0|0,0:0|0:0,0:0:0:0:
349,37,185920,5,2,1:0:0:0:
349,37,186125,2,0,L|294:34,1,55,2|0,0:0|0:0,0:0:0:0:
166,148,186331,1,4,0:3:0:0:
386,105,186536,1,2,0:0:0:0:
386,105,186639,1,0,0:0:0:0:
356,124,186742,6,0,L|310:120,2,27.5,2|0|0,1:0|0:0|0:0,0:0:0:0:
312,202,186947,2,0,L|266:198,2,27.5,2|0|0,0:0|0:0|0:0,0:0:0:0:
225,108,187153,2,0,L|179:104,2,27.5,10|0|0,0:1|0:0|0:0,0:0:0:0:
181,186,187358,2,0,L|135:182,2,27.5,2|0|0,0:0|0:0|0:0,0:0:0:0:
52,83,187564,5,2,1:0:0:0:
52,83,187769,2,0,L|54:162,1,55,6|0,0:3|0:0,0:0:0:0:
61,333,187975,1,8,0:1:0:0:
61,333,188180,2,0,L|59:250,1,82.5000031471254,2|0,0:0|0:0,0:0:0:0:
52,83,188386,1,0,1:0:0:0:
85,118,188488,1,2,0:0:0:0:
130,138,188591,1,2,0:0:0:0:
177,150,188694,1,2,0:0:0:0:
225,145,188796,1,10,0:1:0:0:
268,120,188899,1,2,0:0:0:0:
287,74,189002,1,2,0:0:0:0:
262,30,189105,1,2,0:0:0:0:
215,13,189208,6,0,L|225:136,1,117.333333333333
225,145,189796,1,0,0:0:0:0:
231,153,190565,1,0,0:0:0:0:
301,237,190843,1,8,0:0:0:0:
182,265,191121,2,0,L|61:258,2,110,2|0|0,0:0|0:0|0:0,0:0:0:0:
231,153,191871,1,8,0:0:0:0:
231,153,192371,1,2,0:0:0:0:
88,70,192699,1,2,0:0:0:0:
88,70,192808,1,8,0:0:0:0:
108,178,193027,1,2,0:0:0:0:
108,178,193684,1,8,0:0:0:0:
241,61,193911,5,0,0:0:0:0:
241,61,194139,1,2,0:0:0:0:
287,258,194344,1,0,0:0:0:0:
287,258,194550,1,8,0:0:0:0:
391,124,194756,1,2,0:0:0:0:
177,152,194960,2,0,P|220:161|264:158,1,88,0|0,0:0|0:0,0:0:0:0:
343,39,195372,1,8,0:0:0:0:
365,322,195782,6,0,L|357:204,1,88,10|0,1:2|0:0,0:0:0:0:
254,341,196193,2,0,L|246:223,1,88,8|2,1:2|0:0,0:0:0:0:
142,359,196604,2,0,L|134:241,1,88,8|2,1:2|0:0,0:0:0:0:
33,380,197015,2,0,L|25:262,1,88,8|2,1:2|0:0,0:0:0:0:
30,110,197427,6,0,P|52:147|91:166,1,88,10|2,1:2|0:0,0:0:0:0:
263,96,197837,2,0,P|240:133|201:152,1,88,8|2,1:2|0:0,0:0:0:0:
129,11,198249,2,0,L|140:130,1,88,8|2,1:2|0:0,0:0:0:0:
142,294,198659,2,0,L|153:175,1,88,8|2,1:2|0:0,0:0:0:0:
258,44,199070,5,8,1:2:0:0:
285,30,199173,1,8,0:0:0:0:
315,29,199275,1,8,0:0:0:0:
344,37,199378,1,8,0:0:0:0:
361,62,199481,1,10,1:2:0:0:
362,97,199584,1,8,0:0:0:0:
345,127,199686,1,8,0:0:0:0:
336,161,199789,1,8,0:0:0:0:
350,193,199892,1,8,1:2:0:0:
383,214,199995,1,8,0:0:0:0:
422,210,200097,1,8,0:0:0:0:
452,185,200200,1,8,0:0:0:0:
459,141,200303,1,8,1:2:0:0:
431,106,200406,1,8,0:0:0:0:
387,99,200508,2,0,L|328:110,1,44,10|8,0:0|0:0,0:0:0:0:
233,155,200714,5,8,1:2:0:0:
180,152,200817,1,8,0:0:0:0:
140,116,200920,1,10,0:0:0:0:
145,63,201023,1,8,0:0:0:0:
192,31,201125,1,8,1:2:0:0:
247,46,201228,1,8,0:0:0:0:
263,101,201331,1,8,0:0:0:0:
233,155,201434,1,8,0:0:0:0:
205,209,201536,2,0,P|193:251|214:294,1,88,10|0,1:2|0:0,0:0:0:0:
272,245,201845,1,2,0:0:0:0:
50,303,202358,6,0,P|122:281|220:295,1,165.000006294251,6|0,1:0|0:0,0:0:0:0:
369,306,202667,1,0,0:0:0:0:
369,306,202769,2,0,P|326:315|191:280,1,165.000006294251,10|0,0:1|0:0,0:0:0:0:
143,189,203077,1,0,0:0:0:0:
149,114,203180,1,0,1:0:0:0:
208,69,203283,1,0,0:0:0:0:
282,76,203386,1,2,0:0:0:0:
339,121,203488,1,2,0:0:0:0:
416,137,203591,1,10,0:1:0:0:
415,136,203796,2,0,P|457:135|495:121,1,82.5000031471254,2|0,0:0|0:0,0:0:0:0:
365,196,204002,5,0,1:0:0:0:
317,253,204105,1,0,0:0:0:0:
325,326,204208,1,0,0:0:0:0:
384,369,204310,1,0,0:0:0:0:
454,347,204413,2,0,P|434:313|395:295,1,82.5000031471254,10|0,0:1|0:0,0:0:0:0:
250,355,204618,5,0,0:0:0:0:
250,355,204721,1,0,0:0:0:0:
176,314,204824,2,0,P|203:284|244:274,1,82.5000031471254,2|0,1:2|0:0,0:0:0:0:
232,162,205029,2,0,P|272:160|308:181,1,82.5000031471254,2|0,0:0|0:0,0:0:0:0:
400,119,205235,1,10,0:1:0:0:
400,207,205338,1,0,0:0:0:0:
397,295,205440,2,0,L|317:276,1,82.5000031471254,0|0,0:0|0:0,0:0:0:0:
8,241,205646,6,0,L|172:226,1,165.000006294251,2|0,1:2|0:0,0:0:0:0:
291,110,205954,1,0,0:0:0:0:
291,110,206056,2,0,L|455:124,1,165.000006294251,10|0,0:1|0:0,0:0:0:0:
351,287,206365,1,0,0:0:0:0:
351,287,206468,2,0,P|345:236|354:191,1,82.5000031471254,2|0,1:2|0:0,0:0:0:0:
453,43,206673,2,0,P|459:94|450:139,1,82.5000031471254,2|2,0:0|0:0,0:0:0:0:
252,125,206879,2,0,P|287:105|328:97,1,82.5000031471254,10|0,0:1|0:0,0:0:0:0:
258,239,207084,1,2,0:0:0:0:
204,209,207187,1,0,0:0:0:0:
174,158,207290,5,0,1:0:0:0:
174,158,207393,2,0,L|174:75,1,82.5000031471254,0|0,0:0|0:0,0:0:0:0:
50,30,207598,1,0,0:0:0:0:
50,30,207701,5,10,0:1:0:0:
4,98,207803,1,2,0:0:0:0:
14,171,207906,1,2,0:0:0:0:
63,215,208009,1,2,0:0:0:0:
138,181,208111,5,2,1:2:0:0:
115,109,208214,1,2,0:0:0:0:
139,47,208317,1,2,0:0:0:0:
192,26,208419,1,2,0:0:0:0:
246,88,208522,5,10,0:1:0:0:
207,129,208625,1,2,0:0:0:0:
226,174,208728,2,0,L|314:182,1,82.5000031471254,2|2,0:0|0:0,0:0:0:0:
461,298,208934,5,6,1:0:0:0:
481,253,209036,1,0,0:0:0:0:
458,209,209139,2,0,L|369:217,1,82.5000031471254,2|0,0:0|0:0,0:0:0:0:
201,292,209344,2,0,L|399:311,1,165.000006294251,10|0,0:1|0:0,0:0:0:0:
407,142,209653,1,0,0:0:0:0:
407,141,209756,2,0,P|402:101|387:63,1,82.5000031471254,0|0,1:0|0:0,0:0:0:0:
238,25,209960,1,2,0:0:0:0:
238,25,210063,1,2,0:0:0:0:
238,25,210166,2,0,P|222:63|217:103,1,82.5000031471254,10|0,0:1|0:0,0:0:0:0:
303,265,210371,2,0,P|297:224|282:186,1,82.5000031471254,2|0,0:0|0:0,0:0:0:0:
38,204,210577,6,0,P|118:217|195:188,1,165.000006294251,0|0,1:0|0:0,0:0:0:0:
108,56,210886,1,2,0:0:0:0:
108,56,210988,2,0,P|102:103|114:141,1,82.5000031471254,10|0,0:1|0:0,0:0:0:0:
199,349,211193,2,0,P|209:309|202:268,1,82.5000031471254,2|0,0:0|0:0,0:0:0:0:
38,204,211399,2,0,L|202:195,1,165.000006294251,2|0,1:2|0:0,0:0:0:0:
364,250,211707,2,0,L|272:240,1,82.5000031471254,2|10,0:0|0:1,0:0:0:0:
202,195,211912,1,0,0:0:0:0:
196,124,212015,1,0,0:0:0:0:
190,53,212118,1,0,0:0:0:0:
273,85,212221,6,0,P|321:99|382:93,1,110,2|0,1:2|0:0,0:0:0:0:
492,24,212632,1,2,0:1:0:0:
464,189,212837,2,0,P|446:176|435:144,1,55,0|0,0:0|0:0,0:0:0:0:
363,216,213043,2,0,P|342:266|295:291,1,110,2|0,0:0|0:0,0:0:0:0:
157,242,213351,1,2,0:0:0:0:
157,242,213454,2,0,P|183:234|210:238,1,55,2|0,0:1|0:0,0:0:0:0:
299,295,213659,1,2,0:0:0:0:
299,295,213762,1,2,0:0:0:0:
253,357,213865,6,0,P|233:338|223:312,1,55,0|2,0:0|0:0,0:0:0:0:
146,294,214070,2,0,P|145:266|157:242,1,55,0|2,0:0|0:0,0:0:0:0:
100,187,214275,2,0,P|118:167|144:157,1,55,2|0,0:1|0:0,0:0:0:0:
109,66,214482,1,2,0:0:0:0:
179,67,214584,1,0,0:0:0:0:
229,117,214686,1,2,0:0:0:0:
235,188,214789,1,0,0:0:0:0:
233,243,214892,1,2,0:0:0:0:
275,277,214995,1,2,0:0:0:0:
329,276,215097,1,2,0:1:0:0:
369,238,215200,1,2,0:0:0:0:
389,186,215303,2,0,P|391:164|382:127,1,55,0|0,0:0|0:0,0:0:0:0:
250,34,215508,5,6,1:0:0:0:
250,34,215611,1,0,0:0:0:0:
250,34,215714,2,0,P|294:56|334:50,1,82.5000031471254,2|0,0:0|0:0,0:0:0:0:
495,30,215919,2,0,P|454:28|418:49,1,82.5000031471254,10|0,0:1|0:0,0:0:0:0:
388,135,216125,1,0,0:0:0:0:
388,135,216228,1,0,0:0:0:0:
392,176,216331,1,0,1:0:0:0:
396,216,216434,1,0,0:0:0:0:
400,256,216536,1,0,0:0:0:0:
404,296,216639,1,0,0:0:0:0:
403,335,216741,2,0,P|365:322|324:320,1,82.5000031471254,10|0,0:1|0:0,0:0:0:0:
152,354,216947,5,2,0:0:0:0:
152,354,217049,2,0,P|193:352|231:338,1,82.5000031471254,0|0,0:0|1:0,0:0:0:0:
253,174,217256,2,0,B|251:213|273:231|267:254,1,82.5000031471254,2|0,0:0|0:0,0:0:0:0:
332,186,217460,1,2,0:0:0:0:
396,146,217564,1,10,0:1:0:0:
470,147,217667,1,0,0:0:0:0:
509,208,217769,2,0,P|471:220|432:209,1,82.5000031471254,2|0,0:0|0:0,0:0:0:0:
320,94,217975,6,0,L|309:3,1,82.5000031471254,6|0,1:3|0:0,0:0:0:0:
159,39,218180,2,0,L|243:74,1,82.5000031471254,6|0,0:3|0:0,0:0:0:0:
85,164,218385,2,0,L|160:131,1,82.5000031471254,14|0,0:3|0:0,0:0:0:0:
242,258,218591,2,0,L|166:225,1,82.5000031471254,6|0,0:3|0:0,0:0:0:0:
47,286,218797,5,6,1:0:0:0:
14,352,218899,1,0,0:0:0:0:
88,348,219002,2,0,L|196:326,1,82.5000031471254,0|0,0:0|0:0,0:0:0:0:
311,374,219208,2,0,P|272:362|258:325,1,82.5000031471254,10|0,0:1|0:0,0:0:0:0:
388,273,219412,1,0,0:0:0:0:
388,273,219516,1,2,0:0:0:0:
388,273,219619,2,0,L|396:368,1,82.5000031471254,2|0,1:2|0:0,0:0:0:0:
456,199,219824,5,2,0:0:0:0:
430,147,219926,1,2,0:0:0:0:
376,128,220029,2,0,P|334:128|293:130,1,82.5000031471254,10|0,0:1|0:0,0:0:0:0:
140,208,220235,1,2,0:0:0:0:
60,184,220338,1,2,0:0:0:0:
17,112,220440,6,0,L|22:30,1,82.5000031471254,0|0,1:0|0:0,0:0:0:0:
190,34,220645,1,0,0:0:0:0:
190,34,220749,1,2,0:0:0:0:
266,62,220851,5,10,0:1:0:0:
303,135,220954,1,2,0:0:0:0:
298,217,221057,1,0,0:0:0:0:
235,271,221160,1,0,0:0:0:0:
153,266,221262,5,2,1:2:0:0:
173,194,221365,1,2,0:0:0:0:
229,146,221467,1,2,0:0:0:0:
303,135,221570,1,2,0:0:0:0:
373,159,221673,1,10,0:1:0:0:
407,224,221775,1,0,0:0:0:0:
474,254,221878,1,0,0:0:0:0:
467,179,221981,1,0,0:0:0:0:
407,224,222084,6,0,L|418:363,1,110,2|0,0:3|0:0,0:0:0:0:
