osu file format v14

[General]
AudioFilename: audio.mp3
AudioLeadIn: 0
PreviewTime: 72084
Countdown: 0
SampleSet: Soft
StackLeniency: 0.4
Mode: 0
LetterboxInBreaks: 0
WidescreenStoryboard: 1

[Editor]
DistanceSpacing: 1.4
BeatDivisor: 8
GridSize: 8
TimelineZoom: 1

[Metadata]
Title:The Government Knows
TitleUnicode:The Government Knows
Artist:KNOWER
ArtistUnicode:KNOWER
Creator:Pachiru
Version:Insane
Source:osu!
Tags:fieryrage govt featured artist fa mappers mappers' guild LIFE electronic drum and & bass dnb english gabe veus nozhomi
BeatmapID:2250658
BeatmapSetID:1075602

[Difficulty]
HPDrainRate:6.5
CircleSize:4
OverallDifficulty:7
ApproachRate:9
SliderMultiplier:1.8
SliderTickRate:1

[Events]
//Background and Video events
0,0,"How.jpg",0,0
//Break Periods
2,100434,104772
2,146673,152221
//Storyboard Layer 0 (Background)
//Storyboard Layer 1 (Fail)
//Storyboard Layer 2 (Pass)
//Storyboard Layer 3 (Foreground)
//Storyboard Layer 4 (Overlay)
//Storyboard Sound Samples

[TimingPoints]
167,410.958904109589,4,2,1,40,1,0
167,-100,4,2,1,40,0,0
6742,-100,4,2,1,45,0,0
13317,-100,4,2,1,50,0,0
19893,-100,4,2,1,52,0,0
33043,-100,4,2,1,55,0,0
46194,-100,4,2,1,58,0,0
52769,-100,4,2,1,60,0,0
56057,-100,4,2,1,62,0,0
59345,-100,4,2,1,65,0,0
69208,-100,4,2,1,50,0,0
69310,-100,4,2,1,40,0,0
69619,-100,4,2,1,50,0,0
69721,-100,4,2,1,40,0,0
70030,-100,4,2,1,50,0,0
70132,-100,4,2,1,40,0,0
70440,-100,4,2,1,50,0,0
70543,-100,4,2,1,40,0,0
70749,-100,4,2,1,50,0,0
71160,-100,4,2,1,40,0,0
71262,-100,4,2,1,50,0,0
71365,-100,4,2,1,40,0,0
71673,-100,4,2,1,50,0,0
71776,-100,4,2,1,40,0,0
71982,-100,4,2,1,30,0,0
72084,-500,4,2,1,50,0,0
72187,-500,4,2,2,5,0,0
72495,-80,4,2,1,75,0,1
73728,-57.1428571428571,4,2,1,75,0,1
73934,-80,4,2,1,75,0,1
78249,-66.6666666666667,4,2,1,75,0,1
79071,-80,4,2,1,75,0,1
80303,-57.1428571428571,4,2,1,75,0,1
80509,-80,4,2,1,75,0,1
84824,-66.6666666666667,4,2,1,75,0,1
85646,-79.9999999999999,4,2,1,75,0,1
92221,-100,4,2,1,65,0,0
98797,-100,4,2,1,50,0,0
99002,-100,4,2,1,30,0,0
102495,-100,4,2,1,20,0,0
105783,-100,4,2,1,30,0,0
106605,-100,4,2,1,40,0,0
107016,-100,4,2,1,52,0,0
113591,-100,4,2,1,55,0,0
120166,-100,4,2,1,58,0,0
126742,-100,4,2,1,60,0,0
128797,-100,4,2,1,58,0,0
129208,-100,4,2,1,55,0,0
129619,-100,4,2,1,52,0,0
130030,-100,4,2,1,50,0,0
130338,-100,4,2,1,40,0,0
130440,-100,4,2,1,50,0,0
130543,-100,4,2,1,38,0,0
130851,-100,4,2,1,50,0,0
130954,-100,4,2,1,35,0,0
131262,-100,4,2,1,50,0,0
131365,-100,4,2,1,32,0,0
131571,-100,4,2,1,42,0,0
131673,-100,4,2,1,50,0,0
131776,-100,4,2,1,42,0,0
131982,-100,4,2,1,37,0,0
132084,-100,4,2,1,40,0,0
132187,-100,4,2,1,35,0,0
132495,-100,4,2,1,40,0,0
132598,-100,4,2,1,32,0,0
132906,-100,4,2,1,50,0,0
133317,-80,4,2,1,75,0,1
134550,-57.1428571428571,4,2,1,75,0,1
134961,-80,4,2,1,75,0,1
139071,-66.6666666666667,4,2,1,75,0,1
139893,-80,4,2,1,75,0,1
141125,-57.1428571428571,4,2,1,75,0,1
141536,-80,4,2,1,75,0,1
145646,-66.6666666666667,4,2,1,75,0,1
146468,-100,4,2,1,50,0,0
153043,-100,4,2,1,52,0,0
159619,-100,4,2,1,55,0,0
161262,-100,4,2,1,58,0,0
162906,-100,4,2,1,60,0,0
164550,-100,4,2,1,63,0,0
165577,-100,4,2,1,65,0,0
165783,-100,4,2,1,68,0,0
166194,-100,4,2,1,75,0,0
172769,-90.9090909090909,4,2,1,75,0,0
173180,-83.3333333333333,4,2,1,75,0,0
173591,-76.9230769230769,4,2,1,75,0,0
174002,-71.4285714285714,4,2,1,75,0,0
174413,-66.6666666666667,4,2,1,75,0,0
174824,-62.5,4,2,1,75,0,0
175235,-58.8235294117647,4,2,1,75,0,0
175646,-55.5555555555556,4,2,1,75,0,0
176057,-100,4,2,1,85,0,0
189208,441.176470588235,4,2,1,40,1,0
189208,-100,4,2,1,40,0,0
190090,397.350993377483,4,2,1,40,1,0
190090,-100,4,2,1,40,0,0
190288,555.555555555556,4,2,1,43,1,0
190288,-100,4,2,1,43,0,0
191121,500,4,2,1,43,1,0
191121,-100,4,2,1,43,0,0
191371,500,4,2,1,45,1,0
191371,-100,4,2,1,45,0,0
192371,437.956204379562,4,2,1,47,1,0
192371,-100,4,2,1,47,0,0
193246,-100,4,2,1,50,0,0
193684,455.407969639469,4,2,1,50,1,0
193684,-100,4,2,1,50,0,0
194139,410.958904109589,4,2,1,55,1,0
194139,-100,4,2,1,55,0,0
195782,-100,4,2,1,58,0,0
199070,-100,4,2,1,50,0,0
199173,-100,4,2,1,45,0,0
199481,-100,4,2,1,57,0,0
199584,-100,4,2,1,47,0,0
199892,-100,4,2,1,60,0,0
199995,-100,4,2,1,50,0,0
200303,-100,4,2,1,63,0,0
200406,-100,4,2,1,53,0,0
200714,-100,4,2,1,65,0,0
200817,-100,4,2,1,55,0,0
201125,-100,4,2,1,68,0,0
201228,-100,4,2,1,58,0,0
201536,-100,4,2,1,70,0,0
202358,-80,4,2,5,75,0,1
212221,-100,4,2,5,65,0,0
215508,-80,4,2,5,75,0,1
222084,-100,4,2,5,65,0,0

[Colours]
Combo1 : 228,82,39
Combo2 : 84,120,188
Combo3 : 36,49,204
Combo4 : 153,129,79

[HitObjects]
40,52,372,5,2,0:0:0:0:
83,40,475,1,0,0:0:0:0:
121,62,577,1,10,0:0:0:0:
132,105,680,1,2,0:0:0:0:
132,105,988,5,2,0:0:0:0:
143,148,1091,1,0,0:0:0:0:
181,170,1193,1,2,0:0:0:0:
224,158,1296,1,2,0:0:0:0:
224,158,1605,1,2,0:0:0:0:
422,39,2016,5,0,0:0:0:0:
396,76,2119,1,0,0:0:0:0:
388,121,2221,1,10,0:0:0:0:
394,165,2324,1,2,0:0:0:0:
394,165,2632,5,2,0:0:0:0:
420,202,2735,1,0,0:0:0:0:
428,247,2837,1,2,0:0:0:0:
422,291,2940,1,2,0:0:0:0:
422,291,3249,1,2,0:0:0:0:
116,243,3660,5,2,0:0:0:0:
138,204,3762,1,0,0:0:0:0:
179,186,3865,1,10,0:0:0:0:
224,188,3968,1,2,0:0:0:0:
224,188,4276,5,2,0:0:0:0:
178,186,4379,1,0,0:0:0:0:
139,164,4482,1,2,0:0:0:0:
119,126,4584,1,2,0:0:0:0:
119,126,4893,1,2,0:0:0:0:
389,32,5303,5,2,0:0:0:0:
345,41,5406,1,0,0:0:0:0:
301,49,5509,1,10,0:0:0:0:
257,57,5612,1,2,0:0:0:0:
257,57,5920,5,2,0:0:0:0:
213,49,6023,1,0,0:0:0:0:
169,41,6126,1,2,0:0:0:0:
125,32,6229,1,2,0:0:0:0:
125,32,6536,1,2,0:0:0:0:
36,148,6742,6,0,P|77:184|159:176,1,135,6|2,1:3|0:0,0:0:0:0:
217,138,7153,1,8,0:0:0:0:
377,240,7358,2,0,P|336:204|254:212,1,135,2|0,0:0|0:0,0:0:0:0:
195,248,7769,1,2,0:0:0:0:
259,343,7975,1,8,0:0:0:0:
259,343,8386,6,0,P|285:308|287:251,1,90,2|0,0:0|0:0,0:0:0:0:
369,226,8694,2,0,P|341:191|287:175,1,90,2|0,0:0|0:0,0:0:0:0:
280,96,9002,2,0,B|231:103|214:155|214:155|160:145|128:180,1,180,2|2,0:0|0:0,0:0:0:0:
195,248,9619,1,8,0:0:0:0:
195,248,10030,6,0,B|223:232|223:232|291:241,1,90,2|0,0:0|0:0,0:0:0:0:
329,301,10338,2,0,B|386:308|386:308|414:292,1,90,2|0,0:0|0:0,0:0:0:0:
461,228,10646,2,0,B|436:170|456:119|471:101|471:101|491:126|485:164,1,180,2|2,0:0|0:0,0:0:0:0:
361,184,11262,1,8,0:0:0:0:
361,184,11673,6,0,P|323:161|303:116,1,90,2|0,0:0|0:0,0:0:0:0:
224,122,11982,2,0,P|202:160|163:181,1,90,2|0,0:0|0:0,0:0:0:0:
187,259,12290,2,0,B|241:237|277:272|277:272|313:303|367:288,1,180,2|2,0:0|0:0,0:0:0:0:
434,247,12906,1,8,0:0:0:0:
434,247,13214,5,0,0:0:0:0:
412,207,13317,1,6,1:3:0:0:
432,166,13420,1,0,0:0:0:0:
477,166,13523,1,0,0:0:0:0:
385,317,13728,1,8,0:0:0:0:
299,287,13934,2,0,P|245:278|161:367,1,180,2|2,0:0|0:0,0:0:0:0:
256,365,14550,1,8,0:0:0:0:
256,365,14858,5,0,0:0:0:0:
239,322,14961,1,2,0:0:0:0:
202,295,15064,1,0,0:0:0:0:
157,296,15166,1,0,0:0:0:0:
0,377,15372,1,8,0:0:0:0:
39,296,15577,2,0,B|60:255|60:255|31:115,1,180,2|2,0:0|0:0,0:0:0:0:
12,35,16194,1,8,0:0:0:0:
12,35,16502,5,0,0:0:0:0:
44,65,16605,1,2,0:0:0:0:
88,73,16708,1,0,0:0:0:0:
131,64,16810,1,0,0:0:0:0:
315,2,17016,1,8,0:0:0:0:
363,86,17221,2,0,B|314:160|314:160|265:83,1,180,2|2,0:0|0:0,0:0:0:0:
315,2,17838,1,8,0:0:0:0:
315,2,18146,5,0,0:0:0:0:
359,5,18249,1,2,0:0:0:0:
397,27,18351,1,0,0:0:0:0:
419,66,18454,1,0,0:0:0:0:
296,188,18660,1,8,0:0:0:0:
229,127,18865,2,0,P|202:177|265:274,1,180,2|2,0:0|0:0,0:0:0:0:
296,188,19482,1,8,0:0:0:0:
296,188,19790,5,0,0:0:0:0:
340,196,19893,1,6,1:3:0:0:
367,230,19995,1,0,0:0:0:0:
371,274,20098,1,0,0:0:0:0:
431,152,20303,1,8,0:0:0:0:
292,276,20509,1,2,0:0:0:0:
292,276,20612,1,0,0:0:0:0:
292,276,20714,2,0,P|240:269|213:237,1,90,0|2,0:0|0:0,0:0:0:0:
201,199,21023,1,2,0:0:0:0:
48,344,21434,5,0,0:0:0:0:
73,307,21536,1,2,0:0:0:0:
84,263,21639,1,0,0:0:0:0:
74,218,21742,1,0,0:0:0:0:
6,77,21947,1,8,0:0:0:0:
186,116,22153,1,2,0:0:0:0:
186,116,22256,1,0,0:0:0:0:
186,116,22358,2,0,L|88:133,1,90,0|2,0:0|0:0,0:0:0:0:
52,141,22666,1,2,0:0:0:0:
215,24,23077,5,0,0:0:0:0:
255,43,23180,1,2,0:0:0:0:
280,80,23283,1,0,0:0:0:0:
287,124,23386,1,0,0:0:0:0:
420,20,23591,1,8,0:0:0:0:
472,161,23797,1,2,0:0:0:0:
472,161,23899,1,0,0:0:0:0:
472,161,24002,2,0,P|433:190|421:263,1,90,2|0,0:0|0:0,0:0:0:0:
416,272,24310,1,2,0:0:0:0:
165,197,24619,5,2,0:0:0:0:
165,197,24721,1,0,0:0:0:0:
216,257,24824,1,2,0:0:0:0:
216,257,24927,1,0,0:0:0:0:
302,156,25132,1,2,0:0:0:0:
271,317,25440,1,2,0:0:0:0:
232,339,25543,1,0,0:0:0:0:
186,336,25646,1,2,0:0:0:0:
147,313,25749,1,0,0:0:0:0:
104,303,25851,1,2,0:0:0:0:
62,321,25954,1,2,0:0:0:0:
257,48,26468,5,6,1:3:0:0:
242,90,26571,1,0,0:0:0:0:
260,130,26673,1,2,0:0:0:0:
359,87,26879,1,10,0:0:0:0:
261,221,27084,1,0,0:0:0:0:
495,144,27290,2,0,B|455:128|414:159|414:159|362:198|302:160,1,180,2|10,0:0|0:0,0:0:0:0:
79,55,28112,5,2,0:0:0:0:
81,99,28214,1,0,0:0:0:0:
110,132,28317,1,2,0:0:0:0:
253,109,28523,1,10,0:0:0:0:
172,68,28728,1,0,0:0:0:0:
314,261,28934,5,2,0:0:0:0:
347,60,29139,1,2,0:0:0:0:
144,166,29345,1,10,0:0:0:0:
326,347,29756,5,2,0:0:0:0:
370,339,29858,1,0,0:0:0:0:
403,308,29961,1,2,0:0:0:0:
412,263,30064,1,2,0:0:0:0:
394,221,30166,2,0,L|301:230,1,90,10|0,0:0|0:0,0:0:0:0:
251,288,30475,1,0,0:0:0:0:
251,288,30577,2,0,L|158:284,1,90,2|2,0:0|0:0,0:0:0:0:
104,235,30886,1,2,0:0:0:0:
104,235,30988,2,0,P|56:250|25:299,1,90,8|0,0:0|0:0,0:0:0:0:
190,198,31399,5,2,0:0:0:0:
162,163,31502,1,0,0:0:0:0:
119,146,31605,1,2,0:0:0:0:
73,148,31708,1,2,0:0:0:0:
34,171,31810,1,8,0:0:0:0:
136,56,32016,1,0,0:0:0:0:
104,235,32221,1,2,0:0:0:0:
104,235,32632,1,8,0:0:0:0:
301,89,33043,6,0,P|354:91|396:60,1,90,6|2,1:3|0:0,0:0:0:0:
438,19,33351,1,2,0:0:0:0:
430,63,33454,2,0,L|413:170,1,90,8|0,0:0|0:0,0:0:0:0:
326,16,33865,1,2,0:0:0:0:
409,185,34071,1,2,0:0:0:0:
219,155,34276,1,8,0:0:0:0:
219,155,34584,5,0,0:0:0:0:
236,196,34687,2,0,B|176:187|176:187|131:206,1,90,2|0,0:0|0:0,0:0:0:0:
108,218,34995,1,2,0:0:0:0:
108,218,35303,1,2,0:0:0:0:
218,79,35509,1,2,0:0:0:0:
236,313,35714,1,0,0:0:0:0:
346,174,35920,1,8,0:0:0:0:
346,174,36331,5,2,0:0:0:0:
164,152,36536,1,2,0:0:0:0:
333,256,36742,1,8,0:0:0:0:
151,234,36947,1,0,0:0:0:0:
320,337,37153,1,2,0:0:0:0:
138,315,37358,1,2,0:0:0:0:
250,201,37564,1,8,0:0:0:0:
161,90,37769,5,0,0:0:0:0:
194,58,37872,1,0,0:0:0:0:
201,13,37975,2,0,P|252:39|301:32,1,90,2|2,0:0|0:0,0:0:0:0:
354,12,38283,1,2,0:0:0:0:
317,38,38386,2,0,P|293:76|292:120,1,90,8|0,0:0|0:0,0:0:0:0:
327,189,38694,1,2,0:0:0:0:
298,154,38797,2,0,P|259:130|215:129,1,90,2|2,0:0|0:0,0:0:0:0:
172,141,39105,1,2,0:0:0:0:
172,141,39208,1,8,0:0:0:0:
420,323,39619,5,6,1:3:0:0:
242,341,39824,1,2,0:0:0:0:
358,194,40030,1,8,0:0:0:0:
339,239,40132,1,0,0:0:0:0:
289,245,40235,1,2,0:0:0:0:
258,206,40337,1,0,0:0:0:0:
272,158,40440,2,0,B|274:102|239:122|250:61,1,90,2|0,0:0|0:0,0:0:0:0:
257,24,40749,1,2,0:0:0:0:
37,190,41057,5,0,0:0:0:0:
62,227,41160,1,0,0:0:0:0:
66,271,41262,2,0,B|125:257|125:257|168:268,1,90,2|2,0:0|0:0,0:0:0:0:
194,283,41571,1,2,0:0:0:0:
475,190,41879,1,0,0:0:0:0:
450,227,41982,1,0,0:0:0:0:
446,271,42084,2,0,B|387:257|387:257|344:268,1,90,2|2,0:0|0:0,0:0:0:0:
318,283,42393,1,2,0:0:0:0:
190,115,42701,5,0,0:0:0:0:
187,70,42803,1,0,0:0:0:0:
214,33,42906,1,2,0:0:0:0:
258,21,43009,1,0,0:0:0:0:
299,39,43112,1,2,0:0:0:0:
327,72,43214,1,2,0:0:0:0:
321,117,43317,1,8,0:0:0:0:
186,212,43523,2,0,B|237:192|274:225|274:225|310:260|368:243,1,180,2|0,0:0|0:0,0:0:0:0:
437,213,44139,1,8,0:0:0:0:
408,127,44345,5,0,0:0:0:0:
352,280,44550,1,2,0:0:0:0:
408,127,44756,1,2,0:0:0:0:
422,169,44858,1,2,0:0:0:0:
437,213,44961,1,8,0:0:0:0:
378,49,45167,1,0,0:0:0:0:
289,216,45372,2,0,P|262:268|266:314,1,90,2|2,0:0|0:0,0:0:0:0:
268,342,45680,1,2,0:0:0:0:
268,342,46194,5,6,1:3:0:0:
151,270,46399,1,0,0:0:0:0:
234,170,46605,1,8,0:2:0:0:
116,100,46810,1,2,0:0:0:0:
232,249,47016,2,0,P|281:238|311:182,1,90,2|2,1:2|0:0,0:0:0:0:
315,164,47324,1,2,0:0:0:0:
434,324,47632,5,0,0:0:0:0:
460,176,47838,1,2,1:2:0:0:
350,258,48043,1,2,0:0:0:0:
376,104,48249,1,8,0:2:0:0:
274,186,48454,1,2,0:0:0:0:
361,340,48660,2,0,P|311:335|275:283,1,90,2|2,1:2|0:0,0:0:0:0:
268,266,48968,1,2,0:0:0:0:
268,266,49482,5,0,1:2:0:0:
134,278,49687,1,2,0:0:0:0:
0,289,49893,1,8,0:2:0:0:
268,266,50303,2,0,L|171:275,1,90,2|2,1:2|0:0,0:0:0:0:
134,278,50612,1,2,0:0:0:0:
350,257,50920,5,2,0:0:0:0:
260,142,51125,1,2,1:2:0:0:
416,122,51331,1,2,0:0:0:0:
350,257,51536,1,8,0:2:0:0:
196,76,51947,5,2,1:2:0:0:
317,6,52153,1,2,0:0:0:0:
466,50,52358,1,8,0:2:0:0:
350,257,52666,5,0,0:0:0:0:
385,284,52769,1,6,1:3:0:0:
429,287,52872,1,0,0:0:0:0:
470,269,52975,1,2,0:0:0:0:
416,196,53180,1,8,0:2:0:0:
309,337,53386,2,0,B|270:317|225:347|225:347|172:381|117:350,1,180,2|0,0:0|0:0,0:0:0:0:
65,306,54002,1,8,0:2:0:0:
240,130,54310,5,0,0:0:0:0:
195,126,54413,1,2,1:2:0:0:
149,123,54516,1,0,0:0:0:0:
104,118,54619,1,2,0:0:0:0:
154,32,54824,1,8,0:2:0:0:
224,210,55030,2,0,P|282:203|312:91,1,180,2|0,0:0|0:0,0:0:0:0:
274,19,55646,1,8,0:2:0:0:
465,166,55954,5,0,0:0:0:0:
435,199,56057,1,2,1:2:0:0:
424,242,56160,1,0,0:0:0:0:
432,285,56262,1,2,0:0:0:0:
312,205,56468,1,8,0:2:0:0:
289,358,56673,1,2,0:0:0:0:
319,325,56776,1,0,0:0:0:0:
316,279,56879,2,0,B|260:277|280:312|219:301,1,90,2|2,1:2|0:0,0:0:0:0:
188,291,57187,1,2,0:0:0:0:
46,53,57598,5,0,0:0:0:0:
89,39,57701,1,2,1:2:0:0:
133,51,57803,1,0,0:0:0:0:
159,89,57906,1,2,0:0:0:0:
287,36,58112,1,8,0:2:0:0:
172,134,58317,1,2,0:0:0:0:
199,169,58420,1,0,0:0:0:0:
240,186,58523,2,0,P|291:182|328:149,1,90,2|2,1:2|0:0,0:0:0:0:
344,120,58831,1,2,0:0:0:0:
445,326,59242,5,0,0:0:0:0:
400,320,59345,1,6,1:3:0:0:
355,312,59447,1,0,0:0:0:0:
310,307,59550,1,2,0:0:0:0:
147,363,59756,1,8,0:2:0:0:
271,210,59961,1,2,0:0:0:0:
265,254,60064,1,0,0:0:0:0:
260,298,60166,2,0,L|160:285,1,90,2|2,1:2|0:0,0:0:0:0:
125,280,60475,1,2,0:0:0:0:
210,107,60783,5,2,0:0:0:0:
210,107,60886,1,0,0:0:0:0:
170,170,60988,1,2,1:2:0:0:
170,170,61091,1,0,0:0:0:0:
102,36,61297,1,2,0:0:0:0:
283,123,61605,1,2,0:0:0:0:
327,134,61708,1,0,0:0:0:0:
371,128,61810,1,2,1:2:0:0:
410,101,61913,1,0,0:0:0:0:
433,60,62016,1,2,0:0:0:0:
433,14,62119,1,2,0:0:0:0:
433,14,62427,5,2,0:0:0:0:
500,142,62632,2,0,P|472:182|463:249,1,90,2|2,1:2|0:0,0:0:0:0:
463,266,62940,2,0,B|425:253|392:275|392:275|359:294|311:273,1,135,2|0,0:0|0:0,0:0:0:0:
158,192,63454,2,0,P|212:198|241:239,1,90,2|2,1:2|0:0,0:0:0:0:
245,266,63762,2,0,P|219:313|132:318,1,135,2|0,0:0|0:0,0:0:0:0:
103,303,64173,5,0,0:0:0:0:
103,303,64276,1,2,1:2:0:0:
158,192,64482,1,2,0:0:0:0:
94,89,64687,1,8,0:2:0:0:
94,89,65098,2,0,P|135:68|186:73,1,90,2|2,1:2|0:0,0:0:0:0:
220,85,65406,1,2,0:0:0:0:
220,85,65920,5,6,1:3:0:0:
352,21,66125,1,2,0:0:0:0:
376,203,66331,1,8,1:2:0:0:
370,158,66434,1,0,0:0:0:0:
364,113,66536,1,2,0:0:0:0:
358,68,66639,1,2,0:0:0:0:
352,21,66742,5,8,1:2:0:0:
495,106,66947,1,2,0:0:0:0:
376,203,67153,1,8,1:2:0:0:
240,125,67358,5,2,0:0:0:0:
224,167,67461,1,2,0:0:0:0:
249,204,67564,1,8,1:2:0:0:
363,93,67769,1,2,0:0:0:0:
489,207,67975,1,8,1:2:0:0:
357,76,68180,1,2,0:0:0:0:
249,204,68386,2,0,P|201:225|177:277,1,90,8|2,1:2|0:0,0:0:0:0:
168,298,68694,2,0,P|148:253|68:211,1,135,2|0,0:0|0:0,0:0:0:0:
140,72,69208,6,0,L|129:28,3,45,8|8|8|8,1:2|0:0|0:0|0:0,0:0:0:0:
208,122,69619,2,0,L|197:165,3,45,8|8|8|8,1:2|0:0|0:0|0:0,0:0:0:0:
284,67,70030,2,0,L|273:23,3,45,8|8|8|8,1:2|0:0|0:0|0:0,0:0:0:0:
352,117,70440,2,0,L|341:160,3,45,8|8|8|8,1:2|0:0|0:0|0:0,0:0:0:0:
283,222,70851,6,0,L|231:208,1,45,10|8,1:2|0:0,0:0:0:0:
349,315,71057,2,0,L|401:301,1,45,10|8,0:0|0:0,0:0:0:0:
284,238,71262,2,0,L|232:224,1,45,10|8,1:2|0:0,0:0:0:0:
350,331,71468,2,0,L|402:317,1,45,8|8,0:0|0:0,0:0:0:0:
471,243,71673,1,8,1:2:0:0:
446,204,71776,1,8,0:0:0:0:
442,159,71879,1,8,0:0:0:0:
449,114,71982,1,8,0:0:0:0:
473,76,72084,6,0,L|441:73,1,27,2|0,0:0|0:0,0:0:0:0:
358,0,72495,6,0,P|305:37|237:35,1,112.5,6|0,1:3|0:0,0:0:0:0:
131,23,72803,1,2,0:0:0:0:
162,54,72906,2,0,P|199:107|197:175,1,112.5,8|2,0:1|0:0,0:0:0:0:
14,309,73317,2,0,P|26:260|90:281,1,112.5,0|0,1:0|0:0,0:0:0:0:
339,214,73728,6,0,B|253:204|277:257|188:246,1,157.500001502037,10|2,0:1|0:0,0:0:0:0:
354,371,74036,5,0,0:0:0:0:
349,326,74139,2,0,L|337:197,1,112.5,2|0,1:0|0:0,0:0:0:0:
457,95,74447,2,0,L|446:207,1,112.5,2|0,0:0|0:0,0:0:0:0:
328,135,74756,1,2,0:0:0:0:
201,311,74961,2,0,P|158:274|207:249,1,112.5,0|0,1:0|0:0,0:0:0:0:
22,362,75372,5,10,0:1:0:0:
2,321,75475,1,2,0:0:0:0:
0,276,75577,1,2,0:0:0:0:
8,231,75680,1,2,0:0:0:0:
35,195,75783,6,0,P|48:147|31:86,1,112.5,2|0,1:0|0:0,0:0:0:0:
201,33,76091,1,2,0:0:0:0:
213,76,76194,2,0,L|233:148,1,56.25,8|0,0:1|0:0,0:0:0:0:
357,192,76399,2,0,L|341:246,1,56.25,2|0,0:0|0:0,0:0:0:0:
337,18,76605,1,2,1:0:0:0:
381,9,76707,1,2,0:0:0:0:
426,0,76810,1,2,0:0:0:0:
461,37,76913,1,2,0:0:0:0:
416,46,77016,1,10,0:1:0:0:
372,56,77119,1,2,0:0:0:0:
328,68,77221,1,2,0:0:0:0:
224,247,77427,6,0,P|258:201|318:189,1,112.5,2|0,1:0|0:0,0:0:0:0:
367,360,77735,2,0,P|321:326|309:266,1,112.5,2|0,0:0|0:0,0:0:0:0:
387,206,78043,1,2,0:0:0:0:
220,335,78249,6,0,B|167:307|121:342|121:342|70:381|11:345,1,202.500007724762,6|0,1:3|0:0,0:0:0:0:
220,317,78660,2,0,B|167:289|121:324|121:324|70:363|11:327,1,202.500007724762,14|0,1:3|0:0,0:0:0:0:
10,171,79071,6,0,P|67:196|128:185,1,112.5,6|0,1:0|0:0,0:0:0:0:
244,136,79379,1,2,0:0:0:0:
235,180,79482,2,0,L|221:251,1,56.25,8|0,0:1|0:0,0:0:0:0:
328,341,79687,2,0,L|317:285,1,56.25,2|0,0:0|0:0,0:0:0:0:
440,146,79893,2,0,L|421:257,1,112.5,0|0,1:0|0:0,0:0:0:0:
198,70,80303,6,0,B|213:41|213:41|303:19|303:19|345:38,1,157.500001502037,10|2,0:1|0:0,0:0:0:0:
199,183,80612,1,0,0:0:0:0:
153,177,80714,2,0,B|116:163|116:163|76:177|76:177|36:164,1,112.5,2|0,1:0|0:0,0:0:0:0:
204,278,81023,2,0,B|241:264|241:264|281:278|281:278|321:265,1,112.5,2|0,0:0|0:0,0:0:0:0:
148,367,81331,2,0,L|89:360,1,56.25,2|0,0:0|0:0,0:0:0:0:
153,177,81536,2,0,B|199:157|199:157|272:170|272:170|320:150,1,168.75,0|0,1:0|0:0,0:0:0:0:
392,145,81947,1,10,0:1:0:0:
377,102,82050,1,2,0:0:0:0:
339,77,82153,1,2,0:0:0:0:
294,72,82256,1,2,0:0:0:0:
253,90,82358,6,0,L|276:215,1,112.5,2|0,1:0|0:0,0:0:0:0:
368,324,82667,1,2,0:0:0:0:
368,324,82769,2,0,L|350:258,1,56.25,8|0,0:1|0:0,0:0:0:0:
465,166,82975,2,0,L|450:220,1,56.25,2|0,0:0|0:0,0:0:0:0:
268,316,83180,1,2,1:0:0:0:
223,309,83283,1,2,0:0:0:0:
188,280,83386,1,2,0:0:0:0:
151,312,83488,1,2,0:0:0:0:
184,342,83591,1,10,0:1:0:0:
225,360,83694,1,2,0:0:0:0:
269,369,83797,1,2,0:0:0:0:
106,170,84002,6,0,P|56:201|38:273,1,112.5,2|0,1:0|0:0,0:0:0:0:
181,113,84310,2,0,P|132:79|59:90,1,112.5,2|0,0:0|0:0,0:0:0:0:
253,160,84619,2,0,P|271:110|270:95,1,56.25,2|0,0:0|0:0,0:0:0:0:
159,286,84824,6,0,P|196:343|286:271,1,202.500007724762,6|0,1:3|0:0,0:0:0:0:
150,308,85235,2,0,P|222:363|298:299,1,202.500007724762,14|0,1:3|0:0,0:0:0:0:
433,342,85646,6,0,B|416:303|416:303|434:231,1,112.5,6|0,1:0|0:0,0:0:0:0:
471,104,85954,1,2,0:0:0:0:
439,136,86057,2,0,P|411:154|370:155,1,56.25,8|0,0:1|0:0,0:0:0:0:
345,6,86262,2,0,P|371:26|385:65,1,56.25,2|0,0:0|0:0,0:0:0:0:
319,214,86468,2,0,P|292:152|315:108,1,112.5,0|0,1:0|0:0,0:0:0:0:
160,19,86879,2,0,B|125:40|125:40|38:25,1,112.5,8|2,0:1|0:0,0:0:0:0:
10,19,87187,1,0,0:0:0:0:
10,19,87290,6,0,L|28:147,1,112.5,2|2,1:0|0:0,0:0:0:0:
141,268,87598,2,0,L|156:156,1,112.5,2|0,0:0|0:0,0:0:0:0:
39,211,87906,2,0,L|50:278,1,56.25,2|0,0:0|0:0,0:0:0:0:
237,167,88112,2,0,P|220:104|169:79,1,112.5,0|0,1:0|0:0,0:0:0:0:
141,268,88420,1,0,0:0:0:0:
167,304,88523,2,0,L|232:296,1,56.25,10|0,0:1|0:0,0:0:0:0:
311,239,88728,2,0,L|366:245,1,56.25,2|0,0:0|0:0,0:0:0:0:
487,93,88934,6,0,P|424:128|367:120,1,112.5,2|0,1:0|0:0,0:0:0:0:
260,2,89242,1,2,0:0:0:0:
292,32,89345,2,0,P|309:52|321:87,1,56.25,8|0,0:1|0:0,0:0:0:0:
303,196,89550,2,0,P|289:218|259:240,1,56.25,2|0,0:0|0:0,0:0:0:0:
83,108,89756,2,0,B|136:90|173:119|173:119|208:144|256:129,1,168.75,0|0,1:0|0:0,0:0:0:0:
416,77,90167,2,0,P|387:132|382:196,1,112.5,8|2,0:1|0:0,0:0:0:0:
442,323,90577,6,0,P|398:283|323:290,1,112.5,2|0,1:0|0:0,0:0:0:0:
205,330,90886,2,0,P|252:300|271:247,1,112.5,2|0,0:0|0:0,0:0:0:0:
366,361,91194,1,2,0:0:0:0:
184,247,91399,2,0,B|148:239|148:239|54:254,1,112.5,0|0,1:0|0:0,0:0:0:0:
8,125,91708,1,0,0:0:0:0:
48,144,91810,2,0,B|84:152|84:152|176:140,1,112.5,8|2,0:1|0:0,0:0:0:0:
253,31,92221,6,0,P|295:66|341:65,1,90,0|2,1:0|0:0,0:0:0:0:
450,33,92530,1,0,0:0:0:0:
424,69,92632,1,8,0:1:0:0:
409,111,92735,2,0,P|405:160|429:217,1,90,2|0,0:0|0:0,0:0:0:0:
497,295,93043,1,2,1:0:0:0:
452,287,93146,1,0,0:0:0:0:
411,306,93249,1,2,0:0:0:0:
379,337,93351,2,0,P|337:351|275:333,1,90,2|0,0:0|0:0,0:0:0:0:
332,243,93660,1,2,0:0:0:0:
332,243,93762,1,0,0:0:0:0:
332,243,93865,1,0,1:0:0:0:
141,324,94071,5,2,0:0:0:0:
177,298,94173,1,0,0:0:0:0:
222,299,94276,1,8,0:1:0:0:
258,325,94379,2,0,L|240:213,1,90,2|0,0:0|0:0,0:0:0:0:
319,131,94687,1,2,1:0:0:0:
302,89,94790,1,0,0:0:0:0:
265,64,94893,1,2,0:0:0:0:
221,61,94995,2,0,P|161:91|153:151,1,90,2|0,0:0|0:0,0:0:0:0:
237,207,95303,1,2,0:0:0:0:
237,207,95406,1,2,0:0:0:0:
237,207,95509,1,0,1:0:0:0:
442,117,95714,5,2,0:0:0:0:
414,152,95817,1,0,0:0:0:0:
401,195,95920,1,8,0:1:0:0:
399,240,96023,2,0,P|414:298|444:332,1,90,2|0,0:0|0:0,0:0:0:0:
414,152,96331,2,0,P|368:129|298:135,1,90,2|2,1:0|0:0,0:0:0:0:
153,188,96639,2,0,P|199:211|269:205,1,90,2|0,0:0|0:0,0:0:0:0:
315,204,96947,1,2,0:0:0:0:
208,80,97153,1,0,1:0:0:0:
51,145,97358,5,2,0:0:0:0:
55,189,97461,1,0,0:0:0:0:
60,233,97564,1,8,0:1:0:0:
67,277,97667,2,0,L|77:380,1,90,2|0,0:0|0:0,0:0:0:0:
212,216,97975,2,0,L|203:305,1,90,2|2,1:0|0:0,0:0:0:0:
198,384,98283,1,2,0:0:0:0:
198,384,98386,1,8,0:1:0:0:
223,140,98591,1,2,0:0:0:0:
357,284,98797,5,4,0:3:0:0:
256,192,105372,12,8,106605,0:0:0:0:
104,341,106913,5,0,0:0:0:0:
93,297,107016,1,2,0:0:0:0:
84,252,107119,1,0,0:0:0:0:
73,208,107221,1,2,0:0:0:0:
220,261,107427,1,8,0:0:0:0:
64,350,107632,5,0,0:0:0:0:
64,350,107735,1,0,0:0:0:0:
64,350,107838,2,0,L|46:247,1,90,2|2,0:0|0:0,0:0:0:0:
39,217,108146,1,2,0:0:0:0:
188,75,108557,5,0,0:0:0:0:
232,71,108659,1,2,0:0:0:0:
272,91,108762,1,0,0:0:0:0:
316,85,108865,1,2,0:0:0:0:
199,172,109071,1,8,0:0:0:0:
367,85,109276,1,0,0:0:0:0:
367,85,109379,1,0,0:0:0:0:
367,84,109482,2,0,P|351:125|347:170,1,90,2|2,0:0|0:0,0:0:0:0:
348,215,109790,1,2,0:0:0:0:
122,140,110200,5,0,0:0:0:0:
163,156,110303,1,2,0:0:0:0:
192,190,110406,1,0,0:0:0:0:
205,233,110509,1,2,0:0:0:0:
251,109,110714,1,8,0:0:0:0:
110,237,110920,1,2,0:0:0:0:
110,237,111023,1,0,0:0:0:0:
110,237,111125,2,0,B|122:341,1,90,2|2,0:0|0:0,0:0:0:0:
128,371,111434,1,2,0:0:0:0:
300,247,111742,5,2,0:0:0:0:
300,247,111845,1,0,0:0:0:0:
313,323,111947,1,2,0:0:0:0:
313,323,112050,1,2,0:0:0:0:
367,152,112256,1,2,0:0:0:0:
180,265,112564,1,2,0:0:0:0:
139,243,112666,1,0,0:0:0:0:
120,205,112769,1,2,0:0:0:0:
115,160,112872,1,0,0:0:0:0:
125,116,112975,1,2,0:0:0:0:
154,82,113077,1,2,0:0:0:0:
435,332,113591,5,2,0:0:0:0:
428,287,113694,1,0,0:0:0:0:
420,242,113797,1,2,0:0:0:0:
298,290,114002,1,8,0:0:0:0:
404,162,114208,1,2,0:0:0:0:
349,353,114413,2,0,P|297:372|217:282,1,180,2|8,0:0|0:0,0:0:0:0:
348,54,115235,5,2,0:0:0:0:
316,86,115338,1,0,0:0:0:0:
271,88,115440,1,2,0:0:0:0:
144,32,115646,1,8,0:0:0:0:
161,119,115851,1,0,0:0:0:0:
285,8,116057,5,2,0:0:0:0:
397,129,116262,1,2,0:0:0:0:
292,239,116468,1,10,0:0:0:0:
44,46,116879,5,2,0:0:0:0:
71,82,116982,1,0,0:0:0:0:
83,124,117084,1,2,0:0:0:0:
85,169,117187,1,2,0:0:0:0:
81,213,117290,2,0,P|68:268|35:305,1,90,8|2,0:0|0:0,0:0:0:0:
98,352,117598,1,0,0:0:0:0:
98,352,117701,2,0,P|137:326|195:322,1,90,2|2,0:0|0:0,0:0:0:0:
238,272,118009,1,2,0:0:0:0:
238,272,118112,2,0,P|277:298|335:302,1,90,8|2,0:0|0:0,0:0:0:0:
431,114,118523,5,2,0:0:0:0:
386,115,118625,1,0,0:0:0:0:
346,135,118728,1,2,0:0:0:0:
321,172,118831,1,2,0:0:0:0:
309,215,118934,1,8,0:0:0:0:
131,49,119242,1,0,0:0:0:0:
168,74,119345,1,2,0:0:0:0:
186,114,119447,1,0,0:0:0:0:
194,158,119550,1,2,0:0:0:0:
279,32,119756,1,10,0:0:0:0:
65,145,120166,6,0,L|81:268,1,90,2|0,0:0|0:0,0:0:0:0:
83,279,120475,1,2,0:0:0:0:
286,248,120783,1,2,0:0:0:0:
227,334,120988,2,0,P|194:302|184:251,1,90,2|2,0:0|0:0,0:0:0:0:
184,214,121297,1,2,0:0:0:0:
184,214,121399,1,8,0:0:0:0:
409,350,121810,5,2,0:0:0:0:
450,332,121913,1,0,0:0:0:0:
472,293,122016,1,2,0:0:0:0:
473,247,122119,1,2,0:0:0:0:
452,207,122221,2,0,P|426:187|355:193,1,90,8|2,0:0|0:0,0:0:0:0:
299,228,122530,1,0,0:0:0:0:
325,192,122632,2,0,P|337:145|318:84,1,90,2|0,0:0|0:0,0:0:0:0:
314,62,122940,1,2,0:0:0:0:
90,105,123249,5,2,0:0:0:0:
176,204,123454,2,0,L|151:314,1,90,2|2,0:0|0:0,0:0:0:0:
155,336,123762,2,0,P|210:364|282:340,1,135,2|2,0:0|0:0,0:0:0:0:
393,193,124276,2,0,P|440:183|478:197,1,90,2|0,0:0|0:0,0:0:0:0:
511,227,124584,2,0,L|487:324,1,90,2|0,0:0|0:0,0:0:0:0:
348,266,124995,5,0,0:0:0:0:
313,237,125098,1,2,0:0:0:0:
304,192,125201,1,0,0:0:0:0:
314,148,125303,1,2,0:0:0:0:
349,117,125406,1,2,0:0:0:0:
393,111,125509,2,0,L|442:117,1,45,8|0,0:0|0:0,0:0:0:0:
352,29,125714,2,0,L|306:38,1,45,0|0,0:0|0:0,0:0:0:0:
395,193,125920,5,2,0:0:0:0:
439,21,126125,1,2,0:0:0:0:
253,92,126331,1,10,0:0:0:0:
395,193,126536,1,2,0:0:0:0:
320,269,126742,6,0,B|268:262|241:300|241:300|209:340|142:324,1,180,10|8,1:2|0:2,0:0:0:0:
47,155,127358,2,0,P|99:155|179:247,1,180,0|0,0:0|0:0,0:0:0:0:
255,169,127975,1,8,0:2:0:0:
66,271,128283,5,0,0:0:0:0:
74,315,128386,1,10,1:2:0:0:
101,350,128488,1,0,0:0:0:0:
142,367,128591,1,2,0:0:0:0:
216,316,128797,1,8,0:2:0:0:
377,374,129002,2,0,B|369:316|369:316|389:259|389:259|378:188,1,180,0|0,0:0|0:0,0:0:0:0:
366,108,129619,1,8,0:2:0:0:
99,233,129927,5,0,0:0:0:0:
143,226,130030,1,10,1:2:0:0:
171,191,130132,1,8,0:0:0:0:
180,146,130235,1,10,0:0:0:0:
169,102,130338,1,8,0:0:0:0:
135,72,130440,2,0,B|79:65,3,45,10|8|8|8,1:2|0:0|0:0|0:0,0:0:0:0:
44,137,130851,2,0,B|0:142,3,45,8|8|8|8,1:2|0:0|0:0|0:0,0:0:0:0:
91,206,131262,2,0,B|135:211,3,45,8|8|8|8,1:2|0:0|0:0|0:0,0:0:0:0:
30,272,131673,6,0,L|39:328,1,45,10|8,1:2|0:0,0:0:0:0:
117,360,131879,2,0,L|124:315,1,45,10|8,0:0|0:0,0:0:0:0:
206,262,132084,2,0,L|213:306,1,45,10|8,1:2|0:0,0:0:0:0:
297,361,132290,2,0,L|304:316,1,45,8|8,0:0|0:0,0:0:0:0:
378,212,132495,1,8,1:2:0:0:
422,204,132598,1,8,0:0:0:0:
458,231,132701,1,8,0:0:0:0:
467,274,132803,1,8,0:0:0:0:
423,345,132906,5,2,1:0:0:0:
79,90,133317,6,0,P|128:105|159:186,1,112.5,6|0,1:0|0:0,0:0:0:0:
110,288,133625,1,2,0:0:0:0:
76,318,133728,2,0,L|9:311,1,56.25,8|0,0:1|0:0,0:0:0:0:
190,234,133934,2,0,L|245:239,1,56.25,2|0,0:0|0:0,0:0:0:0:
423,326,134139,2,0,P|455:300|416:245,1,112.5,0|0,1:0|0:0,0:0:0:0:
173,322,134550,6,0,B|135:312|105:342|105:342|69:376|15:357,1,157.500001502037,10|2,0:1|0:0,0:0:0:0:
190,234,134858,5,0,0:0:0:0:
236,241,134961,2,0,P|288:220|312:161,1,112.5,2|0,1:0|0:0,0:0:0:0:
189,67,135269,2,0,P|189:123|236:166,1,112.5,2|0,0:0|0:0,0:0:0:0:
324,96,135577,1,2,0:0:0:0:
468,246,135783,2,0,P|430:302|426:371,1,112.5,0|0,1:0|0:0,0:0:0:0:
416,84,136194,5,10,0:1:0:0:
408,128,136297,1,2,0:0:0:0:
384,165,136399,1,2,0:0:0:0:
343,184,136502,1,2,0:0:0:0:
297,184,136605,2,0,P|259:165|235:94,1,112.5,2|0,1:0|0:0,0:0:0:0:
75,180,136913,1,2,0:0:0:0:
72,224,137016,2,0,P|66:255|54:282,1,56.25,8|0,0:1|0:0,0:0:0:0:
161,160,137221,2,0,P|153:133|151:104,1,56.25,2|0,0:0|0:0,0:0:0:0:
199,256,137427,5,2,1:0:0:0:
240,272,137530,1,2,0:0:0:0:
284,272,137632,1,2,0:0:0:0:
301,313,137735,1,2,0:0:0:0:
256,316,137838,1,10,0:1:0:0:
212,308,137940,1,2,0:0:0:0:
170,289,138043,1,2,0:0:0:0:
354,169,138249,6,0,B|382:204|382:204|371:275,1,112.5,2|0,1:0|0:0,0:0:0:0:
453,151,138557,2,0,B|425:116|425:116|435:49,1,112.5,2|0,0:0|0:0,0:0:0:0:
459,230,138865,1,2,0:0:0:0:
346,86,139071,6,0,B|278:78|278:78|228:117|228:117|152:108,1,202.500007724762,6|0,1:3|0:0,0:0:0:0:
344,106,139482,2,0,B|276:98|276:98|226:137|226:137|150:128,1,202.500007724762,14|0,1:3|0:0,0:0:0:0:
47,298,139893,6,0,P|102:298|141:260,1,112.5,6|0,1:0|0:0,0:0:0:0:
302,186,140201,1,2,0:0:0:0:
293,229,140303,2,0,L|278:293,1,56.25,8|0,0:1|0:0,0:0:0:0:
191,161,140509,2,0,L|178:106,1,56.25,2|0,0:0|0:0,0:0:0:0:
341,13,140714,2,0,P|367:66|347:132,1,112.5,0|0,1:0|0:0,0:0:0:0:
104,52,141125,6,0,P|153:20|251:53,1,157.500001502037,10|2,0:1|0:0,0:0:0:0:
191,161,141434,5,0,0:0:0:0:
171,201,141536,2,0,B|103:196|127:237|53:230,1,112.5,2|0,1:0|0:0,0:0:0:0:
170,297,141845,2,0,B|237:292|213:333|287:326,1,112.5,2|0,0:0|0:0,0:0:0:0:
252,232,142153,1,2,0:0:0:0:
83,363,142358,2,0,B|57:331|57:331|70:199,1,168.75,0|0,1:0|0:0,0:0:0:0:
86,109,142769,1,10,0:1:0:0:
115,143,142872,1,2,0:0:0:0:
157,157,142975,1,2,0:0:0:0:
201,150,143077,1,2,0:0:0:0:
239,125,143180,6,0,P|294:101|345:112,1,112.5,2|0,1:0|0:0,0:0:0:0:
464,225,143488,1,2,0:0:0:0:
427,251,143591,2,0,P|404:256|362:246,1,56.25,8|0,0:1|0:0,0:0:0:0:
396,44,143797,2,0,P|413:59|430:99,1,56.25,2|0,0:0|0:0,0:0:0:0:
300,209,144002,1,2,1:0:0:0:
285,251,144105,1,2,0:0:0:0:
299,293,144208,1,2,0:0:0:0:
261,317,144310,1,2,0:0:0:0:
241,276,144413,1,10,0:1:0:0:
243,230,144516,1,2,0:0:0:0:
267,192,144619,1,2,0:0:0:0:
164,40,144824,6,0,B|191:90|191:90|175:158,1,112.5,2|0,1:0|0:0,0:0:0:0:
343,126,145132,2,0,B|316:76|316:76|328:21,1,112.5,2|0,0:0|0:0,0:0:0:0:
267,192,145440,1,2,0:0:0:0:
438,280,145646,6,0,B|385:265|347:300|347:300|304:340|240:310,1,202.500007724762,6|0,1:3|0:0,0:0:0:0:
441,307,146057,2,0,B|388:292|350:327|350:327|307:367|243:337,1,202.500007724762,14|0,1:3|0:0,0:0:0:0:
178,293,146468,1,2,0:0:0:0:
394,323,153043,6,0,P|331:301|394:232,1,180,2|8,0:0|0:0,0:0:0:0:
384,156,153660,2,0,B|332:147|291:181|291:181|254:209|196:186,1,180,2|2,0:0|0:0,0:0:0:0:
151,163,154276,1,8,0:0:0:0:
46,338,154687,6,0,P|86:301|199:346,1,180,2|8,0:0|0:0,0:0:0:0:
253,294,155303,2,0,P|218:254|85:224,1,180,2|2,0:0|0:0,0:0:0:0:
29,240,155920,1,8,0:0:0:0:
127,59,156331,6,0,B|185:54|185:54|227:77|227:77|308:70,1,180,2|8,0:0|0:0,0:0:0:0:
372,62,156947,2,0,B|405:102|405:102|384:237,1,180,2|0,0:0|0:0,0:0:0:0:
374,300,157564,1,8,0:0:0:0:
173,360,157872,5,0,0:0:0:0:
163,325,157975,1,2,0:0:0:0:
177,292,158077,1,0,0:0:0:0:
210,277,158180,1,2,0:0:0:0:
286,356,158386,1,8,0:0:0:0:
207,202,158591,2,0,P|141:217|85:312,1,180,2|0,0:0|0:0,0:0:0:0:
88,380,159208,1,8,0:0:0:0:
57,131,159619,5,0,1:0:0:0:
92,125,159721,1,0,0:0:0:0:
127,121,159824,1,2,0:0:0:0:
192,31,160030,1,8,0:0:0:0:
174,184,160235,2,0,B|222:165|258:198|258:198|295:236|349:220,1,180,0|0,0:0|0:0,0:0:0:0:
409,205,160851,1,8,0:0:0:0:
166,217,161160,5,0,0:0:0:0:
133,202,161262,1,2,1:0:0:0:
96,202,161365,1,0,0:0:0:0:
65,221,161468,1,2,0:0:0:0:
122,317,161673,1,8,0:0:0:0:
264,218,161879,2,0,P|349:193|433:220,1,180,0|2,0:0|0:0,0:0:0:0:
488,266,162495,1,8,0:0:0:0:
412,44,162803,5,0,0:0:0:0:
389,71,162906,1,2,1:0:0:0:
356,86,163009,1,0,0:0:0:0:
319,87,163112,1,2,0:0:0:0:
219,18,163317,1,8,0:0:0:0:
320,166,163523,1,0,0:0:0:0:
357,167,163626,1,0,0:0:0:0:
389,182,163728,2,0,P|422:214|433:262,1,90,2|2,1:0|0:0,0:0:0:0:
431,291,164036,1,2,0:0:0:0:
197,254,164447,5,0,0:0:0:0:
203,289,164550,1,2,1:0:0:0:
210,324,164653,1,8,0:0:0:0:
216,359,164756,1,10,0:0:0:0:
321,215,164961,1,10,0:0:0:0:
316,250,165064,1,8,0:0:0:0:
311,285,165167,1,8,0:0:0:0:
212,149,165372,2,0,L|151:139,3,45,8|8|8|8,1:2|0:0|0:0|0:0,0:0:0:0:
298,85,165783,2,0,L|359:75,3,45,8|8|8|8,1:2|0:0|0:0|0:0,0:0:0:0:
213,10,166194,6,0,B|174:6|149:27|149:27|116:54|63:32,1,135,6|2,1:0|0:0,0:0:0:0:
51,27,166605,2,0,P|82:84|76:137,1,90,8|0,0:1|0:0,0:0:0:0:
42,227,166913,1,2,0:0:0:0:
67,252,167016,2,0,L|127:245,1,45,0|0,1:0|0:0,0:0:0:0:
226,159,167221,2,0,L|166:166,1,45,2|0,0:0|0:0,0:0:0:0:
192,307,167427,2,0,P|242:302|309:354,1,135,8|2,0:1|0:0,0:0:0:0:
392,347,167838,6,0,P|374:275|391:217,1,135,0|2,1:0|0:0,0:0:0:0:
407,186,168249,2,0,P|423:138|412:90,1,90,8|0,0:1|0:0,0:0:0:0:
331,10,168557,1,2,0:0:0:0:
304,34,168660,2,0,L|243:24,1,45,0|0,1:0|0:0,0:0:0:0:
132,98,168865,2,0,L|193:88,1,45,2|2,0:0|0:0,0:0:0:0:
303,157,169071,1,8,0:1:0:0:
268,167,169173,1,0,0:0:0:0:
238,187,169276,1,2,0:0:0:0:
224,220,169379,1,2,0:0:0:0:
220,255,169482,6,0,L|274:245,1,45,6|0,1:0|0:0,0:0:0:0:
101,207,169687,2,0,L|85:158,1,45,0|0,0:0|0:0,0:0:0:0:
229,290,169893,2,0,L|283:289,1,45,8|0,0:1|0:0,0:0:0:0:
78,235,170098,2,0,L|53:189,1,45,0|0,0:0|0:0,0:0:0:0:
243,321,170303,2,0,L|297:330,1,45,2|0,1:0|0:0,0:0:0:0:
77,276,170509,2,0,L|45:235,1,45,0|0,0:0|0:0,0:0:0:0:
242,357,170714,2,0,L|293:375,1,45,8|0,0:1|0:0,0:0:0:0:
91,313,170920,2,0,L|52:278,1,45,0|0,0:0|0:0,0:0:0:0:
176,189,171125,6,0,L|189:249,1,45,2|0,1:0|0:0,0:0:0:0:
286,137,171331,2,0,L|295:93,1,45,0|0,0:0|0:0,0:0:0:0:
164,147,171536,2,0,L|138:202,1,45,8|0,0:1|0:0,0:0:0:0:
283,171,171742,2,0,L|317:141,1,45,0|0,0:0|0:0,0:0:0:0:
153,108,171947,2,0,L|105:146,1,45,2|0,1:0|0:0,0:0:0:0:
282,205,172153,2,0,L|325:193,1,45,0|0,0:0|0:0,0:0:0:0:
142,74,172358,2,0,L|83:93,1,45,8|0,0:1|0:0,0:0:0:0:
282,235,172564,2,0,L|326:235,1,45,0|0,0:0|0:0,0:0:0:0:
378,32,172769,6,0,P|440:33|479:18,1,99.0000030212403,6|0,1:3|0:0,0:0:0:0:
323,87,173180,2,0,P|379:113|427:115,1,107.999996704102,10|0,1:0|0:0,0:0:0:0:
245,123,173591,2,0,P|290:165|344:183,1,116.999994644165,6|0,1:3|0:0,0:0:0:0:
170,143,174002,2,0,P|200:197|257:235,1,125.999996154785,10|0,1:0|0:0,0:0:0:0:
445,327,174413,6,0,B|401:317|401:317|299:339,1,135.000005149842,6|0,1:3|0:0,0:0:0:0:
136,230,174824,2,0,B|179:220|179:220|291:244,1,144,10|0,1:0|0:0,0:0:0:0:
456,132,175235,2,0,B|412:122|412:122|292:149,1,153.000002918243,6|0,1:3|0:0,0:0:0:0:
128,35,175646,2,0,B|171:25|171:25|298:51,1,161.999995056153,10|0,1:0|0:0,0:0:0:0:
435,209,176057,5,2,1:0:0:0:
299,284,176262,1,6,0:3:0:0:
381,354,176468,1,8,0:1:0:0:
381,354,176673,1,2,0:0:0:0:
320,198,176879,1,0,1:0:0:0:
216,255,177084,2,0,L|161:283,1,45,2|0,0:0|0:0,0:0:0:0:
112,307,177290,1,8,0:1:0:0:
112,307,177495,1,0,0:0:0:0:
155,129,177701,5,2,1:0:0:0:
289,201,177906,1,6,0:3:0:0:
242,282,178112,1,8,0:1:0:0:
242,282,178317,1,2,0:0:0:0:
241,122,178523,1,0,1:0:0:0:
357,159,178728,2,0,L|406:175,1,45,2|0,0:0|0:0,0:0:0:0:
470,203,178934,1,8,0:1:0:0:
470,203,179139,1,0,0:0:0:0:
336,40,179345,5,2,1:0:0:0:
278,150,179550,2,0,L|293:214,1,45,2|0,0:0|0:0,0:0:0:0:
306,268,179756,1,6,0:3:0:0:
252,77,179961,2,0,L|257:42,1,22.5,2|0,0:0|0:0,0:0:0:0:
215,98,180064,2,0,L|195:79,1,22.5,0|0,0:0|0:0,0:0:0:0:
197,139,180167,6,0,L|158:134,2,22.5,2|0|0,1:0|0:0|0:0,0:0:0:0:
265,196,180372,2,0,L|304:191,2,22.5,2|0|0,0:0|0:0|0:0,0:0:0:0:
192,250,180577,2,0,L|153:245,2,22.5,10|0|0,0:1|0:0|0:0,0:0:0:0:
268,307,180783,2,0,L|307:302,2,22.5,2|0|0,0:0|0:0|0:0,0:0:0:0:
169,369,180988,5,2,1:0:0:0:
92,229,181194,1,6,0:3:0:0:
47,309,181399,1,8,0:1:0:0:
47,309,181605,1,2,0:0:0:0:
200,216,181810,1,0,1:0:0:0:
236,211,181913,1,2,0:0:0:0:
271,207,182016,1,2,0:0:0:0:
306,201,182119,1,2,0:0:0:0:
341,196,182221,1,10,0:1:0:0:
306,186,182324,1,2,0:0:0:0:
270,181,182427,1,2,0:0:0:0:
235,177,182530,1,2,0:0:0:0:
200,171,182632,5,2,1:0:0:0:
321,71,182838,1,6,0:3:0:0:
385,138,183043,1,8,0:1:0:0:
385,138,183249,1,2,0:0:0:0:
236,64,183454,1,0,1:0:0:0:
270,181,183660,2,0,L|291:247,1,45,2|0,0:0|0:0,0:0:0:0:
308,292,183865,1,8,0:1:0:0:
308,292,184071,1,0,0:0:0:0:
430,159,184276,5,2,1:0:0:0:
398,311,184482,1,6,0:3:0:0:
371,225,184687,1,8,0:1:0:0:
371,225,184893,1,2,0:0:0:0:
351,383,185098,1,0,1:0:0:0:
265,288,185303,2,0,L|200:296,1,45,2|0,0:0|0:0,0:0:0:0:
148,308,185509,1,8,0:1:0:0:
148,308,185714,1,0,0:0:0:0:
276,377,185920,5,2,1:0:0:0:
315,230,186125,2,0,L|306:172,1,45,2|0,0:0|0:0,0:0:0:0:
294,113,186331,1,4,0:3:0:0:
437,184,186536,2,0,L|432:149,1,22.5,2|0,0:0|0:0,0:0:0:0:
449,228,186639,2,0,L|446:205,1,22.5,0|0,0:0|0:0,0:0:0:0:
460,265,186742,6,0,L|496:257,2,22.5,2|0|0,1:0|0:0|0:0,0:0:0:0:
387,326,186947,2,0,L|408:330,2,22.5,2|0|0,0:0|0:0|0:0,0:0:0:0:
298,267,187153,2,0,L|334:259,2,22.5,10|0|0,0:1|0:0|0:0,0:0:0:0:
225,328,187358,2,0,L|246:332,2,22.5,2|0|0,0:0|0:0|0:0,0:0:0:0:
157,269,187564,5,2,1:0:0:0:
256,148,187769,1,6,0:3:0:0:
192,79,187975,1,8,0:1:0:0:
192,79,188180,1,2,0:0:0:0:
236,233,188386,1,0,1:0:0:0:
270,242,188488,1,2,0:0:0:0:
305,237,188591,1,2,0:0:0:0:
336,218,188694,1,2,0:0:0:0:
360,191,188796,1,10,0:1:0:0:
387,168,188899,1,2,0:0:0:0:
421,156,189002,1,2,0:0:0:0:
456,158,189105,1,2,0:0:0:0:
490,171,189208,5,0,0:0:0:0:
470,246,189649,1,8,0:0:0:0:
446,319,190843,1,8,0:0:0:0:
372,289,191871,1,8,0:0:0:0:
301,258,192371,1,2,0:0:0:0:
234,226,192699,1,2,0:0:0:0:
234,226,192808,1,8,0:0:0:0:
162,190,193027,1,2,0:0:0:0:
93,155,193684,1,8,0:0:0:0:
257,42,194139,5,2,0:0:0:0:
258,120,194448,1,2,0:0:0:0:
258,120,194550,1,8,0:0:0:0:
256,192,194756,1,2,0:0:0:0:
255,270,195372,1,8,0:0:0:0:
196,368,195783,6,0,L|289:361,1,90,10|0,1:2|0:0,0:0:0:0:
255,270,196194,2,0,L|343:299,1,90,8|2,1:2|0:0,0:0:0:0:
351,196,196605,2,0,L|411:267,1,90,8|2,1:2|0:0,0:0:0:0:
472,172,197016,2,0,L|483:268,1,90,8|2,1:2|0:0,0:0:0:0:
392,66,197427,6,0,P|333:60|296:79,1,90,10|2,1:2|0:0,0:0:0:0:
218,126,197838,2,0,P|175:139|131:131,1,90,8|2,1:2|0:0,0:0:0:0:
133,42,198249,2,0,P|192:36|229:55,1,90,8|2,1:2|0:0,0:0:0:0:
320,146,198660,2,0,P|362:159|406:151,1,90,8|2,1:2|0:0,0:0:0:0:
463,278,199071,6,0,L|469:229,1,45,8|8,1:2|0:0,0:0:0:0:
396,333,199276,2,0,L|402:382,1,45,8|8,0:0|0:0,0:0:0:0:
334,277,199482,2,0,L|340:228,1,45,10|8,1:2|0:0,0:0:0:0:
267,332,199687,2,0,L|273:381,1,45,8|8,0:0|0:0,0:0:0:0:
203,276,199893,6,0,P|173:274|154:278,1,45,8|8,1:2|0:0,0:0:0:0:
264,229,200098,2,0,P|241:208|224:200,1,45,8|8,0:0|0:0,0:0:0:0:
337,202,200303,2,0,P|322:175|309:161,1,45,8|8,1:2|0:0,0:0:0:0:
409,228,200509,2,0,P|414:198|412:179,1,45,10|8,0:0|0:0,0:0:0:0:
493,183,200714,5,8,1:2:0:0:
484,147,200817,1,8,0:0:0:0:
459,120,200920,1,10,0:0:0:0:
425,105,201023,1,8,0:0:0:0:
389,106,201125,1,8,1:2:0:0:
356,121,201228,1,8,0:0:0:0:
323,137,201331,1,8,0:0:0:0:
287,132,201434,1,8,0:0:0:0:
255,113,201536,2,0,P|237:68|250:28,1,90,10|0,1:2|0:0,0:0:0:0:
277,7,201845,1,2,0:0:0:0:
48,286,202358,6,0,B|83:267|83:267|159:283,1,112.5,6|0,1:0|0:0,0:0:0:0:
229,337,202667,1,0,0:0:0:0:
272,348,202769,2,0,P|322:332|348:276,1,112.5,10|0,0:1|0:0,0:0:0:0:
294,193,203180,1,0,1:0:0:0:
250,182,203283,1,0,0:0:0:0:
208,200,203386,1,2,0:0:0:0:
167,219,203488,1,2,0:0:0:0:
123,205,203591,1,10,0:1:0:0:
261,272,203797,1,2,0:0:0:0:
160,131,204002,5,0,1:0:0:0:
170,87,204105,1,0,0:0:0:0:
205,59,204208,1,0,0:0:0:0:
249,54,204310,1,0,0:0:0:0:
291,69,204413,2,0,P|341:80|402:55,1,112.5,10|0,0:1|0:0,0:0:0:0:
493,0,204721,1,0,0:0:0:0:
488,44,204824,2,0,L|481:101,1,56.25,2|0,1:2|0:0,0:0:0:0:
428,173,205030,2,0,L|435:230,1,56.25,2|0,0:0|0:0,0:0:0:0:
497,293,205235,1,10,0:1:0:0:
491,337,205338,1,0,0:0:0:0:
485,381,205440,1,0,0:0:0:0:
293,270,205646,6,0,P|237:296|303:344,1,168.75,2|0,1:2|0:0,0:0:0:0:
310,199,206057,2,0,P|245:194|183:244,1,112.5,10|0,0:1|0:0,0:0:0:0:
133,296,206365,1,0,0:0:0:0:
106,259,206468,2,0,L|115:191,1,56.25,2|0,1:2|0:0,0:0:0:0:
28,98,206673,2,0,L|35:153,1,56.25,2|2,0:0|0:0,0:0:0:0:
128,258,206879,2,0,L|137:190,1,56.25,10|0,0:1|0:0,0:0:0:0:
146,125,207084,1,2,0:0:0:0:
146,125,207187,1,0,0:0:0:0:
219,171,207290,5,0,1:0:0:0:
219,171,207393,2,0,L|283:165,1,56.25,0|0,0:0|0:0,0:0:0:0:
332,109,207598,1,0,0:0:0:0:
360,143,207701,1,10,0:1:0:0:
376,184,207803,1,2,0:0:0:0:
372,228,207906,1,2,0:0:0:0:
353,269,208009,1,2,0:0:0:0:
318,297,208112,2,0,L|258:285,3,56.25,2|2|2|0,1:2|0:0|0:0|0:0,0:0:0:0:
357,368,208523,2,0,L|417:356,3,56.25,10|2|2|0,0:1|0:0|0:0|0:0,0:0:0:0:
466,293,208934,5,6,1:0:0:0:
472,248,209036,1,0,0:0:0:0:
448,209,209139,2,0,L|385:214,1,56.25,2|0,0:0|0:0,0:0:0:0:
292,110,209345,2,0,B|361:100|333:148|419:124,1,112.5,10|0,0:1|0:0,0:0:0:0:
442,25,209653,1,0,0:0:0:0:
399,9,209756,2,0,B|329:0|357:47|271:23,1,112.5,0|0,1:0|0:0,0:0:0:0:
215,0,210064,1,2,0:0:0:0:
215,0,210167,1,10,0:1:0:0:
223,165,210372,1,2,0:0:0:0:
44,123,210577,6,0,P|91:94|145:103,1,112.5,0|0,1:0|0:0,0:0:0:0:
223,165,210886,1,2,0:0:0:0:
194,199,210988,2,0,P|178:224|175:254,1,56.25,10|0,0:1|0:0,0:0:0:0:
282,113,211194,2,0,P|298:138|301:168,1,56.25,2|0,0:0|0:0,0:0:0:0:
311,309,211399,2,0,B|359:325|391:291|391:291|423:253|479:270,1,168.75,2|2,1:2|0:0,0:0:0:0:
507,278,211810,1,10,0:1:0:0:
507,278,211913,2,0,L|497:194,2,56.25,0|0|0,0:0|0:0|0:0,0:0:0:0:
488,147,212221,6,0,B|432:132|432:132|372:152|372:152|311:136,1,180,2|2,1:2|0:1,0:0:0:0:
191,103,212838,2,0,P|173:90|163:62,1,45,0|0,0:0|0:0,0:0:0:0:
203,70,213043,2,0,P|253:19|329:8,2,135,2|2|2,0:0|0:0|0:0,0:0:0:0:
154,189,213865,6,0,L|98:170,1,45,0|2,0:0|0:0,0:0:0:0:
119,210,214071,2,0,L|63:191,1,45,0|2,0:0|0:0,0:0:0:0:
85,230,214276,2,0,L|29:211,1,45,2|0,0:1|0:0,0:0:0:0:
89,310,214482,1,2,0:0:0:0:
121,324,214584,1,0,0:0:0:0:
154,338,214687,2,0,L|202:360,3,45,2|0|2|2,0:0|0:0|0:0|0:0,0:0:0:0:
269,325,215098,2,0,L|288:284,3,45,2|2|0|0,0:1|0:0|0:0|0:0,0:0:0:0:
267,211,215509,5,6,1:0:0:0:
246,170,215612,1,0,0:0:0:0:
266,130,215714,2,0,L|338:135,1,56.25,2|0,0:0|0:0,0:0:0:0:
387,28,215920,2,0,P|335:1|278:9,1,112.5,10|0,0:1|0:0,0:0:0:0:
170,92,216228,1,0,0:0:0:0:
128,110,216331,1,0,1:0:0:0:
90,86,216434,1,0,0:0:0:0:
90,41,216536,1,0,0:0:0:0:
128,17,216639,1,0,0:0:0:0:
170,33,216742,1,10,0:1:0:0:
236,162,216947,5,2,0:0:0:0:
214,200,217050,2,0,L|149:193,1,56.25,0|0,0:0|1:0,0:0:0:0:
250,284,217256,2,0,L|305:277,1,56.25,2|0,0:0|0:0,0:0:0:0:
212,369,217461,1,2,0:0:0:0:
177,340,217564,1,10,0:1:0:0:
133,328,217667,1,0,0:0:0:0:
88,331,217769,2,0,P|60:337|34:357,1,56.25,2|0,0:0|0:0,0:0:0:0:
88,236,217975,6,0,L|77:174,1,56.25,6|0,1:3|0:0,0:0:0:0:
209,100,218180,2,0,L|220:38,1,56.25,6|0,0:3|0:0,0:0:0:0:
249,236,218386,2,0,L|260:174,1,56.25,14|0,0:3|0:0,0:0:0:0:
128,100,218591,2,0,L|117:38,1,56.25,6|0,0:3|0:0,0:0:0:0:
182,283,218797,5,6,1:0:0:0:
216,311,218899,1,0,0:0:0:0:
260,318,219002,2,0,L|320:311,1,56.25,0|0,0:0|0:0,0:0:0:0:
449,185,219208,2,0,P|385:209|356:252,1,112.5,10|0,0:1|0:0,0:0:0:0:
449,358,219516,1,2,0:0:0:0:
471,318,219619,2,0,L|461:254,1,56.25,2|0,1:2|0:0,0:0:0:0:
449,185,219824,1,2,0:0:0:0:
425,146,219927,2,0,P|368:128|298:155,1,112.5,2|0,0:0|0:0,0:0:0:0:
253,175,220235,1,2,0:0:0:0:
253,175,220338,1,2,0:0:0:0:
182,133,220440,6,0,P|155:79|189:50,1,112.5,0|0,1:0|0:0,0:0:0:0:
318,140,220749,1,2,0:0:0:0:
330,182,220851,1,10,0:1:0:0:
318,225,220954,1,2,0:0:0:0:
280,250,221057,1,0,0:0:0:0:
234,251,221160,1,0,0:0:0:0:
193,231,221262,2,0,P|161:215|123:213,3,56.25,2|2|2|2,1:2|0:0|0:0|0:0,0:0:0:0:
138,292,221673,2,0,P|110:297|86:311,3,56.25,10|0|0|0,0:1|0:0|0:0|0:0,0:0:0:0:
28,177,222084,5,2,0:3:0:0:
