osu file format v14

[General]
AudioFilename: audio.mp3
AudioLeadIn: 0
PreviewTime: 72084
Countdown: 0
SampleSet: Soft
StackLeniency: 0.7
Mode: 0
LetterboxInBreaks: 0
WidescreenStoryboard: 0

[Editor]
DistanceSpacing: 1.4
BeatDivisor: 4
GridSize: 8
TimelineZoom: 1

[Metadata]
Title:The Government Knows
TitleUnicode:The Government Knows
Artist:KNOWER
ArtistUnicode:KNOWER
Creator:Pachiru
Version:Gabe's Hard
Source:osu!
Tags:fieryrage govt featured artist fa mappers mappers' guild LIFE electronic drum and & bass dnb english gabe veus nozhomi
BeatmapID:2250657
BeatmapSetID:1075602

[Difficulty]
HPDrainRate:6
CircleSize:4
OverallDifficulty:6
ApproachRate:7
SliderMultiplier:1.7
SliderTickRate:1

[Events]
//Background and Video events
0,0,"How.jpg",0,0
//Break Periods
2,146468,152143
2,195982,201458
//Storyboard Layer 0 (Background)
//Storyboard Layer 1 (Fail)
//Storyboard Layer 2 (Pass)
//Storyboard Layer 3 (Foreground)
//Storyboard Layer 4 (Overlay)
//Storyboard Sound Samples

[TimingPoints]
167,410.958904109589,4,2,1,40,1,0
6742,-181.818181818181,4,2,1,45,0,0
13317,-153.846153846153,4,2,1,50,0,0
19893,-133.333333333333,4,2,1,52,0,0
33043,-117.647058823529,4,2,1,55,0,0
46194,-117.647058823529,4,2,1,58,0,0
52769,-117.647058823529,4,2,1,60,0,0
56057,-117.647058823529,4,2,1,62,0,0
59345,-117.647058823529,4,2,1,65,0,0
69208,-117.647058823529,4,2,1,50,0,0
69310,-117.647058823529,4,2,1,40,0,0
69619,-117.647058823529,4,2,1,50,0,0
69721,-117.647058823529,4,2,1,40,0,0
70030,-117.647058823529,4,2,1,50,0,0
70132,-117.647058823529,4,2,1,40,0,0
70440,-117.647058823529,4,2,1,50,0,0
70543,-117.647058823529,4,2,1,40,0,0
70749,-117.647058823529,4,2,1,50,0,0
71160,-117.647058823529,4,2,1,40,0,0
71262,-117.647058823529,4,2,1,50,0,0
71365,-117.647058823529,4,2,1,40,0,0
71673,-117.647058823529,4,2,1,50,0,0
71776,-117.647058823529,4,2,1,40,0,0
71982,-117.647058823529,4,2,1,30,0,0
72084,-117.647058823529,4,2,1,50,0,0
72187,-117.647058823529,4,2,2,5,0,0
72495,-100,4,2,1,75,0,1
78146,-100,4,2,1,75,0,0
78249,-100,4,2,1,75,0,1
78351,-100,4,2,1,75,0,0
78660,-100,4,2,1,75,0,1
78762,-100,4,2,1,75,0,0
79071,-100,4,2,1,75,0,1
84721,-100,4,2,1,75,0,0
84824,-100,4,2,1,75,0,1
84927,-100,4,2,1,75,0,0
85235,-100,4,2,1,75,0,1
85338,-100,4,2,1,75,0,0
85646,-100,4,2,1,75,0,1
92221,-100,4,2,1,65,0,1
98797,-100,4,2,1,50,0,0
99002,-100,4,2,1,20,0,0
100440,-153.846153846153,4,2,1,20,0,0
105783,-153.846153846153,4,2,1,30,0,0
106194,-153.846153846153,4,2,1,35,0,0
106605,-153.846153846153,4,2,1,40,0,0
106810,-153.846153846153,4,2,1,45,0,0
107016,-133.333333333333,4,2,1,52,0,0
113591,-133.333333333333,4,2,1,55,0,0
120166,-133.333333333333,4,2,1,58,0,0
126742,-133.333333333333,4,2,1,60,0,0
128797,-133.333333333333,4,2,1,58,0,0
129208,-133.333333333333,4,2,1,55,0,0
129619,-133.333333333333,4,2,1,52,0,0
130030,-133.333333333333,4,2,1,50,0,0
130338,-133.333333333333,4,2,1,40,0,0
130440,-133.333333333333,4,2,1,50,0,0
130543,-133.333333333333,4,2,1,38,0,0
130851,-133.333333333333,4,2,1,50,0,0
130954,-133.333333333333,4,2,1,35,0,0
131262,-133.333333333333,4,2,1,50,0,0
131365,-133.333333333333,4,2,1,32,0,0
131571,-133.333333333333,4,2,1,42,0,0
131673,-133.333333333333,4,2,1,50,0,0
131776,-133.333333333333,4,2,1,42,0,0
131982,-133.333333333333,4,2,1,37,0,0
132084,-133.333333333333,4,2,1,40,0,0
132187,-133.333333333333,4,2,1,35,0,0
132495,-133.333333333333,4,2,1,40,0,0
132598,-133.333333333333,4,2,1,32,0,0
132906,-133.333333333333,4,2,1,50,0,0
133317,-100,4,2,1,75,0,1
146468,-100,4,2,1,50,0,0
153043,-100,4,2,1,52,0,0
159619,-100,4,2,1,55,0,0
161262,-100,4,2,1,58,0,0
162906,-100,4,2,1,60,0,0
164550,-100,4,2,1,63,0,0
165577,-100,4,2,1,65,0,0
165783,-100,4,2,1,68,0,0
166194,-83.3333333333333,4,2,1,75,0,0
172707,-83.3333333333333,4,2,1,75,0,0
176057,-83.3333333333333,4,2,1,85,0,0
189208,441.176470588235,4,2,1,40,1,0
189208,-100,4,2,1,40,0,0
190090,397.350993377483,4,2,1,40,1,0
190090,-100,4,2,1,40,0,0
190288,555.555555555556,4,2,1,43,1,0
190288,-100,4,2,1,43,0,0
191121,500,4,2,1,43,1,0
191121,-100,4,2,1,43,0,0
191371,500,4,2,1,45,1,0
191371,-100,4,2,1,45,0,0
192371,437.956204379562,4,2,1,47,1,0
192371,-100,4,2,1,47,0,0
193246,-100,4,2,1,50,0,0
193684,455.407969639469,4,2,1,50,1,0
193684,-100,4,2,1,50,0,0
194139,410.958904109589,4,2,1,55,1,0
194139,-100,4,2,1,55,0,0
195782,-100,4,2,1,58,0,0
199070,-100,4,2,1,50,0,0
199173,-100,4,2,1,45,0,0
199481,-100,4,2,1,57,0,0
199584,-100,4,2,1,47,0,0
199892,-100,4,2,1,60,0,0
199995,-100,4,2,1,50,0,0
200303,-100,4,2,1,63,0,0
200406,-100,4,2,1,53,0,0
200714,-100,4,2,1,65,0,0
200817,-100,4,2,1,55,0,0
201125,-100,4,2,1,68,0,0
201228,-100,4,2,1,58,0,0
201536,-100,4,2,1,70,0,0
202358,-83.3333333333333,4,2,5,75,0,1
212221,-83.3333333333333,4,2,5,65,0,1
215508,-83.3333333333333,4,2,5,75,0,1
222084,-83.3333333333333,4,2,5,65,0,0

[Colours]
Combo1 : 228,82,39
Combo2 : 84,120,188
Combo3 : 36,49,204
Combo4 : 153,129,79

[HitObjects]
312,56,6742,6,0,L|464:72,1,140.25000428009,6|2,1:3|0:0,0:0:0:0:
272,136,7975,1,8,0:0:0:0:
344,232,8386,2,0,L|336:304,2,70.1250021400452,2|2|2,0:0|0:0|0:0,0:0:0:0:
256,368,9619,1,8,0:0:0:0:
165,303,10030,2,0,L|96:296,2,70.1250021400452,2|2|2,0:0|0:0|0:0,0:0:0:0:
24,224,11262,1,8,0:0:0:0:
104,144,11673,2,0,L|173:136,2,70.1250021400452,2|2|2,0:0|0:0|0:0,0:0:0:0:
256,88,12906,1,8,0:0:0:0:
384,160,13317,6,0,P|400:208|384:272,1,110.499994941712,6|8,1:3|0:0,0:0:0:0:
336,344,13934,2,0,P|389:356|441:340,1,110.499994941712,2|2,0:0|0:0,0:0:0:0:
480,256,14550,1,8,0:0:0:0:
294,272,14961,2,0,L|198:256,1,82.8749962062838,2|2,0:0|0:0,0:0:0:0:
104,352,15577,2,0,L|40:248,1,110.499994941712,2|2,0:0|0:0,0:0:0:0:
32,168,16194,1,8,0:0:0:0:
208,224,16605,2,0,P|222:185|216:144,1,82.8749962062838,2|2,0:0|0:0,0:0:0:0:
312,40,17221,2,0,P|376:32|424:64,1,110.499994941712,2|2,0:0|0:0,0:0:0:0:
464,136,17838,1,8,0:0:0:0:
384,304,18249,2,0,L|360:224,1,82.8749962062838,2|2,0:0|0:0,0:0:0:0:
232,272,18865,2,0,L|264:152,1,110.499994941712,2|2,0:0|0:0,0:0:0:0:
328,96,19482,1,8,0:0:0:0:
128,48,19893,6,0,L|80:40,2,31.8750012159348,6|0|0,1:3|0:0|0:0,0:0:0:0:
160,144,20303,1,8,0:0:0:0:
96,224,20509,1,2,0:0:0:0:
96,224,20612,1,0,0:0:0:0:
96,224,20714,2,0,P|88:288|72:376,1,127.500004863739,0|8,0:0|0:0,0:0:0:0:
280,312,21536,6,0,L|272:360,2,31.8750012159348,2|0|0,0:0|0:0|0:0,0:0:0:0:
344,232,21947,1,8,0:0:0:0:
328,128,22153,1,2,0:0:0:0:
328,128,22256,1,0,0:0:0:0:
328,128,22358,2,0,P|416:128|472:128,1,127.500004863739,0|8,0:0|0:0,0:0:0:0:
272,32,23180,6,0,L|312:32,2,31.8750012159348,2|0|0,0:0|0:0|0:0,0:0:0:0:
184,88,23591,2,0,P|148:92|112:92,1,63.7500024318696,8|2,0:0|0:0,0:0:0:0:
20,72,24002,1,2,0:0:0:0:
48,172,24208,1,0,0:0:0:0:
48,172,24310,1,2,0:0:0:0:
48,172,24413,2,0,L|36:264,1,63.7500024318696,8|2,0:0|0:0,0:0:0:0:
92,324,24824,6,0,P|112:332|160:328,1,63.7500024318696,2|0,0:0|0:0,0:0:0:0:
252,304,25235,2,0,P|244:324|248:372,1,63.7500024318696,8|2,0:0|0:0,0:0:0:0:
344,340,25646,1,2,0:0:0:0:
344,340,25749,1,0,0:0:0:0:
344,340,25851,2,0,P|352:320|348:272,1,63.7500024318696,2|8,0:0|0:0,0:0:0:0:
412,84,26468,6,0,L|416:128,2,31.8750012159348,6|0|2,1:3|0:0|0:0,0:0:0:0:
332,20,26879,1,10,0:0:0:0:
296,116,27084,1,0,0:0:0:0:
216,52,27290,2,0,P|156:60|72:60,1,127.500004863739,2|10,0:0|0:0,0:0:0:0:
40,260,28112,6,0,L|-4:264,2,31.8750012159348,2|0|2,0:0|0:0|0:0,0:0:0:0:
116,332,28523,1,10,0:0:0:0:
200,276,28728,1,0,0:0:0:0:
268,352,28934,1,2,0:0:0:0:
268,352,29139,1,2,0:0:0:0:
344,284,29345,2,0,P|368:244|372:204,1,63.7500024318696,10|0,0:0|0:0,0:0:0:0:
360,128,29756,6,0,L|312:112,2,31.8750012159348,2|0|2,0:0|0:0|0:0,0:0:0:0:
448,180,30166,1,10,0:0:0:0:
472,280,30372,1,0,0:0:0:0:
472,280,30475,1,0,0:0:0:0:
472,280,30577,2,0,L|472:356,2,63.7500024318696,2|2|8,0:0|0:0|0:0,0:0:0:0:
284,360,31399,5,2,0:0:0:0:
284,360,31502,1,0,0:0:0:0:
284,360,31605,2,0,L|208:360,2,63.7500024318696,2|8|0,0:0|0:0|0:0,0:0:0:0:
344,284,32221,2,0,P|368:244|360:152,1,127.500004863739,2|8,0:0|0:0,0:0:0:0:
136,44,33043,6,0,P|110:85|119:182,1,144.500002756119,6|8,1:3|0:0,0:0:0:0:
36,264,33660,2,0,P|78:289|174:280,1,144.500002756119,0|2,0:0|0:0,0:0:0:0:
268,216,34276,1,8,0:0:0:0:
268,216,34687,6,0,P|252:160|256:108,1,108.375002067089,2|2,0:0|0:0,0:0:0:0:
372,240,35303,2,0,P|423:190|437:121,1,144.500002756119,2|0,0:0|0:0,0:0:0:0:
404,8,35920,1,8,0:0:0:0:
404,8,36331,6,0,L|252:20,1,144.500002756119,2|8,0:0|0:0,0:0:0:0:
172,92,36947,2,0,P|120:80|40:120,1,144.500002756119,0|2,0:0|0:0,0:0:0:0:
12,232,37564,1,8,0:0:0:0:
12,232,37975,6,0,L|16:344,1,108.375002067089,2|2,0:0|0:0,0:0:0:0:
140,220,38591,2,0,L|292:244,1,144.500002756119,0|2,0:0|0:0,0:0:0:0:
396,212,39208,2,0,P|420:172|424:136,1,72.2500013780594,8|0,0:0|0:0,0:0:0:0:
436,32,39619,6,0,P|471:40|500:60,2,72.2500013780594,6|2|8,1:3|0:0|0:0,0:0:0:0:
332,80,40235,1,2,0:0:0:0:
224,40,40440,2,0,L|128:24,2,72.2500013780594,2|0|8,0:0|0:0|0:0,0:0:0:0:
272,144,41057,1,0,0:0:0:0:
328,244,41262,6,0,P|392:256|448:232,1,108.375002067089,2|2,0:0|0:0,0:0:0:0:
448,224,41673,2,0,B|480:244|480:244|500:272,1,72.2500013780594,8|0,0:0|0:0,0:0:0:0:
404,336,42084,2,0,B|384:364|384:364|352:384,1,72.2500013780594,2|2,0:0|0:0,0:0:0:0:
236,368,42495,2,0,B|208:348|208:348|188:316,1,72.2500013780594,8|0,0:0|0:0,0:0:0:0:
188,200,42906,6,0,L|208:152,2,36.1250006890297,2|0|2,0:0|0:0|0:0,0:0:0:0:
88,256,43317,1,8,0:0:0:0:
88,256,44550,6,0,L|80:160,2,72.2500013780594,2|2|8,0:0|0:0|0:0,0:0:0:0:
192,312,45167,2,0,L|184:408,2,72.2500013780594,0|2|2,0:0|0:0|0:0,0:0:0:0:
280,236,45783,1,8,0:0:0:0:
280,236,46194,5,6,1:3:0:0:
492,324,46605,1,8,0:2:0:0:
260,336,47016,1,2,1:2:0:0:
464,228,47427,1,8,0:2:0:0:
348,28,47838,5,2,1:2:0:0:
360,144,48043,1,2,0:0:0:0:
372,260,48249,1,8,0:2:0:0:
208,96,48660,1,2,1:2:0:0:
169,206,48865,1,2,0:0:0:0:
131,316,49071,1,8,0:2:0:0:
12,116,49482,5,0,1:2:0:0:
236,60,49893,1,8,0:2:0:0:
8,16,50303,1,2,1:2:0:0:
196,152,50714,1,8,0:2:0:0:
400,44,51125,5,2,1:2:0:0:
500,100,51331,1,2,0:0:0:0:
388,132,51536,1,8,0:2:0:0:
164,76,51947,1,2,1:2:0:0:
64,132,52153,1,2,0:0:0:0:
176,164,52358,1,8,0:2:0:0:
368,292,52769,6,0,L|412:284,2,36.1250006890297,6|0|2,1:3|0:0|0:0,0:0:0:0:
256,320,53180,2,0,L|100:312,1,144.500002756119,8|0,0:2|1:2,0:0:0:0:
24,308,54002,1,8,0:2:0:0:
148,112,54413,6,0,L|104:104,2,36.1250006890297,2|0|2,1:2|0:0|0:0,0:0:0:0:
260,140,54824,2,0,L|416:132,1,144.500002756119,8|0,0:2|1:2,0:0:0:0:
492,128,55646,1,8,0:2:0:0:
376,328,56057,6,0,L|372:288,2,36.1250006890297,2|0|2,1:2|0:0|0:0,0:0:0:0:
408,216,56468,2,0,P|356:208|312:232,1,72.2500013780594,8|2,0:2|0:0,0:0:0:0:
276,312,56879,2,0,L|280:392,2,72.2500013780594,2|2|8,1:2|0:0|0:2,0:0:0:0:
56,236,57701,6,0,L|60:196,2,36.1250006890297,2|0|2,1:2|0:0|0:0,0:0:0:0:
24,124,58112,2,0,P|76:116|120:140,1,72.2500013780594,8|2,0:2|0:0,0:0:0:0:
156,220,58523,2,0,L|152:300,1,72.2500013780594,2|2,1:2|0:0,0:0:0:0:
52,348,58934,1,8,0:2:0:0:
280,304,59345,6,0,L|328:312,2,36.1250006890297,6|0|2,1:3|0:0|0:0,0:0:0:0:
372,236,59756,2,0,L|456:232,1,72.2500013780594,8|2,0:2|0:0,0:0:0:0:
380,136,60166,2,0,L|296:132,1,72.2500013780594,2|2,1:2|0:0,0:0:0:0:
208,72,60577,2,0,L|204:156,1,72.2500013780594,8|2,0:2|0:0,0:0:0:0:
100,192,60988,6,0,L|27:188,2,72.2500013780594,2|0|8,1:2|0:0|0:2,0:0:0:0:
204,248,61605,1,2,0:0:0:0:
308,300,61810,1,2,1:2:0:0:
308,300,61913,1,0,0:0:0:0:
308,300,62016,2,0,L|380:303,1,72.2500013780594,2|8,0:0|0:2,0:0:0:0:
492,340,62427,1,2,0:0:0:0:
436,240,62632,6,0,P|448:204|452:144,2,72.2500013780594,2|2|8,1:2|0:0|0:2,0:0:0:0:
212,300,63454,2,0,P|224:336|228:396,2,72.2500013780594,2|2|8,1:2|0:0|0:2,0:0:0:0:
56,128,64276,6,0,P|44:92|40:32,2,72.2500013780594,2|2|8,1:2|0:0|0:2,0:0:0:0:
212,300,65098,2,0,P|264:296|308:260,1,108.375002067089,2|2,1:2|0:0,0:0:0:0:
308,240,65509,2,0,B|356:268|356:268|408:256,1,108.375002067089,8|0,0:2|0:0,0:0:0:0:
424,240,65920,6,0,L|440:344,2,72.2500013780594,6|2|8,1:3|0:0|1:2,0:0:0:0:
504,160,66536,1,2,0:0:0:0:
400,112,66742,2,0,L|384:8,2,72.2500013780594,8|2|8,1:2|0:0|1:2,0:0:0:0:
308,184,67358,1,2,0:0:0:0:
204,136,67564,6,0,L|128:152,2,72.2500013780594,8|2|8,1:2|0:0|1:2,0:0:0:0:
308,184,68180,1,2,0:0:0:0:
244,280,68386,2,0,L|128:304,1,108.375002067089,8|2,1:2|0:0,0:0:0:0:
123,319,68797,2,0,P|99:294|91:259,1,72.2500013780594,8|0,1:2|0:0,0:0:0:0:
256,192,69208,12,8,71673,1:2:0:0:
141,65,72495,6,0,P|187:38|215:97,1,127.5,6|2,1:3|0:0,0:0:0:0:
160,133,72906,2,0,P|94:113|41:129,1,85,8|2,0:1|0:0,0:0:0:0:
106,212,73317,2,0,P|187:192|266:220,1,170,0|10,1:0|0:1,0:0:0:0:
427,346,74139,6,0,P|486:325|432:266,1,170,2|8,1:0|0:1,0:0:0:0:
378,352,74756,2,0,P|333:368|206:334,1,170,2|0,0:0|0:0,0:0:0:0:
133,283,75372,2,0,L|90:314,2,42.5,10|2|2,0:1|0:0|0:0,0:0:0:0:
204,209,75783,6,0,B|219:155|219:155|210:85,1,127.5,2|2,1:0|0:0,0:0:0:0:
180,42,76194,2,0,P|214:64|255:55,1,85,8|2,0:1|0:0,0:0:0:0:
353,26,76605,2,0,L|347:71,2,42.5,2|2|2,1:0|0:0|0:0,0:0:0:0:
436,84,77016,2,0,L|442:129,2,42.5,10|2|2,0:1|0:0|0:0,0:0:0:0:
361,154,77427,6,0,L|345:296,1,127.5,2|2,1:0|0:0,0:0:0:0:
317,322,77838,2,0,P|362:325|396:359,1,85,8|2,0:1|0:0,0:0:0:0:
289,360,78249,5,6,1:3:0:0:
92,306,78660,1,14,1:3:0:0:
283,236,79071,6,0,B|377:229|377:229|348:205,1,127.5,6|2,1:0|0:0,0:0:0:0:
309,179,79482,2,0,L|216:188,1,85,8|2,0:1|0:0,0:0:0:0:
147,119,79893,2,0,P|115:63|196:73,1,170,0|10,1:0|0:1,0:0:0:0:
124,250,80714,6,0,P|53:217|2:142,1,170,2|8,1:0|0:1,0:0:0:0:
105,139,81331,2,0,P|176:183|260:184,1,170,2|0,0:0|0:0,0:0:0:0:
349,133,81947,2,0,P|360:90|361:70,2,42.5,10|2|2,0:1|0:0|0:0,0:0:0:0:
389,227,82358,6,0,B|402:317|402:317|388:352,1,127.5,2|2,1:0|0:0,0:0:0:0:
354,312,82769,2,0,P|320:290|279:299,1,85,8|2,0:1|0:0,0:0:0:0:
185,340,83180,2,0,L|179:385,2,42.5,2|2|2,1:0|0:0|0:0,0:0:0:0:
95,291,83591,2,0,L|101:336,2,42.5,10|2|2,0:1|0:0|0:0,0:0:0:0:
1,248,84002,6,0,L|17:106,1,127.5,2|2,1:0|0:0,0:0:0:0:
60,97,84413,2,0,P|105:94|139:60,1,85,8|2,0:1|0:0,0:0:0:0:
57,1,84824,5,6,1:3:0:0:
255,49,85235,1,14,1:3:0:0:
60,97,85646,5,6,1:0:0:0:
12,262,86057,2,0,P|56:252|82:280,1,85,8|2,0:1|0:0,0:0:0:0:
150,353,86468,2,0,P|200:361|253:306,1,127.5,0|0,1:0|0:0,0:0:0:0:
263,261,86879,2,0,L|246:209,2,42.5,8|0|2,0:1|0:0|0:0,0:0:0:0:
359,295,87290,6,0,L|389:375,1,85,2|2,1:0|0:0,0:0:0:0:
470,312,87701,1,8,0:1:0:0:
427,219,87906,1,2,0:0:0:0:
486,136,88112,2,0,B|494:51|494:51|475:74|452:83,1,127.5,0|0,1:0|0:0,0:0:0:0:
422,110,88523,2,0,P|383:140|343:145,1,85,10|2,0:1|0:0,0:0:0:0:
257,98,88934,6,0,B|216:25|216:25|174:15,1,127.5,2|2,1:0|0:0,0:0:0:0:
125,33,89345,2,0,L|25:42,1,85,8|2,0:1|0:0,0:0:0:0:
105,119,89756,2,0,L|205:128,1,85,0|0,1:0|0:0,0:0:0:0:
127,207,90167,2,0,L|27:216,1,85,8|2,0:1|0:0,0:0:0:0:
107,292,90577,6,0,B|202:302|202:302|171:328,1,127.5,2|2,1:0|0:0,0:0:0:0:
144,361,90988,2,0,L|244:370,1,85,8|2,0:1|0:0,0:0:0:0:
318,320,91399,2,0,L|402:312,1,85,0|0,1:0|0:0,0:0:0:0:
419,310,91708,1,0,0:0:0:0:
435,307,91810,2,0,P|438:262|415:229,1,85,8|2,0:1|0:0,0:0:0:0:
360,144,92221,6,0,L|444:136,1,85,0|2,1:0|0:0,0:0:0:0:
497,49,92632,2,0,L|512:9,2,42.5,8|2|0,0:1|0:0|0:0,0:0:0:0:
396,27,93043,2,0,L|311:34,1,85,2|2,1:0|0:0,0:0:0:0:
299,46,93351,1,2,0:0:0:0:
287,57,93454,2,0,P|241:75|214:57,1,85,8|2,0:1|0:0,0:0:0:0:
125,6,93865,6,0,L|116:98,1,85,0|2,1:0|0:0,0:0:0:0:
46,165,94276,2,0,L|-6:157,2,42.5,8|2|0,0:1|0:0|0:0,0:0:0:0:
94,255,94687,1,2,1:0:0:0:
41,342,94893,2,0,L|-11:334,2,42.5,2|2|8,0:0|0:0|0:1,0:0:0:0:
142,344,95303,5,2,0:0:0:0:
142,344,95406,1,2,0:0:0:0:
142,344,95509,2,0,L|238:338,1,85,0|2,1:0|0:0,0:0:0:0:
274,248,95920,2,0,L|266:192,2,42.5,8|2|0,0:1|0:0|0:0,0:0:0:0:
348,317,96331,2,0,P|398:330|440:316,1,85,2|2,1:0|0:0,0:0:0:0:
443,312,96639,1,2,0:0:0:0:
454,300,96742,2,0,P|467:250|453:208,1,85,8|2,0:1|0:0,0:0:0:0:
391,141,97153,6,0,L|398:39,1,85,0|2,1:0|0:0,0:0:0:0:
301,92,97564,2,0,L|234:84,2,42.5,8|2|0,0:1|0:0|0:0,0:0:0:0:
246,178,97975,2,0,L|130:183,1,85,2|2,1:0|0:0,0:0:0:0:
150,195,98283,1,2,0:0:0:0:
140,208,98386,2,0,P|86:213|53:179,1,85,8|2,0:1|0:0,0:0:0:0:
8,109,98797,5,4,0:3:0:0:
8,109,100440,6,0,P|61:121|113:105,1,110.499994941712,2|0,1:2|0:0,0:0:0:0:
189,59,101057,2,0,P|242:47|294:63,1,110.499994941712,2|0,0:0|0:0,0:0:0:0:
367,113,101673,1,0,0:0:0:0:
367,113,102084,2,0,L|384:210,1,82.8749962062838,2|2,0:0|0:0,0:0:0:0:
266,260,102701,2,0,L|278:144,1,110.499994941712,2|0,0:0|0:0,0:0:0:0:
294,63,103317,1,8,0:0:0:0:
294,63,103728,6,0,P|255:49|183:59,1,110.499994941712,2|8,0:0|0:0,0:0:0:0:
108,17,104345,2,0,P|100:81|132:129,1,110.499994941712,2|0,0:0|0:0,0:0:0:0:
207,143,104961,1,8,0:0:0:0:
207,143,105372,2,0,P|192:185|199:227,1,82.8749962062838,2|2,0:0|0:0,0:0:0:0:
117,327,105988,2,0,P|120:272|92:226,1,110.499994941712,2|2,0:0|0:0,0:0:0:0:
36,296,106605,1,8,0:0:0:0:
232,350,107016,6,0,L|282:362,2,31.8750012159348,2|0|2,0:0|0:0|0:0,0:0:0:0:
200,253,107426,1,8,0:0:0:0:
248,163,107632,1,0,0:0:0:0:
248,163,107735,1,0,0:0:0:0:
248,163,107838,2,0,P|256:99|272:11,1,127.500004863739,2|8,0:0|0:0,0:0:0:0:
468,6,108659,6,0,L|516:-2,2,31.8750012159348,2|0|2,0:0|0:0|0:0,0:0:0:0:
378,55,109070,1,8,0:0:0:0:
352,153,109276,1,0,0:0:0:0:
352,153,109379,1,0,0:0:0:0:
352,153,109482,2,0,P|440:153|496:153,1,127.500004863739,2|8,0:0|0:0,0:0:0:0:
301,254,110303,6,0,L|301:285,2,31.8750012159348,2|0|2,0:0|0:0|0:0,0:0:0:0:
213,200,110714,2,0,P|177:196|141:196,1,63.7500024318696,8|2,0:0|0:0,0:0:0:0:
52,228,111125,1,2,0:0:0:0:
95,135,111331,1,2,0:0:0:0:
95,135,111433,1,2,0:0:0:0:
95,135,111536,2,0,L|83:43,1,63.7500024318696,8|2,0:0|0:0,0:0:0:0:
181,110,111947,6,0,P|201:118|249:114,1,63.7500024318696,2|0,0:0|0:0,0:0:0:0:
334,72,112358,2,0,P|326:92|330:140,1,63.7500024318696,8|2,0:0|0:0,0:0:0:0:
405,200,112769,1,2,0:0:0:0:
405,200,112872,1,0,0:0:0:0:
405,200,112974,2,0,P|413:180|409:132,1,63.7500024318696,2|8,0:0|0:0,0:0:0:0:
310,316,113591,6,0,L|314:360,2,31.8750012159348,2|0|2,0:0|0:0|0:0,0:0:0:0:
245,236,114002,1,8,0:0:0:0:
322,170,114207,1,2,0:0:0:0:
256,91,114413,2,0,P|192:91|129:100,1,127.500004863739,2|8,0:0|0:0,0:0:0:0:
49,288,115235,6,0,L|45:244,2,31.8750012159348,2|0|2,0:0|0:0|0:0,0:0:0:0:
133,346,115646,1,8,0:0:0:0:
139,244,115851,1,0,0:0:0:0:
222,303,116057,1,2,0:0:0:0:
319,332,116262,1,2,0:0:0:0:
421,335,116468,2,0,P|445:295|449:255,1,63.7500024318696,10|0,0:0|0:0,0:0:0:0:
422,179,116879,6,0,L|374:163,2,31.8750012159348,2|0|2,0:0|0:0|0:0,0:0:0:0:
489,102,117289,1,8,0:0:0:0:
404,45,117495,1,2,0:0:0:0:
404,45,117598,1,0,0:0:0:0:
404,45,117701,2,0,L|326:57,2,63.7500024318696,2|2|8,0:0|0:0|0:0,0:0:0:0:
242,171,118522,5,2,0:0:0:0:
242,171,118625,1,0,0:0:0:0:
242,171,118728,2,0,L|166:171,1,63.7500024318696,2|8,0:0|0:0,0:0:0:0:
78,147,119139,1,0,0:0:0:0:
91,248,119345,1,2,0:0:0:0:
91,248,119447,1,0,0:0:0:0:
91,248,119550,1,2,0:0:0:0:
174,307,119756,2,0,P|221:306|261:282,1,95.6250036478044,10|0,0:0|0:0,0:0:0:0:
301,250,120166,5,2,0:0:0:0:
374,321,120372,1,0,0:0:0:0:
428,234,120577,2,0,L|435:170,1,63.7500024318696,8|2,0:0|0:0,0:0:0:0:
345,122,120988,1,2,0:0:0:0:
430,65,121194,2,0,L|421:10,2,31.8750012159348,2|2|8,0:0|0:0|0:0,0:0:0:0:
253,168,121810,6,0,L|244:223,2,31.8750012159348,2|0|2,0:0|0:0|0:0,0:0:0:0:
216,131,122119,1,2,0:0:0:0:
216,131,122221,2,0,P|186:120|155:126,1,63.7500024318696,8|2,0:0|0:0,0:0:0:0:
116,159,122530,1,0,0:0:0:0:
116,159,122632,2,0,L|130:247,2,63.7500024318696,2|0|8,0:0|0:0|0:0,0:0:0:0:
22,115,123249,1,2,0:0:0:0:
0,214,123454,5,2,0:0:0:0:
50,302,123660,1,2,0:0:0:0:
50,302,123762,1,2,0:0:0:0:
50,302,123865,2,0,P|78:315|110:315,1,63.7500024318696,8|2,0:0|0:0,0:0:0:0:
205,276,124276,1,2,0:0:0:0:
296,320,124482,1,0,0:0:0:0:
296,320,124584,1,2,0:0:0:0:
296,320,124687,2,0,L|303:398,1,63.7500024318696,8|0,0:0|0:0,0:0:0:0:
385,325,125098,6,0,L|387:357,2,31.8750012159348,2|0|2,0:0|0:0|0:0,0:0:0:0:
394,274,125406,1,2,0:0:0:0:
394,274,125509,2,0,L|388:210,1,63.7500024318696,8|0,0:0|0:0,0:0:0:0:
388,108,125920,1,2,0:0:0:0:
466,172,126125,1,2,0:0:0:0:
388,108,126331,2,0,P|344:105|309:117,1,63.7500024318696,10|2,0:0|0:0,0:0:0:0:
224,92,126742,6,0,P|216:167|229:228,1,127.500004863739,10|8,1:2|0:2,0:0:0:0:
261,313,127358,2,0,P|204:326|130:307,1,127.500004863739,0|0,0:0|0:0,0:0:0:0:
68,235,127975,2,0,P|96:209|110:175,1,63.7500024318696,8|0,0:2|0:0,0:0:0:0:
63,94,128386,5,10,1:2:0:0:
63,94,128488,1,0,0:0:0:0:
63,94,128591,1,2,0:0:0:0:
143,30,128797,2,0,P|171:56|185:90,1,63.7500024318696,8|0,0:2|0:0,0:0:0:0:
278,112,129208,2,0,P|252:140|218:154,1,63.7500024318696,8|0,1:2|0:0,0:0:0:0:
200,249,129619,2,0,P|172:223|158:189,1,63.7500024318696,8|0,0:2|0:0,0:0:0:0:
291,237,130030,5,10,1:2:0:0:
291,237,130132,1,8,0:0:0:0:
291,237,130235,1,10,0:0:0:0:
366,305,130440,2,0,P|404:297|434:276,1,63.7500024318696,10|8,1:2|0:0,0:0:0:0:
465,190,130851,2,0,P|457:153|436:123,1,63.7500024318696,8|8,1:2|0:0,0:0:0:0:
347,95,131262,2,0,P|310:102|280:123,1,63.7500024318696,8|8,1:2|0:0,0:0:0:0:
236,203,131673,5,10,1:2:0:0:
236,203,131776,1,8,0:0:0:0:
236,203,131879,1,10,0:0:0:0:
135,187,132084,2,0,P|122:140|125:114,1,63.7500024318696,10|8,1:2|0:0,0:0:0:0:
22,147,132495,2,0,P|23:115|34:85,1,63.7500024318696,8|8,1:2|0:0,0:0:0:0:
116,24,132906,5,2,1:0:0:0:
116,24,133317,6,0,P|170:43|242:25,1,127.5,6|2,1:0|0:0,0:0:0:0:
284,8,133728,2,0,P|266:46|265:88,1,85,8|2,0:1|0:0,0:0:0:0:
307,181,134139,2,0,P|253:162|153:211,1,170,0|10,1:0|0:1,0:0:0:0:
331,311,134961,6,0,P|385:330|485:281,1,170,2|8,1:0|0:1,0:0:0:0:
411,210,135577,2,0,P|357:229|257:180,1,170,2|0,0:0|0:0,0:0:0:0:
198,100,136194,2,0,L|185:27,2,42.5,10|2|2,0:1|0:0|0:0,0:0:0:0:
182,201,136605,6,0,B|191:271|191:271|176:325,1,127.5,2|2,1:0|0:0,0:0:0:0:
134,355,137016,2,0,P|100:377|59:368,1,85,8|2,0:1|0:0,0:0:0:0:
17,274,137427,2,0,L|11:231,2,42.5,2|2|2,1:0|0:0|0:0,0:0:0:0:
81,194,137838,2,0,L|75:151,2,42.5,10|2|2,0:1|0:0|0:0,0:0:0:0:
172,239,138249,6,0,L|196:383,1,127.5,2|2,1:0|0:0,0:0:0:0:
240,347,138660,2,0,P|272:373|314:375,1,85,8|2,0:1|0:0,0:0:0:0:
372,290,139071,5,6,1:3:0:0:
172,239,139482,1,14,1:3:0:0:
374,211,139893,6,0,B|468:204|468:204|439:180,1,127.5,6|2,1:0|0:0,0:0:0:0:
421,136,140304,2,0,L|328:145,1,85,8|2,0:1|0:0,0:0:0:0:
235,129,140715,2,0,P|203:73|284:83,1,170,0|10,0:0|0:1,0:0:0:0:
186,249,141536,6,0,P|115:216|64:141,1,170,2|8,1:0|0:1,0:0:0:0:
136,69,142153,2,0,P|207:102|258:177,1,170,2|0,0:0|0:0,0:0:0:0:
295,271,142769,2,0,P|338:282|358:283,2,42.5,10|2|2,0:1|0:0|0:0,0:0:0:0:
257,175,143180,6,0,B|244:85|244:85|258:50,1,127.5,2|2,1:0|0:0,0:0:0:0:
300,22,143591,2,0,P|340:12|375:34,1,85,8|2,0:1|0:0,0:0:0:0:
435,117,144002,2,0,L|429:162,2,42.5,2|2|2,1:0|0:0|0:0,0:0:0:0:
363,189,144413,2,0,L|369:234,2,42.5,10|2|2,0:1|0:0|0:0,0:0:0:0:
294,264,144824,6,0,L|167:249,1,127.5,2|2,1:0|0:0,0:0:0:0:
124,221,145235,2,0,P|104:184|110:142,1,85,8|2,0:1|0:0,0:0:0:0:
153,49,145646,5,6,1:3:0:0:
353,84,146057,1,14,1:3:0:0:
136,44,153043,6,0,P|110:85|196:91,1,170,2|8,0:0|0:0,0:0:0:0:
73,171,153660,2,0,P|150:200|229:173,1,170,2|2,0:0|0:0,0:0:0:0:
274,71,154276,1,8,0:0:0:0:
274,71,154687,6,0,P|330:55|407:77,1,127.5,2|2,0:0|0:0,0:0:0:0:
347,228,155303,2,0,P|296:178|364:156,1,170,2|2,0:0|0:0,0:0:0:0:
429,244,155920,1,8,0:0:0:0:
429,244,156331,6,0,P|375:300|280:288,1,170,2|8,0:0|0:0,0:0:0:0:
222,204,156947,2,0,P|179:275|196:356,1,170,2|0,0:0|0:0,0:0:0:0:
288,293,157564,1,8,0:0:0:0:
76,355,157975,6,0,P|88:294|92:198,1,127.5,2|2,0:0|0:0,0:0:0:0:
165,79,158591,2,0,P|173:169|193:255,1,170,2|0,0:0|0:0,0:0:0:0:
261,332,159208,2,0,P|285:292|297:236,1,85,8|0,0:0|0:0,0:0:0:0:
364,341,159619,6,0,P|405:367|522:316,1,170,0|8,1:0|0:0,0:0:0:0:
494,222,160235,2,0,P|453:196|336:247,1,170,0|0,0:0|0:0,0:0:0:0:
364,341,160851,1,8,0:0:0:0:
190,202,161263,6,0,P|174:146|182:66,1,127.5,2|0,1:0|0:0,0:0:0:0:
305,184,161879,2,0,P|342:116|342:26,1,170,0|2,0:0|0:0,0:0:0:0:
231,7,162496,1,8,0:0:0:0:
78,166,162906,6,0,L|94:234,2,42.5,2|0|2,1:0|0:0|0:0,0:0:0:0:
154,86,163317,2,0,P|194:76|235:88,1,85,8|0,0:0|0:0,0:0:0:0:
286,187,163728,2,0,P|338:199|378:183,1,85,2|2,1:0|0:0,0:0:0:0:
449,114,164140,1,8,0:0:0:0:
397,328,164550,6,0,L|261:336,1,127.5,2|0,1:0|0:0,0:0:0:0:
126,251,165167,2,0,L|296:240,1,170,8|8,0:0|0:0,0:0:0:0:
377,165,165783,2,0,P|383:131|357:79,1,85,8|8,1:2|0:0,0:0:0:0:
255,55,166194,5,6,1:0:0:0:
179,123,166399,1,0,0:0:0:0:
179,123,166502,1,2,0:0:0:0:
179,123,166605,2,0,L|47:151,1,101.999996887207,8|0,0:1|0:0,0:0:0:0:
128,233,167016,2,0,L|260:261,1,101.999996887207,0|2,1:0|0:0,0:0:0:0:
292,333,167427,1,8,0:1:0:0:
379,280,167632,5,0,0:0:0:0:
379,280,167735,1,2,0:0:0:0:
379,280,167838,2,0,L|351:148,1,101.999996887207,0|0,1:0|0:0,0:0:0:0:
291,102,168249,2,0,L|423:74,1,101.999996887207,8|0,0:1|0:0,0:0:0:0:
469,15,168660,2,0,L|497:147,1,101.999996887207,0|2,1:0|0:0,0:0:0:0:
486,134,168968,1,2,0:0:0:0:
481,153,169071,1,8,0:1:0:0:
426,239,169276,5,2,0:0:0:0:
421,258,169379,1,2,0:0:0:0:
417,277,169482,2,0,L|438:376,1,101.999996887207,6|0,1:0|0:0,0:0:0:0:
339,349,169893,2,0,L|317:249,1,101.999996887207,8|0,0:1|0:0,0:0:0:0:
218,228,170303,2,0,L|239:327,1,101.999996887207,2|0,1:0|0:0,0:0:0:0:
140,300,170714,2,0,L|118:200,1,101.999996887207,8|0,0:1|0:0,0:0:0:0:
62,114,171125,6,0,P|60:63|85:20,1,101.999996887207,2|0,1:0|0:0,0:0:0:0:
170,93,171536,2,0,P|207:59|257:50,1,101.999996887207,8|0,0:1|0:0,0:0:0:0:
260,160,171947,2,0,P|309:167|348:199,1,101.999996887207,2|0,1:0|0:0,0:0:0:0:
262,272,172358,2,0,P|288:314|288:365,1,101.999996887207,8|0,0:1|0:0,0:0:0:0:
166,351,172769,6,0,L|64:337,1,101.999996887207,6|0,1:3|0:0,0:0:0:0:
146,246,173180,2,0,L|247:232,1,101.999996887207,10|0,1:0|0:0,0:0:0:0:
167,139,173591,2,0,L|65:125,1,101.999996887207,6|0,1:3|0:0,0:0:0:0:
147,34,174002,2,0,L|248:20,1,101.999996887207,10|0,1:0|0:0,0:0:0:0:
370,70,174413,6,0,P|419:82|447:123,1,101.999996887207,6|0,1:3|0:0,0:0:0:0:
340,202,174824,2,0,P|361:247|348:295,1,101.999996887207,10|0,1:0|0:0,0:0:0:0:
219,260,175235,2,0,P|198:305|152:326,1,101.999996887207,6|0,1:3|0:0,0:0:0:0:
94,206,175646,2,0,P|45:219|0:197,1,101.999996887207,10|0,1:0|0:0,0:0:0:0:
62,70,176057,6,0,L|178:60,1,101.999996887207,2|6,1:0|0:3,0:0:0:0:
263,9,176468,1,8,0:1:0:0:
263,9,176673,1,2,0:0:0:0:
250,120,176879,2,0,P|239:169|241:220,1,101.999996887207,0|2,1:0|0:0,0:0:0:0:
312,307,177290,1,8,0:1:0:0:
419,276,177495,1,0,0:0:0:0:
312,307,177701,6,0,L|211:315,1,101.999996887207,2|6,1:0|0:3,0:0:0:0:
105,355,178112,1,8,0:1:0:0:
105,355,178317,1,2,0:0:0:0:
138,247,178523,2,0,P|149:189|145:141,1,101.999996887207,0|2,1:0|0:0,0:0:0:0:
96,45,178934,1,8,0:1:0:0:
6,112,179139,1,0,0:0:0:0:
96,45,179345,6,0,L|212:35,1,101.999996887207,2|2,1:0|0:0,0:0:0:0:
295,91,179756,1,6,0:3:0:0:
406,79,179961,1,2,0:0:0:0:
406,79,180064,1,0,0:0:0:0:
406,79,180167,2,0,B|414:130|414:130|388:178,1,101.999996887207,2|2,1:0|0:0,0:0:0:0:
330,269,180578,1,10,0:1:0:0:
381,368,180783,1,2,0:0:0:0:
330,269,180988,6,0,L|208:257,1,101.999996887207,2|6,1:0|0:3,0:0:0:0:
157,345,181399,1,8,0:1:0:0:
157,345,181604,1,2,0:0:0:0:
107,244,181810,2,0,L|97:182,3,50.9999984436036,0|2|2|2,1:0|0:0|0:0|0:0,0:0:0:0:
128,145,182221,2,0,L|138:83,3,50.9999984436036,10|2|2|2,0:1|0:0|0:0|0:0,0:0:0:0:
109,45,182632,6,0,P|155:57|211:45,1,101.999996887207,2|6,1:0|0:3,0:0:0:0:
313,7,183043,1,8,0:1:0:0:
313,7,183248,1,2,0:0:0:0:
394,84,183454,2,0,P|404:133|392:182,1,101.999996887207,0|2,1:0|0:0,0:0:0:0:
300,247,183865,1,8,0:1:0:0:
220,168,184070,1,0,0:0:0:0:
300,247,184276,6,0,L|308:348,1,101.999996887207,2|6,1:0|0:3,0:0:0:0:
199,379,184687,1,8,0:1:0:0:
199,379,184892,1,2,0:0:0:0:
106,315,185098,2,0,P|48:326|-3:300,1,101.999996887207,0|2,1:0|0:0,0:0:0:0:
62,211,185509,1,8,0:1:0:0:
13,110,185714,1,0,0:0:0:0:
62,211,185920,6,0,L|178:201,1,101.999996887207,2|2,1:0|0:0,0:0:0:0:
257,140,186331,1,4,0:3:0:0:
324,229,186536,1,2,0:0:0:0:
324,229,186639,1,0,0:0:0:0:
324,229,186742,2,0,P|372:240|420:224,1,101.999996887207,2|2,1:0|0:0,0:0:0:0:
447,115,187153,1,10,0:1:0:0:
344,70,187358,1,2,0:0:0:0:
257,140,187563,6,0,P|205:137|155:130,1,101.999996887207,2|6,1:0|0:3,0:0:0:0:
68,59,187974,1,8,0:1:0:0:
68,59,188179,1,2,0:0:0:0:
62,171,188385,2,0,L|76:231,3,50.9999984436036,0|2|2|2,1:0|0:0|0:0|0:0,0:0:0:0:
53,273,188797,2,0,L|39:333,3,50.9999984436036,10|2|2|2,0:1|0:0|0:0|0:0,0:0:0:0:
256,192,189208,12,10,195782,1:2:0:0:
341,164,202358,6,0,P|385:187|435:183,1,101.999996887207,6|0,1:0|0:0,0:0:0:0:
456,72,202769,2,0,P|411:48|361:52,1,101.999996887207,10|0,0:1|0:0,0:0:0:0:
257,96,203180,1,0,1:0:0:0:
171,164,203386,1,2,0:0:0:0:
171,164,203488,1,2,0:0:0:0:
171,164,203591,2,0,B|135:164|135:164|112:176|112:176|71:176,1,101.999996887207,10|2,0:1|0:0,0:0:0:0:
12,272,204002,5,0,1:0:0:0:
108,332,204208,1,0,0:0:0:0:
108,332,204310,1,0,0:0:0:0:
108,332,204413,2,0,B|144:332|144:332|167:344|167:344|208:344,1,101.999996887207,10|0,0:1|0:0,0:0:0:0:
312,256,204824,1,2,1:2:0:0:
200,256,205030,1,2,0:0:0:0:
304,344,205235,2,0,B|345:344|345:344|368:332|368:332|404:332,1,101.999996887207,10|0,0:1|0:0,0:0:0:0:
464,236,205646,6,0,P|480:188|460:140,1,101.999996887207,2|0,1:2|0:0,0:0:0:0:
372,80,206057,2,0,P|352:124|372:172,1,101.999996887207,10|0,0:1|0:0,0:0:0:0:
464,236,206468,1,2,1:2:0:0:
372,300,206674,1,2,0:0:0:0:
372,300,206776,1,2,0:0:0:0:
372,300,206879,2,0,L|264:300,1,101.999996887207,10|2,0:1|0:0,0:0:0:0:
164,340,207290,5,0,1:0:0:0:
112,240,207495,1,0,0:0:0:0:
112,240,207597,1,0,0:0:0:0:
112,240,207700,2,0,B|100:192|100:192|116:140,1,101.999996887207,10|2,0:1|0:0,0:0:0:0:
164,44,208112,1,2,1:2:0:0:
256,136,208318,1,2,0:0:0:0:
348,44,208523,2,0,L|452:44,1,101.999996887207,10|2,0:1|0:0,0:0:0:0:
496,148,208934,6,0,B|448:148|448:148|408:184,1,101.999996887207,6|2,1:0|0:0,0:0:0:0:
408,296,209345,2,0,B|456:296|456:296|496:260,1,101.999996887207,10|0,0:1|0:0,0:0:0:0:
407,184,209756,1,0,1:0:0:0:
328,264,209960,1,2,0:0:0:0:
328,264,210064,1,2,0:0:0:0:
328,264,210167,2,0,L|224:264,1,101.999996887207,10|0,0:1|0:0,0:0:0:0:
136,332,210578,5,0,1:0:0:0:
80,236,210782,1,0,0:0:0:0:
80,236,210886,1,2,0:0:0:0:
80,236,210988,2,0,P|60:192|80:144,1,101.999996887207,10|2,0:1|0:0,0:0:0:0:
12,56,211399,2,0,P|56:36|104:56,1,101.999996887207,2|0,1:2|0:0,0:0:0:0:
200,0,211810,2,0,P|220:44|200:92,1,101.999996887207,10|0,0:1|0:0,0:0:0:0:
328,112,212221,6,0,L|461:118,1,101.999996887207,2|0,1:2|0:0,0:0:0:0:
372,213,212632,2,0,L|508:251,1,101.999996887207,2|0,0:1|0:0,0:0:0:0:
395,324,213043,1,2,0:0:0:0:
293,275,213249,1,0,0:0:0:0:
293,275,213351,1,2,0:0:0:0:
293,275,213454,2,0,L|157:313,1,101.999996887207,2|2,0:1|0:0,0:0:0:0:
99,361,213865,5,0,0:0:0:0:
44,262,214071,2,0,P|29:213|38:163,1,101.999996887207,0|0,0:0|0:0,0:0:0:0:
118,85,214482,2,0,L|190:96,3,50.9999984436036,2|0|0|0,0:0|0:0|0:0|0:0,0:0:0:0:
220,71,214893,2,0,L|270:63,3,50.9999984436036,2|2|0|0,0:0|0:0|0:0|0:0,0:0:0:0:
315,96,215303,2,0,L|377:108,1,50.9999984436036,0|0,0:0|0:0,0:0:0:0:
401,149,215509,6,0,B|422:192|422:192|412:245,1,101.999996887207,6|2,1:0|0:0,0:0:0:0:
358,344,215920,2,0,L|257:327,1,101.999996887207,10|0,0:1|0:0,0:0:0:0:
168,258,216331,1,0,1:0:0:0:
61,292,216536,1,0,0:0:0:0:
61,292,216639,1,0,0:0:0:0:
61,292,216742,2,0,B|62:258|62:258|51:227|51:227|52:191,1,101.999996887207,10|2,0:1|0:0,0:0:0:0:
11,87,217153,5,0,1:0:0:0:
103,22,217359,1,0,0:0:0:0:
103,22,217461,1,2,0:0:0:0:
103,22,217564,2,0,P|146:46|197:44,1,101.999996887207,10|2,0:1|0:0,0:0:0:0:
308,28,217975,1,6,1:3:0:0:
256,128,218181,1,6,0:3:0:0:
162,190,218386,2,0,P|118:214|67:212,1,101.999996887207,14|6,0:3|0:3,0:0:0:0:
9,309,218797,6,0,L|117:329,1,101.999996887207,6|0,1:0|0:0,0:0:0:0:
206,270,219208,2,0,L|314:290,1,101.999996887207,10|0,0:1|0:0,0:0:0:0:
408,241,219619,1,2,1:2:0:0:
464,143,219823,1,2,0:0:0:0:
464,143,219927,1,2,0:0:0:0:
464,143,220030,2,0,P|476:91|484:35,1,101.999996887207,10|0,0:1|0:0,0:0:0:0:
377,81,220441,5,0,1:0:0:0:
306,168,220645,1,0,0:0:0:0:
306,168,220749,1,2,0:0:0:0:
306,168,220851,2,0,P|263:196|218:220,1,101.999996887207,10|0,0:1|0:0,0:0:0:0:
107,201,221263,1,2,1:2:0:0:
163,297,221468,1,2,0:0:0:0:
272,322,221673,2,0,P|314:350|359:374,1,101.999996887207,10|0,0:1|0:0,0:0:0:0:
468,317,222084,5,2,0:3:0:0:
