osu file format v14

[General]
AudioFilename: govt knows.ogg
AudioLeadIn: 1500
PreviewTime: 121643
Countdown: 0
SampleSet: Normal
StackLeniency: 0.7
Mode: 3
LetterboxInBreaks: 0
SpecialStyle: 0
WidescreenStoryboard: 0

[Editor]
DistanceSpacing: 0.8
BeatDivisor: 4
GridSize: 16
TimelineZoom: 1

[Metadata]
Title:The Government Knows
TitleUnicode:The Government Knows
Artist:KNOWER
ArtistUnicode:KNOWER
Creator:Agka
Version:hax
Source:
Tags:
BeatmapID:1651069
BeatmapSetID:786554

[Difficulty]
HPDrainRate:8
CircleSize:7
OverallDifficulty:8
ApproachRate:9
SliderMultiplier:1.4
SliderTickRate:1

[Events]
//Background and Video events
0,0,"usbwebcamhead-1200x800.jpg",0,0
//Break Periods
//Storyboard Layer 0 (Background)
//Storyboard Layer 1 (Fail)
//Storyboard Layer 2 (Pass)
//Storyboard Layer 3 (Foreground)
//Storyboard Sound Samples

[TimingPoints]
0,410.9589,4,1,0,15,1,0
0,-100,4,1,0,15,0,0

[HitObjects]
475,192,6473,5,0,0:0:0:0:
109,192,6575,1,0,0:0:0:0:
182,192,6575,1,0,0:0:0:0:
329,192,6575,1,0,0:0:0:0:
402,192,6678,1,0,0:0:0:0:
475,192,6781,1,0,0:0:0:0:
109,192,6884,1,0,0:0:0:0:
182,192,6884,1,0,0:0:0:0:
36,192,6986,1,0,0:0:0:0:
256,192,6986,1,0,0:0:0:0:
182,192,7192,1,0,0:0:0:0:
329,0,7192,128,0,7808:0:0:0:0:
402,0,7192,128,0,7808:0:0:0:0:
109,192,7295,1,0,0:0:0:0:
36,192,7397,1,0,0:0:0:0:
182,192,7603,1,0,0:0:0:0:
36,192,7705,1,0,0:0:0:0:
256,192,7808,1,0,0:0:0:0:
329,192,8116,1,0,0:0:0:0:
109,192,8219,1,0,0:0:0:0:
182,192,8219,1,0,0:0:0:0:
475,192,8219,1,0,0:0:0:0:
402,192,8322,1,0,0:0:0:0:
329,192,8425,1,0,0:0:0:0:
109,192,8527,1,0,0:0:0:0:
182,192,8527,1,0,0:0:0:0:
256,192,8630,1,0,0:0:0:0:
475,192,8630,1,0,0:0:0:0:
182,192,8836,1,0,0:0:0:0:
329,0,8836,128,0,9452:0:0:0:0:
402,0,8836,128,0,9452:0:0:0:0:
109,192,8938,1,0,0:0:0:0:
36,192,9041,1,0,0:0:0:0:
182,192,9247,1,0,0:0:0:0:
36,192,9349,1,0,0:0:0:0:
256,192,9452,1,0,0:0:0:0:
329,192,9760,1,0,0:0:0:0:
36,192,9863,1,0,0:0:0:0:
182,192,9863,1,0,0:0:0:0:
475,192,9863,1,0,0:0:0:0:
329,192,9966,1,0,0:0:0:0:
402,192,10068,1,0,0:0:0:0:
36,192,10171,1,0,0:0:0:0:
182,192,10171,1,0,0:0:0:0:
256,192,10274,1,0,0:0:0:0:
402,192,10274,1,0,0:0:0:0:
182,192,10479,1,0,0:0:0:0:
329,0,10479,128,0,11096:0:0:0:0:
475,0,10479,128,0,11096:0:0:0:0:
109,192,10582,1,0,0:0:0:0:
36,192,10685,1,0,0:0:0:0:
182,192,10890,1,0,0:0:0:0:
36,192,10993,1,0,0:0:0:0:
256,192,11096,1,0,0:0:0:0:
329,192,11301,1,0,0:0:0:0:
402,192,11404,1,0,0:0:0:0:
36,192,11507,1,0,0:0:0:0:
182,192,11507,1,0,0:0:0:0:
475,192,11507,1,0,0:0:0:0:
402,192,11610,1,0,0:0:0:0:
36,192,11815,1,0,0:0:0:0:
182,192,11815,1,0,0:0:0:0:
329,192,11815,1,0,0:0:0:0:
256,192,11918,1,0,0:0:0:0:
182,192,12123,1,0,0:0:0:0:
329,0,12123,128,0,12740:0:0:0:0:
402,0,12123,128,0,12740:0:0:0:0:
109,192,12226,1,0,0:0:0:0:
36,192,12329,1,0,0:0:0:0:
109,192,12432,1,0,0:0:0:0:
182,192,12534,1,0,0:0:0:0:
109,192,12637,1,0,0:0:0:0:
256,192,12740,1,0,0:0:0:0:
109,192,13151,1,0,0:0:0:0:
182,192,13151,1,0,0:0:0:0:
329,192,13151,1,0,0:0:0:0:
402,192,13253,1,0,0:0:0:0:
475,192,13356,1,0,0:0:0:0:
109,192,13459,1,0,0:0:0:0:
182,192,13459,1,0,0:0:0:0:
329,192,13459,1,0,0:0:0:0:
256,192,13562,1,0,0:0:0:0:
36,192,13767,1,0,0:0:0:0:
329,0,13767,128,0,14384:0:0:0:0:
402,0,13767,128,0,14384:0:0:0:0:
182,192,13973,1,0,0:0:0:0:
36,192,14384,1,0,0:0:0:0:
256,192,14384,1,0,0:0:0:0:
109,192,14795,1,0,0:0:0:0:
182,192,14795,1,0,0:0:0:0:
329,192,14795,1,0,0:0:0:0:
402,192,14897,1,0,0:0:0:0:
475,192,15000,1,0,0:0:0:0:
109,192,15103,1,0,0:0:0:0:
182,192,15103,1,0,0:0:0:0:
256,192,15205,1,0,0:0:0:0:
402,192,15205,1,0,0:0:0:0:
329,0,15411,128,0,16027:0:0:0:0:
402,0,15411,128,0,16027:0:0:0:0:
36,192,15616,1,0,0:0:0:0:
182,192,15616,1,0,0:0:0:0:
109,192,15822,1,0,0:0:0:0:
182,192,15822,1,0,0:0:0:0:
36,192,16027,1,0,0:0:0:0:
182,192,16027,1,0,0:0:0:0:
256,192,16027,1,0,0:0:0:0:
36,192,16438,1,0,0:0:0:0:
182,192,16438,1,0,0:0:0:0:
329,192,16438,1,0,0:0:0:0:
402,192,16541,1,0,0:0:0:0:
475,192,16644,1,0,0:0:0:0:
36,192,16747,1,0,0:0:0:0:
182,192,16747,1,0,0:0:0:0:
329,192,16747,1,0,0:0:0:0:
256,192,16849,1,0,0:0:0:0:
402,192,16849,1,0,0:0:0:0:
182,192,17055,1,0,0:0:0:0:
329,0,17055,128,0,17671:0:0:0:0:
475,0,17055,128,0,17671:0:0:0:0:
109,192,17158,1,0,0:0:0:0:
36,192,17260,1,0,0:0:0:0:
182,192,17466,1,0,0:0:0:0:
109,192,17568,1,0,0:0:0:0:
36,192,17671,1,0,0:0:0:0:
256,192,17671,1,0,0:0:0:0:
402,192,17877,1,0,0:0:0:0:
36,192,18082,1,0,0:0:0:0:
182,192,18082,1,0,0:0:0:0:
329,192,18082,1,0,0:0:0:0:
402,192,18185,1,0,0:0:0:0:
475,192,18288,1,0,0:0:0:0:
36,192,18390,1,0,0:0:0:0:
182,192,18390,1,0,0:0:0:0:
329,192,18390,1,0,0:0:0:0:
256,192,18493,1,0,0:0:0:0:
402,192,18493,1,0,0:0:0:0:
109,192,18699,1,0,0:0:0:0:
182,192,18699,1,0,0:0:0:0:
329,0,18699,128,0,19315:0:0:0:0:
402,0,18699,128,0,19315:0:0:0:0:
36,0,18904,128,0,19315:0:0:0:0:
182,0,18904,128,0,19315:0:0:0:0:
256,192,19315,1,0,0:0:0:0:
36,192,19726,1,0,0:0:0:0:
109,192,19726,1,0,0:0:0:0:
182,192,19726,1,0,0:0:0:0:
329,192,19726,1,0,0:0:0:0:
475,192,19932,1,0,0:0:0:0:
109,192,20034,1,0,0:0:0:0:
182,192,20034,1,0,0:0:0:0:
36,192,20137,1,0,0:0:0:0:
256,192,20137,1,0,0:0:0:0:
182,192,20342,1,0,0:0:0:0:
329,0,20342,128,0,20959:0:0:0:0:
402,0,20342,128,0,20959:0:0:0:0:
36,192,20548,1,0,0:0:0:0:
182,192,20753,1,0,0:0:0:0:
109,192,20959,1,0,0:0:0:0:
256,192,20959,1,0,0:0:0:0:
329,192,21267,1,0,0:0:0:0:
109,192,21370,1,0,0:0:0:0:
182,192,21370,1,0,0:0:0:0:
402,192,21370,1,0,0:0:0:0:
36,192,21575,1,0,0:0:0:0:
109,192,21678,1,0,0:0:0:0:
182,192,21678,1,0,0:0:0:0:
329,192,21678,1,0,0:0:0:0:
256,192,21781,1,0,0:0:0:0:
182,192,21986,1,0,0:0:0:0:
329,0,21986,128,0,22603:0:0:0:0:
402,0,21986,128,0,22603:0:0:0:0:
36,192,22192,1,0,0:0:0:0:
182,192,22192,1,0,0:0:0:0:
109,192,22397,1,0,0:0:0:0:
182,192,22397,1,0,0:0:0:0:
36,192,22603,1,0,0:0:0:0:
109,192,22603,1,0,0:0:0:0:
256,192,22603,1,0,0:0:0:0:
36,192,23014,1,0,0:0:0:0:
182,192,23014,1,0,0:0:0:0:
402,192,23014,1,0,0:0:0:0:
475,192,23014,1,0,0:0:0:0:
329,192,23219,1,0,0:0:0:0:
402,192,23219,1,0,0:0:0:0:
36,192,23322,1,0,0:0:0:0:
182,192,23322,1,0,0:0:0:0:
256,192,23425,1,0,0:0:0:0:
109,192,23630,1,0,0:0:0:0:
182,192,23630,1,0,0:0:0:0:
329,0,23630,128,0,24247:0:0:0:0:
475,0,23630,128,0,24247:0:0:0:0:
36,192,23836,1,0,0:0:0:0:
109,192,23836,1,0,0:0:0:0:
109,192,24041,1,0,0:0:0:0:
182,192,24041,1,0,0:0:0:0:
36,192,24247,1,0,0:0:0:0:
182,192,24247,1,0,0:0:0:0:
256,192,24247,1,0,0:0:0:0:
329,192,24452,1,0,0:0:0:0:
402,192,24555,1,0,0:0:0:0:
36,192,24658,1,0,0:0:0:0:
182,192,24658,1,0,0:0:0:0:
475,192,24658,1,0,0:0:0:0:
329,192,24863,1,0,0:0:0:0:
36,192,24966,1,0,0:0:0:0:
182,192,24966,1,0,0:0:0:0:
475,192,24966,1,0,0:0:0:0:
256,192,25068,1,0,0:0:0:0:
329,192,25068,1,0,0:0:0:0:
182,192,25274,1,0,0:0:0:0:
329,0,25274,128,0,25890:0:0:0:0:
402,0,25274,128,0,25890:0:0:0:0:
109,192,25377,1,0,0:0:0:0:
36,192,25479,1,0,0:0:0:0:
36,192,25685,1,0,0:0:0:0:
109,192,25788,1,0,0:0:0:0:
182,192,25890,1,0,0:0:0:0:
256,192,25890,1,0,0:0:0:0:
36,192,26301,1,0,0:0:0:0:
109,192,26301,1,0,0:0:0:0:
182,192,26301,1,0,0:0:0:0:
329,192,26301,1,0,0:0:0:0:
475,192,26507,1,0,0:0:0:0:
109,192,26610,1,0,0:0:0:0:
182,192,26610,1,0,0:0:0:0:
36,192,26712,1,0,0:0:0:0:
256,192,26712,1,0,0:0:0:0:
109,192,26815,1,0,0:0:0:0:
182,192,26918,1,0,0:0:0:0:
329,0,26918,128,0,27534:0:0:0:0:
402,0,26918,128,0,27534:0:0:0:0:
109,192,27021,1,0,0:0:0:0:
36,192,27123,1,0,0:0:0:0:
109,192,27329,1,0,0:0:0:0:
36,192,27432,1,0,0:0:0:0:
256,192,27534,1,0,0:0:0:0:
329,192,27740,1,0,0:0:0:0:
402,192,27842,1,0,0:0:0:0:
109,192,27945,1,0,0:0:0:0:
182,192,27945,1,0,0:0:0:0:
475,192,27945,1,0,0:0:0:0:
402,192,28151,1,0,0:0:0:0:
109,192,28253,1,0,0:0:0:0:
182,192,28253,1,0,0:0:0:0:
475,192,28253,1,0,0:0:0:0:
256,192,28356,1,0,0:0:0:0:
36,192,28562,1,0,0:0:0:0:
329,0,28562,128,0,29178:0:0:0:0:
402,0,28562,128,0,29178:0:0:0:0:
109,192,28664,1,0,0:0:0:0:
182,192,28767,1,0,0:0:0:0:
109,192,28973,1,0,0:0:0:0:
36,192,29075,1,0,0:0:0:0:
256,192,29178,1,0,0:0:0:0:
329,192,29384,1,0,0:0:0:0:
402,192,29486,1,0,0:0:0:0:
36,192,29589,1,0,0:0:0:0:
182,192,29589,1,0,0:0:0:0:
475,192,29589,1,0,0:0:0:0:
402,192,29692,1,0,0:0:0:0:
329,192,29795,1,0,0:0:0:0:
36,192,29897,1,0,0:0:0:0:
109,192,29897,1,0,0:0:0:0:
182,192,29897,1,0,0:0:0:0:
256,192,30000,1,0,0:0:0:0:
402,192,30000,1,0,0:0:0:0:
329,0,30205,128,0,30822:0:0:0:0:
475,0,30205,128,0,30822:0:0:0:0:
256,192,30822,1,0,0:0:0:0:
402,192,31027,1,0,0:0:0:0:
475,192,31027,1,0,0:0:0:0:
36,192,31233,1,0,0:0:0:0:
182,192,31233,1,0,0:0:0:0:
329,192,31233,1,0,0:0:0:0:
402,192,31233,1,0,0:0:0:0:
402,192,31438,1,0,0:0:0:0:
475,192,31438,1,0,0:0:0:0:
36,192,31541,1,0,0:0:0:0:
182,192,31541,1,0,0:0:0:0:
109,192,31644,1,0,0:0:0:0:
256,192,31644,1,0,0:0:0:0:
329,192,31644,1,0,0:0:0:0:
109,192,31849,1,0,0:0:0:0:
182,192,31849,1,0,0:0:0:0:
329,0,31849,128,0,32466:0:0:0:0:
402,0,31849,128,0,32466:0:0:0:0:
36,192,32055,1,0,0:0:0:0:
182,192,32055,1,0,0:0:0:0:
109,192,32260,1,0,0:0:0:0:
36,192,32363,1,0,0:0:0:0:
182,192,32363,1,0,0:0:0:0:
256,192,32466,1,0,0:0:0:0:
36,192,32877,1,0,0:0:0:0:
182,192,32877,1,0,0:0:0:0:
256,192,32877,1,0,0:0:0:0:
475,192,32877,1,0,0:0:0:0:
402,192,33082,1,0,0:0:0:0:
182,192,33185,1,0,0:0:0:0:
329,192,33185,1,0,0:0:0:0:
36,192,33288,1,0,0:0:0:0:
256,192,33288,1,0,0:0:0:0:
402,192,33288,1,0,0:0:0:0:
329,0,33493,128,0,33904:0:0:0:0:
402,0,33493,128,0,33904:0:0:0:0:
36,192,33699,1,0,0:0:0:0:
182,192,33904,1,0,0:0:0:0:
256,192,34110,1,0,0:0:0:0:
109,0,34110,128,0,34521:0:0:0:0:
402,0,34110,128,0,34521:0:0:0:0:
329,192,34315,1,0,0:0:0:0:
256,192,34418,1,0,0:0:0:0:
36,192,34521,1,0,0:0:0:0:
182,192,34521,1,0,0:0:0:0:
329,192,34521,1,0,0:0:0:0:
475,192,34726,1,0,0:0:0:0:
182,192,34829,1,0,0:0:0:0:
329,192,34829,1,0,0:0:0:0:
36,192,34932,1,0,0:0:0:0:
256,192,34932,1,0,0:0:0:0:
402,192,34932,1,0,0:0:0:0:
182,0,35137,128,0,35548:0:0:0:0:
402,0,35137,128,0,35548:0:0:0:0:
36,192,35342,1,0,0:0:0:0:
329,192,35548,1,0,0:0:0:0:
36,192,35753,1,0,0:0:0:0:
182,192,35753,1,0,0:0:0:0:
402,192,35753,1,0,0:0:0:0:
329,192,35856,1,0,0:0:0:0:
182,192,35959,1,0,0:0:0:0:
329,192,36062,1,0,0:0:0:0:
36,192,36164,1,0,0:0:0:0:
109,192,36164,1,0,0:0:0:0:
256,192,36164,1,0,0:0:0:0:
402,192,36370,1,0,0:0:0:0:
182,192,36473,1,0,0:0:0:0:
329,192,36473,1,0,0:0:0:0:
36,192,36575,1,0,0:0:0:0:
256,192,36575,1,0,0:0:0:0:
475,192,36575,1,0,0:0:0:0:
182,0,36781,128,0,37192:0:0:0:0:
402,0,36781,128,0,37192:0:0:0:0:
36,192,36986,1,0,0:0:0:0:
475,192,36986,1,0,0:0:0:0:
329,192,37089,1,0,0:0:0:0:
256,192,37192,1,0,0:0:0:0:
475,192,37295,1,0,0:0:0:0:
36,192,37397,1,0,0:0:0:0:
182,192,37397,1,0,0:0:0:0:
402,192,37397,1,0,0:0:0:0:
329,192,37500,1,0,0:0:0:0:
109,192,37603,1,0,0:0:0:0:
36,192,37808,1,0,0:0:0:0:
182,192,37808,1,0,0:0:0:0:
329,192,37808,1,0,0:0:0:0:
109,192,38014,1,0,0:0:0:0:
182,192,38116,1,0,0:0:0:0:
329,192,38116,1,0,0:0:0:0:
36,192,38219,1,0,0:0:0:0:
256,192,38219,1,0,0:0:0:0:
475,192,38219,1,0,0:0:0:0:
109,0,38425,128,0,39452:0:0:0:0:
402,0,38425,128,0,39452:0:0:0:0:
36,192,38630,1,0,0:0:0:0:
256,192,38630,1,0,0:0:0:0:
475,192,38630,1,0,0:0:0:0:
36,192,39041,1,0,0:0:0:0:
256,192,39041,1,0,0:0:0:0:
475,192,39041,1,0,0:0:0:0:
36,192,39452,1,0,0:0:0:0:
182,192,39452,1,0,0:0:0:0:
256,192,39452,1,0,0:0:0:0:
475,192,39658,1,0,0:0:0:0:
256,192,39760,1,0,0:0:0:0:
402,192,39760,1,0,0:0:0:0:
36,192,39863,1,0,0:0:0:0:
109,192,39863,1,0,0:0:0:0:
329,192,39863,1,0,0:0:0:0:
256,0,40068,128,0,40479:0:0:0:0:
402,0,40068,128,0,40479:0:0:0:0:
36,192,40274,1,0,0:0:0:0:
329,192,40479,1,0,0:0:0:0:
36,192,40685,1,0,0:0:0:0:
256,192,40685,1,0,0:0:0:0:
475,0,40685,128,0,41096:0:0:0:0:
109,192,40890,1,0,0:0:0:0:
329,192,40890,1,0,0:0:0:0:
256,192,40993,1,0,0:0:0:0:
402,192,40993,1,0,0:0:0:0:
36,192,41096,1,0,0:0:0:0:
182,192,41096,1,0,0:0:0:0:
109,192,41301,1,0,0:0:0:0:
182,192,41404,1,0,0:0:0:0:
329,192,41404,1,0,0:0:0:0:
36,192,41507,1,0,0:0:0:0:
256,192,41507,1,0,0:0:0:0:
402,192,41507,1,0,0:0:0:0:
329,0,41712,128,0,42123:0:0:0:0:
402,0,41712,128,0,42123:0:0:0:0:
36,192,41918,1,0,0:0:0:0:
182,192,42123,1,0,0:0:0:0:
36,192,42329,1,0,0:0:0:0:
109,192,42329,1,0,0:0:0:0:
329,192,42329,1,0,0:0:0:0:
402,192,42432,1,0,0:0:0:0:
182,192,42534,1,0,0:0:0:0:
402,192,42637,1,0,0:0:0:0:
36,192,42740,1,0,0:0:0:0:
182,192,42740,1,0,0:0:0:0:
329,192,42740,1,0,0:0:0:0:
109,192,42945,1,0,0:0:0:0:
182,192,43048,1,0,0:0:0:0:
329,192,43048,1,0,0:0:0:0:
36,192,43151,1,0,0:0:0:0:
256,192,43151,1,0,0:0:0:0:
402,192,43151,1,0,0:0:0:0:
182,0,43356,128,0,43767:0:0:0:0:
329,0,43356,128,0,43767:0:0:0:0:
36,192,43562,1,0,0:0:0:0:
475,192,43562,1,0,0:0:0:0:
402,192,43664,1,0,0:0:0:0:
256,192,43767,1,0,0:0:0:0:
182,192,43870,1,0,0:0:0:0:
36,192,43973,1,0,0:0:0:0:
256,192,43973,1,0,0:0:0:0:
475,192,43973,1,0,0:0:0:0:
329,192,44075,1,0,0:0:0:0:
182,192,44178,1,0,0:0:0:0:
36,192,44384,1,0,0:0:0:0:
182,192,44384,1,0,0:0:0:0:
256,192,44384,1,0,0:0:0:0:
329,192,44384,1,0,0:0:0:0:
109,192,44589,1,0,0:0:0:0:
182,192,44692,1,0,0:0:0:0:
329,192,44692,1,0,0:0:0:0:
36,192,44795,1,0,0:0:0:0:
256,192,44795,1,0,0:0:0:0:
402,192,44795,1,0,0:0:0:0:
329,0,45000,128,0,45925:0:0:0:0:
402,0,45000,128,0,45925:0:0:0:0:
36,192,45205,1,0,0:0:0:0:
109,192,45205,1,0,0:0:0:0:
182,192,45205,1,0,0:0:0:0:
36,192,45616,1,0,0:0:0:0:
109,192,45616,1,0,0:0:0:0:
182,192,45616,1,0,0:0:0:0:
36,192,46027,1,0,0:0:0:0:
182,192,46027,1,0,0:0:0:0:
256,192,46027,1,0,0:0:0:0:
475,192,46027,1,0,0:0:0:0:
402,192,46233,1,0,0:0:0:0:
182,192,46336,1,0,0:0:0:0:
329,192,46336,1,0,0:0:0:0:
36,192,46438,1,0,0:0:0:0:
256,192,46438,1,0,0:0:0:0:
402,192,46438,1,0,0:0:0:0:
329,0,46644,128,0,47055:0:0:0:0:
402,0,46644,128,0,47055:0:0:0:0:
36,192,46849,1,0,0:0:0:0:
182,192,47055,1,0,0:0:0:0:
256,192,47260,1,0,0:0:0:0:
402,0,47260,128,0,47466:0:0:0:0:
329,192,47466,1,0,0:0:0:0:
256,192,47568,1,0,0:0:0:0:
36,192,47671,1,0,0:0:0:0:
182,192,47671,1,0,0:0:0:0:
329,192,47671,1,0,0:0:0:0:
109,192,47877,1,0,0:0:0:0:
475,192,47877,1,0,0:0:0:0:
182,192,47979,1,0,0:0:0:0:
329,192,47979,1,0,0:0:0:0:
36,192,48082,1,0,0:0:0:0:
256,192,48082,1,0,0:0:0:0:
402,192,48082,1,0,0:0:0:0:
182,0,48288,128,0,48699:0:0:0:0:
402,0,48288,128,0,48699:0:0:0:0:
36,192,48493,1,0,0:0:0:0:
329,192,48699,1,0,0:0:0:0:
36,192,48904,1,0,0:0:0:0:
182,192,48904,1,0,0:0:0:0:
402,192,48904,1,0,0:0:0:0:
109,192,49007,1,0,0:0:0:0:
329,192,49007,1,0,0:0:0:0:
182,192,49110,1,0,0:0:0:0:
402,192,49110,1,0,0:0:0:0:
256,192,49212,1,0,0:0:0:0:
329,192,49212,1,0,0:0:0:0:
36,192,49315,1,0,0:0:0:0:
109,192,49315,1,0,0:0:0:0:
402,192,49315,1,0,0:0:0:0:
402,192,49521,1,0,0:0:0:0:
182,192,49623,1,0,0:0:0:0:
329,192,49623,1,0,0:0:0:0:
36,192,49726,1,0,0:0:0:0:
256,192,49726,1,0,0:0:0:0:
475,192,49726,1,0,0:0:0:0:
182,0,49932,128,0,50342:0:0:0:0:
402,0,49932,128,0,50342:0:0:0:0:
36,192,50137,1,0,0:0:0:0:
329,192,50342,1,0,0:0:0:0:
256,192,50445,1,0,0:0:0:0:
36,192,50548,1,0,0:0:0:0:
182,192,50548,1,0,0:0:0:0:
402,192,50548,1,0,0:0:0:0:
109,192,50753,1,0,0:0:0:0:
475,192,50753,1,0,0:0:0:0:
36,192,50959,1,0,0:0:0:0:
182,192,50959,1,0,0:0:0:0:
329,192,50959,1,0,0:0:0:0:
109,192,51164,1,0,0:0:0:0:
402,192,51164,1,0,0:0:0:0:
182,192,51267,1,0,0:0:0:0:
329,192,51267,1,0,0:0:0:0:
36,192,51370,1,0,0:0:0:0:
256,192,51370,1,0,0:0:0:0:
475,192,51370,1,0,0:0:0:0:
329,192,51473,1,0,0:0:0:0:
109,0,51575,128,0,51986:0:0:0:0:
402,0,51575,128,0,51986:0:0:0:0:
36,192,51781,1,0,0:0:0:0:
329,192,51986,1,0,0:0:0:0:
182,192,52089,1,0,0:0:0:0:
36,192,52192,1,0,0:0:0:0:
256,192,52192,1,0,0:0:0:0:
402,192,52192,1,0,0:0:0:0:
329,192,52397,1,0,0:0:0:0:
475,192,52397,1,0,0:0:0:0:
182,192,52603,1,0,0:0:0:0:
256,192,52603,1,0,0:0:0:0:
182,192,52808,1,0,0:0:0:0:
475,192,52808,1,0,0:0:0:0:
256,192,52911,1,0,0:0:0:0:
402,192,52911,1,0,0:0:0:0:
36,192,53014,1,0,0:0:0:0:
109,192,53014,1,0,0:0:0:0:
329,192,53014,1,0,0:0:0:0:
182,192,53116,1,0,0:0:0:0:
475,192,53116,1,0,0:0:0:0:
329,192,53219,1,0,0:0:0:0:
256,0,53219,128,0,53425:0:0:0:0:
402,0,53219,128,0,53425:0:0:0:0:
36,192,53425,1,0,0:0:0:0:
182,192,53425,1,0,0:0:0:0:
402,192,53527,1,0,0:0:0:0:
109,192,53630,1,0,0:0:0:0:
329,192,53630,1,0,0:0:0:0:
402,192,53733,1,0,0:0:0:0:
36,192,53836,1,0,0:0:0:0:
256,192,53836,1,0,0:0:0:0:
475,0,53836,128,0,54247:0:0:0:0:
109,192,54041,1,0,0:0:0:0:
329,192,54041,1,0,0:0:0:0:
256,192,54144,1,0,0:0:0:0:
402,192,54144,1,0,0:0:0:0:
36,192,54247,1,0,0:0:0:0:
182,192,54247,1,0,0:0:0:0:
109,192,54452,1,0,0:0:0:0:
402,192,54452,1,0,0:0:0:0:
182,192,54555,1,0,0:0:0:0:
329,192,54555,1,0,0:0:0:0:
36,192,54658,1,0,0:0:0:0:
256,192,54658,1,0,0:0:0:0:
402,192,54658,1,0,0:0:0:0:
109,192,54760,1,0,0:0:0:0:
182,192,54760,1,0,0:0:0:0:
329,0,54863,128,0,55068:0:0:0:0:
402,0,54863,128,0,55068:0:0:0:0:
36,192,55068,1,0,0:0:0:0:
256,192,55068,1,0,0:0:0:0:
109,192,55171,1,0,0:0:0:0:
182,192,55274,1,0,0:0:0:0:
329,192,55274,1,0,0:0:0:0:
402,192,55377,1,0,0:0:0:0:
36,192,55479,1,0,0:0:0:0:
109,192,55479,1,0,0:0:0:0:
329,192,55479,1,0,0:0:0:0:
256,192,55582,1,0,0:0:0:0:
402,192,55582,1,0,0:0:0:0:
36,192,55685,1,0,0:0:0:0:
109,192,55685,1,0,0:0:0:0:
182,192,55685,1,0,0:0:0:0:
256,192,55788,1,0,0:0:0:0:
402,192,55788,1,0,0:0:0:0:
475,192,55788,1,0,0:0:0:0:
36,192,55890,1,0,0:0:0:0:
109,192,55890,1,0,0:0:0:0:
182,192,55890,1,0,0:0:0:0:
329,192,55890,1,0,0:0:0:0:
109,192,56096,1,0,0:0:0:0:
402,192,56096,1,0,0:0:0:0:
182,192,56199,1,0,0:0:0:0:
329,192,56199,1,0,0:0:0:0:
36,192,56301,1,0,0:0:0:0:
256,192,56301,1,0,0:0:0:0:
402,192,56301,1,0,0:0:0:0:
109,192,56404,1,0,0:0:0:0:
475,192,56404,1,0,0:0:0:0:
182,0,56507,128,0,56712:0:0:0:0:
329,0,56507,128,0,56712:0:0:0:0:
36,192,56712,1,0,0:0:0:0:
475,192,56712,1,0,0:0:0:0:
182,192,56918,1,0,0:0:0:0:
402,192,56918,1,0,0:0:0:0:
109,192,57021,1,0,0:0:0:0:
329,192,57021,1,0,0:0:0:0:
36,192,57123,1,0,0:0:0:0:
256,192,57123,1,0,0:0:0:0:
475,192,57123,1,0,0:0:0:0:
109,192,57329,1,0,0:0:0:0:
402,192,57329,1,0,0:0:0:0:
36,192,57534,1,0,0:0:0:0:
182,192,57534,1,0,0:0:0:0:
256,192,57534,1,0,0:0:0:0:
329,192,57534,1,0,0:0:0:0:
329,192,57740,1,0,0:0:0:0:
402,192,57740,1,0,0:0:0:0:
109,192,57842,1,0,0:0:0:0:
182,192,57842,1,0,0:0:0:0:
36,192,57945,1,0,0:0:0:0:
256,192,57945,1,0,0:0:0:0:
402,192,57945,1,0,0:0:0:0:
475,192,57945,1,0,0:0:0:0:
109,192,58048,1,0,0:0:0:0:
182,192,58048,1,0,0:0:0:0:
329,0,58151,128,0,58356:0:0:0:0:
402,0,58151,128,0,58356:0:0:0:0:
36,192,58356,1,0,0:0:0:0:
329,192,58562,1,0,0:0:0:0:
402,192,58562,1,0,0:0:0:0:
109,192,58664,1,0,0:0:0:0:
256,192,58664,1,0,0:0:0:0:
36,192,58767,1,0,0:0:0:0:
475,192,58767,1,0,0:0:0:0:
182,192,58973,1,0,0:0:0:0:
109,192,59178,1,0,0:0:0:0:
182,192,59178,1,0,0:0:0:0:
329,192,59178,1,0,0:0:0:0:
402,192,59281,1,0,0:0:0:0:
475,192,59384,1,0,0:0:0:0:
109,192,59486,1,0,0:0:0:0:
182,192,59486,1,0,0:0:0:0:
36,192,59589,1,0,0:0:0:0:
256,192,59589,1,0,0:0:0:0:
182,192,59795,1,0,0:0:0:0:
329,0,59795,128,0,60411:0:0:0:0:
402,0,59795,128,0,60411:0:0:0:0:
109,192,59897,1,0,0:0:0:0:
36,192,60000,1,0,0:0:0:0:
182,192,60205,1,0,0:0:0:0:
36,192,60308,1,0,0:0:0:0:
256,192,60411,1,0,0:0:0:0:
329,192,60719,1,0,0:0:0:0:
109,192,60822,1,0,0:0:0:0:
182,192,60822,1,0,0:0:0:0:
475,192,60822,1,0,0:0:0:0:
402,192,60925,1,0,0:0:0:0:
329,192,61027,1,0,0:0:0:0:
109,192,61130,1,0,0:0:0:0:
182,192,61130,1,0,0:0:0:0:
256,192,61233,1,0,0:0:0:0:
475,192,61233,1,0,0:0:0:0:
182,192,61438,1,0,0:0:0:0:
329,0,61438,128,0,62055:0:0:0:0:
402,0,61438,128,0,62055:0:0:0:0:
109,192,61541,1,0,0:0:0:0:
36,192,61644,1,0,0:0:0:0:
182,192,61849,1,0,0:0:0:0:
36,192,61952,1,0,0:0:0:0:
256,192,62055,1,0,0:0:0:0:
329,192,62363,1,0,0:0:0:0:
36,192,62466,1,0,0:0:0:0:
182,192,62466,1,0,0:0:0:0:
475,192,62466,1,0,0:0:0:0:
329,192,62568,1,0,0:0:0:0:
402,192,62671,1,0,0:0:0:0:
36,192,62774,1,0,0:0:0:0:
182,192,62774,1,0,0:0:0:0:
256,192,62877,1,0,0:0:0:0:
402,192,62877,1,0,0:0:0:0:
182,192,63082,1,0,0:0:0:0:
329,0,63082,128,0,63699:0:0:0:0:
475,0,63082,128,0,63699:0:0:0:0:
109,192,63185,1,0,0:0:0:0:
36,192,63288,1,0,0:0:0:0:
182,192,63493,1,0,0:0:0:0:
36,192,63596,1,0,0:0:0:0:
256,192,63699,1,0,0:0:0:0:
329,192,63904,1,0,0:0:0:0:
402,192,64007,1,0,0:0:0:0:
36,192,64110,1,0,0:0:0:0:
182,192,64110,1,0,0:0:0:0:
475,192,64110,1,0,0:0:0:0:
402,192,64212,1,0,0:0:0:0:
36,192,64418,1,0,0:0:0:0:
182,192,64418,1,0,0:0:0:0:
329,192,64418,1,0,0:0:0:0:
256,192,64521,1,0,0:0:0:0:
182,192,64726,1,0,0:0:0:0:
329,0,64726,128,0,65342:0:0:0:0:
402,0,64726,128,0,65342:0:0:0:0:
109,192,64829,1,0,0:0:0:0:
36,192,64932,1,0,0:0:0:0:
109,192,65034,1,0,0:0:0:0:
182,192,65137,1,0,0:0:0:0:
109,192,65240,1,0,0:0:0:0:
256,192,65342,1,0,0:0:0:0:
109,192,65753,1,0,0:0:0:0:
182,192,65753,1,0,0:0:0:0:
329,192,65753,1,0,0:0:0:0:
402,192,65856,1,0,0:0:0:0:
475,192,65959,1,0,0:0:0:0:
109,192,66062,1,0,0:0:0:0:
182,192,66062,1,0,0:0:0:0:
256,192,66164,1,0,0:0:0:0:
36,192,66370,1,0,0:0:0:0:
329,0,66370,128,0,66986:0:0:0:0:
402,0,66370,128,0,66986:0:0:0:0:
182,192,66575,1,0,0:0:0:0:
36,192,66986,1,0,0:0:0:0:
256,192,66986,1,0,0:0:0:0:
109,192,67397,1,0,0:0:0:0:
182,192,67397,1,0,0:0:0:0:
329,192,67397,1,0,0:0:0:0:
402,192,67500,1,0,0:0:0:0:
475,192,67603,1,0,0:0:0:0:
109,192,67705,1,0,0:0:0:0:
182,192,67705,1,0,0:0:0:0:
256,192,67808,1,0,0:0:0:0:
402,192,67808,1,0,0:0:0:0:
329,0,68014,128,0,68630:0:0:0:0:
402,0,68014,128,0,68630:0:0:0:0:
36,192,68219,1,0,0:0:0:0:
182,192,68219,1,0,0:0:0:0:
109,192,68425,1,0,0:0:0:0:
182,192,68425,1,0,0:0:0:0:
36,192,68630,1,0,0:0:0:0:
182,192,68630,1,0,0:0:0:0:
256,192,68630,1,0,0:0:0:0:
36,192,69041,1,0,0:0:0:0:
182,192,69041,1,0,0:0:0:0:
329,192,69041,1,0,0:0:0:0:
402,192,69144,1,0,0:0:0:0:
475,192,69247,1,0,0:0:0:0:
36,192,69349,1,0,0:0:0:0:
182,192,69349,1,0,0:0:0:0:
329,192,69349,1,0,0:0:0:0:
256,192,69452,1,0,0:0:0:0:
402,192,69452,1,0,0:0:0:0:
182,192,69658,1,0,0:0:0:0:
329,0,69658,128,0,70274:0:0:0:0:
475,0,69658,128,0,70274:0:0:0:0:
109,192,69760,1,0,0:0:0:0:
36,192,69863,1,0,0:0:0:0:
182,192,70068,1,0,0:0:0:0:
109,192,70171,1,0,0:0:0:0:
36,192,70274,1,0,0:0:0:0:
256,192,70274,1,0,0:0:0:0:
402,192,70479,1,0,0:0:0:0:
36,192,70685,1,0,0:0:0:0:
182,192,70685,1,0,0:0:0:0:
329,192,70685,1,0,0:0:0:0:
402,192,70788,1,0,0:0:0:0:
475,192,70890,1,0,0:0:0:0:
36,192,70993,1,0,0:0:0:0:
182,192,70993,1,0,0:0:0:0:
256,192,71096,1,0,0:0:0:0:
402,192,71096,1,0,0:0:0:0:
182,0,71301,128,0,71712:0:0:0:0:
329,0,71301,128,0,71712:0:0:0:0:
402,192,71404,1,0,0:0:0:0:
36,192,71507,1,0,0:0:0:0:
109,192,71610,1,0,0:0:0:0:
402,192,71712,1,0,0:0:0:0:
36,192,71918,1,0,0:0:0:0:
256,192,71918,1,0,0:0:0:0:
402,192,71918,1,0,0:0:0:0:
109,192,72329,1,0,0:0:0:0:
329,192,72329,1,0,0:0:0:0:
475,192,72534,1,0,0:0:0:0:
109,192,72637,1,0,0:0:0:0:
182,192,72637,1,0,0:0:0:0:
36,192,72740,1,0,0:0:0:0:
256,192,72740,1,0,0:0:0:0:
182,192,72945,1,0,0:0:0:0:
329,0,72945,128,0,73562:0:0:0:0:
402,0,72945,128,0,73562:0:0:0:0:
36,192,73151,1,0,0:0:0:0:
182,192,73356,1,0,0:0:0:0:
36,192,73459,1,0,0:0:0:0:
109,192,73562,1,0,0:0:0:0:
256,192,73562,1,0,0:0:0:0:
109,192,73973,1,0,0:0:0:0:
182,192,73973,1,0,0:0:0:0:
402,192,73973,1,0,0:0:0:0:
329,192,74075,1,0,0:0:0:0:
256,192,74178,1,0,0:0:0:0:
109,192,74281,1,0,0:0:0:0:
182,192,74281,1,0,0:0:0:0:
329,192,74281,1,0,0:0:0:0:
256,192,74384,1,0,0:0:0:0:
402,192,74384,1,0,0:0:0:0:
182,192,74589,1,0,0:0:0:0:
329,0,74589,128,0,75205:0:0:0:0:
402,0,74589,128,0,75205:0:0:0:0:
109,192,74692,1,0,0:0:0:0:
36,192,74795,1,0,0:0:0:0:
182,192,74795,1,0,0:0:0:0:
109,192,75000,1,0,0:0:0:0:
182,192,75000,1,0,0:0:0:0:
36,192,75103,1,0,0:0:0:0:
109,192,75205,1,0,0:0:0:0:
182,192,75205,1,0,0:0:0:0:
256,192,75205,1,0,0:0:0:0:
329,192,75411,1,0,0:0:0:0:
36,192,75616,1,0,0:0:0:0:
182,192,75616,1,0,0:0:0:0:
402,192,75616,1,0,0:0:0:0:
475,192,75616,1,0,0:0:0:0:
329,192,75822,1,0,0:0:0:0:
402,192,75822,1,0,0:0:0:0:
36,192,75925,1,0,0:0:0:0:
182,192,75925,1,0,0:0:0:0:
256,192,76027,1,0,0:0:0:0:
109,192,76233,1,0,0:0:0:0:
182,192,76233,1,0,0:0:0:0:
329,0,76233,128,0,76849:0:0:0:0:
475,0,76233,128,0,76849:0:0:0:0:
36,192,76438,1,0,0:0:0:0:
109,192,76438,1,0,0:0:0:0:
109,192,76747,1,0,0:0:0:0:
256,192,76747,1,0,0:0:0:0:
36,192,76849,1,0,0:0:0:0:
182,192,76849,1,0,0:0:0:0:
256,192,76952,1,0,0:0:0:0:
402,192,77158,1,0,0:0:0:0:
36,192,77260,1,0,0:0:0:0:
182,192,77260,1,0,0:0:0:0:
475,192,77260,1,0,0:0:0:0:
402,192,77363,1,0,0:0:0:0:
329,192,77466,1,0,0:0:0:0:
36,192,77568,1,0,0:0:0:0:
182,192,77568,1,0,0:0:0:0:
475,192,77568,1,0,0:0:0:0:
256,192,77671,1,0,0:0:0:0:
329,192,77671,1,0,0:0:0:0:
109,192,77774,1,0,0:0:0:0:
182,192,77877,1,0,0:0:0:0:
329,0,77877,128,0,78493:0:0:0:0:
402,0,77877,128,0,78493:0:0:0:0:
109,192,77979,1,0,0:0:0:0:
36,192,78082,1,0,0:0:0:0:
36,192,78288,1,0,0:0:0:0:
182,192,78493,1,0,0:0:0:0:
256,192,78493,1,0,0:0:0:0:
402,192,78699,1,0,0:0:0:0:
36,192,78904,1,0,0:0:0:0:
182,192,78904,1,0,0:0:0:0:
256,192,78904,1,0,0:0:0:0:
475,192,79110,1,0,0:0:0:0:
256,192,79212,1,0,0:0:0:0:
402,192,79212,1,0,0:0:0:0:
36,192,79315,1,0,0:0:0:0:
109,192,79315,1,0,0:0:0:0:
329,192,79315,1,0,0:0:0:0:
256,0,79521,128,0,79932:0:0:0:0:
402,0,79521,128,0,79932:0:0:0:0:
36,192,79726,1,0,0:0:0:0:
329,192,79932,1,0,0:0:0:0:
36,192,80137,1,0,0:0:0:0:
256,192,80137,1,0,0:0:0:0:
475,0,80137,128,0,80548:0:0:0:0:
109,192,80342,1,0,0:0:0:0:
329,192,80342,1,0,0:0:0:0:
256,192,80445,1,0,0:0:0:0:
402,192,80445,1,0,0:0:0:0:
36,192,80548,1,0,0:0:0:0:
182,192,80548,1,0,0:0:0:0:
109,192,80753,1,0,0:0:0:0:
182,192,80856,1,0,0:0:0:0:
329,192,80856,1,0,0:0:0:0:
36,192,80959,1,0,0:0:0:0:
256,192,80959,1,0,0:0:0:0:
402,192,80959,1,0,0:0:0:0:
329,0,81164,128,0,81575:0:0:0:0:
402,0,81164,128,0,81575:0:0:0:0:
36,192,81370,1,0,0:0:0:0:
182,192,81575,1,0,0:0:0:0:
36,192,81781,1,0,0:0:0:0:
109,192,81781,1,0,0:0:0:0:
329,192,81781,1,0,0:0:0:0:
402,192,81884,1,0,0:0:0:0:
182,192,81986,1,0,0:0:0:0:
402,192,82089,1,0,0:0:0:0:
36,192,82192,1,0,0:0:0:0:
182,192,82192,1,0,0:0:0:0:
329,192,82192,1,0,0:0:0:0:
109,192,82397,1,0,0:0:0:0:
182,192,82500,1,0,0:0:0:0:
329,192,82500,1,0,0:0:0:0:
36,192,82603,1,0,0:0:0:0:
256,192,82603,1,0,0:0:0:0:
402,192,82603,1,0,0:0:0:0:
182,0,82808,128,0,83219:0:0:0:0:
329,0,82808,128,0,83219:0:0:0:0:
36,192,83014,1,0,0:0:0:0:
475,192,83014,1,0,0:0:0:0:
402,192,83116,1,0,0:0:0:0:
256,192,83219,1,0,0:0:0:0:
182,192,83322,1,0,0:0:0:0:
36,192,83425,1,0,0:0:0:0:
256,192,83425,1,0,0:0:0:0:
475,192,83425,1,0,0:0:0:0:
329,192,83527,1,0,0:0:0:0:
182,192,83630,1,0,0:0:0:0:
36,192,83836,1,0,0:0:0:0:
182,192,83836,1,0,0:0:0:0:
256,192,83836,1,0,0:0:0:0:
329,192,83836,1,0,0:0:0:0:
109,192,84041,1,0,0:0:0:0:
182,192,84144,1,0,0:0:0:0:
329,192,84144,1,0,0:0:0:0:
36,192,84247,1,0,0:0:0:0:
256,192,84247,1,0,0:0:0:0:
402,192,84247,1,0,0:0:0:0:
329,0,84452,128,0,85377:0:0:0:0:
402,0,84452,128,0,85377:0:0:0:0:
36,192,84658,1,0,0:0:0:0:
109,192,84658,1,0,0:0:0:0:
182,192,84658,1,0,0:0:0:0:
36,192,85068,1,0,0:0:0:0:
109,192,85068,1,0,0:0:0:0:
182,192,85068,1,0,0:0:0:0:
36,192,85479,1,0,0:0:0:0:
182,192,85479,1,0,0:0:0:0:
256,192,85479,1,0,0:0:0:0:
475,192,85479,1,0,0:0:0:0:
402,192,85685,1,0,0:0:0:0:
182,192,85788,1,0,0:0:0:0:
329,192,85788,1,0,0:0:0:0:
36,192,85890,1,0,0:0:0:0:
256,192,85890,1,0,0:0:0:0:
402,192,85890,1,0,0:0:0:0:
329,0,86096,128,0,86507:0:0:0:0:
402,0,86096,128,0,86507:0:0:0:0:
36,192,86301,1,0,0:0:0:0:
182,192,86507,1,0,0:0:0:0:
36,192,86712,1,0,0:0:0:0:
109,192,86712,1,0,0:0:0:0:
256,192,86712,1,0,0:0:0:0:
402,192,86712,1,0,0:0:0:0:
475,192,86712,1,0,0:0:0:0:
329,192,86918,1,0,0:0:0:0:
256,192,87021,1,0,0:0:0:0:
36,192,87123,1,0,0:0:0:0:
182,192,87123,1,0,0:0:0:0:
329,192,87123,1,0,0:0:0:0:
109,192,87329,1,0,0:0:0:0:
475,192,87329,1,0,0:0:0:0:
182,192,87432,1,0,0:0:0:0:
329,192,87432,1,0,0:0:0:0:
36,192,87534,1,0,0:0:0:0:
256,192,87534,1,0,0:0:0:0:
402,192,87534,1,0,0:0:0:0:
182,0,87740,128,0,88151:0:0:0:0:
402,0,87740,128,0,88151:0:0:0:0:
36,192,87945,1,0,0:0:0:0:
329,192,88151,1,0,0:0:0:0:
36,192,88356,1,0,0:0:0:0:
182,192,88356,1,0,0:0:0:0:
402,192,88356,1,0,0:0:0:0:
109,192,88459,1,0,0:0:0:0:
329,192,88459,1,0,0:0:0:0:
182,192,88562,1,0,0:0:0:0:
402,192,88562,1,0,0:0:0:0:
256,192,88664,1,0,0:0:0:0:
329,192,88664,1,0,0:0:0:0:
36,192,88767,1,0,0:0:0:0:
109,192,88767,1,0,0:0:0:0:
402,192,88767,1,0,0:0:0:0:
402,192,88973,1,0,0:0:0:0:
182,192,89075,1,0,0:0:0:0:
329,192,89075,1,0,0:0:0:0:
36,192,89178,1,0,0:0:0:0:
256,192,89178,1,0,0:0:0:0:
475,192,89178,1,0,0:0:0:0:
182,0,89384,128,0,89795:0:0:0:0:
402,0,89384,128,0,89795:0:0:0:0:
36,192,89589,1,0,0:0:0:0:
475,192,89589,1,0,0:0:0:0:
329,192,89692,1,0,0:0:0:0:
256,192,89795,1,0,0:0:0:0:
109,192,89897,1,0,0:0:0:0:
36,192,90000,1,0,0:0:0:0:
182,192,90000,1,0,0:0:0:0:
402,192,90000,1,0,0:0:0:0:
329,192,90103,1,0,0:0:0:0:
109,192,90205,1,0,0:0:0:0:
475,192,90205,1,0,0:0:0:0:
36,192,90411,1,0,0:0:0:0:
182,192,90411,1,0,0:0:0:0:
329,192,90411,1,0,0:0:0:0:
402,192,90616,1,0,0:0:0:0:
182,192,90719,1,0,0:0:0:0:
329,192,90719,1,0,0:0:0:0:
36,192,90822,1,0,0:0:0:0:
256,192,90822,1,0,0:0:0:0:
475,192,90822,1,0,0:0:0:0:
329,192,90925,1,0,0:0:0:0:
109,0,91027,128,0,91849:0:0:0:0:
402,0,91027,128,0,91849:0:0:0:0:
36,192,91233,1,0,0:0:0:0:
182,192,91233,1,0,0:0:0:0:
329,192,91233,1,0,0:0:0:0:
36,192,91644,1,0,0:0:0:0:
182,192,91644,1,0,0:0:0:0:
329,192,91644,1,0,0:0:0:0:
256,192,92466,1,0,0:0:0:0:
256,192,93288,1,0,0:0:0:0:
256,192,94110,1,0,0:0:0:0:
256,192,94932,1,0,0:0:0:0:
256,192,95753,1,0,0:0:0:0:
256,192,96575,1,0,0:0:0:0:
256,192,97397,1,0,0:0:0:0:
256,192,98219,1,0,0:0:0:0:
182,192,98630,1,0,0:0:0:0:
36,0,98630,128,0,99041:0:0:0:0:
475,192,98938,1,0,0:0:0:0:
256,192,99041,1,0,0:0:0:0:
109,0,99041,128,0,99452:0:0:0:0:
475,192,99349,1,0,0:0:0:0:
329,192,99452,1,0,0:0:0:0:
182,0,99452,128,0,99863:0:0:0:0:
475,192,99658,1,0,0:0:0:0:
36,192,99863,1,0,0:0:0:0:
402,192,99863,1,0,0:0:0:0:
256,0,99863,128,0,100274:0:0:0:0:
329,0,100068,128,0,100274:0:0:0:0:
182,192,100171,1,0,0:0:0:0:
36,192,100274,1,0,0:0:0:0:
109,192,100274,1,0,0:0:0:0:
402,0,100274,128,0,100685:0:0:0:0:
182,192,100479,1,0,0:0:0:0:
256,192,100582,1,0,0:0:0:0:
36,192,100685,1,0,0:0:0:0:
109,192,100685,1,0,0:0:0:0:
475,0,100685,128,0,101096:0:0:0:0:
256,192,100890,1,0,0:0:0:0:
329,192,100993,1,0,0:0:0:0:
109,192,101096,1,0,0:0:0:0:
182,192,101096,1,0,0:0:0:0:
36,0,101096,128,0,101507:0:0:0:0:
256,192,101301,1,0,0:0:0:0:
329,192,101404,1,0,0:0:0:0:
182,192,101507,1,0,0:0:0:0:
475,192,101507,1,0,0:0:0:0:
109,0,101507,128,0,101918:0:0:0:0:
329,192,101610,1,0,0:0:0:0:
402,192,101712,1,0,0:0:0:0:
256,192,101815,1,0,0:0:0:0:
182,192,101918,1,0,0:0:0:0:
329,192,101918,1,0,0:0:0:0:
36,0,101918,128,0,102123:0:0:0:0:
109,192,102123,1,0,0:0:0:0:
256,0,102123,128,0,102329:0:0:0:0:
36,192,102329,1,0,0:0:0:0:
329,192,102329,1,0,0:0:0:0:
109,0,102329,128,0,102534:0:0:0:0:
182,192,102534,1,0,0:0:0:0:
256,192,102534,1,0,0:0:0:0:
402,0,102534,128,0,102740:0:0:0:0:
36,192,102740,1,0,0:0:0:0:
329,192,102740,1,0,0:0:0:0:
182,0,102740,128,0,102945:0:0:0:0:
109,0,102945,128,0,103151:0:0:0:0:
36,192,103151,1,0,0:0:0:0:
402,192,103151,1,0,0:0:0:0:
256,0,103151,128,0,103356:0:0:0:0:
475,192,103356,1,0,0:0:0:0:
109,0,103356,128,0,103562:0:0:0:0:
402,192,103459,1,0,0:0:0:0:
36,192,103562,1,0,0:0:0:0:
182,192,103562,1,0,0:0:0:0:
329,0,103562,128,0,103767:0:0:0:0:
109,0,103767,128,0,103973:0:0:0:0:
36,192,103973,1,0,0:0:0:0:
182,192,103973,1,0,0:0:0:0:
402,0,103973,128,0,104178:0:0:0:0:
256,192,104075,1,0,0:0:0:0:
109,0,104178,128,0,104384:0:0:0:0:
329,192,104281,1,0,0:0:0:0:
36,192,104384,1,0,0:0:0:0:
182,192,104384,1,0,0:0:0:0:
475,0,104384,128,0,104589:0:0:0:0:
329,192,104486,1,0,0:0:0:0:
109,0,104589,128,0,104795:0:0:0:0:
182,192,104795,1,0,0:0:0:0:
329,192,104795,1,0,0:0:0:0:
36,0,104795,128,0,105000:0:0:0:0:
256,0,105000,128,0,105205:0:0:0:0:
329,192,105205,1,0,0:0:0:0:
109,0,105205,128,0,105616:0:0:0:0:
402,0,105411,128,0,105616:0:0:0:0:
36,192,105616,1,0,0:0:0:0:
329,192,105616,1,0,0:0:0:0:
182,0,105616,128,0,106027:0:0:0:0:
402,0,105822,128,0,106027:0:0:0:0:
36,192,106027,1,0,0:0:0:0:
475,192,106027,1,0,0:0:0:0:
256,0,106027,128,0,106233:0:0:0:0:
329,192,106130,1,0,0:0:0:0:
182,192,106233,1,0,0:0:0:0:
109,0,106233,128,0,106438:0:0:0:0:
36,192,106438,1,0,0:0:0:0:
402,192,106438,1,0,0:0:0:0:
329,0,106438,128,0,106849:0:0:0:0:
256,192,106644,1,0,0:0:0:0:
109,0,106644,128,0,106849:0:0:0:0:
182,192,106747,1,0,0:0:0:0:
475,192,106747,1,0,0:0:0:0:
36,192,106849,1,0,0:0:0:0:
256,192,106849,1,0,0:0:0:0:
402,0,106849,128,0,107260:0:0:0:0:
182,0,107055,128,0,107260:0:0:0:0:
36,192,107260,1,0,0:0:0:0:
256,192,107260,1,0,0:0:0:0:
475,0,107260,128,0,107671:0:0:0:0:
256,192,107466,1,0,0:0:0:0:
109,0,107466,128,0,107671:0:0:0:0:
329,192,107568,1,0,0:0:0:0:
402,192,107568,1,0,0:0:0:0:
182,192,107671,1,0,0:0:0:0:
256,192,107671,1,0,0:0:0:0:
36,0,107671,128,0,108082:0:0:0:0:
402,192,107774,1,0,0:0:0:0:
329,0,107877,128,0,108082:0:0:0:0:
256,192,108082,1,0,0:0:0:0:
475,192,108082,1,0,0:0:0:0:
109,0,108082,128,0,108288:0:0:0:0:
402,0,108288,128,0,108493:0:0:0:0:
36,192,108493,1,0,0:0:0:0:
182,0,108493,128,0,108699:0:0:0:0:
329,0,108493,128,0,108699:0:0:0:0:
475,192,108699,1,0,0:0:0:0:
109,192,108904,1,0,0:0:0:0:
402,192,108904,1,0,0:0:0:0:
182,0,109110,128,0,109315:0:0:0:0:
475,192,109315,1,0,0:0:0:0:
36,0,109521,128,0,109726:0:0:0:0:
182,192,109726,1,0,0:0:0:0:
329,192,109726,1,0,0:0:0:0:
109,0,109932,128,0,110137:0:0:0:0:
402,0,109932,128,0,110137:0:0:0:0:
36,192,110137,1,0,0:0:0:0:
329,192,110137,1,0,0:0:0:0:
182,0,110137,128,0,110548:0:0:0:0:
402,0,110342,128,0,110548:0:0:0:0:
109,192,110548,1,0,0:0:0:0:
329,192,110548,1,0,0:0:0:0:
256,0,110753,128,0,111164:0:0:0:0:
109,192,110959,1,0,0:0:0:0:
402,0,110959,128,0,111164:0:0:0:0:
36,192,111164,1,0,0:0:0:0:
109,192,111370,1,0,0:0:0:0:
256,192,111370,1,0,0:0:0:0:
402,0,111370,128,0,111781:0:0:0:0:
182,0,111575,128,0,111781:0:0:0:0:
256,192,111781,1,0,0:0:0:0:
329,192,111781,1,0,0:0:0:0:
36,0,111781,128,0,111986:0:0:0:0:
182,0,111986,128,0,112192:0:0:0:0:
402,0,111986,128,0,112192:0:0:0:0:
109,192,112192,1,0,0:0:0:0:
329,192,112192,1,0,0:0:0:0:
475,192,112397,1,0,0:0:0:0:
329,192,112500,1,0,0:0:0:0:
36,192,112603,1,0,0:0:0:0:
182,0,112603,128,0,113425:0:0:0:0:
402,0,112808,128,0,113425:0:0:0:0:
256,0,113014,128,0,113425:0:0:0:0:
329,0,113219,128,0,113425:0:0:0:0:
36,192,113425,1,0,0:0:0:0:
109,0,113425,128,0,113836:0:0:0:0:
402,0,113630,128,0,113836:0:0:0:0:
182,192,113836,1,0,0:0:0:0:
329,192,113836,1,0,0:0:0:0:
256,0,114041,128,0,114247:0:0:0:0:
36,192,114247,1,0,0:0:0:0:
109,192,114247,1,0,0:0:0:0:
182,192,114247,1,0,0:0:0:0:
475,192,114349,1,0,0:0:0:0:
329,192,114452,1,0,0:0:0:0:
182,192,114555,1,0,0:0:0:0:
36,192,114658,1,0,0:0:0:0:
329,192,114658,1,0,0:0:0:0:
475,192,114658,1,0,0:0:0:0:
109,192,114760,1,0,0:0:0:0:
402,192,114863,1,0,0:0:0:0:
109,192,114966,1,0,0:0:0:0:
182,0,115068,128,0,115274:0:0:0:0:
329,0,115068,128,0,115274:0:0:0:0:
475,192,115274,1,0,0:0:0:0:
109,192,115479,1,0,0:0:0:0:
402,192,115479,1,0,0:0:0:0:
182,0,115685,128,0,115890:0:0:0:0:
475,192,115890,1,0,0:0:0:0:
36,0,116096,128,0,116301:0:0:0:0:
182,192,116301,1,0,0:0:0:0:
329,192,116301,1,0,0:0:0:0:
109,0,116507,128,0,116712:0:0:0:0:
402,0,116507,128,0,116712:0:0:0:0:
36,192,116712,1,0,0:0:0:0:
329,192,116712,1,0,0:0:0:0:
182,0,116712,128,0,117123:0:0:0:0:
329,0,116918,128,0,117123:0:0:0:0:
109,192,117123,1,0,0:0:0:0:
402,192,117123,1,0,0:0:0:0:
256,0,117329,128,0,117740:0:0:0:0:
109,192,117534,1,0,0:0:0:0:
402,0,117534,128,0,117740:0:0:0:0:
36,192,117740,1,0,0:0:0:0:
109,192,117945,1,0,0:0:0:0:
256,192,117945,1,0,0:0:0:0:
402,0,117945,128,0,118356:0:0:0:0:
182,0,118151,128,0,118356:0:0:0:0:
256,192,118356,1,0,0:0:0:0:
329,192,118356,1,0,0:0:0:0:
36,0,118356,128,0,118562:0:0:0:0:
182,0,118562,128,0,118767:0:0:0:0:
402,0,118562,128,0,118767:0:0:0:0:
109,192,118767,1,0,0:0:0:0:
329,192,118767,1,0,0:0:0:0:
475,192,118973,1,0,0:0:0:0:
329,192,119075,1,0,0:0:0:0:
36,192,119178,1,0,0:0:0:0:
182,0,119178,128,0,120000:0:0:0:0:
402,0,119384,128,0,120000:0:0:0:0:
256,0,119589,128,0,120000:0:0:0:0:
329,0,119795,128,0,120000:0:0:0:0:
36,192,120000,1,0,0:0:0:0:
109,0,120000,128,0,120411:0:0:0:0:
402,0,120205,128,0,120411:0:0:0:0:
182,192,120411,1,0,0:0:0:0:
329,192,120411,1,0,0:0:0:0:
256,0,120616,128,0,120822:0:0:0:0:
36,192,120822,1,0,0:0:0:0:
109,192,120822,1,0,0:0:0:0:
182,192,120822,1,0,0:0:0:0:
475,192,120925,1,0,0:0:0:0:
329,192,121027,1,0,0:0:0:0:
182,192,121130,1,0,0:0:0:0:
36,192,121233,1,0,0:0:0:0:
256,192,121233,1,0,0:0:0:0:
475,192,121233,1,0,0:0:0:0:
109,192,121336,1,0,0:0:0:0:
402,192,121438,1,0,0:0:0:0:
109,192,121541,1,0,0:0:0:0:
36,192,121644,1,0,0:0:0:0:
182,192,121644,1,0,0:0:0:0:
256,192,121644,1,0,0:0:0:0:
329,192,121644,1,0,0:0:0:0:
475,192,121644,1,0,0:0:0:0:
329,192,121849,1,0,0:0:0:0:
402,192,121849,1,0,0:0:0:0:
109,192,121952,1,0,0:0:0:0:
256,192,121952,1,0,0:0:0:0:
36,192,122055,1,0,0:0:0:0:
182,192,122055,1,0,0:0:0:0:
402,192,122055,1,0,0:0:0:0:
329,192,122260,1,0,0:0:0:0:
402,192,122260,1,0,0:0:0:0:
109,192,122363,1,0,0:0:0:0:
256,192,122363,1,0,0:0:0:0:
36,192,122466,1,0,0:0:0:0:
182,192,122466,1,0,0:0:0:0:
329,192,122568,1,0,0:0:0:0:
402,192,122568,1,0,0:0:0:0:
109,192,122671,1,0,0:0:0:0:
256,192,122671,1,0,0:0:0:0:
182,192,122774,1,0,0:0:0:0:
329,192,122774,1,0,0:0:0:0:
36,192,122877,1,0,0:0:0:0:
256,192,122877,1,0,0:0:0:0:
402,192,122877,1,0,0:0:0:0:
475,192,122877,1,0,0:0:0:0:
109,192,123082,1,0,0:0:0:0:
329,0,123082,128,0,123288:0:0:0:0:
475,0,123082,128,0,123288:0:0:0:0:
36,192,123288,1,0,0:0:0:0:
256,192,123288,1,0,0:0:0:0:
182,192,123390,1,0,0:0:0:0:
329,192,123390,1,0,0:0:0:0:
109,192,123493,1,0,0:0:0:0:
256,192,123493,1,0,0:0:0:0:
182,192,123596,1,0,0:0:0:0:
329,192,123596,1,0,0:0:0:0:
36,192,123699,1,0,0:0:0:0:
109,192,123699,1,0,0:0:0:0:
256,192,123699,1,0,0:0:0:0:
402,192,123699,1,0,0:0:0:0:
182,192,123904,1,0,0:0:0:0:
329,192,123904,1,0,0:0:0:0:
109,192,124007,1,0,0:0:0:0:
256,192,124007,1,0,0:0:0:0:
36,192,124110,1,0,0:0:0:0:
402,192,124110,1,0,0:0:0:0:
329,192,124315,1,0,0:0:0:0:
475,192,124315,1,0,0:0:0:0:
36,192,124521,1,0,0:0:0:0:
109,192,124521,1,0,0:0:0:0:
182,192,124521,1,0,0:0:0:0:
329,192,124521,1,0,0:0:0:0:
256,192,124623,1,0,0:0:0:0:
402,192,124623,1,0,0:0:0:0:
182,192,124726,1,0,0:0:0:0:
329,192,124726,1,0,0:0:0:0:
109,192,124829,1,0,0:0:0:0:
256,192,124829,1,0,0:0:0:0:
36,192,124932,1,0,0:0:0:0:
182,192,124932,1,0,0:0:0:0:
402,192,124932,1,0,0:0:0:0:
475,192,125034,1,0,0:0:0:0:
109,192,125137,1,0,0:0:0:0:
329,192,125137,1,0,0:0:0:0:
36,192,125342,1,0,0:0:0:0:
182,192,125342,1,0,0:0:0:0:
256,192,125342,1,0,0:0:0:0:
475,192,125342,1,0,0:0:0:0:
109,192,125548,1,0,0:0:0:0:
475,192,125548,1,0,0:0:0:0:
329,192,125651,1,0,0:0:0:0:
402,192,125651,1,0,0:0:0:0:
36,192,125753,1,0,0:0:0:0:
182,192,125753,1,0,0:0:0:0:
256,192,125856,1,0,0:0:0:0:
402,192,125856,1,0,0:0:0:0:
329,192,125959,1,0,0:0:0:0:
475,192,125959,1,0,0:0:0:0:
109,192,126062,1,0,0:0:0:0:
182,192,126062,1,0,0:0:0:0:
36,192,126164,1,0,0:0:0:0:
329,192,126164,1,0,0:0:0:0:
402,192,126164,1,0,0:0:0:0:
475,192,126164,1,0,0:0:0:0:
329,192,126370,1,0,0:0:0:0:
402,192,126370,1,0,0:0:0:0:
182,192,126473,1,0,0:0:0:0:
36,192,126575,1,0,0:0:0:0:
402,192,126575,1,0,0:0:0:0:
109,192,126678,1,0,0:0:0:0:
329,192,126678,1,0,0:0:0:0:
256,192,126781,1,0,0:0:0:0:
402,192,126781,1,0,0:0:0:0:
182,192,126884,1,0,0:0:0:0:
329,192,126884,1,0,0:0:0:0:
36,192,126986,1,0,0:0:0:0:
109,192,126986,1,0,0:0:0:0:
256,192,126986,1,0,0:0:0:0:
402,192,126986,1,0,0:0:0:0:
329,192,127089,1,0,0:0:0:0:
475,192,127089,1,0,0:0:0:0:
256,192,127192,1,0,0:0:0:0:
402,192,127192,1,0,0:0:0:0:
182,192,127295,1,0,0:0:0:0:
329,192,127295,1,0,0:0:0:0:
36,192,127397,1,0,0:0:0:0:
256,192,127397,1,0,0:0:0:0:
402,192,127397,1,0,0:0:0:0:
182,192,127500,1,0,0:0:0:0:
329,192,127500,1,0,0:0:0:0:
109,192,127603,1,0,0:0:0:0:
256,192,127603,1,0,0:0:0:0:
182,192,127705,1,0,0:0:0:0:
329,192,127705,1,0,0:0:0:0:
36,192,127808,1,0,0:0:0:0:
109,192,127808,1,0,0:0:0:0:
256,192,127808,1,0,0:0:0:0:
402,192,127808,1,0,0:0:0:0:
182,192,127911,1,0,0:0:0:0:
329,192,127911,1,0,0:0:0:0:
109,192,128014,1,0,0:0:0:0:
256,192,128014,1,0,0:0:0:0:
402,192,128014,1,0,0:0:0:0:
182,192,128116,1,0,0:0:0:0:
329,192,128116,1,0,0:0:0:0:
475,192,128116,1,0,0:0:0:0:
36,192,128219,1,0,0:0:0:0:
109,192,128219,1,0,0:0:0:0:
256,192,128219,1,0,0:0:0:0:
402,192,128219,1,0,0:0:0:0:
182,192,128322,1,0,0:0:0:0:
329,192,128322,1,0,0:0:0:0:
109,192,128425,1,0,0:0:0:0:
256,192,128425,1,0,0:0:0:0:
36,192,128630,1,0,0:0:0:0:
256,192,128630,1,0,0:0:0:0:
329,192,128630,1,0,0:0:0:0:
475,192,128630,1,0,0:0:0:0:
109,192,128836,1,0,0:0:0:0:
182,192,128836,1,0,0:0:0:0:
329,192,128938,1,0,0:0:0:0:
402,192,128938,1,0,0:0:0:0:
36,192,129041,1,0,0:0:0:0:
256,192,129041,1,0,0:0:0:0:
109,192,129144,1,0,0:0:0:0:
329,192,129144,1,0,0:0:0:0:
182,192,129247,1,0,0:0:0:0:
402,192,129247,1,0,0:0:0:0:
109,192,129349,1,0,0:0:0:0:
329,192,129349,1,0,0:0:0:0:
36,192,129452,1,0,0:0:0:0:
182,192,129452,1,0,0:0:0:0:
256,192,129452,1,0,0:0:0:0:
402,192,129452,1,0,0:0:0:0:
109,192,129555,1,0,0:0:0:0:
329,192,129555,1,0,0:0:0:0:
182,192,129658,1,0,0:0:0:0:
402,192,129658,1,0,0:0:0:0:
36,192,129863,1,0,0:0:0:0:
109,192,129863,1,0,0:0:0:0:
402,192,129863,1,0,0:0:0:0:
256,192,130069,1,0,0:0:0:0:
329,192,130069,1,0,0:0:0:0:
109,192,130171,1,0,0:0:0:0:
36,192,130274,1,0,0:0:0:0:
182,192,130274,1,0,0:0:0:0:
329,192,130274,1,0,0:0:0:0:
475,192,130274,1,0,0:0:0:0:
109,192,130479,1,0,0:0:0:0:
256,192,130479,1,0,0:0:0:0:
402,192,130479,1,0,0:0:0:0:
36,192,130685,1,0,0:0:0:0:
182,192,130685,1,0,0:0:0:0:
329,192,130685,1,0,0:0:0:0:
329,192,130890,1,0,0:0:0:0:
109,192,130993,1,0,0:0:0:0:
256,192,130993,1,0,0:0:0:0:
36,192,131096,1,0,0:0:0:0:
182,192,131096,1,0,0:0:0:0:
402,192,131096,1,0,0:0:0:0:
475,192,131096,1,0,0:0:0:0:
109,192,131199,1,0,0:0:0:0:
256,192,131199,1,0,0:0:0:0:
329,192,131301,1,0,0:0:0:0:
402,192,131301,1,0,0:0:0:0:
109,192,131404,1,0,0:0:0:0:
182,192,131404,1,0,0:0:0:0:
36,192,131507,1,0,0:0:0:0:
256,192,131507,1,0,0:0:0:0:
402,192,131507,1,0,0:0:0:0:
109,192,131610,1,0,0:0:0:0:
329,192,131610,1,0,0:0:0:0:
182,192,131712,1,0,0:0:0:0:
475,192,131712,1,0,0:0:0:0:
36,192,131918,1,0,0:0:0:0:
256,192,131918,1,0,0:0:0:0:
475,192,131918,1,0,0:0:0:0:
182,192,132123,1,0,0:0:0:0:
475,192,132123,1,0,0:0:0:0:
109,192,132226,1,0,0:0:0:0:
36,192,132329,1,0,0:0:0:0:
256,192,132329,1,0,0:0:0:0:
475,192,132329,1,0,0:0:0:0:
109,192,132534,1,0,0:0:0:0:
475,192,132534,1,0,0:0:0:0:
182,192,132637,1,0,0:0:0:0:
475,192,132740,1,0,0:0:0:0:
109,192,132842,1,0,0:0:0:0:
256,192,132945,1,0,0:0:0:0:
475,192,132945,1,0,0:0:0:0:
475,192,133151,1,0,0:0:0:0:
182,192,133253,1,0,0:0:0:0:
475,192,133356,1,0,0:0:0:0:
182,192,133459,1,0,0:0:0:0:
329,192,133562,1,0,0:0:0:0:
475,192,133562,1,0,0:0:0:0:
182,192,133664,1,0,0:0:0:0:
402,192,133767,1,0,0:0:0:0:
329,192,133870,1,0,0:0:0:0:
256,192,133973,1,0,0:0:0:0:
182,192,134075,1,0,0:0:0:0:
256,192,134178,1,0,0:0:0:0:
182,192,134281,1,0,0:0:0:0:
256,192,134384,1,0,0:0:0:0:
329,192,134486,1,0,0:0:0:0:
402,192,134589,1,0,0:0:0:0:
182,192,134692,1,0,0:0:0:0:
329,192,134692,1,0,0:0:0:0:
36,192,134795,1,0,0:0:0:0:
256,192,134795,1,0,0:0:0:0:
402,192,134795,1,0,0:0:0:0:
109,192,134897,1,0,0:0:0:0:
329,192,134897,1,0,0:0:0:0:
182,192,135000,1,0,0:0:0:0:
402,192,135000,1,0,0:0:0:0:
109,192,135103,1,0,0:0:0:0:
36,192,135205,1,0,0:0:0:0:
256,192,135205,1,0,0:0:0:0:
329,192,135205,1,0,0:0:0:0:
475,192,135205,1,0,0:0:0:0:
182,192,135308,1,0,0:0:0:0:
109,192,135411,1,0,0:0:0:0:
402,192,135411,1,0,0:0:0:0:
329,192,135514,1,0,0:0:0:0:
36,192,135616,1,0,0:0:0:0:
182,192,135616,1,0,0:0:0:0:
256,192,135616,1,0,0:0:0:0:
329,192,135719,1,0,0:0:0:0:
402,192,135719,1,0,0:0:0:0:
109,192,135822,1,0,0:0:0:0:
182,192,135822,1,0,0:0:0:0:
329,192,135925,1,0,0:0:0:0:
402,192,135925,1,0,0:0:0:0:
36,192,136027,1,0,0:0:0:0:
182,192,136027,1,0,0:0:0:0:
256,192,136027,1,0,0:0:0:0:
475,192,136027,1,0,0:0:0:0:
109,192,136130,1,0,0:0:0:0:
329,192,136130,1,0,0:0:0:0:
182,192,136233,1,0,0:0:0:0:
402,192,136233,1,0,0:0:0:0:
36,192,136438,1,0,0:0:0:0:
109,192,136438,1,0,0:0:0:0:
256,192,136438,1,0,0:0:0:0:
182,192,136541,1,0,0:0:0:0:
402,192,136541,1,0,0:0:0:0:
329,192,136644,1,0,0:0:0:0:
475,192,136644,1,0,0:0:0:0:
256,192,136747,1,0,0:0:0:0:
402,192,136747,1,0,0:0:0:0:
36,192,136849,1,0,0:0:0:0:
109,192,136849,1,0,0:0:0:0:
182,192,136849,1,0,0:0:0:0:
329,192,136849,1,0,0:0:0:0:
256,192,136952,1,0,0:0:0:0:
475,192,136952,1,0,0:0:0:0:
329,192,137055,1,0,0:0:0:0:
402,192,137055,1,0,0:0:0:0:
182,192,137158,1,0,0:0:0:0:
475,192,137158,1,0,0:0:0:0:
36,192,137260,1,0,0:0:0:0:
109,192,137260,1,0,0:0:0:0:
256,192,137260,1,0,0:0:0:0:
402,192,137260,1,0,0:0:0:0:
329,192,137466,1,0,0:0:0:0:
475,192,137466,1,0,0:0:0:0:
36,192,137671,1,0,0:0:0:0:
182,192,137671,1,0,0:0:0:0:
256,192,137671,1,0,0:0:0:0:
329,192,137671,1,0,0:0:0:0:
402,192,137877,1,0,0:0:0:0:
475,192,137877,1,0,0:0:0:0:
256,192,137979,1,0,0:0:0:0:
36,192,138082,1,0,0:0:0:0:
109,192,138082,1,0,0:0:0:0:
182,192,138082,1,0,0:0:0:0:
329,192,138082,1,0,0:0:0:0:
256,192,138185,1,0,0:0:0:0:
329,192,138288,1,0,0:0:0:0:
402,192,138288,1,0,0:0:0:0:
109,192,138390,1,0,0:0:0:0:
182,192,138390,1,0,0:0:0:0:
36,192,138493,1,0,0:0:0:0:
256,192,138493,1,0,0:0:0:0:
329,192,138493,1,0,0:0:0:0:
402,192,138493,1,0,0:0:0:0:
182,192,138596,1,0,0:0:0:0:
475,192,138596,1,0,0:0:0:0:
109,192,138699,1,0,0:0:0:0:
256,192,138801,1,0,0:0:0:0:
402,192,138801,1,0,0:0:0:0:
36,192,138904,1,0,0:0:0:0:
182,192,138904,1,0,0:0:0:0:
329,192,138904,1,0,0:0:0:0:
402,192,139007,1,0,0:0:0:0:
109,192,139110,1,0,0:0:0:0:
256,192,139110,1,0,0:0:0:0:
182,192,139212,1,0,0:0:0:0:
402,192,139212,1,0,0:0:0:0:
36,192,139315,1,0,0:0:0:0:
256,192,139315,1,0,0:0:0:0:
329,192,139315,1,0,0:0:0:0:
109,192,139418,1,0,0:0:0:0:
182,192,139418,1,0,0:0:0:0:
256,192,139521,1,0,0:0:0:0:
329,192,139521,1,0,0:0:0:0:
402,192,139623,1,0,0:0:0:0:
475,192,139623,1,0,0:0:0:0:
36,192,139726,1,0,0:0:0:0:
109,192,139726,1,0,0:0:0:0:
182,192,139726,1,0,0:0:0:0:
182,192,139932,1,0,0:0:0:0:
402,192,139932,1,0,0:0:0:0:
109,192,140034,1,0,0:0:0:0:
329,192,140034,1,0,0:0:0:0:
36,192,140137,1,0,0:0:0:0:
182,192,140137,1,0,0:0:0:0:
256,192,140137,1,0,0:0:0:0:
402,192,140137,1,0,0:0:0:0:
109,192,140240,1,0,0:0:0:0:
329,192,140240,1,0,0:0:0:0:
182,192,140445,1,0,0:0:0:0:
329,192,140445,1,0,0:0:0:0:
36,192,140548,1,0,0:0:0:0:
109,192,140548,1,0,0:0:0:0:
256,192,140548,1,0,0:0:0:0:
329,192,140651,1,0,0:0:0:0:
475,192,140651,1,0,0:0:0:0:
182,192,140753,1,0,0:0:0:0:
402,192,140753,1,0,0:0:0:0:
109,192,140856,1,0,0:0:0:0:
256,192,140856,1,0,0:0:0:0:
36,192,140959,1,0,0:0:0:0:
182,192,140959,1,0,0:0:0:0:
329,192,140959,1,0,0:0:0:0:
475,192,140959,1,0,0:0:0:0:
109,192,141062,1,0,0:0:0:0:
256,192,141062,1,0,0:0:0:0:
182,192,141164,1,0,0:0:0:0:
329,192,141164,1,0,0:0:0:0:
402,192,141267,1,0,0:0:0:0:
256,192,141370,1,0,0:0:0:0:
