osu file format v14

[General]
AudioFilename: audio.mp3
AudioLeadIn: 0
PreviewTime: 147010
Countdown: 1
SampleSet: Normal
StackLeniency: 0.7
Mode: 1
LetterboxInBreaks: 0
WidescreenStoryboard: 0

[Editor]
Bookmarks: 28423,45814,73640,87553,101466,118857,146683,164075,177988,219401,259727
DistanceSpacing: 1.4
BeatDivisor: 4
GridSize: 8
TimelineZoom: 4.799997

[Metadata]
Title:Overtime
TitleUnicode:Overtime
Artist:KNOWER
ArtistUnicode:KNOWER
Creator:radar
Version:Oni
Source:osu!
Tags:electronic jazz english LIFE Louis Cole Genevieve Artadi fa featured artist mappers guild mpg mg fieryrage
BeatmapID:2165632
BeatmapSetID:1035846

[Difficulty]
HPDrainRate:5.5
CircleSize:5
OverallDifficulty:5
ApproachRate:5
SliderMultiplier:1.4
SliderTickRate:1

[Events]
//Background and Video events
0,0,"oven time.png",0,0
//Break Periods
//Storyboard Layer 0 (Background)
//Storyboard Layer 1 (Fail)
//Storyboard Layer 2 (Pass)
//Storyboard Layer 3 (Foreground)
//Storyboard Layer 4 (Overlay)
//Storyboard Sound Samples

[TimingPoints]
597,434.782608695652,4,1,0,80,1,0
28423,-83.3333333333333,4,1,0,80,0,1
42336,-80,4,1,0,80,0,0
45814,-90.9090909090909,4,1,0,80,0,0
73640,-100,4,1,0,80,0,0
80596,-90.9090909090909,4,1,0,80,0,0
85814,-89.2857142857143,4,1,0,80,0,0
86031,-87.719298245614,4,1,0,80,0,0
86249,-86.2068965517241,4,1,0,80,0,0
86901,-84.7457627118644,4,1,0,80,0,0
87553,-83.3333333333333,4,1,0,80,0,1
99727,-83.3333333333333,4,1,0,80,0,0
100162,-90.9090909090909,4,1,0,80,0,0
101466,-83.3333333333333,4,1,0,80,0,1
115379,-80,4,1,0,80,0,0
118857,-90.9090909090909,4,1,0,80,0,0
146683,-100,4,1,0,80,0,0
153640,-90.9090909090909,4,1,0,80,0,0
162336,-89.2857142857143,4,1,0,80,0,0
162553,-87.719298245614,4,1,0,80,0,0
162770,-86.2068965517241,4,1,0,80,0,0
163423,-84.7457627118644,4,1,0,80,0,0
164075,-83.3333333333333,4,1,0,80,0,1
177988,-80,4,1,0,80,0,1
219401,-80,4,1,0,80,0,0
219727,-86.9565217391304,4,1,0,80,0,0
221466,-95.2380952380952,4,1,0,80,0,0

[HitObjects]
168,227,597,5,0,0:0:0:0:
239,199,923,1,8,0:0:0:0:
243,241,1031,1,0,0:0:0:0:
216,210,1249,1,8,0:0:0:0:
238,251,1466,1,0,0:0:0:0:
243,241,1575,1,8,0:0:0:0:
221,231,1901,1,8,0:0:0:0:
227,222,2227,1,8,0:0:0:0:
231,254,2336,1,0,0:0:0:0:
251,241,2553,1,8,0:0:0:0:
223,268,2770,1,0,0:0:0:0:
214,278,3205,1,0,0:0:0:0:
222,247,3423,1,8,0:0:0:0:
216,275,3640,1,0,0:0:0:0:
216,268,3749,1,8,0:0:0:0:
207,269,4075,1,8,0:0:0:0:
202,280,4401,1,8,0:0:0:0:
200,277,4510,1,0,0:0:0:0:
222,243,4727,1,8,0:0:0:0:
214,270,4944,1,0,0:0:0:0:
206,262,5053,1,8,0:0:0:0:
206,262,5379,1,8,0:0:0:0:
206,258,5705,1,8,0:0:0:0:
214,270,5814,1,0,0:0:0:0:
201,261,6031,1,8,0:0:0:0:
204,270,6249,1,0,0:0:0:0:
217,265,6683,1,0,0:0:0:0:
219,234,6901,1,8,0:0:0:0:
219,255,7118,1,0,0:0:0:0:
219,251,7227,1,8,0:0:0:0:
220,247,7553,1,8,0:0:0:0:
224,213,7879,1,8,0:0:0:0:
225,230,7988,1,0,0:0:0:0:
231,210,8205,1,8,0:0:0:0:
230,254,8423,1,0,0:0:0:0:
231,233,8531,1,8,0:0:0:0:
233,234,8857,1,8,0:0:0:0:
229,236,9183,1,8,0:0:0:0:
230,259,9292,1,0,0:0:0:0:
258,230,9510,1,8,0:0:0:0:
238,264,9727,1,0,0:0:0:0:
238,264,10162,1,0,0:0:0:0:
231,244,10379,1,8,0:0:0:0:
233,263,10596,1,0,0:0:0:0:
236,241,10705,1,8,0:0:0:0:
231,244,11031,1,8,0:0:0:0:
232,238,11357,1,8,0:0:0:0:
233,263,11466,1,0,0:0:0:0:
130,297,11683,1,8,0:0:0:0:
125,288,11901,1,0,0:0:0:0:
123,286,12336,1,8,0:0:0:0:
123,293,12662,1,8,0:0:0:0:
102,303,12988,1,0,0:0:0:0:
105,304,13205,1,0,0:0:0:0:
106,289,13314,1,8,0:0:0:0:
109,290,13640,1,0,0:0:0:0:
98,280,13857,1,8,0:0:0:0:
97,284,14075,1,0,0:0:0:0:
103,272,14183,1,8,0:0:0:0:
80,262,14510,1,8,0:0:0:0:
81,263,14944,1,8,0:0:0:0:
86,270,15162,1,0,0:0:0:0:
77,274,15379,1,0,0:0:0:0:
81,263,15488,1,8,0:0:0:0:
70,264,15705,1,8,0:0:0:0:
73,273,15814,1,0,0:0:0:0:
74,281,16031,1,0,0:0:0:0:
77,274,16140,1,8,0:0:0:0:
89,295,16249,1,0,0:0:0:0:
70,264,16466,1,8,0:0:0:0:
59,277,16683,1,0,0:0:0:0:
62,265,16792,1,8,0:0:0:0:
73,256,17118,1,0,0:0:0:0:
49,284,17227,1,0,0:0:0:0:
52,269,17336,1,8,0:0:0:0:
39,279,17553,1,0,0:0:0:0:
40,263,17662,1,8,0:0:0:0:
34,261,17879,1,0,0:0:0:0:
41,274,17988,1,8,0:0:0:0:
87,279,18314,1,0,0:0:0:0:
86,272,18640,1,8,0:0:0:0:
86,276,18857,1,0,0:0:0:0:
88,262,18966,1,8,0:0:0:0:
78,258,19292,1,8,0:0:0:0:
78,263,19510,1,0,0:0:0:0:
78,253,19618,1,8,0:0:0:0:
65,251,19836,1,8,0:0:0:0:
70,257,19944,1,0,0:0:0:0:
72,262,20162,1,0,0:0:0:0:
78,263,20270,1,8,0:0:0:0:
77,259,20814,1,8,0:0:0:0:
78,263,21031,1,0,0:0:0:0:
82,250,21140,1,8,0:0:0:0:
70,247,21466,1,8,0:0:0:0:
78,263,21683,1,8,0:0:0:0:
78,263,21792,1,8,0:0:0:0:
76,270,21901,1,0,0:0:0:0:
71,265,22118,1,8,0:0:0:0:
67,277,22336,1,0,0:0:0:0:
63,266,22444,1,8,0:0:0:0:
63,266,22662,1,8,0:0:0:0:
60,270,22770,1,0,0:0:0:0:
56,279,23096,1,8,0:0:0:0:
53,279,23314,1,8,0:0:0:0:
53,280,23423,1,8,0:0:0:0:
99,236,23531,1,0,0:0:0:0:
52,278,23749,1,8,0:0:0:0:
71,286,23966,1,8,0:0:0:0:
71,278,24183,1,0,0:0:0:0:
73,268,24292,1,8,0:0:0:0:
75,276,24510,1,0,0:0:0:0:
75,269,24618,1,8,0:0:0:0:
69,265,24727,1,0,0:0:0:0:
61,259,24944,1,8,0:0:0:0:
57,269,25162,1,0,0:0:0:0:
56,258,25270,1,8,0:0:0:0:
56,264,25379,1,0,0:0:0:0:
54,262,25596,1,8,0:0:0:0:
54,263,25814,1,0,0:0:0:0:
54,257,25923,1,8,0:0:0:0:
79,247,26140,1,8,0:0:0:0:
79,247,26249,1,8,0:0:0:0:
77,251,26466,1,0,0:0:0:0:
79,247,26683,1,0,0:0:0:0:
224,223,27118,1,0,0:0:0:0:
195,14,28423,1,4,0:0:0:0:
230,163,28640,1,8,0:0:0:0:
233,193,28749,1,0,0:0:0:0:
244,169,28857,1,8,0:0:0:0:
273,165,29075,1,8,0:0:0:0:
283,167,29292,1,8,0:0:0:0:
283,168,29401,1,8,0:0:0:0:
278,194,29510,1,0,0:0:0:0:
284,184,29727,1,8,0:0:0:0:
226,185,29944,1,8,0:0:0:0:
234,209,30053,1,0,0:0:0:0:
247,216,30162,1,0,0:0:0:0:
170,196,30379,1,8,0:0:0:0:
178,192,30596,1,8,0:0:0:0:
186,217,30705,1,8,0:0:0:0:
178,208,30814,1,0,0:0:0:0:
178,208,30923,1,0,0:0:0:0:
175,215,31140,1,0,0:0:0:0:
175,198,31249,1,8,0:0:0:0:
182,189,31466,1,8,0:0:0:0:
195,224,31683,1,0,0:0:0:0:
195,209,31792,1,8,0:0:0:0:
194,229,31901,1,0,0:0:0:0:
257,220,32336,1,8,0:0:0:0:
250,237,32553,1,0,0:0:0:0:
209,255,32770,1,0,0:0:0:0:
203,230,32879,1,8,0:0:0:0:
184,258,33096,1,0,0:0:0:0:
183,248,33205,1,0,0:0:0:0:
184,257,33423,1,0,0:0:0:0:
184,241,33531,1,8,0:0:0:0:
184,258,33640,1,0,0:0:0:0:
175,242,33857,1,8,0:0:0:0:
181,269,33966,1,0,0:0:0:0:
200,241,34075,1,8,0:0:0:0:
196,265,34292,1,0,0:0:0:0:
182,259,34510,1,0,0:0:0:0:
182,259,34618,1,0,0:0:0:0:
185,244,34727,1,8,0:0:0:0:
171,248,34944,1,8,0:0:0:0:
191,263,35053,1,0,0:0:0:0:
207,251,35162,1,8,0:0:0:0:
202,243,35270,1,8,0:0:0:0:
188,0,35379,1,4,0:0:0:0:
219,226,35814,1,8,0:0:0:0:
216,225,36031,1,8,0:0:0:0:
226,246,36249,1,0,0:0:0:0:
221,228,36357,1,8,0:0:0:0:
200,252,36466,1,0,0:0:0:0:
200,252,36575,1,0,0:0:0:0:
196,230,36683,1,8,0:0:0:0:
200,252,36901,1,0,0:0:0:0:
190,231,37010,1,8,0:0:0:0:
200,252,37118,1,0,0:0:0:0:
180,232,37336,1,8,0:0:0:0:
202,243,37553,1,8,0:0:0:0:
199,263,37662,1,8,0:0:0:0:
194,251,37770,1,0,0:0:0:0:
203,241,37879,1,8,0:0:0:0:
194,248,37988,1,0,0:0:0:0:
196,254,38205,1,8,0:0:0:0:
199,242,38423,1,8,0:0:0:0:
203,266,38531,1,0,0:0:0:0:
204,243,38640,1,8,0:0:0:0:
211,262,38857,1,0,0:0:0:0:
227,227,39292,1,8,0:0:0:0:
209,246,39510,1,0,0:0:0:0:
166,253,39727,1,0,0:0:0:0:
151,236,39836,1,8,0:0:0:0:
211,273,39944,1,8,0:0:0:0:
162,245,40162,1,8,0:0:0:0:
209,289,40379,1,0,0:0:0:0:
197,276,40488,1,8,0:0:0:0:
209,292,40596,1,0,0:0:0:0:
215,265,40814,1,0,0:0:0:0:
222,266,41031,1,8,0:0:0:0:
212,276,41249,1,8,0:0:0:0:
216,287,41357,1,0,0:0:0:0:
214,282,41575,1,0,0:0:0:0:
214,282,41683,1,0,0:0:0:0:
210,266,41901,1,8,0:0:0:0:
215,292,42010,1,0,0:0:0:0:
226,270,42118,1,8,0:0:0:0:
261,8,42336,1,12,0:0:0:0:
222,12,44075,1,12,0:0:0:0:
217,243,45162,1,8,0:0:0:0:
217,243,45488,1,8,0:0:0:0:
245,16,45814,1,4,0:0:0:0:
135,229,46249,1,8,0:0:0:0:
129,251,46466,1,8,0:0:0:0:
125,265,46575,1,0,0:0:0:0:
131,235,46683,1,8,0:0:0:0:
128,260,46901,1,0,0:0:0:0:
140,243,47118,1,8,0:0:0:0:
113,234,47227,1,0,0:0:0:0:
125,264,47553,1,0,0:0:0:0:
85,262,47770,1,8,0:0:0:0:
85,262,47988,1,8,0:0:0:0:
93,264,48096,1,8,0:0:0:0:
82,250,48314,1,0,0:0:0:0:
83,239,48423,1,8,0:0:0:0:
60,255,48640,1,0,0:0:0:0:
68,236,48749,1,8,0:0:0:0:
64,245,48857,1,8,0:0:0:0:
57,36,49292,1,4,0:0:0:0:
59,257,49727,1,8,0:0:0:0:
74,261,49944,1,8,0:0:0:0:
51,277,50053,1,0,0:0:0:0:
51,276,50162,1,8,0:0:0:0:
65,268,50379,1,0,0:0:0:0:
92,237,50596,1,0,0:0:0:0:
64,259,50705,1,8,0:0:0:0:
63,258,50814,1,8,0:0:0:0:
69,260,51031,1,0,0:0:0:0:
92,245,51249,1,8,0:0:0:0:
70,276,51466,1,0,0:0:0:0:
71,271,51575,1,8,0:0:0:0:
69,271,51792,1,8,0:0:0:0:
68,264,51901,1,8,0:0:0:0:
84,276,52118,1,0,0:0:0:0:
72,263,52227,1,8,0:0:0:0:
92,259,52336,1,8,0:0:0:0:
107,25,52770,1,4,0:0:0:0:
101,244,53205,1,8,0:0:0:0:
96,248,53423,1,8,0:0:0:0:
93,252,53531,1,0,0:0:0:0:
91,259,53640,1,8,0:0:0:0:
91,261,53857,1,0,0:0:0:0:
93,253,53966,1,8,0:0:0:0:
90,244,54075,1,8,0:0:0:0:
80,247,54292,1,8,0:0:0:0:
83,256,54510,1,0,0:0:0:0:
80,267,54618,1,0,0:0:0:0:
93,253,54727,1,8,0:0:0:0:
91,256,54944,1,8,0:0:0:0:
95,263,55053,1,0,0:0:0:0:
66,273,55270,1,0,0:0:0:0:
82,262,55379,1,8,0:0:0:0:
68,253,55705,1,8,0:0:0:0:
66,256,55814,1,8,0:0:0:0:
71,39,56249,1,4,0:0:0:0:
46,268,56683,1,8,0:0:0:0:
52,281,56901,1,0,0:0:0:0:
51,275,57010,1,0,0:0:0:0:
49,273,57118,1,8,0:0:0:0:
48,273,57336,1,8,0:0:0:0:
56,286,57444,1,0,0:0:0:0:
52,281,57553,1,8,0:0:0:0:
51,275,57770,1,8,0:0:0:0:
66,42,57988,1,12,0:0:0:0:
30,282,59075,1,8,0:0:0:0:
30,282,59401,1,8,0:0:0:0:
77,32,59727,1,4,0:0:0:0:
64,274,60162,1,8,0:0:0:0:
65,264,60379,1,8,0:0:0:0:
65,279,60488,1,0,0:0:0:0:
68,272,60596,1,8,0:0:0:0:
70,272,60814,1,0,0:0:0:0:
77,269,60923,1,0,0:0:0:0:
80,266,61031,1,8,0:0:0:0:
81,273,61249,1,8,0:0:0:0:
82,283,61466,1,0,0:0:0:0:
76,285,61683,1,0,0:0:0:0:
78,278,61792,1,8,0:0:0:0:
65,267,61901,1,8,0:0:0:0:
73,276,62010,1,0,0:0:0:0:
74,275,62227,1,0,0:0:0:0:
85,260,62336,1,8,0:0:0:0:
70,260,62553,1,8,0:0:0:0:
78,273,62662,1,0,0:0:0:0:
81,267,62770,1,8,0:0:0:0:
96,30,63205,1,4,0:0:0:0:
76,268,63640,1,8,0:0:0:0:
76,268,63857,1,8,0:0:0:0:
76,275,63966,1,0,0:0:0:0:
82,260,64075,1,8,0:0:0:0:
84,278,64292,1,0,0:0:0:0:
85,263,64401,1,8,0:0:0:0:
76,268,64510,1,8,0:0:0:0:
76,275,64727,1,0,0:0:0:0:
84,278,64944,1,0,0:0:0:0:
78,274,65162,1,8,0:0:0:0:
79,275,65379,1,8,0:0:0:0:
70,285,65488,1,0,0:0:0:0:
70,286,65705,1,0,0:0:0:0:
78,274,65814,1,8,0:0:0:0:
61,269,65923,1,8,0:0:0:0:
75,267,66140,1,8,0:0:0:0:
79,261,66249,1,8,0:0:0:0:
86,31,66683,1,4,0:0:0:0:
89,274,66901,1,0,0:0:0:0:
72,267,67118,1,8,0:0:0:0:
72,267,67336,1,8,0:0:0:0:
75,279,67444,1,0,0:0:0:0:
80,252,67553,1,8,0:0:0:0:
83,286,67770,1,0,0:0:0:0:
81,271,67879,1,8,0:0:0:0:
77,259,67988,1,8,0:0:0:0:
109,27,68423,1,4,0:0:0:0:
100,274,68640,1,8,0:0:0:0:
106,269,68857,1,0,0:0:0:0:
111,257,68966,1,8,0:0:0:0:
104,267,69075,1,0,0:0:0:0:
100,266,69292,1,8,0:0:0:0:
100,266,69401,1,8,0:0:0:0:
106,269,69618,1,0,0:0:0:0:
111,237,69727,1,8,0:0:0:0:
90,269,69944,1,0,0:0:0:0:
91,269,70053,1,0,0:0:0:0:
90,263,70162,1,8,0:0:0:0:
79,256,70596,1,8,0:0:0:0:
80,266,70814,1,0,0:0:0:0:
80,257,70923,1,8,0:0:0:0:
79,256,71031,1,8,0:0:0:0:
94,247,71249,1,0,0:0:0:0:
90,255,71466,1,8,0:0:0:0:
101,266,71683,1,0,0:0:0:0:
94,27,71901,1,4,0:0:0:0:
116,34,73640,1,4,0:0:0:0:
66,278,74075,1,0,0:0:0:0:
68,272,74510,1,8,0:0:0:0:
55,266,74944,1,8,0:0:0:0:
55,266,75379,1,0,0:0:0:0:
51,271,75814,1,0,0:0:0:0:
51,271,76031,1,0,0:0:0:0:
51,264,76249,1,8,0:0:0:0:
51,265,76466,1,0,0:0:0:0:
51,259,76683,1,8,0:0:0:0:
50,259,77118,1,8,0:0:0:0:
50,259,77553,1,8,0:0:0:0:
50,259,77988,1,0,0:0:0:0:
50,259,78423,1,0,0:0:0:0:
50,259,78640,1,8,0:0:0:0:
50,259,79292,1,8,0:0:0:0:
50,259,79510,1,0,0:0:0:0:
50,259,79727,1,8,0:0:0:0:
50,259,79944,1,8,0:0:0:0:
50,259,80162,1,0,0:0:0:0:
50,259,80596,1,8,0:0:0:0:
39,287,80814,1,0,0:0:0:0:
44,273,80923,1,8,0:0:0:0:
44,273,81031,1,8,0:0:0:0:
40,274,81249,1,8,0:0:0:0:
39,287,81466,1,0,0:0:0:0:
43,276,81575,1,8,0:0:0:0:
46,280,81792,1,0,0:0:0:0:
46,266,81901,1,8,0:0:0:0:
42,265,82118,1,8,0:0:0:0:
50,283,82336,1,0,0:0:0:0:
46,290,82553,1,8,0:0:0:0:
31,280,82770,1,0,0:0:0:0:
36,273,82879,1,8,0:0:0:0:
34,268,83205,1,8,0:0:0:0:
34,274,83423,1,0,0:0:0:0:
35,265,83640,1,8,0:0:0:0:
38,270,83749,1,0,0:0:0:0:
37,285,84075,1,0,0:0:0:0:
38,279,84510,1,8,0:0:0:0:
37,279,84727,1,8,0:0:0:0:
38,279,84944,1,0,0:0:0:0:
38,279,85053,1,8,0:0:0:0:
54,255,85270,1,0,0:0:0:0:
54,255,85379,1,0,0:0:0:0:
54,255,85596,1,0,0:0:0:0:
231,209,85814,1,8,0:0:0:0:
260,218,86031,1,8,0:0:0:0:
281,222,86249,1,8,0:0:0:0:
281,222,86357,1,8,0:0:0:0:
282,227,86466,1,0,0:0:0:0:
280,261,86575,1,0,0:0:0:0:
311,290,86683,1,8,0:0:0:0:
311,290,86901,1,8,0:0:0:0:
311,290,87010,1,0,0:0:0:0:
283,265,87118,1,8,0:0:0:0:
283,293,87227,1,8,0:0:0:0:
284,274,87336,1,0,0:0:0:0:
195,14,87553,1,4,0:0:0:0:
230,163,87770,1,8,0:0:0:0:
233,193,87879,1,0,0:0:0:0:
244,169,87987,1,8,0:0:0:0:
273,165,88205,1,8,0:0:0:0:
283,167,88422,1,8,0:0:0:0:
283,168,88531,1,8,0:0:0:0:
278,194,88640,1,0,0:0:0:0:
284,184,88857,1,8,0:0:0:0:
226,185,89074,1,8,0:0:0:0:
234,209,89183,1,0,0:0:0:0:
247,216,89292,1,0,0:0:0:0:
170,196,89509,1,8,0:0:0:0:
178,192,89726,1,8,0:0:0:0:
178,208,89944,1,0,0:0:0:0:
178,208,90053,1,0,0:0:0:0:
175,215,90270,1,0,0:0:0:0:
175,198,90379,1,8,0:0:0:0:
182,189,90596,1,8,0:0:0:0:
163,229,90705,1,0,0:0:0:0:
195,209,90922,1,8,0:0:0:0:
194,229,91031,1,0,0:0:0:0:
257,220,91466,1,8,0:0:0:0:
250,237,91683,1,0,0:0:0:0:
209,255,91900,1,0,0:0:0:0:
203,230,92009,1,8,0:0:0:0:
184,258,92226,1,0,0:0:0:0:
183,248,92335,1,0,0:0:0:0:
184,257,92553,1,0,0:0:0:0:
184,241,92661,1,8,0:0:0:0:
184,258,92770,1,0,0:0:0:0:
175,242,92987,1,8,0:0:0:0:
181,269,93096,1,0,0:0:0:0:
200,241,93205,1,8,0:0:0:0:
196,265,93422,1,0,0:0:0:0:
182,259,93640,1,0,0:0:0:0:
182,259,93748,1,0,0:0:0:0:
185,244,93857,1,8,0:0:0:0:
171,248,94074,1,8,0:0:0:0:
191,263,94183,1,0,0:0:0:0:
207,251,94292,1,8,0:0:0:0:
202,243,94400,1,8,0:0:0:0:
188,0,94509,1,4,0:0:0:0:
219,226,94944,1,8,0:0:0:0:
216,225,95161,1,8,0:0:0:0:
226,246,95379,1,0,0:0:0:0:
221,228,95487,1,8,0:0:0:0:
200,252,95596,1,0,0:0:0:0:
200,252,95705,1,0,0:0:0:0:
196,230,95813,1,8,0:0:0:0:
200,252,96031,1,0,0:0:0:0:
190,231,96140,1,8,0:0:0:0:
200,252,96248,1,0,0:0:0:0:
180,232,96466,1,8,0:0:0:0:
202,243,96683,1,8,0:0:0:0:
199,263,96792,1,8,0:0:0:0:
194,251,96900,1,0,0:0:0:0:
203,241,97009,1,8,0:0:0:0:
194,248,97118,1,0,0:0:0:0:
196,254,97335,1,8,0:0:0:0:
199,242,97553,1,8,0:0:0:0:
203,266,97661,1,0,0:0:0:0:
204,243,97770,1,8,0:0:0:0:
211,262,97987,1,0,0:0:0:0:
227,227,98422,1,8,0:0:0:0:
209,246,98640,1,0,0:0:0:0:
166,253,98857,1,0,0:0:0:0:
151,236,98966,1,8,0:0:0:0:
211,273,99074,1,8,0:0:0:0:
162,245,99292,1,8,0:0:0:0:
209,289,99509,1,0,0:0:0:0:
197,276,99618,1,8,0:0:0:0:
209,292,99726,1,0,0:0:0:0:
222,266,100162,1,8,0:0:0:0:
154,254,100379,1,0,0:0:0:0:
144,260,100596,1,8,0:0:0:0:
149,289,100814,1,0,0:0:0:0:
210,266,101031,1,8,0:0:0:0:
226,270,101248,1,8,0:0:0:0:
261,8,101466,1,12,0:0:0:0:
120,256,101792,1,0,0:0:0:0:
127,249,101901,1,8,0:0:0:0:
171,296,102010,1,0,0:0:0:0:
185,268,102118,1,8,0:0:0:0:
117,234,102336,1,8,0:0:0:0:
131,266,102444,1,0,0:0:0:0:
133,274,102662,1,0,0:0:0:0:
134,243,102770,1,8,0:0:0:0:
105,243,102988,1,8,0:0:0:0:
109,270,103096,1,0,0:0:0:0:
130,253,103205,1,0,0:0:0:0:
105,254,103423,1,8,0:0:0:0:
140,245,103640,1,8,0:0:0:0:
136,252,103749,1,8,0:0:0:0:
138,263,103857,1,0,0:0:0:0:
156,262,104292,1,8,0:0:0:0:
115,252,104510,1,8,0:0:0:0:
160,249,104727,1,8,0:0:0:0:
150,244,104836,1,8,0:0:0:0:
131,268,104944,1,0,0:0:0:0:
118,226,105162,1,0,0:0:0:0:
96,204,105379,1,8,0:0:0:0:
128,233,105488,1,0,0:0:0:0:
134,202,105596,1,8,0:0:0:0:
87,217,105814,1,0,0:0:0:0:
86,189,105923,1,8,0:0:0:0:
119,233,106140,1,0,0:0:0:0:
101,206,106249,1,0,0:0:0:0:
141,250,106466,1,0,0:0:0:0:
130,220,106575,1,8,0:0:0:0:
136,250,106683,1,0,0:0:0:0:
166,225,106901,1,0,0:0:0:0:
113,256,107118,1,8,0:0:0:0:
115,237,107227,1,0,0:0:0:0:
106,260,107444,1,8,0:0:0:0:
111,248,107553,1,0,0:0:0:0:
91,246,107770,1,0,0:0:0:0:
113,256,107988,1,8,0:0:0:0:
107,243,108096,1,0,0:0:0:0:
109,243,108205,1,0,0:0:0:0:
110,253,108314,1,8,0:0:0:0:
116,27,108423,1,4,0:0:0:0:
122,235,108857,1,8,0:0:0:0:
107,248,109075,1,0,0:0:0:0:
111,247,109183,1,0,0:0:0:0:
121,244,109401,1,8,0:0:0:0:
119,254,109510,1,0,0:0:0:0:
102,255,109618,1,0,0:0:0:0:
111,241,109727,1,8,0:0:0:0:
111,253,109944,1,0,0:0:0:0:
111,238,110162,1,8,0:0:0:0:
115,257,110379,1,0,0:0:0:0:
95,258,110488,1,0,0:0:0:0:
111,253,110596,1,8,0:0:0:0:
107,261,110814,1,8,0:0:0:0:
111,250,110923,1,8,0:0:0:0:
109,257,111031,1,0,0:0:0:0:
109,258,111140,1,0,0:0:0:0:
110,253,111249,1,8,0:0:0:0:
111,250,111466,1,8,0:0:0:0:
107,261,111575,1,0,0:0:0:0:
111,250,111683,1,8,0:0:0:0:
109,257,111792,1,8,0:0:0:0:
98,31,111901,1,4,0:0:0:0:
56,266,112336,1,8,0:0:0:0:
67,296,112553,1,0,0:0:0:0:
75,276,112662,1,8,0:0:0:0:
65,269,112879,1,0,0:0:0:0:
67,275,112988,1,8,0:0:0:0:
67,275,113096,1,8,0:0:0:0:
71,269,113205,1,0,0:0:0:0:
61,284,113640,1,0,0:0:0:0:
82,281,113749,1,0,0:0:0:0:
59,281,113857,1,8,0:0:0:0:
60,285,114075,1,8,0:0:0:0:
78,278,114292,1,0,0:0:0:0:
78,278,114510,1,0,0:0:0:0:
81,258,114618,1,8,0:0:0:0:
81,256,114727,1,8,0:0:0:0:
79,268,114944,1,8,0:0:0:0:
78,278,115053,1,0,0:0:0:0:
72,269,115162,1,0,0:0:0:0:
117,26,115379,1,12,0:0:0:0:
117,26,117118,1,12,0:0:0:0:
75,249,118205,1,8,0:0:0:0:
75,249,118531,1,8,0:0:0:0:
106,31,118857,1,4,0:0:0:0:
135,229,119292,1,8,0:0:0:0:
129,251,119509,1,8,0:0:0:0:
125,265,119618,1,0,0:0:0:0:
131,235,119726,1,8,0:0:0:0:
128,260,119944,1,0,0:0:0:0:
140,243,120161,1,8,0:0:0:0:
113,234,120270,1,0,0:0:0:0:
125,264,120596,1,0,0:0:0:0:
85,262,120813,1,8,0:0:0:0:
85,262,121031,1,8,0:0:0:0:
93,264,121139,1,8,0:0:0:0:
82,250,121357,1,0,0:0:0:0:
83,239,121466,1,8,0:0:0:0:
60,255,121683,1,0,0:0:0:0:
68,236,121792,1,8,0:0:0:0:
64,245,121900,1,8,0:0:0:0:
57,36,122335,1,4,0:0:0:0:
59,257,122770,1,8,0:0:0:0:
74,261,122987,1,8,0:0:0:0:
51,277,123096,1,0,0:0:0:0:
51,276,123205,1,8,0:0:0:0:
65,268,123422,1,0,0:0:0:0:
92,237,123639,1,0,0:0:0:0:
64,259,123748,1,0,0:0:0:0:
63,258,123857,1,8,0:0:0:0:
96,265,123966,1,0,0:0:0:0:
69,260,124074,1,8,0:0:0:0:
92,245,124292,1,8,0:0:0:0:
70,276,124509,1,0,0:0:0:0:
71,271,124618,1,8,0:0:0:0:
69,271,124835,1,8,0:0:0:0:
68,264,124944,1,8,0:0:0:0:
84,276,125161,1,0,0:0:0:0:
72,263,125270,1,8,0:0:0:0:
92,259,125379,1,8,0:0:0:0:
107,25,125813,1,4,0:0:0:0:
101,244,126248,1,8,0:0:0:0:
96,248,126466,1,8,0:0:0:0:
93,252,126574,1,0,0:0:0:0:
91,259,126683,1,8,0:0:0:0:
91,261,126900,1,0,0:0:0:0:
90,244,127118,1,8,0:0:0:0:
80,247,127336,1,8,0:0:0:0:
83,256,127444,1,8,0:0:0:0:
71,263,127553,1,0,0:0:0:0:
80,267,127661,1,0,0:0:0:0:
93,253,127770,1,8,0:0:0:0:
91,256,127987,1,8,0:0:0:0:
95,263,128096,1,0,0:0:0:0:
82,262,128422,1,8,0:0:0:0:
93,253,128531,1,0,0:0:0:0:
91,256,128640,1,0,0:0:0:0:
68,253,128748,1,8,0:0:0:0:
66,256,128857,1,8,0:0:0:0:
80,253,129075,1,0,0:0:0:0:
71,39,129292,1,4,0:0:0:0:
46,268,129726,1,8,0:0:0:0:
52,281,129944,1,0,0:0:0:0:
49,273,130161,1,8,0:0:0:0:
48,273,130379,1,8,0:0:0:0:
56,286,130487,1,0,0:0:0:0:
52,281,130596,1,8,0:0:0:0:
51,275,130813,1,8,0:0:0:0:
66,42,131031,1,12,0:0:0:0:
30,282,132118,1,8,0:0:0:0:
30,282,132444,1,8,0:0:0:0:
77,32,132770,1,4,0:0:0:0:
64,274,133205,1,8,0:0:0:0:
65,264,133422,1,8,0:0:0:0:
65,279,133531,1,0,0:0:0:0:
68,272,133639,1,8,0:0:0:0:
70,272,133857,1,0,0:0:0:0:
80,266,134074,1,8,0:0:0:0:
80,275,134183,1,0,0:0:0:0:
81,273,134292,1,8,0:0:0:0:
65,264,134401,1,8,0:0:0:0:
82,283,134509,1,0,0:0:0:0:
76,285,134726,1,0,0:0:0:0:
78,278,134835,1,8,0:0:0:0:
65,267,134944,1,8,0:0:0:0:
73,276,135053,1,0,0:0:0:0:
74,275,135270,1,0,0:0:0:0:
85,260,135379,1,8,0:0:0:0:
70,260,135596,1,8,0:0:0:0:
78,273,135705,1,0,0:0:0:0:
81,267,135813,1,8,0:0:0:0:
96,30,136248,1,4,0:0:0:0:
76,268,136683,1,8,0:0:0:0:
76,268,136900,1,8,0:0:0:0:
76,275,137009,1,0,0:0:0:0:
82,260,137118,1,8,0:0:0:0:
84,278,137335,1,0,0:0:0:0:
85,263,137444,1,8,0:0:0:0:
76,268,137553,1,8,0:0:0:0:
76,275,137770,1,0,0:0:0:0:
84,278,137987,1,0,0:0:0:0:
78,274,138205,1,8,0:0:0:0:
79,275,138422,1,8,0:0:0:0:
70,285,138531,1,0,0:0:0:0:
70,286,138748,1,0,0:0:0:0:
78,274,138857,1,8,0:0:0:0:
61,269,138966,1,8,0:0:0:0:
75,267,139183,1,8,0:0:0:0:
79,261,139292,1,8,0:0:0:0:
86,31,139726,1,4,0:0:0:0:
89,274,139944,1,0,0:0:0:0:
72,267,140161,1,8,0:0:0:0:
72,267,140379,1,8,0:0:0:0:
80,252,140596,1,8,0:0:0:0:
81,271,140705,1,8,0:0:0:0:
83,286,140813,1,0,0:0:0:0:
77,259,141031,1,8,0:0:0:0:
109,27,141466,1,4,0:0:0:0:
100,274,141683,1,8,0:0:0:0:
106,269,141900,1,0,0:0:0:0:
111,257,142009,1,8,0:0:0:0:
104,267,142118,1,0,0:0:0:0:
100,266,142335,1,8,0:0:0:0:
100,266,142444,1,8,0:0:0:0:
106,269,142661,1,0,0:0:0:0:
111,237,142770,1,8,0:0:0:0:
90,269,142987,1,0,0:0:0:0:
91,269,143096,1,0,0:0:0:0:
90,263,143205,1,8,0:0:0:0:
79,256,143639,1,8,0:0:0:0:
80,266,143857,1,0,0:0:0:0:
80,257,143966,1,8,0:0:0:0:
79,256,144074,1,8,0:0:0:0:
94,247,144292,1,0,0:0:0:0:
90,255,144509,1,8,0:0:0:0:
101,266,144726,1,0,0:0:0:0:
108,22,144944,1,4,0:0:0:0:
119,259,145379,1,8,0:0:0:0:
119,271,145596,1,0,0:0:0:0:
126,265,145814,1,8,0:0:0:0:
126,265,145923,1,8,0:0:0:0:
126,265,146031,1,8,0:0:0:0:
126,265,146249,1,0,0:0:0:0:
109,275,146357,1,0,0:0:0:0:
109,275,146466,1,0,0:0:0:0:
116,34,146683,1,4,0:0:0:0:
66,278,147118,1,0,0:0:0:0:
68,272,147553,1,8,0:0:0:0:
55,266,147987,1,8,0:0:0:0:
55,266,148422,1,0,0:0:0:0:
51,271,148857,1,0,0:0:0:0:
51,271,149074,1,0,0:0:0:0:
51,264,149292,1,8,0:0:0:0:
51,265,149509,1,0,0:0:0:0:
51,259,149726,1,8,0:0:0:0:
50,259,150161,1,8,0:0:0:0:
50,259,150596,1,8,0:0:0:0:
50,259,151031,1,0,0:0:0:0:
50,259,151466,1,0,0:0:0:0:
50,259,151683,1,8,0:0:0:0:
50,259,152335,1,8,0:0:0:0:
50,259,152553,1,0,0:0:0:0:
50,259,152770,1,8,0:0:0:0:
50,259,152987,1,8,0:0:0:0:
50,259,153205,1,0,0:0:0:0:
50,259,153640,1,8,0:0:0:0:
39,287,153857,1,0,0:0:0:0:
44,273,153966,1,8,0:0:0:0:
44,273,154074,1,8,0:0:0:0:
40,274,154292,1,8,0:0:0:0:
39,287,154509,1,0,0:0:0:0:
43,276,154618,1,8,0:0:0:0:
46,280,154835,1,0,0:0:0:0:
46,266,154944,1,8,0:0:0:0:
42,265,155161,1,8,0:0:0:0:
50,283,155379,1,0,0:0:0:0:
31,280,155813,1,0,0:0:0:0:
36,273,155922,1,8,0:0:0:0:
34,268,156248,1,8,0:0:0:0:
34,274,156466,1,0,0:0:0:0:
35,265,156683,1,8,0:0:0:0:
38,270,156792,1,0,0:0:0:0:
37,285,157118,1,0,0:0:0:0:
38,279,157553,1,8,0:0:0:0:
37,279,157770,1,8,0:0:0:0:
38,279,157987,1,0,0:0:0:0:
38,279,158096,1,8,0:0:0:0:
54,255,158313,1,0,0:0:0:0:
54,255,158422,1,8,0:0:0:0:
54,255,158749,1,8,0:0:0:0:
68,258,159075,1,8,0:0:0:0:
63,269,159292,1,0,0:0:0:0:
63,258,159401,1,8,0:0:0:0:
61,261,159944,1,0,0:0:0:0:
61,261,160162,1,0,0:0:0:0:
71,237,160379,1,8,0:0:0:0:
91,250,160596,1,8,0:0:0:0:
91,250,160959,1,0,0:0:0:0:
95,248,161285,1,8,0:0:0:0:
95,247,161611,1,0,0:0:0:0:
106,229,161901,1,8,0:0:0:0:
95,275,162336,1,8,0:0:0:0:
96,283,162553,1,8,0:0:0:0:
101,280,162770,1,0,0:0:0:0:
101,269,162879,1,8,0:0:0:0:
84,285,162988,1,0,0:0:0:0:
89,274,163096,1,8,0:0:0:0:
84,271,163205,1,8,0:0:0:0:
82,271,163423,1,8,0:0:0:0:
82,271,163531,1,8,0:0:0:0:
80,279,163640,1,0,0:0:0:0:
80,279,163749,1,0,0:0:0:0:
80,273,163857,1,8,0:0:0:0:
195,14,164075,1,4,0:0:0:0:
230,163,164292,1,8,0:0:0:0:
233,193,164401,1,0,0:0:0:0:
244,169,164509,1,8,0:0:0:0:
273,165,164727,1,8,0:0:0:0:
283,167,164944,1,8,0:0:0:0:
283,168,165053,1,8,0:0:0:0:
278,194,165162,1,0,0:0:0:0:
204,203,165270,1,0,0:0:0:0:
284,184,165379,1,8,0:0:0:0:
226,185,165596,1,8,0:0:0:0:
234,209,165705,1,0,0:0:0:0:
247,216,165814,1,0,0:0:0:0:
170,196,166031,1,8,0:0:0:0:
178,192,166248,1,8,0:0:0:0:
186,217,166357,1,8,0:0:0:0:
178,208,166466,1,0,0:0:0:0:
178,208,166575,1,0,0:0:0:0:
175,215,166792,1,0,0:0:0:0:
175,198,166901,1,8,0:0:0:0:
182,189,167118,1,8,0:0:0:0:
195,224,167335,1,0,0:0:0:0:
195,209,167444,1,8,0:0:0:0:
194,229,167553,1,0,0:0:0:0:
257,220,167988,1,8,0:0:0:0:
250,237,168205,1,0,0:0:0:0:
209,255,168422,1,0,0:0:0:0:
203,230,168531,1,8,0:0:0:0:
184,258,168748,1,0,0:0:0:0:
183,248,168857,1,0,0:0:0:0:
184,257,169075,1,0,0:0:0:0:
184,241,169183,1,8,0:0:0:0:
184,258,169292,1,0,0:0:0:0:
175,242,169509,1,8,0:0:0:0:
181,269,169618,1,0,0:0:0:0:
200,241,169727,1,8,0:0:0:0:
200,249,169836,1,8,0:0:0:0:
196,265,169944,1,0,0:0:0:0:
182,259,170162,1,0,0:0:0:0:
182,259,170270,1,0,0:0:0:0:
185,244,170379,1,8,0:0:0:0:
171,248,170596,1,8,0:0:0:0:
191,263,170705,1,0,0:0:0:0:
207,251,170814,1,8,0:0:0:0:
202,243,170922,1,8,0:0:0:0:
188,0,171031,1,4,0:0:0:0:
219,226,171466,1,8,0:0:0:0:
216,225,171683,1,8,0:0:0:0:
226,246,171901,1,0,0:0:0:0:
221,228,172009,1,8,0:0:0:0:
200,252,172118,1,0,0:0:0:0:
196,230,172335,1,8,0:0:0:0:
200,252,172553,1,0,0:0:0:0:
190,231,172662,1,8,0:0:0:0:
200,252,172770,1,0,0:0:0:0:
178,241,172879,1,0,0:0:0:0:
180,232,172988,1,8,0:0:0:0:
202,243,173205,1,0,0:0:0:0:
194,251,173422,1,8,0:0:0:0:
203,241,173531,1,0,0:0:0:0:
194,248,173640,1,8,0:0:0:0:
186,239,173749,1,0,0:0:0:0:
196,254,173857,1,0,0:0:0:0:
199,242,174075,1,8,0:0:0:0:
203,266,174183,1,0,0:0:0:0:
204,243,174292,1,8,0:0:0:0:
211,262,174509,1,0,0:0:0:0:
227,227,174944,1,8,0:0:0:0:
209,246,175162,1,0,0:0:0:0:
166,253,175379,1,0,0:0:0:0:
151,236,175488,1,8,0:0:0:0:
211,273,175596,1,0,0:0:0:0:
162,245,175814,1,8,0:0:0:0:
209,289,176031,1,0,0:0:0:0:
197,276,176140,1,8,0:0:0:0:
209,292,176249,1,0,0:0:0:0:
201,282,176357,1,0,0:0:0:0:
215,265,176466,1,8,0:0:0:0:
222,266,176683,1,8,0:0:0:0:
212,276,176901,1,8,0:0:0:0:
216,287,177009,1,0,0:0:0:0:
214,282,177227,1,0,0:0:0:0:
214,282,177335,1,0,0:0:0:0:
210,266,177553,1,8,0:0:0:0:
215,292,177662,1,0,0:0:0:0:
226,270,177770,1,8,0:0:0:0:
261,8,177988,1,12,0:0:0:0:
110,266,178423,1,8,0:0:0:0:
99,284,178640,1,8,0:0:0:0:
101,293,178857,1,0,0:0:0:0:
103,279,178966,1,8,0:0:0:0:
95,279,179075,1,0,0:0:0:0:
95,279,179183,1,0,0:0:0:0:
96,270,179292,1,8,0:0:0:0:
86,269,179510,1,0,0:0:0:0:
92,255,179618,1,8,0:0:0:0:
83,272,179727,1,0,0:0:0:0:
80,260,179944,1,8,0:0:0:0:
80,260,180162,1,8,0:0:0:0:
81,269,180379,1,0,0:0:0:0:
79,267,180705,1,0,0:0:0:0:
80,260,180814,1,8,0:0:0:0:
68,255,181031,1,8,0:0:0:0:
68,269,181140,1,0,0:0:0:0:
68,269,181249,1,0,0:0:0:0:
73,267,181466,1,8,0:0:0:0:
73,257,181683,1,8,0:0:0:0:
74,278,181792,1,0,0:0:0:0:
68,269,181901,1,8,0:0:0:0:
78,266,182118,1,8,0:0:0:0:
68,278,182444,1,0,0:0:0:0:
102,250,182662,1,0,0:0:0:0:
75,264,182770,1,8,0:0:0:0:
78,261,183096,1,8,0:0:0:0:
82,268,183314,1,0,0:0:0:0:
89,259,183423,1,8,0:0:0:0:
78,261,183640,1,8,0:0:0:0:
81,269,183749,1,8,0:0:0:0:
76,281,183857,1,0,0:0:0:0:
75,280,184183,1,0,0:0:0:0:
83,268,184292,1,8,0:0:0:0:
69,267,184510,1,8,0:0:0:0:
76,281,184618,1,0,0:0:0:0:
75,280,184836,1,8,0:0:0:0:
109,28,184944,1,4,0:0:0:0:
80,274,185379,1,8,0:0:0:0:
75,280,185596,1,0,0:0:0:0:
74,273,185814,1,8,0:0:0:0:
76,277,185923,1,0,0:0:0:0:
59,282,186140,1,0,0:0:0:0:
67,266,186249,1,8,0:0:0:0:
61,276,186466,1,0,0:0:0:0:
61,276,186575,1,8,0:0:0:0:
64,283,186683,1,0,0:0:0:0:
67,269,186901,1,8,0:0:0:0:
59,282,187010,1,0,0:0:0:0:
77,267,187118,1,8,0:0:0:0:
83,267,187227,1,8,0:0:0:0:
79,277,187336,1,0,0:0:0:0:
76,278,187553,1,0,0:0:0:0:
76,278,187662,1,0,0:0:0:0:
83,266,187770,1,8,0:0:0:0:
76,267,187988,1,8,0:0:0:0:
78,282,188096,1,0,0:0:0:0:
72,283,188314,1,0,0:0:0:0:
79,271,188423,1,8,0:0:0:0:
61,270,188749,1,8,0:0:0:0:
67,278,188857,1,8,0:0:0:0:
58,285,189075,1,0,0:0:0:0:
58,285,189292,1,0,0:0:0:0:
61,270,189401,1,8,0:0:0:0:
54,278,189510,1,0,0:0:0:0:
54,278,189618,1,0,0:0:0:0:
53,264,189727,1,8,0:0:0:0:
48,271,189944,1,8,0:0:0:0:
58,285,190053,1,0,0:0:0:0:
47,281,190162,1,0,0:0:0:0:
26,278,190596,1,8,0:0:0:0:
34,283,190705,1,0,0:0:0:0:
43,271,190814,1,8,0:0:0:0:
35,282,191031,1,0,0:0:0:0:
43,286,191140,1,0,0:0:0:0:
52,272,191249,1,8,0:0:0:0:
49,280,191357,1,0,0:0:0:0:
52,272,191466,1,8,0:0:0:0:
57,280,191683,1,0,0:0:0:0:
62,283,191792,1,0,0:0:0:0:
102,36,191901,1,12,0:0:0:0:
50,277,192336,1,8,0:0:0:0:
51,284,192553,1,8,0:0:0:0:
44,284,192662,1,0,0:0:0:0:
50,277,192879,1,8,0:0:0:0:
47,282,192988,1,0,0:0:0:0:
47,282,193096,1,0,0:0:0:0:
56,271,193205,1,8,0:0:0:0:
56,275,193423,1,0,0:0:0:0:
56,271,193531,1,8,0:0:0:0:
50,277,193640,1,0,0:0:0:0:
51,269,193857,1,8,0:0:0:0:
51,269,194075,1,8,0:0:0:0:
56,275,194183,1,0,0:0:0:0:
52,274,194727,1,0,0:0:0:0:
54,268,194944,1,8,0:0:0:0:
56,270,195053,1,0,0:0:0:0:
63,268,195162,1,0,0:0:0:0:
60,267,195379,1,8,0:0:0:0:
60,261,195596,1,0,0:0:0:0:
67,255,195705,1,8,0:0:0:0:
67,246,195814,1,8,0:0:0:0:
66,253,195923,1,0,0:0:0:0:
66,246,196031,1,8,0:0:0:0:
66,250,196249,1,0,0:0:0:0:
67,244,196357,1,8,0:0:0:0:
65,241,196683,1,8,0:0:0:0:
65,244,197010,1,0,0:0:0:0:
66,247,197336,1,0,0:0:0:0:
65,244,197553,1,8,0:0:0:0:
65,244,197662,1,0,0:0:0:0:
65,244,197770,1,0,0:0:0:0:
65,244,198205,1,0,0:0:0:0:
65,244,198423,1,8,0:0:0:0:
65,244,198531,1,0,0:0:0:0:
65,244,198749,1,8,0:0:0:0:
87,29,198857,1,4,0:0:0:0:
61,253,199075,1,0,0:0:0:0:
62,254,199292,1,8,0:0:0:0:
60,260,199510,1,8,0:0:0:0:
68,269,199618,1,0,0:0:0:0:
65,268,199836,1,8,0:0:0:0:
62,254,200053,1,8,0:0:0:0:
60,260,200162,1,8,0:0:0:0:
56,276,200379,1,0,0:0:0:0:
65,268,200488,1,8,0:0:0:0:
65,268,200596,1,0,0:0:0:0:
62,269,200705,1,0,0:0:0:0:
63,264,200814,1,8,0:0:0:0:
60,261,201031,1,8,0:0:0:0:
60,269,201357,1,0,0:0:0:0:
70,260,201575,1,0,0:0:0:0:
72,253,201683,1,8,0:0:0:0:
69,253,201901,1,8,0:0:0:0:
73,263,202010,1,0,0:0:0:0:
76,258,202118,1,8,0:0:0:0:
76,258,202227,1,8,0:0:0:0:
70,260,202336,1,0,0:0:0:0:
66,258,202770,1,8,0:0:0:0:
66,263,202988,1,0,0:0:0:0:
71,250,203314,1,8,0:0:0:0:
66,258,203423,1,0,0:0:0:0:
69,254,203640,1,8,0:0:0:0:
70,262,203857,1,0,0:0:0:0:
71,255,203966,1,8,0:0:0:0:
70,258,204075,1,0,0:0:0:0:
69,254,204292,1,8,0:0:0:0:
70,262,204510,1,8,0:0:0:0:
70,262,204618,1,0,0:0:0:0:
69,261,204944,1,0,0:0:0:0:
70,262,205162,1,0,0:0:0:0:
82,245,205379,1,8,0:0:0:0:
81,256,205488,1,0,0:0:0:0:
90,10,205814,1,12,0:0:0:0:
89,273,206031,1,0,0:0:0:0:
99,261,206140,1,8,0:0:0:0:
95,250,206249,1,8,0:0:0:0:
91,254,206466,1,8,0:0:0:0:
91,266,206683,1,0,0:0:0:0:
98,253,206792,1,8,0:0:0:0:
95,271,206901,1,0,0:0:0:0:
95,271,207010,1,0,0:0:0:0:
99,258,207118,1,8,0:0:0:0:
89,258,207444,1,8,0:0:0:0:
92,266,207553,1,0,0:0:0:0:
100,257,207662,1,8,0:0:0:0:
101,257,207770,1,8,0:0:0:0:
89,258,207988,1,8,0:0:0:0:
95,264,208096,1,0,0:0:0:0:
92,266,208314,1,0,0:0:0:0:
100,257,208423,1,0,0:0:0:0:
100,258,208531,1,0,0:0:0:0:
99,270,208640,1,8,0:0:0:0:
101,266,208857,1,8,0:0:0:0:
89,280,209075,1,0,0:0:0:0:
102,274,209183,1,0,0:0:0:0:
106,250,209292,1,8,0:0:0:0:
103,257,209727,1,8,0:0:0:0:
102,274,209944,1,0,0:0:0:0:
97,272,210162,1,0,0:0:0:0:
108,259,210270,1,8,0:0:0:0:
103,257,210488,1,0,0:0:0:0:
103,260,210596,1,8,0:0:0:0:
97,255,210923,1,8,0:0:0:0:
93,267,211140,1,0,0:0:0:0:
99,252,211249,1,8,0:0:0:0:
85,258,211466,1,8,0:0:0:0:
89,273,211683,1,0,0:0:0:0:
84,275,211901,1,0,0:0:0:0:
81,249,212010,1,8,0:0:0:0:
85,258,212118,1,8,0:0:0:0:
84,250,212336,1,8,0:0:0:0:
83,254,212444,1,0,0:0:0:0:
74,254,212662,1,8,0:0:0:0:
98,2,212770,1,4,0:0:0:0:
69,278,213096,1,0,0:0:0:0:
80,261,213205,1,8,0:0:0:0:
84,265,213423,1,0,0:0:0:0:
84,258,213749,1,8,0:0:0:0:
84,265,213966,1,0,0:0:0:0:
90,251,214075,1,8,0:0:0:0:
60,268,214292,1,0,0:0:0:0:
59,263,214401,1,8,0:0:0:0:
65,273,214510,1,0,0:0:0:0:
66,273,214618,1,0,0:0:0:0:
66,259,214727,1,8,0:0:0:0:
60,257,214944,1,8,0:0:0:0:
60,268,215053,1,0,0:0:0:0:
65,273,215270,1,0,0:0:0:0:
66,263,215379,1,8,0:0:0:0:
66,265,215488,1,0,0:0:0:0:
66,259,215596,1,8,0:0:0:0:
74,256,215814,1,8,0:0:0:0:
54,268,216031,1,0,0:0:0:0:
54,268,216140,1,0,0:0:0:0:
96,34,216249,1,12,0:0:0:0:
46,256,216683,1,8,0:0:0:0:
54,274,216901,1,0,0:0:0:0:
48,269,217118,1,8,0:0:0:0:
51,278,217227,1,0,0:0:0:0:
39,283,217444,1,0,0:0:0:0:
54,274,217553,1,8,0:0:0:0:
48,269,217770,1,8,0:0:0:0:
48,269,217879,1,8,0:0:0:0:
51,278,217988,1,0,0:0:0:0:
54,267,218205,1,0,0:0:0:0:
76,268,218423,1,8,0:0:0:0:
113,268,218640,1,8,0:0:0:0:
126,263,218749,1,8,0:0:0:0:
154,273,218857,1,0,0:0:0:0:
173,283,218966,1,0,0:0:0:0:
168,271,219075,1,8,0:0:0:0:
179,207,219292,1,8,0:0:0:0:
195,241,219401,1,0,0:0:0:0:
256,192,219510,12,0,221901,0:0:0:0:
