osu file format v14

[General]
AudioFilename: audio.mp3
AudioLeadIn: 0
PreviewTime: 163974
Countdown: 1
SampleSet: Normal
StackLeniency: 0.7
Mode: 1
LetterboxInBreaks: 0
WidescreenStoryboard: 0

[Editor]
DistanceSpacing: 0.4
BeatDivisor: 6
GridSize: 32
TimelineZoom: 1

[Metadata]
Title:Overtime
TitleUnicode:Overtime
Artist:KNOWER
ArtistUnicode:KNOWER
Creator:Zetera
Version:Overtime Oni
Source:osu!
Tags:featured artist Life electronic jazz fusion genevieve artadi louis cole onitime English
BeatmapID:1938084
BeatmapSetID:927890

[Difficulty]
HPDrainRate:6.5
CircleSize:2
OverallDifficulty:6
ApproachRate:10
SliderMultiplier:1.4
SliderTickRate:1

[Events]
//Background and Video events
0,0,"BG_OT.png",0,0
//Break Periods
//Storyboard Layer 0 (Background)
//Storyboard Layer 1 (Fail)
//Storyboard Layer 2 (Pass)
//Storyboard Layer 3 (Foreground)
//Storyboard Layer 4 (Overlay)
//Storyboard Sound Samples

[TimingPoints]
605,434.782608695652,4,1,0,70,1,0
28431,-95.2380952380952,4,1,0,70,0,1
42344,-90.9090909090909,4,1,0,70,0,0
44083,-68.9655172413793,4,1,0,70,0,0
45170,-96.1538461538461,4,1,0,70,0,0
45496,-98.0392156862745,4,1,0,70,0,0
45822,-100,4,1,0,70,0,0
57996,-95.2380952380952,4,1,0,70,0,0
59083,-98.0392156862745,4,1,0,70,0,0
59409,-99.009900990099,4,1,0,70,0,0
59735,-100,4,1,0,70,0,0
72017,-25,4,1,0,70,0,0
73648,-100,4,1,0,70,0,0
86691,-99.009900990099,4,1,0,70,0,0
86800,-98.0392156862745,4,1,0,70,0,0
86909,-97.0873786407767,4,1,0,70,0,0
87018,-96.1538461538461,4,1,0,70,0,0
87126,-95.2380952380952,4,1,0,70,0,0
87235,-94.3396226415094,4,1,0,70,0,0
87344,-93.4579439252336,4,1,0,70,0,0
87561,-93.4579439252336,4,1,0,70,0,1
99735,-93.4579439252336,4,1,0,70,0,0
100387,-92.5925925925926,4,1,0,70,0,0
100496,-94.3396226415094,4,1,0,70,0,0
100604,-95.2380952380952,4,1,0,70,0,0
100822,-97.0873786407767,4,1,0,70,0,0
101039,-99.009900990099,4,1,0,70,0,0
101255,-101.010101010101,4,1,0,70,0,0
101474,-93.4579439252336,4,1,0,70,0,1
115387,-90.9090909090909,4,1,0,70,0,0
117126,-68.9655172413793,4,1,0,70,0,0
118213,-96.1538461538461,4,1,0,70,0,0
118539,-98.0392156862745,4,1,0,70,0,0
118865,-100,4,1,0,70,0,0
131039,-95.2380952380952,4,1,0,70,0,0
132126,-98.0392156862745,4,1,0,70,0,0
132452,-99.009900990099,4,1,0,70,0,0
132778,-100,4,1,0,70,0,0
153648,-99.009900990099,4,1,0,70,0,0
160604,-101.010101010101,4,1,0,70,0,0
160931,-103.092783505155,4,1,0,70,0,0
161257,-105.263157894737,4,1,0,70,0,0
161583,-107.52688172043,4,1,0,70,0,0
161909,-109.89010989011,4,1,0,70,0,0
162344,-112.359550561798,4,1,0,70,0,0
162452,-111.111111111111,4,1,0,70,0,0
162561,-109.89010989011,4,1,0,70,0,0
162670,-108.695652173913,4,1,0,70,0,0
162778,-107.52688172043,4,1,0,70,0,0
162887,-106.382978723404,4,1,0,70,0,0
162996,-105.263157894737,4,1,0,70,0,0
163104,-104.166666666667,4,1,0,70,0,0
163213,-103.092783505155,4,1,0,70,0,0
163322,-102.040816326531,4,1,0,70,0,0
163431,-101.010101010101,4,1,0,70,0,0
163539,-99.009900990099,4,1,0,70,0,0
163648,-97.0873786407767,4,1,0,70,0,0
163757,-95.2380952380952,4,1,0,70,0,0
163865,-93.4579439252336,4,1,0,70,0,0
163974,-91.743119266055,4,1,0,70,0,0
164083,-90.0900900900901,4,1,0,70,0,1
189952,-90.9090909090909,4,1,0,70,0,1
190061,-91.743119266055,4,1,0,70,0,1
190170,-92.5925925925926,4,1,0,70,0,0
190387,-94.3396226415094,4,1,0,70,0,0
190604,-96.1538461538461,4,1,0,70,0,0
191474,-94.3396226415094,4,1,0,70,0,0
191583,-92.5925925925926,4,1,0,70,0,0
191691,-91.743119266055,4,1,0,70,0,0
191800,-90.9090909090909,4,1,0,70,0,0
191909,-90.0900900900901,4,1,0,70,0,1
219409,-90.0900900900901,4,1,0,70,0,0

[HitObjects]
256,192,605,5,0,0:0:0:0:
256,192,931,1,8,0:0:0:0:
256,192,1039,1,0,0:0:0:0:
256,192,1257,1,8,0:0:0:0:
256,192,1474,1,0,0:0:0:0:
256,192,1583,1,8,0:0:0:0:
256,192,1909,1,8,0:0:0:0:
256,192,2126,1,0,0:0:0:0:
256,192,2235,1,8,0:0:0:0:
256,192,2344,1,0,0:0:0:0:
256,192,2561,1,8,0:0:0:0:
256,192,2778,1,0,0:0:0:0:
256,192,2887,1,8,0:0:0:0:
256,192,3213,1,0,0:0:0:0:
256,192,3431,1,8,0:0:0:0:
256,192,3648,1,0,0:0:0:0:
256,192,3757,1,8,0:0:0:0:
256,192,4083,1,0,0:0:0:0:
256,192,4300,1,8,0:0:0:0:
256,192,4409,1,0,0:0:0:0:
256,192,4735,1,8,0:0:0:0:
256,192,4952,1,0,0:0:0:0:
256,192,5061,1,8,0:0:0:0:
256,192,5387,1,0,0:0:0:0:
256,192,5604,1,0,0:0:0:0:
256,192,5713,1,8,0:0:0:0:
256,192,5822,1,0,0:0:0:0:
256,192,6039,1,8,0:0:0:0:
256,192,6257,1,0,0:0:0:0:
256,192,6365,1,8,0:0:0:0:
256,192,6691,1,0,0:0:0:0:
256,192,6909,1,8,0:0:0:0:
256,192,7126,1,0,0:0:0:0:
256,192,7235,1,8,0:0:0:0:
256,192,7561,1,0,0:0:0:0:
256,192,7887,1,8,0:0:0:0:
256,192,7996,1,0,0:0:0:0:
256,192,8213,1,8,0:0:0:0:
256,192,8431,1,0,0:0:0:0:
256,192,8539,1,8,0:0:0:0:
256,192,8865,1,0,0:0:0:0:
256,192,9083,1,0,0:0:0:0:
256,192,9191,1,8,0:0:0:0:
256,192,9300,1,0,0:0:0:0:
256,192,9518,1,8,0:0:0:0:
256,192,9735,1,0,0:0:0:0:
256,192,9844,1,8,0:0:0:0:
256,192,10170,1,0,0:0:0:0:
256,192,10387,1,8,0:0:0:0:
256,192,10604,1,0,0:0:0:0:
256,192,10713,1,8,0:0:0:0:
256,192,11039,1,0,0:0:0:0:
256,192,11257,1,8,0:0:0:0:
256,192,11365,1,0,0:0:0:0:
256,192,11691,1,8,0:0:0:0:
256,192,11909,1,0,0:0:0:0:
256,192,12018,1,8,0:0:0:0:
256,192,12235,1,8,0:0:0:0:
256,192,12344,1,0,0:0:0:0:
256,192,12561,1,0,0:0:0:0:
256,192,12670,1,8,0:0:0:0:
256,192,12778,1,0,0:0:0:0:
256,192,12996,1,8,0:0:0:0:
256,192,13213,1,0,0:0:0:0:
256,192,13322,1,8,0:0:0:0:
256,192,13648,1,0,0:0:0:0:
256,192,13865,1,8,0:0:0:0:
256,192,14083,1,0,0:0:0:0:
256,192,14191,1,8,0:0:0:0:
256,192,14300,1,0,0:0:0:0:
256,192,14518,1,4,0:0:0:0:
256,192,14735,1,0,0:0:0:0:
256,192,14844,1,8,0:0:0:0:
256,192,14952,1,0,0:0:0:0:
256,192,15170,1,8,0:0:0:0:
256,192,15387,1,0,0:0:0:0:
256,192,15496,1,8,0:0:0:0:
256,192,15604,1,0,0:0:0:0:
256,192,15822,1,8,0:0:0:0:
256,192,16039,1,0,0:0:0:0:
256,192,16148,1,8,0:0:0:0:
256,192,16257,1,0,0:0:0:0:
256,192,16474,1,8,0:0:0:0:
256,192,16691,1,0,0:0:0:0:
256,192,16800,1,8,0:0:0:0:
256,192,16909,1,0,0:0:0:0:
256,192,17126,1,8,0:0:0:0:
256,192,17235,1,0,0:0:0:0:
256,192,17344,1,8,0:0:0:0:
256,192,17561,1,0,0:0:0:0:
256,192,17670,1,8,0:0:0:0:
256,192,17887,1,0,0:0:0:0:
256,192,17996,1,8,0:0:0:0:
256,192,18213,1,0,0:0:0:0:
256,192,18322,1,8,0:0:0:0:
256,192,18431,1,0,0:0:0:0:
256,192,18648,1,8,0:0:0:0:
256,192,18865,1,0,0:0:0:0:
256,192,18974,1,8,0:0:0:0:
256,192,19083,1,0,0:0:0:0:
256,192,19300,1,8,0:0:0:0:
256,192,19518,1,0,0:0:0:0:
256,192,19626,1,8,0:0:0:0:
256,192,19735,1,0,0:0:0:0:
256,192,19952,1,8,0:0:0:0:
256,192,20170,1,0,0:0:0:0:
256,192,20278,1,8,0:0:0:0:
256,192,20496,1,8,0:0:0:0:
256,192,20604,1,0,0:0:0:0:
256,192,20713,1,8,0:0:0:0:
256,192,20822,1,0,0:0:0:0:
256,192,21039,1,8,0:0:0:0:
256,192,21148,1,0,0:0:0:0:
256,192,21365,1,0,0:0:0:0:
256,192,21474,1,8,0:0:0:0:
256,192,21691,1,0,0:0:0:0:
256,192,21800,1,8,0:0:0:0:
256,192,21909,1,0,0:0:0:0:
256,192,22126,1,8,0:0:0:0:
256,192,22344,1,0,0:0:0:0:
256,192,22452,1,8,0:0:0:0:
256,192,22561,1,0,0:0:0:0:
256,192,22778,1,8,0:0:0:0:
256,192,22996,1,0,0:0:0:0:
256,192,23104,1,8,0:0:0:0:
256,192,23213,1,0,0:0:0:0:
256,192,23431,1,8,0:0:0:0:
256,192,23648,1,0,0:0:0:0:
256,192,23757,1,8,0:0:0:0:
256,192,23974,1,8,0:0:0:0:
256,192,24083,1,0,0:0:0:0:
256,192,24191,1,0,0:0:0:0:
256,192,24300,1,8,0:0:0:0:
256,192,24518,1,0,0:0:0:0:
256,192,24626,1,8,0:0:0:0:
256,192,24844,1,0,0:0:0:0:
256,192,24952,1,8,0:0:0:0:
256,192,25170,1,0,0:0:0:0:
256,192,25278,1,8,0:0:0:0:
256,192,25387,1,0,0:0:0:0:
256,192,25604,1,8,0:0:0:0:
256,192,25822,1,0,0:0:0:0:
256,192,25931,1,8,0:0:0:0:
256,192,26039,1,0,0:0:0:0:
256,192,26257,1,8,0:0:0:0:
256,192,26365,1,0,0:0:0:0:
256,192,26474,1,0,0:0:0:0:
256,192,26583,1,8,0:0:0:0:
256,192,26800,1,0,0:0:0:0:
256,192,26909,1,8,0:0:0:0:
256,192,27126,1,0,0:0:0:0:
256,192,27235,1,8,0:0:0:0:
256,192,27344,1,0,0:0:0:0:
256,192,28431,1,4,0:0:0:0:
256,192,28648,1,8,0:0:0:0:
256,192,28757,1,8,0:0:0:0:
256,192,28865,1,0,0:0:0:0:
256,192,28974,1,8,0:0:0:0:
256,192,29083,1,0,0:0:0:0:
256,192,29300,1,8,0:0:0:0:
256,192,29409,1,0,0:0:0:0:
256,192,29518,1,8,0:0:0:0:
256,192,29626,1,8,0:0:0:0:
256,192,29735,1,0,0:0:0:0:
256,192,29952,1,8,0:0:0:0:
256,192,30061,1,0,0:0:0:0:
256,192,30170,1,0,0:0:0:0:
256,192,30278,1,8,0:0:0:0:
256,192,30387,1,0,0:0:0:0:
256,192,30604,1,8,0:0:0:0:
256,192,30713,1,8,0:0:0:0:
256,192,30822,1,0,0:0:0:0:
256,192,30931,1,0,0:0:0:0:
256,192,31039,1,0,0:0:0:0:
256,192,31257,1,8,0:0:0:0:
256,192,31365,1,8,0:0:0:0:
256,192,31474,1,0,0:0:0:0:
256,192,31583,1,8,0:0:0:0:
256,192,31691,1,0,0:0:0:0:
256,192,31800,1,0,0:0:0:0:
256,192,31909,1,8,0:0:0:0:
256,192,32126,1,0,0:0:0:0:
256,192,32235,1,8,0:0:0:0:
256,192,32344,1,0,0:0:0:0:
256,192,32452,1,0,0:0:0:0:
256,192,32561,1,8,0:0:0:0:
256,192,32778,1,0,0:0:0:0:
256,192,32887,1,8,0:0:0:0:
256,192,32996,1,8,0:0:0:0:
256,192,33104,1,0,0:0:0:0:
256,192,33213,1,8,0:0:0:0:
256,192,33431,1,0,0:0:0:0:
256,192,33539,1,8,0:0:0:0:
256,192,33648,1,0,0:0:0:0:
256,192,33757,1,8,0:0:0:0:
256,192,33865,1,8,0:0:0:0:
256,192,34083,1,0,0:0:0:0:
256,192,34191,1,8,0:0:0:0:
256,192,34300,1,8,0:0:0:0:
256,192,34409,1,0,0:0:0:0:
256,192,34518,1,0,0:0:0:0:
256,192,34626,1,0,0:0:0:0:
256,192,34735,1,8,0:0:0:0:
256,192,34844,1,8,0:0:0:0:
256,192,34952,1,0,0:0:0:0:
256,192,35061,1,8,0:0:0:0:
256,192,35170,1,0,0:0:0:0:
256,192,35387,1,4,0:0:0:0:
256,192,35604,1,8,0:0:0:0:
256,192,35713,1,8,0:0:0:0:
256,192,35822,1,0,0:0:0:0:
256,192,35931,1,8,0:0:0:0:
256,192,36039,1,0,0:0:0:0:
256,192,36257,1,8,0:0:0:0:
256,192,36365,1,0,0:0:0:0:
256,192,36474,1,8,0:0:0:0:
256,192,36583,1,8,0:0:0:0:
256,192,36691,1,0,0:0:0:0:
256,192,36909,1,8,0:0:0:0:
256,192,37018,1,0,0:0:0:0:
256,192,37126,1,0,0:0:0:0:
256,192,37235,1,8,0:0:0:0:
256,192,37344,1,0,0:0:0:0:
256,192,37561,1,8,0:0:0:0:
256,192,37670,1,8,0:0:0:0:
256,192,37778,1,0,0:0:0:0:
256,192,37887,1,8,0:0:0:0:
256,192,37996,1,0,0:0:0:0:
256,192,38104,1,0,0:0:0:0:
256,192,38213,1,8,0:0:0:0:
256,192,38431,1,0,0:0:0:0:
256,192,38539,1,8,0:0:0:0:
256,192,38648,1,0,0:0:0:0:
256,192,38757,1,0,0:0:0:0:
256,192,38865,1,8,0:0:0:0:
256,192,39083,1,0,0:0:0:0:
256,192,39191,1,8,0:0:0:0:
256,192,39300,1,8,0:0:0:0:
256,192,39409,1,0,0:0:0:0:
256,192,39518,1,8,0:0:0:0:
256,192,39735,1,0,0:0:0:0:
256,192,39844,1,0,0:0:0:0:
256,192,39952,1,8,0:0:0:0:
256,192,40061,1,0,0:0:0:0:
256,192,40170,1,8,0:0:0:0:
256,192,40387,1,0,0:0:0:0:
256,192,40496,1,8,0:0:0:0:
256,192,40604,1,0,0:0:0:0:
256,192,40713,1,8,0:0:0:0:
256,192,40822,1,8,0:0:0:0:
256,192,41039,1,0,0:0:0:0:
256,192,41148,1,8,0:0:0:0:
256,192,41257,1,8,0:0:0:0:
256,192,41365,1,0,0:0:0:0:
256,192,41474,1,0,0:0:0:0:
256,192,41583,1,0,0:0:0:0:
256,192,41691,1,8,0:0:0:0:
256,192,41800,1,8,0:0:0:0:
256,192,41909,1,0,0:0:0:0:
256,192,42018,1,8,0:0:0:0:
256,192,42126,1,8,0:0:0:0:
256,192,42344,1,4,0:0:0:0:
256,192,44083,1,12,0:0:0:0:
256,192,45170,1,0,0:0:0:0:
256,192,45496,1,0,0:0:0:0:
256,192,45822,1,12,0:0:0:0:
256,192,46039,1,8,0:0:0:0:
256,192,46148,1,8,0:0:0:0:
256,192,46257,1,0,0:0:0:0:
256,192,46474,1,0,0:0:0:0:
256,192,46691,1,8,0:0:0:0:
256,192,46800,1,8,0:0:0:0:
256,192,47018,1,0,0:0:0:0:
256,192,47126,1,8,0:0:0:0:
256,192,47235,1,8,0:0:0:0:
256,192,47452,1,8,0:0:0:0:
256,192,47561,1,0,0:0:0:0:
256,192,47778,1,0,0:0:0:0:
256,192,47996,1,8,0:0:0:0:
256,192,48104,1,0,0:0:0:0:
256,192,48213,1,8,0:0:0:0:
256,192,48431,1,8,0:0:0:0:
256,192,48539,1,8,0:0:0:0:
256,192,48757,1,0,0:0:0:0:
256,192,48865,1,8,0:0:0:0:
256,192,49083,1,0,0:0:0:0:
256,192,49191,1,0,0:0:0:0:
256,192,49300,1,8,0:0:0:0:
256,192,49518,1,8,0:0:0:0:
256,192,49626,1,8,0:0:0:0:
256,192,49735,1,0,0:0:0:0:
256,192,49844,1,8,0:0:0:0:
256,192,49952,1,0,0:0:0:0:
256,192,50170,1,0,0:0:0:0:
256,192,50278,1,0,0:0:0:0:
256,192,50496,1,8,0:0:0:0:
256,192,50604,1,0,0:0:0:0:
256,192,50822,1,0,0:0:0:0:
256,192,50931,1,8,0:0:0:0:
256,192,51039,1,0,0:0:0:0:
256,192,51148,1,0,0:0:0:0:
256,192,51257,1,8,0:0:0:0:
256,192,51474,1,0,0:0:0:0:
256,192,51583,1,8,0:0:0:0:
256,192,51800,1,0,0:0:0:0:
256,192,51909,1,8,0:0:0:0:
256,192,52018,1,8,0:0:0:0:
256,192,52126,1,0,0:0:0:0:
256,192,52235,1,8,0:0:0:0:
256,192,52452,1,8,0:0:0:0:
256,192,52561,1,0,0:0:0:0:
256,192,52670,1,8,0:0:0:0:
256,192,52778,1,0,0:0:0:0:
256,192,52996,1,8,0:0:0:0:
256,192,53104,1,8,0:0:0:0:
256,192,53213,1,0,0:0:0:0:
256,192,53431,1,0,0:0:0:0:
256,192,53648,1,0,0:0:0:0:
256,192,53757,1,0,0:0:0:0:
256,192,53865,1,8,0:0:0:0:
256,192,53974,1,8,0:0:0:0:
256,192,54083,1,0,0:0:0:0:
256,192,54300,1,8,0:0:0:0:
256,192,54409,1,8,0:0:0:0:
256,192,54518,1,0,0:0:0:0:
256,192,54735,1,8,0:0:0:0:
256,192,54844,1,0,0:0:0:0:
256,192,54952,1,8,0:0:0:0:
256,192,55061,1,8,0:0:0:0:
256,192,55278,1,0,0:0:0:0:
256,192,55387,1,8,0:0:0:0:
256,192,55496,1,0,0:0:0:0:
256,192,55604,1,0,0:0:0:0:
256,192,55713,1,8,0:0:0:0:
256,192,55822,1,8,0:0:0:0:
256,192,56039,1,0,0:0:0:0:
256,192,56257,1,8,0:0:0:0:
256,192,56474,1,8,0:0:0:0:
256,192,56583,1,8,0:0:0:0:
256,192,56691,1,0,0:0:0:0:
256,192,56800,1,8,0:0:0:0:
256,192,56909,1,0,0:0:0:0:
256,192,57126,1,0,0:0:0:0:
256,192,57235,1,0,0:0:0:0:
256,192,57344,1,8,0:0:0:0:
256,192,57452,1,0,0:0:0:0:
256,192,57670,1,8,0:0:0:0:
256,192,57778,1,0,0:0:0:0:
256,192,57996,1,12,0:0:0:0:
256,192,59083,1,0,0:0:0:0:
256,192,59409,1,0,0:0:0:0:
256,192,59735,1,12,0:0:0:0:
256,192,59952,1,8,0:0:0:0:
256,192,60061,1,8,0:0:0:0:
256,192,60170,1,0,0:0:0:0:
256,192,60278,1,8,0:0:0:0:
256,192,60387,1,0,0:0:0:0:
256,192,60604,1,0,0:0:0:0:
256,192,60713,1,0,0:0:0:0:
256,192,60822,1,8,0:0:0:0:
256,192,60931,1,8,0:0:0:0:
256,192,61039,1,0,0:0:0:0:
256,192,61257,1,0,0:0:0:0:
256,192,61365,1,8,0:0:0:0:
256,192,61474,1,0,0:0:0:0:
256,192,61691,1,8,0:0:0:0:
256,192,61800,1,8,0:0:0:0:
256,192,61909,1,0,0:0:0:0:
256,192,62018,1,8,0:0:0:0:
256,192,62126,1,0,0:0:0:0:
256,192,62235,1,0,0:0:0:0:
256,192,62344,1,8,0:0:0:0:
256,192,62452,1,0,0:0:0:0:
256,192,62561,1,0,0:0:0:0:
256,192,62670,1,8,0:0:0:0:
256,192,62887,1,0,0:0:0:0:
256,192,62996,1,8,0:0:0:0:
256,192,63213,1,0,0:0:0:0:
256,192,63431,1,8,0:0:0:0:
256,192,63539,1,8,0:0:0:0:
256,192,63648,1,0,0:0:0:0:
256,192,63757,1,8,0:0:0:0:
256,192,63865,1,0,0:0:0:0:
256,192,64083,1,8,0:0:0:0:
256,192,64191,1,8,0:0:0:0:
256,192,64300,1,0,0:0:0:0:
256,192,64409,1,8,0:0:0:0:
256,192,64518,1,0,0:0:0:0:
256,192,64626,1,0,0:0:0:0:
256,192,64735,1,8,0:0:0:0:
256,192,64952,1,0,0:0:0:0:
256,192,65170,1,8,0:0:0:0:
256,192,65278,1,8,0:0:0:0:
256,192,65387,1,0,0:0:0:0:
256,192,65496,1,8,0:0:0:0:
256,192,65604,1,0,0:0:0:0:
256,192,65713,1,0,0:0:0:0:
256,192,65822,1,8,0:0:0:0:
256,192,65931,1,0,0:0:0:0:
256,192,66039,1,0,0:0:0:0:
256,192,66148,1,8,0:0:0:0:
256,192,66257,1,0,0:0:0:0:
256,192,66474,1,8,0:0:0:0:
256,192,66691,1,0,0:0:0:0:
256,192,66800,1,8,0:0:0:0:
256,192,66909,1,0,0:0:0:0:
256,192,67126,1,8,0:0:0:0:
256,192,67235,1,0,0:0:0:0:
256,192,67344,1,8,0:0:0:0:
256,192,67452,1,0,0:0:0:0:
256,192,67561,1,8,0:0:0:0:
256,192,67670,1,8,0:0:0:0:
256,192,67778,1,0,0:0:0:0:
256,192,67887,1,8,0:0:0:0:
256,192,67996,1,8,0:0:0:0:
256,192,68213,1,8,0:0:0:0:
256,192,68322,1,8,0:0:0:0:
256,192,68431,1,0,0:0:0:0:
256,192,68648,1,8,0:0:0:0:
256,192,68757,1,8,0:0:0:0:
256,192,68865,1,0,0:0:0:0:
256,192,68974,1,8,0:0:0:0:
256,192,69083,1,0,0:0:0:0:
256,192,69191,1,0,0:0:0:0:
256,192,69300,1,8,0:0:0:0:
256,192,69409,1,0,0:0:0:0:
256,192,69518,1,8,0:0:0:0:
256,192,69735,1,0,0:0:0:0:
256,192,69844,1,0,0:0:0:0:
256,192,69952,1,8,0:0:0:0:
256,192,70061,1,8,0:0:0:0:
256,192,70170,1,0,0:0:0:0:
256,192,70387,1,8,0:0:0:0:
256,192,70496,1,8,0:0:0:0:
256,192,70604,1,0,0:0:0:0:
256,192,70713,1,8,0:0:0:0:
256,192,70822,1,0,0:0:0:0:
256,192,71039,1,0,0:0:0:0:
256,192,71148,1,0,0:0:0:0:
256,192,71257,1,8,0:0:0:0:
256,192,71365,1,0,0:0:0:0:
256,192,71583,1,0,0:0:0:0:
256,192,71691,1,8,0:0:0:0:
256,192,71909,1,4,0:0:0:0:
256,192,72018,12,0,73431,0:0:0:0:
256,192,73648,5,0,0:0:0:0:
256,192,73757,1,0,0:0:0:0:
256,192,73865,1,8,0:0:0:0:
256,192,73938,1,8,0:0:0:0:
256,192,74010,1,8,0:0:0:0:
256,192,74083,1,0,0:0:0:0:
256,192,74300,1,8,0:0:0:0:
256,192,74518,1,0,0:0:0:0:
256,192,74626,1,8,0:0:0:0:
256,192,74952,1,8,0:0:0:0:
256,192,75170,1,0,0:0:0:0:
256,192,75278,1,8,0:0:0:0:
256,192,75387,1,0,0:0:0:0:
256,192,75604,1,8,0:0:0:0:
256,192,75822,1,0,0:0:0:0:
256,192,75931,1,8,0:0:0:0:
256,192,76039,1,0,0:0:0:0:
256,192,76257,1,0,0:0:0:0:
256,192,76365,1,0,0:0:0:0:
256,192,76474,1,8,0:0:0:0:
256,192,76583,1,0,0:0:0:0:
256,192,76691,1,8,0:0:0:0:
256,192,76800,1,8,0:0:0:0:
256,192,76909,1,0,0:0:0:0:
256,192,77126,1,8,0:0:0:0:
256,192,77344,1,0,0:0:0:0:
256,192,77452,1,8,0:0:0:0:
256,192,77778,1,8,0:0:0:0:
256,192,77996,1,0,0:0:0:0:
256,192,78104,1,8,0:0:0:0:
256,192,78322,1,8,0:0:0:0:
256,192,78431,1,0,0:0:0:0:
256,192,78648,1,0,0:0:0:0:
256,192,78757,1,8,0:0:0:0:
256,192,78865,1,0,0:0:0:0:
256,192,79083,1,8,0:0:0:0:
256,192,79300,1,0,0:0:0:0:
256,192,79409,1,8,0:0:0:0:
256,192,79626,1,8,0:0:0:0:
256,192,79735,1,0,0:0:0:0:
256,192,79844,1,8,0:0:0:0:
256,192,79952,1,0,0:0:0:0:
256,192,80170,1,8,0:0:0:0:
256,192,80278,1,0,0:0:0:0:
256,192,80604,1,4,0:0:0:0:
256,192,80822,1,8,0:0:0:0:
256,192,80931,1,8,0:0:0:0:
256,192,81039,1,0,0:0:0:0:
256,192,81257,1,8,0:0:0:0:
256,192,81474,1,0,0:0:0:0:
256,192,81583,1,8,0:0:0:0:
256,192,81800,1,8,0:0:0:0:
256,192,81909,1,0,0:0:0:0:
256,192,82126,1,8,0:0:0:0:
256,192,82235,1,8,0:0:0:0:
256,192,82344,1,0,0:0:0:0:
256,192,82561,1,8,0:0:0:0:
256,192,82778,1,0,0:0:0:0:
256,192,82887,1,8,0:0:0:0:
256,192,82996,1,8,0:0:0:0:
256,192,83213,1,0,0:0:0:0:
256,192,83431,1,8,0:0:0:0:
256,192,83648,1,0,0:0:0:0:
256,192,83757,1,8,0:0:0:0:
256,192,83974,1,8,0:0:0:0:
256,192,84083,1,0,0:0:0:0:
256,192,84300,1,8,0:0:0:0:
256,192,84409,1,8,0:0:0:0:
256,192,84518,1,0,0:0:0:0:
256,192,84735,1,8,0:0:0:0:
256,192,84952,1,0,0:0:0:0:
256,192,85061,1,8,0:0:0:0:
256,192,85278,1,8,0:0:0:0:
256,192,85387,1,0,0:0:0:0:
256,192,85604,1,8,0:0:0:0:
256,192,85713,1,8,0:0:0:0:
256,192,85822,1,0,0:0:0:0:
256,192,85931,1,0,0:0:0:0:
256,192,86039,1,8,0:0:0:0:
256,192,86148,1,0,0:0:0:0:
256,192,86257,1,0,0:0:0:0:
256,192,86365,1,0,0:0:0:0:
256,192,86474,1,8,0:0:0:0:
256,192,86583,1,8,0:0:0:0:
256,192,86691,1,0,0:0:0:0:
256,192,86800,1,0,0:0:0:0:
256,192,86909,1,8,0:0:0:0:
256,192,87018,1,0,0:0:0:0:
256,192,87126,1,8,0:0:0:0:
256,192,87235,1,0,0:0:0:0:
256,192,87344,1,8,0:0:0:0:
256,192,87561,1,4,0:0:0:0:
256,192,87778,1,8,0:0:0:0:
256,192,87887,1,8,0:0:0:0:
256,192,87996,1,0,0:0:0:0:
256,192,88104,1,8,0:0:0:0:
256,192,88213,1,0,0:0:0:0:
256,192,88431,1,8,0:0:0:0:
256,192,88539,1,0,0:0:0:0:
256,192,88648,1,8,0:0:0:0:
256,192,88757,1,8,0:0:0:0:
256,192,88865,1,0,0:0:0:0:
256,192,89083,1,8,0:0:0:0:
256,192,89191,1,0,0:0:0:0:
256,192,89300,1,0,0:0:0:0:
256,192,89409,1,8,0:0:0:0:
256,192,89518,1,0,0:0:0:0:
256,192,89735,1,8,0:0:0:0:
256,192,89844,1,8,0:0:0:0:
256,192,89952,1,0,0:0:0:0:
256,192,90061,1,0,0:0:0:0:
256,192,90170,1,0,0:0:0:0:
256,192,90387,1,8,0:0:0:0:
256,192,90496,1,8,0:0:0:0:
256,192,90604,1,0,0:0:0:0:
256,192,90713,1,8,0:0:0:0:
256,192,90822,1,0,0:0:0:0:
256,192,90931,1,0,0:0:0:0:
256,192,91039,1,8,0:0:0:0:
256,192,91257,1,0,0:0:0:0:
256,192,91365,1,8,0:0:0:0:
256,192,91474,1,0,0:0:0:0:
256,192,91583,1,0,0:0:0:0:
256,192,91691,1,8,0:0:0:0:
256,192,91909,1,0,0:0:0:0:
256,192,92018,1,8,0:0:0:0:
256,192,92126,1,8,0:0:0:0:
256,192,92235,1,0,0:0:0:0:
256,192,92344,1,8,0:0:0:0:
256,192,92561,1,0,0:0:0:0:
256,192,92670,1,8,0:0:0:0:
256,192,92778,1,0,0:0:0:0:
256,192,92887,1,8,0:0:0:0:
256,192,92996,1,8,0:0:0:0:
256,192,93213,1,0,0:0:0:0:
256,192,93322,1,8,0:0:0:0:
256,192,93431,1,8,0:0:0:0:
256,192,93539,1,0,0:0:0:0:
256,192,93648,1,0,0:0:0:0:
256,192,93757,1,0,0:0:0:0:
256,192,93865,1,8,0:0:0:0:
256,192,93974,1,8,0:0:0:0:
256,192,94083,1,0,0:0:0:0:
256,192,94191,1,8,0:0:0:0:
256,192,94300,1,0,0:0:0:0:
256,192,94518,1,4,0:0:0:0:
256,192,94735,1,8,0:0:0:0:
256,192,94844,1,8,0:0:0:0:
256,192,94952,1,0,0:0:0:0:
256,192,95061,1,8,0:0:0:0:
256,192,95170,1,0,0:0:0:0:
256,192,95387,1,8,0:0:0:0:
256,192,95496,1,0,0:0:0:0:
256,192,95604,1,8,0:0:0:0:
256,192,95713,1,8,0:0:0:0:
256,192,95822,1,0,0:0:0:0:
256,192,96039,1,8,0:0:0:0:
256,192,96148,1,8,0:0:0:0:
256,192,96257,1,0,0:0:0:0:
256,192,96365,1,0,0:0:0:0:
256,192,96474,1,8,0:0:0:0:
256,192,96583,1,8,0:0:0:0:
256,192,96691,1,8,0:0:0:0:
256,192,96800,1,0,0:0:0:0:
256,192,96909,1,8,0:0:0:0:
256,192,97018,1,8,0:0:0:0:
256,192,97126,1,0,0:0:0:0:
256,192,97344,1,8,0:0:0:0:
256,192,97452,1,8,0:0:0:0:
256,192,97561,1,0,0:0:0:0:
256,192,97670,1,8,0:0:0:0:
256,192,97778,1,0,0:0:0:0:
256,192,97887,1,0,0:0:0:0:
256,192,97996,1,8,0:0:0:0:
256,192,98213,1,0,0:0:0:0:
256,192,98322,1,8,0:0:0:0:
256,192,98431,1,0,0:0:0:0:
256,192,98539,1,0,0:0:0:0:
256,192,98648,1,8,0:0:0:0:
256,192,98865,1,0,0:0:0:0:
256,192,98974,1,8,0:0:0:0:
256,192,99083,1,8,0:0:0:0:
256,192,99191,1,0,0:0:0:0:
256,192,99300,1,8,0:0:0:0:
256,192,99518,1,8,0:0:0:0:
256,192,99626,1,8,0:0:0:0:
256,192,99735,1,0,0:0:0:0:
256,192,99952,1,0,0:0:0:0:
256,192,100170,1,8,0:0:0:0:
256,192,100387,1,8,0:0:0:0:
256,192,100496,1,8,0:0:0:0:
256,192,100604,1,0,0:0:0:0:
256,192,100822,1,8,0:0:0:0:
256,192,101039,1,0,0:0:0:0:
256,192,101257,1,8,0:0:0:0:
256,192,101474,1,4,0:0:0:0:
256,192,101691,1,8,0:0:0:0:
256,192,101800,1,8,0:0:0:0:
256,192,101909,1,0,0:0:0:0:
256,192,102018,1,0,0:0:0:0:
256,192,102126,1,8,0:0:0:0:
256,192,102344,1,0,0:0:0:0:
256,192,102452,1,8,0:0:0:0:
256,192,102561,1,0,0:0:0:0:
256,192,102670,1,0,0:0:0:0:
256,192,102778,1,8,0:0:0:0:
256,192,102887,1,8,0:0:0:0:
256,192,102996,1,0,0:0:0:0:
256,192,103104,1,8,0:0:0:0:
256,192,103213,1,0,0:0:0:0:
256,192,103431,1,8,0:0:0:0:
256,192,103539,1,8,0:0:0:0:
256,192,103648,1,0,0:0:0:0:
256,192,103757,1,8,0:0:0:0:
256,192,103865,1,8,0:0:0:0:
256,192,103974,1,0,0:0:0:0:
256,192,104083,1,0,0:0:0:0:
256,192,104191,1,0,0:0:0:0:
256,192,104300,1,8,0:0:0:0:
256,192,104409,1,8,0:0:0:0:
256,192,104518,1,0,0:0:0:0:
256,192,104626,1,8,0:0:0:0:
256,192,104735,1,8,0:0:0:0:
256,192,104844,1,8,0:0:0:0:
256,192,104952,1,0,0:0:0:0:
256,192,105170,1,0,0:0:0:0:
256,192,105278,1,8,0:0:0:0:
256,192,105387,1,0,0:0:0:0:
256,192,105496,1,0,0:0:0:0:
256,192,105604,1,8,0:0:0:0:
256,192,105713,1,0,0:0:0:0:
256,192,105822,1,0,0:0:0:0:
256,192,105931,1,8,0:0:0:0:
256,192,106039,1,0,0:0:0:0:
256,192,106148,1,0,0:0:0:0:
256,192,106257,1,8,0:0:0:0:
256,192,106365,1,8,0:0:0:0:
256,192,106474,1,0,0:0:0:0:
256,192,106583,1,8,0:0:0:0:
256,192,106691,1,8,0:0:0:0:
256,192,106800,1,8,0:0:0:0:
256,192,106909,1,0,0:0:0:0:
256,192,107126,1,8,0:0:0:0:
256,192,107235,1,0,0:0:0:0:
256,192,107344,1,8,0:0:0:0:
256,192,107452,1,8,0:0:0:0:
256,192,107561,1,0,0:0:0:0:
256,192,107670,1,0,0:0:0:0:
256,192,107778,1,8,0:0:0:0:
256,192,107887,1,8,0:0:0:0:
256,192,107996,1,0,0:0:0:0:
256,192,108104,1,8,0:0:0:0:
256,192,108322,1,8,0:0:0:0:
256,192,108431,1,0,0:0:0:0:
256,192,108648,1,0,0:0:0:0:
256,192,108757,1,8,0:0:0:0:
256,192,108865,1,0,0:0:0:0:
256,192,109083,1,0,0:0:0:0:
256,192,109191,1,8,0:0:0:0:
256,192,109300,1,8,0:0:0:0:
256,192,109409,1,0,0:0:0:0:
256,192,109626,1,0,0:0:0:0:
256,192,109735,1,8,0:0:0:0:
256,192,109952,1,0,0:0:0:0:
256,192,110061,1,8,0:0:0:0:
256,192,110170,1,0,0:0:0:0:
256,192,110387,1,8,0:0:0:0:
256,192,110496,1,8,0:0:0:0:
256,192,110604,1,0,0:0:0:0:
256,192,110713,1,8,0:0:0:0:
256,192,110822,1,0,0:0:0:0:
256,192,110931,1,0,0:0:0:0:
256,192,111039,1,8,0:0:0:0:
256,192,111148,1,0,0:0:0:0:
256,192,111257,1,0,0:0:0:0:
256,192,111474,1,8,0:0:0:0:
256,192,111583,1,0,0:0:0:0:
256,192,111691,1,8,0:0:0:0:
256,192,111800,1,8,0:0:0:0:
256,192,111909,1,0,0:0:0:0:
256,192,112126,1,8,0:0:0:0:
256,192,112235,1,8,0:0:0:0:
256,192,112344,1,0,0:0:0:0:
256,192,112452,1,8,0:0:0:0:
256,192,112561,1,0,0:0:0:0:
256,192,112670,1,8,0:0:0:0:
256,192,112778,1,8,0:0:0:0:
256,192,112887,1,8,0:0:0:0:
256,192,112996,1,0,0:0:0:0:
256,192,113104,1,8,0:0:0:0:
256,192,113213,1,0,0:0:0:0:
256,192,113431,1,8,0:0:0:0:
256,192,113539,1,8,0:0:0:0:
256,192,113648,1,0,0:0:0:0:
256,192,113865,1,8,0:0:0:0:
256,192,113974,1,8,0:0:0:0:
256,192,114083,1,0,0:0:0:0:
256,192,114191,1,8,0:0:0:0:
256,192,114300,1,0,0:0:0:0:
256,192,114409,1,8,0:0:0:0:
256,192,114518,1,8,0:0:0:0:
256,192,114626,1,8,0:0:0:0:
256,192,114735,1,0,0:0:0:0:
256,192,114844,1,0,0:0:0:0:
256,192,114952,1,8,0:0:0:0:
256,192,115061,1,0,0:0:0:0:
256,192,115170,1,8,0:0:0:0:
256,192,115387,1,4,0:0:0:0:
256,192,117126,1,12,0:0:0:0:
256,192,118213,1,0,0:0:0:0:
256,192,118539,1,0,0:0:0:0:
256,192,118865,1,12,0:0:0:0:
256,192,119083,1,8,0:0:0:0:
256,192,119191,1,8,0:0:0:0:
256,192,119300,1,0,0:0:0:0:
256,192,119409,1,8,0:0:0:0:
256,192,119518,1,0,0:0:0:0:
256,192,119626,1,8,0:0:0:0:
256,192,119735,1,0,0:0:0:0:
256,192,119844,1,0,0:0:0:0:
256,192,120061,1,8,0:0:0:0:
256,192,120170,1,0,0:0:0:0:
256,192,120387,1,0,0:0:0:0:
256,192,120496,1,8,0:0:0:0:
256,192,120604,1,0,0:0:0:0:
256,192,120713,1,0,0:0:0:0:
256,192,120822,1,8,0:0:0:0:
256,192,121039,1,0,0:0:0:0:
256,192,121148,1,8,0:0:0:0:
256,192,121257,1,0,0:0:0:0:
256,192,121365,1,0,0:0:0:0:
256,192,121474,1,8,0:0:0:0:
256,192,121583,1,8,0:0:0:0:
256,192,121800,1,0,0:0:0:0:
256,192,121909,1,8,0:0:0:0:
256,192,122126,1,0,0:0:0:0:
256,192,122235,1,8,0:0:0:0:
256,192,122344,1,0,0:0:0:0:
256,192,122561,1,8,0:0:0:0:
256,192,122670,1,8,0:0:0:0:
256,192,122778,1,0,0:0:0:0:
256,192,122887,1,8,0:0:0:0:
256,192,122996,1,0,0:0:0:0:
256,192,123104,1,8,0:0:0:0:
256,192,123213,1,0,0:0:0:0:
256,192,123322,1,0,0:0:0:0:
256,192,123539,1,8,0:0:0:0:
256,192,123648,1,0,0:0:0:0:
256,192,123865,1,0,0:0:0:0:
256,192,123974,1,8,0:0:0:0:
256,192,124083,1,8,0:0:0:0:
256,192,124191,1,0,0:0:0:0:
256,192,124300,1,8,0:0:0:0:
256,192,124518,1,0,0:0:0:0:
256,192,124626,1,8,0:0:0:0:
256,192,124735,1,0,0:0:0:0:
256,192,124844,1,0,0:0:0:0:
256,192,124952,1,8,0:0:0:0:
256,192,125061,1,8,0:0:0:0:
256,192,125170,1,0,0:0:0:0:
256,192,125278,1,8,0:0:0:0:
256,192,125387,1,0,0:0:0:0:
256,192,125604,1,8,0:0:0:0:
256,192,125713,1,8,0:0:0:0:
256,192,125822,1,0,0:0:0:0:
256,192,126039,1,8,0:0:0:0:
256,192,126148,1,8,0:0:0:0:
256,192,126257,1,0,0:0:0:0:
256,192,126365,1,8,0:0:0:0:
256,192,126474,1,0,0:0:0:0:
256,192,126583,1,8,0:0:0:0:
256,192,126691,1,0,0:0:0:0:
256,192,126800,1,0,0:0:0:0:
256,192,127018,1,8,0:0:0:0:
256,192,127126,1,0,0:0:0:0:
256,192,127344,1,0,0:0:0:0:
256,192,127452,1,8,0:0:0:0:
256,192,127561,1,8,0:0:0:0:
256,192,127670,1,0,0:0:0:0:
256,192,127778,1,0,0:0:0:0:
256,192,127996,1,8,0:0:0:0:
256,192,128104,1,8,0:0:0:0:
256,192,128213,1,0,0:0:0:0:
256,192,128431,1,8,0:0:0:0:
256,192,128539,1,8,0:0:0:0:
256,192,128757,1,8,0:0:0:0:
256,192,128865,1,0,0:0:0:0:
256,192,129083,1,8,0:0:0:0:
256,192,129300,1,0,0:0:0:0:
256,192,129518,1,8,0:0:0:0:
256,192,129626,1,8,0:0:0:0:
256,192,129735,1,0,0:0:0:0:
256,192,129844,1,8,0:0:0:0:
256,192,129952,1,0,0:0:0:0:
256,192,130061,1,8,0:0:0:0:
256,192,130170,1,0,0:0:0:0:
256,192,130278,1,0,0:0:0:0:
256,192,130387,1,8,0:0:0:0:
256,192,130496,1,0,0:0:0:0:
256,192,130604,1,8,0:0:0:0:
256,192,130713,1,8,0:0:0:0:
256,192,130822,1,0,0:0:0:0:
256,192,131039,1,12,0:0:0:0:
256,192,132126,1,0,0:0:0:0:
256,192,132452,1,0,0:0:0:0:
256,192,132778,1,12,0:0:0:0:
256,192,132996,1,8,0:0:0:0:
256,192,133104,1,8,0:0:0:0:
256,192,133213,1,0,0:0:0:0:
256,192,133322,1,8,0:0:0:0:
256,192,133431,1,0,0:0:0:0:
256,192,133539,1,8,0:0:0:0:
256,192,133648,1,0,0:0:0:0:
256,192,133757,1,8,0:0:0:0:
256,192,133865,1,8,0:0:0:0:
256,192,133974,1,8,0:0:0:0:
256,192,134083,1,0,0:0:0:0:
256,192,134300,1,8,0:0:0:0:
256,192,134409,1,8,0:0:0:0:
256,192,134518,1,0,0:0:0:0:
256,192,134735,1,8,0:0:0:0:
256,192,134844,1,8,0:0:0:0:
256,192,134952,1,0,0:0:0:0:
256,192,135061,1,8,0:0:0:0:
256,192,135170,1,0,0:0:0:0:
256,192,135278,1,0,0:0:0:0:
256,192,135387,1,8,0:0:0:0:
256,192,135496,1,0,0:0:0:0:
256,192,135604,1,0,0:0:0:0:
256,192,135713,1,8,0:0:0:0:
256,192,135822,1,8,0:0:0:0:
256,192,136039,1,0,0:0:0:0:
256,192,136148,1,8,0:0:0:0:
256,192,136257,1,0,0:0:0:0:
256,192,136474,1,8,0:0:0:0:
256,192,136583,1,8,0:0:0:0:
256,192,136691,1,0,0:0:0:0:
256,192,136800,1,8,0:0:0:0:
256,192,136909,1,0,0:0:0:0:
256,192,137018,1,8,0:0:0:0:
256,192,137126,1,0,0:0:0:0:
256,192,137235,1,8,0:0:0:0:
256,192,137344,1,8,0:0:0:0:
256,192,137452,1,8,0:0:0:0:
256,192,137561,1,0,0:0:0:0:
256,192,137778,1,8,0:0:0:0:
256,192,137887,1,8,0:0:0:0:
256,192,137996,1,0,0:0:0:0:
256,192,138213,1,8,0:0:0:0:
256,192,138322,1,0,0:0:0:0:
256,192,138431,1,8,0:0:0:0:
256,192,138539,1,8,0:0:0:0:
256,192,138648,1,0,0:0:0:0:
256,192,138757,1,0,0:0:0:0:
256,192,138865,1,8,0:0:0:0:
256,192,138974,1,0,0:0:0:0:
256,192,139083,1,0,0:0:0:0:
256,192,139191,1,0,0:0:0:0:
256,192,139300,1,8,0:0:0:0:
256,192,139518,1,0,0:0:0:0:
256,192,139626,1,8,0:0:0:0:
256,192,139735,1,0,0:0:0:0:
256,192,139952,1,8,0:0:0:0:
256,192,140061,1,8,0:0:0:0:
256,192,140170,1,0,0:0:0:0:
256,192,140278,1,8,0:0:0:0:
256,192,140387,1,0,0:0:0:0:
256,192,140496,1,8,0:0:0:0:
256,192,140604,1,0,0:0:0:0:
256,192,140713,1,8,0:0:0:0:
256,192,140822,1,8,0:0:0:0:
256,192,140931,1,8,0:0:0:0:
256,192,141039,1,0,0:0:0:0:
256,192,141148,1,8,0:0:0:0:
256,192,141365,1,8,0:0:0:0:
256,192,141474,1,0,0:0:0:0:
256,192,141691,1,8,0:0:0:0:
256,192,141800,1,0,0:0:0:0:
256,192,141909,1,0,0:0:0:0:
256,192,142018,1,8,0:0:0:0:
256,192,142126,1,8,0:0:0:0:
256,192,142235,1,0,0:0:0:0:
256,192,142344,1,8,0:0:0:0:
256,192,142452,1,0,0:0:0:0:
256,192,142561,1,0,0:0:0:0:
256,192,142670,1,0,0:0:0:0:
256,192,142778,1,8,0:0:0:0:
256,192,142887,1,0,0:0:0:0:
256,192,142996,1,8,0:0:0:0:
256,192,143104,1,8,0:0:0:0:
256,192,143213,1,0,0:0:0:0:
256,192,143431,1,8,0:0:0:0:
256,192,143539,1,8,0:0:0:0:
256,192,143648,1,0,0:0:0:0:
256,192,143757,1,8,0:0:0:0:
256,192,143865,1,0,0:0:0:0:
256,192,143974,1,8,0:0:0:0:
256,192,144083,1,0,0:0:0:0:
256,192,144191,1,8,0:0:0:0:
256,192,144300,1,8,0:0:0:0:
256,192,144409,1,8,0:0:0:0:
256,192,144518,1,0,0:0:0:0:
256,192,144626,1,0,0:0:0:0:
256,192,144735,1,8,0:0:0:0:
256,192,144844,1,8,0:0:0:0:
256,192,144952,1,4,0:0:0:0:
256,192,145170,1,8,0:0:0:0:
256,192,145387,1,0,0:0:0:0:
256,192,145604,1,8,0:0:0:0:
256,192,145822,1,8,0:0:0:0:
256,192,145931,1,8,0:0:0:0:
256,192,146039,1,0,0:0:0:0:
256,192,146148,1,8,0:0:0:0:
256,192,146257,1,0,0:0:0:0:
256,192,146365,1,0,0:0:0:0:
256,192,146474,1,8,0:0:0:0:
256,192,146583,1,8,0:0:0:0:
256,192,146691,1,0,0:0:0:0:
256,192,146800,1,0,0:0:0:0:
256,192,146909,1,8,0:0:0:0:
256,192,146981,1,8,0:0:0:0:
256,192,147054,1,8,0:0:0:0:
256,192,147126,1,0,0:0:0:0:
256,192,147344,1,8,0:0:0:0:
256,192,147561,1,0,0:0:0:0:
256,192,147670,1,8,0:0:0:0:
256,192,147996,1,8,0:0:0:0:
256,192,148213,1,0,0:0:0:0:
256,192,148322,1,8,0:0:0:0:
256,192,148431,1,0,0:0:0:0:
256,192,148648,1,8,0:0:0:0:
256,192,148865,1,0,0:0:0:0:
256,192,148974,1,8,0:0:0:0:
256,192,149083,1,0,0:0:0:0:
256,192,149300,1,0,0:0:0:0:
256,192,149409,1,0,0:0:0:0:
256,192,149518,1,8,0:0:0:0:
256,192,149626,1,0,0:0:0:0:
256,192,149735,1,8,0:0:0:0:
256,192,149844,1,8,0:0:0:0:
256,192,149952,1,0,0:0:0:0:
256,192,150170,1,8,0:0:0:0:
256,192,150387,1,0,0:0:0:0:
256,192,150496,1,8,0:0:0:0:
256,192,150822,1,8,0:0:0:0:
256,192,151039,1,0,0:0:0:0:
256,192,151148,1,8,0:0:0:0:
256,192,151365,1,8,0:0:0:0:
256,192,151474,1,0,0:0:0:0:
256,192,151691,1,0,0:0:0:0:
256,192,151800,1,8,0:0:0:0:
256,192,151909,1,0,0:0:0:0:
256,192,152126,1,8,0:0:0:0:
256,192,152344,1,0,0:0:0:0:
256,192,152452,1,8,0:0:0:0:
256,192,152670,1,8,0:0:0:0:
256,192,152778,1,0,0:0:0:0:
256,192,152887,1,8,0:0:0:0:
256,192,152996,1,0,0:0:0:0:
256,192,153213,1,8,0:0:0:0:
256,192,153322,1,0,0:0:0:0:
256,192,153648,1,4,0:0:0:0:
256,192,153865,1,8,0:0:0:0:
256,192,153974,1,8,0:0:0:0:
256,192,154083,1,0,0:0:0:0:
256,192,154300,1,8,0:0:0:0:
256,192,154518,1,0,0:0:0:0:
256,192,154626,1,8,0:0:0:0:
256,192,154844,1,8,0:0:0:0:
256,192,154952,1,0,0:0:0:0:
256,192,155170,1,8,0:0:0:0:
256,192,155278,1,8,0:0:0:0:
256,192,155387,1,0,0:0:0:0:
256,192,155604,1,8,0:0:0:0:
256,192,155822,1,0,0:0:0:0:
256,192,155931,1,8,0:0:0:0:
256,192,156039,1,8,0:0:0:0:
256,192,156257,1,0,0:0:0:0:
256,192,156474,1,8,0:0:0:0:
256,192,156691,1,0,0:0:0:0:
256,192,156800,1,8,0:0:0:0:
256,192,157018,1,8,0:0:0:0:
256,192,157126,1,0,0:0:0:0:
256,192,157344,1,8,0:0:0:0:
256,192,157452,1,8,0:0:0:0:
256,192,157561,1,0,0:0:0:0:
256,192,157778,1,8,0:0:0:0:
256,192,157996,1,0,0:0:0:0:
256,192,158104,1,8,0:0:0:0:
256,192,158322,1,8,0:0:0:0:
256,192,158431,1,0,0:0:0:0:
256,192,158648,1,8,0:0:0:0:
256,192,158757,1,8,0:0:0:0:
256,192,158974,1,0,0:0:0:0:
256,192,159083,1,8,0:0:0:0:
256,192,159300,1,0,0:0:0:0:
256,192,159409,1,0,0:0:0:0:
256,192,159518,1,0,0:0:0:0:
256,192,159735,1,8,0:0:0:0:
256,192,159952,1,0,0:0:0:0:
256,192,160170,1,8,0:0:0:0:
256,192,160387,1,0,0:0:0:0:
256,192,160604,1,8,0:0:0:0:
256,192,160931,1,8,0:0:0:0:
256,192,161257,1,8,0:0:0:0:
256,192,161583,1,8,0:0:0:0:
256,192,161909,1,8,0:0:0:0:
256,192,162344,1,8,0:0:0:0:
256,192,162452,1,0,0:0:0:0:
256,192,162561,1,0,0:0:0:0:
256,192,162670,1,8,0:0:0:0:
256,192,162778,1,8,0:0:0:0:
256,192,162887,1,0,0:0:0:0:
256,192,162996,1,0,0:0:0:0:
256,192,163104,1,8,0:0:0:0:
256,192,163213,1,0,0:0:0:0:
256,192,163322,1,8,0:0:0:0:
256,192,163431,1,0,0:0:0:0:
256,192,163539,1,0,0:0:0:0:
256,192,163648,1,8,0:0:0:0:
256,192,163757,1,8,0:0:0:0:
256,192,163865,1,0,0:0:0:0:
256,192,163974,1,8,0:0:0:0:
256,192,164083,1,4,0:0:0:0:
256,192,164300,1,8,0:0:0:0:
256,192,164409,1,8,0:0:0:0:
256,192,164518,1,0,0:0:0:0:
256,192,164626,1,8,0:0:0:0:
256,192,164735,1,0,0:0:0:0:
256,192,164952,1,8,0:0:0:0:
256,192,165061,1,0,0:0:0:0:
256,192,165170,1,8,0:0:0:0:
256,192,165278,1,8,0:0:0:0:
256,192,165387,1,0,0:0:0:0:
256,192,165604,1,8,0:0:0:0:
256,192,165713,1,0,0:0:0:0:
256,192,165822,1,0,0:0:0:0:
256,192,165931,1,8,0:0:0:0:
256,192,166039,1,0,0:0:0:0:
256,192,166257,1,8,0:0:0:0:
256,192,166365,1,8,0:0:0:0:
256,192,166474,1,0,0:0:0:0:
256,192,166583,1,0,0:0:0:0:
256,192,166691,1,0,0:0:0:0:
256,192,166909,1,8,0:0:0:0:
256,192,167018,1,8,0:0:0:0:
256,192,167126,1,0,0:0:0:0:
256,192,167235,1,8,0:0:0:0:
256,192,167344,1,0,0:0:0:0:
256,192,167452,1,0,0:0:0:0:
256,192,167561,1,8,0:0:0:0:
256,192,167778,1,0,0:0:0:0:
256,192,167887,1,8,0:0:0:0:
256,192,167996,1,0,0:0:0:0:
256,192,168104,1,0,0:0:0:0:
256,192,168213,1,8,0:0:0:0:
256,192,168431,1,0,0:0:0:0:
256,192,168539,1,8,0:0:0:0:
256,192,168648,1,8,0:0:0:0:
256,192,168757,1,0,0:0:0:0:
256,192,168865,1,8,0:0:0:0:
256,192,169083,1,0,0:0:0:0:
256,192,169191,1,8,0:0:0:0:
256,192,169300,1,0,0:0:0:0:
256,192,169409,1,8,0:0:0:0:
256,192,169518,1,8,0:0:0:0:
256,192,169735,1,0,0:0:0:0:
256,192,169844,1,8,0:0:0:0:
256,192,169952,1,8,0:0:0:0:
256,192,170061,1,0,0:0:0:0:
256,192,170170,1,0,0:0:0:0:
256,192,170278,1,0,0:0:0:0:
256,192,170387,1,8,0:0:0:0:
256,192,170496,1,8,0:0:0:0:
256,192,170604,1,0,0:0:0:0:
256,192,170713,1,8,0:0:0:0:
256,192,170822,1,0,0:0:0:0:
256,192,171039,1,4,0:0:0:0:
256,192,171257,1,8,0:0:0:0:
256,192,171365,1,8,0:0:0:0:
256,192,171474,1,0,0:0:0:0:
256,192,171583,1,8,0:0:0:0:
256,192,171691,1,0,0:0:0:0:
256,192,171909,1,8,0:0:0:0:
256,192,172018,1,0,0:0:0:0:
256,192,172126,1,8,0:0:0:0:
256,192,172235,1,8,0:0:0:0:
256,192,172344,1,0,0:0:0:0:
256,192,172561,1,8,0:0:0:0:
256,192,172670,1,8,0:0:0:0:
256,192,172778,1,0,0:0:0:0:
256,192,172887,1,0,0:0:0:0:
256,192,172996,1,8,0:0:0:0:
256,192,173104,1,8,0:0:0:0:
256,192,173213,1,8,0:0:0:0:
256,192,173322,1,0,0:0:0:0:
256,192,173431,1,8,0:0:0:0:
256,192,173539,1,8,0:0:0:0:
256,192,173648,1,0,0:0:0:0:
256,192,173757,1,0,0:0:0:0:
256,192,173865,1,8,0:0:0:0:
256,192,173974,1,8,0:0:0:0:
256,192,174083,1,0,0:0:0:0:
256,192,174191,1,8,0:0:0:0:
256,192,174300,1,0,0:0:0:0:
256,192,174409,1,0,0:0:0:0:
256,192,174518,1,8,0:0:0:0:
256,192,174735,1,0,0:0:0:0:
256,192,174844,1,8,0:0:0:0:
256,192,174952,1,0,0:0:0:0:
256,192,175061,1,0,0:0:0:0:
256,192,175170,1,8,0:0:0:0:
256,192,175387,1,0,0:0:0:0:
256,192,175496,1,8,0:0:0:0:
256,192,175604,1,8,0:0:0:0:
256,192,175713,1,0,0:0:0:0:
256,192,175822,1,8,0:0:0:0:
256,192,176039,1,0,0:0:0:0:
256,192,176148,1,8,0:0:0:0:
256,192,176257,1,0,0:0:0:0:
256,192,176365,1,8,0:0:0:0:
256,192,176474,1,8,0:0:0:0:
256,192,176691,1,0,0:0:0:0:
256,192,176800,1,8,0:0:0:0:
256,192,176909,1,8,0:0:0:0:
256,192,177018,1,0,0:0:0:0:
256,192,177126,1,0,0:0:0:0:
256,192,177235,1,0,0:0:0:0:
256,192,177344,1,8,0:0:0:0:
256,192,177452,1,8,0:0:0:0:
256,192,177561,1,0,0:0:0:0:
256,192,177670,1,8,0:0:0:0:
256,192,177778,1,8,0:0:0:0:
256,192,177887,1,8,0:0:0:0:
256,192,177996,1,4,0:0:0:0:
256,192,178213,1,8,0:0:0:0:
256,192,178322,1,8,0:0:0:0:
256,192,178539,1,0,0:0:0:0:
256,192,178648,1,8,0:0:0:0:
256,192,178865,1,8,0:0:0:0:
256,192,178974,1,8,0:0:0:0:
256,192,179191,1,0,0:0:0:0:
256,192,179300,1,8,0:0:0:0:
256,192,179409,1,8,0:0:0:0:
256,192,179518,1,0,0:0:0:0:
256,192,179626,1,8,0:0:0:0:
256,192,179735,1,0,0:0:0:0:
256,192,179952,1,8,0:0:0:0:
256,192,180061,1,8,0:0:0:0:
256,192,180170,1,0,0:0:0:0:
256,192,180278,1,8,0:0:0:0:
256,192,180387,1,0,0:0:0:0:
256,192,180496,1,0,0:0:0:0:
256,192,180604,1,8,0:0:0:0:
256,192,180713,1,0,0:0:0:0:
256,192,180822,1,8,0:0:0:0:
256,192,180931,1,8,0:0:0:0:
256,192,181039,1,0,0:0:0:0:
256,192,181148,1,8,0:0:0:0:
256,192,181257,1,0,0:0:0:0:
256,192,181365,1,0,0:0:0:0:
256,192,181474,1,8,0:0:0:0:
256,192,181583,1,8,0:0:0:0:
256,192,181800,1,0,0:0:0:0:
256,192,181909,1,8,0:0:0:0:
256,192,182126,1,8,0:0:0:0:
256,192,182235,1,8,0:0:0:0:
256,192,182344,1,0,0:0:0:0:
256,192,182452,1,8,0:0:0:0:
256,192,182670,1,0,0:0:0:0:
256,192,182778,1,8,0:0:0:0:
256,192,182887,1,8,0:0:0:0:
256,192,182996,1,0,0:0:0:0:
256,192,183104,1,8,0:0:0:0:
256,192,183213,1,0,0:0:0:0:
256,192,183322,1,0,0:0:0:0:
256,192,183431,1,8,0:0:0:0:
256,192,183648,1,0,0:0:0:0:
256,192,183757,1,8,0:0:0:0:
256,192,183865,1,0,0:0:0:0:
256,192,183974,1,0,0:0:0:0:
256,192,184083,1,8,0:0:0:0:
256,192,184191,1,0,0:0:0:0:
256,192,184300,1,8,0:0:0:0:
256,192,184409,1,8,0:0:0:0:
256,192,184518,1,0,0:0:0:0:
256,192,184626,1,8,0:0:0:0:
256,192,184735,1,0,0:0:0:0:
256,192,184844,1,0,0:0:0:0:
256,192,184952,1,8,0:0:0:0:
256,192,185170,1,0,0:0:0:0:
256,192,185278,1,8,0:0:0:0:
256,192,185387,1,0,0:0:0:0:
256,192,185604,1,8,0:0:0:0:
256,192,185822,1,0,0:0:0:0:
256,192,185931,1,8,0:0:0:0:
256,192,186039,1,0,0:0:0:0:
256,192,186257,1,8,0:0:0:0:
256,192,186474,1,0,0:0:0:0:
256,192,186583,1,8,0:0:0:0:
256,192,186691,1,0,0:0:0:0:
256,192,186800,1,0,0:0:0:0:
256,192,186909,1,8,0:0:0:0:
256,192,187018,1,8,0:0:0:0:
256,192,187126,1,0,0:0:0:0:
256,192,187235,1,8,0:0:0:0:
256,192,187344,1,0,0:0:0:0:
256,192,187452,1,0,0:0:0:0:
256,192,187561,1,0,0:0:0:0:
256,192,187670,1,0,0:0:0:0:
256,192,187778,1,8,0:0:0:0:
256,192,187887,1,8,0:0:0:0:
256,192,187996,1,0,0:0:0:0:
256,192,188104,1,8,0:0:0:0:
256,192,188213,1,0,0:0:0:0:
256,192,188322,1,0,0:0:0:0:
256,192,188431,1,8,0:0:0:0:
256,192,188648,1,0,0:0:0:0:
256,192,188757,1,8,0:0:0:0:
256,192,188865,1,8,0:0:0:0:
256,192,188974,1,0,0:0:0:0:
256,192,189083,1,8,0:0:0:0:
256,192,189300,1,0,0:0:0:0:
256,192,189409,1,8,0:0:0:0:
256,192,189518,1,0,0:0:0:0:
256,192,189626,1,0,0:0:0:0:
256,192,189735,1,8,0:0:0:0:
256,192,189952,1,0,0:0:0:0:
256,192,190061,1,8,0:0:0:0:
256,192,190170,1,0,0:0:0:0:
256,192,190387,1,8,0:0:0:0:
256,192,190604,1,0,0:0:0:0:
256,192,190822,1,8,0:0:0:0:
256,192,190931,1,8,0:0:0:0:
256,192,191039,1,0,0:0:0:0:
256,192,191148,1,0,0:0:0:0:
256,192,191257,1,8,0:0:0:0:
256,192,191474,1,8,0:0:0:0:
256,192,191583,1,8,0:0:0:0:
256,192,191691,1,8,0:0:0:0:
256,192,191800,1,8,0:0:0:0:
256,192,191909,1,4,0:0:0:0:
256,192,192126,1,8,0:0:0:0:
256,192,192235,1,8,0:0:0:0:
256,192,192344,1,0,0:0:0:0:
256,192,192452,1,0,0:0:0:0:
256,192,192561,1,8,0:0:0:0:
256,192,192670,1,0,0:0:0:0:
256,192,192778,1,0,0:0:0:0:
256,192,192996,1,8,0:0:0:0:
256,192,193104,1,8,0:0:0:0:
256,192,193213,1,0,0:0:0:0:
256,192,193322,1,8,0:0:0:0:
256,192,193431,1,8,0:0:0:0:
256,192,193539,1,8,0:0:0:0:
256,192,193648,1,0,0:0:0:0:
256,192,193865,1,8,0:0:0:0:
256,192,193974,1,8,0:0:0:0:
256,192,194083,1,0,0:0:0:0:
256,192,194191,1,8,0:0:0:0:
256,192,194300,1,0,0:0:0:0:
256,192,194518,1,0,0:0:0:0:
256,192,194626,1,8,0:0:0:0:
256,192,194735,1,0,0:0:0:0:
256,192,194844,1,8,0:0:0:0:
256,192,194952,1,0,0:0:0:0:
256,192,195061,1,0,0:0:0:0:
256,192,195170,1,8,0:0:0:0:
256,192,195278,1,8,0:0:0:0:
256,192,195387,1,0,0:0:0:0:
256,192,195604,1,8,0:0:0:0:
256,192,195713,1,0,0:0:0:0:
256,192,195822,1,8,0:0:0:0:
256,192,195931,1,8,0:0:0:0:
256,192,196039,1,0,0:0:0:0:
256,192,196257,1,8,0:0:0:0:
256,192,196365,1,0,0:0:0:0:
256,192,196583,1,0,0:0:0:0:
256,192,196691,1,8,0:0:0:0:
256,192,196800,1,0,0:0:0:0:
256,192,196909,1,0,0:0:0:0:
256,192,197018,1,8,0:0:0:0:
256,192,197126,1,0,0:0:0:0:
256,192,197344,1,8,0:0:0:0:
256,192,197452,1,8,0:0:0:0:
256,192,197561,1,0,0:0:0:0:
256,192,197670,1,8,0:0:0:0:
256,192,197778,1,0,0:0:0:0:
256,192,197887,1,0,0:0:0:0:
256,192,197996,1,8,0:0:0:0:
256,192,198104,1,0,0:0:0:0:
256,192,198213,1,8,0:0:0:0:
256,192,198322,1,8,0:0:0:0:
256,192,198431,1,0,0:0:0:0:
256,192,198539,1,8,0:0:0:0:
256,192,198648,1,0,0:0:0:0:
256,192,198757,1,0,0:0:0:0:
256,192,198865,1,12,0:0:0:0:
256,192,199083,1,0,0:0:0:0:
256,192,199191,1,8,0:0:0:0:
256,192,199300,1,8,0:0:0:0:
256,192,199409,1,0,0:0:0:0:
256,192,199518,1,8,0:0:0:0:
256,192,199626,1,8,0:0:0:0:
256,192,199735,1,0,0:0:0:0:
256,192,199844,1,8,0:0:0:0:
256,192,200061,1,8,0:0:0:0:
256,192,200170,1,0,0:0:0:0:
256,192,200278,1,0,0:0:0:0:
256,192,200387,1,8,0:0:0:0:
256,192,200496,1,8,0:0:0:0:
256,192,200604,1,0,0:0:0:0:
256,192,200822,1,8,0:0:0:0:
256,192,200931,1,8,0:0:0:0:
256,192,201039,1,0,0:0:0:0:
256,192,201148,1,8,0:0:0:0:
256,192,201257,1,0,0:0:0:0:
256,192,201365,1,0,0:0:0:0:
256,192,201474,1,8,0:0:0:0:
256,192,201583,1,0,0:0:0:0:
256,192,201691,1,8,0:0:0:0:
256,192,201800,1,8,0:0:0:0:
256,192,201909,1,0,0:0:0:0:
256,192,202018,1,8,0:0:0:0:
256,192,202126,1,0,0:0:0:0:
256,192,202235,1,0,0:0:0:0:
256,192,202344,1,8,0:0:0:0:
256,192,202561,1,0,0:0:0:0:
256,192,202670,1,8,0:0:0:0:
256,192,202778,1,0,0:0:0:0:
256,192,202887,1,0,0:0:0:0:
256,192,202996,1,8,0:0:0:0:
256,192,203213,1,0,0:0:0:0:
256,192,203322,1,8,0:0:0:0:
256,192,203539,1,0,0:0:0:0:
256,192,203648,1,8,0:0:0:0:
256,192,203757,1,0,0:0:0:0:
256,192,203865,1,0,0:0:0:0:
256,192,203974,1,8,0:0:0:0:
256,192,204083,1,0,0:0:0:0:
256,192,204300,1,8,0:0:0:0:
256,192,204409,1,8,0:0:0:0:
256,192,204518,1,0,0:0:0:0:
256,192,204626,1,8,0:0:0:0:
256,192,204735,1,0,0:0:0:0:
256,192,204844,1,0,0:0:0:0:
256,192,204952,1,0,0:0:0:0:
256,192,205170,1,8,0:0:0:0:
256,192,205278,1,8,0:0:0:0:
256,192,205387,1,0,0:0:0:0:
256,192,205496,1,0,0:0:0:0:
256,192,205604,1,8,0:0:0:0:
256,192,205822,1,4,0:0:0:0:
256,192,206039,1,8,0:0:0:0:
256,192,206148,1,0,0:0:0:0:
256,192,206257,1,0,0:0:0:0:
256,192,206474,1,8,0:0:0:0:
256,192,206583,1,8,0:0:0:0:
256,192,206691,1,0,0:0:0:0:
256,192,206800,1,8,0:0:0:0:
256,192,206909,1,0,0:0:0:0:
256,192,207126,1,8,0:0:0:0:
256,192,207235,1,0,0:0:0:0:
256,192,207344,1,8,0:0:0:0:
256,192,207452,1,8,0:0:0:0:
256,192,207561,1,0,0:0:0:0:
256,192,207670,1,0,0:0:0:0:
256,192,207778,1,8,0:0:0:0:
256,192,207887,1,0,0:0:0:0:
256,192,207996,1,8,0:0:0:0:
256,192,208213,1,0,0:0:0:0:
256,192,208322,1,8,0:0:0:0:
256,192,208431,1,0,0:0:0:0:
256,192,208539,1,0,0:0:0:0:
256,192,208648,1,8,0:0:0:0:
256,192,208757,1,8,0:0:0:0:
256,192,208865,1,0,0:0:0:0:
256,192,208974,1,8,0:0:0:0:
256,192,209083,1,0,0:0:0:0:
256,192,209191,1,0,0:0:0:0:
256,192,209300,1,8,0:0:0:0:
256,192,209518,1,0,0:0:0:0:
256,192,209626,1,8,0:0:0:0:
256,192,209735,1,0,0:0:0:0:
256,192,209952,1,8,0:0:0:0:
256,192,210170,1,0,0:0:0:0:
256,192,210278,1,8,0:0:0:0:
256,192,210387,1,0,0:0:0:0:
256,192,210604,1,8,0:0:0:0:
256,192,210822,1,0,0:0:0:0:
256,192,210931,1,8,0:0:0:0:
256,192,211039,1,8,0:0:0:0:
256,192,211257,1,0,0:0:0:0:
256,192,211365,1,0,0:0:0:0:
256,192,211474,1,8,0:0:0:0:
256,192,211583,1,0,0:0:0:0:
256,192,211691,1,0,0:0:0:0:
256,192,211909,1,0,0:0:0:0:
256,192,212018,1,8,0:0:0:0:
256,192,212126,1,8,0:0:0:0:
256,192,212344,1,0,0:0:0:0:
256,192,212452,1,8,0:0:0:0:
256,192,212670,1,8,0:0:0:0:
256,192,212778,1,0,0:0:0:0:
256,192,212996,1,8,0:0:0:0:
256,192,213104,1,0,0:0:0:0:
256,192,213213,1,8,0:0:0:0:
256,192,213322,1,8,0:0:0:0:
256,192,213431,1,0,0:0:0:0:
256,192,213648,1,8,0:0:0:0:
256,192,213757,1,0,0:0:0:0:
256,192,213865,1,0,0:0:0:0:
256,192,213974,1,8,0:0:0:0:
256,192,214083,1,0,0:0:0:0:
256,192,214300,1,0,0:0:0:0:
256,192,214409,1,8,0:0:0:0:
256,192,214518,1,0,0:0:0:0:
256,192,214735,1,8,0:0:0:0:
256,192,214844,1,8,0:0:0:0:
256,192,214952,1,0,0:0:0:0:
256,192,215061,1,8,0:0:0:0:
256,192,215170,1,0,0:0:0:0:
256,192,215278,1,0,0:0:0:0:
256,192,215387,1,8,0:0:0:0:
256,192,215496,1,0,0:0:0:0:
256,192,215604,1,8,0:0:0:0:
256,192,215713,1,8,0:0:0:0:
256,192,215822,1,0,0:0:0:0:
256,192,215931,1,8,0:0:0:0:
256,192,216039,1,0,0:0:0:0:
256,192,216148,1,0,0:0:0:0:
256,192,216257,1,8,0:0:0:0:
256,192,216474,1,0,0:0:0:0:
256,192,216583,1,8,0:0:0:0:
256,192,216691,1,8,0:0:0:0:
256,192,216800,1,0,0:0:0:0:
256,192,216909,1,8,0:0:0:0:
256,192,217126,1,0,0:0:0:0:
256,192,217235,1,8,0:0:0:0:
256,192,217344,1,0,0:0:0:0:
256,192,217452,1,0,0:0:0:0:
256,192,217561,1,8,0:0:0:0:
256,192,217670,1,0,0:0:0:0:
256,192,217778,1,8,0:0:0:0:
256,192,217887,1,8,0:0:0:0:
256,192,217996,1,0,0:0:0:0:
256,192,218213,1,8,0:0:0:0:
256,192,218322,1,0,0:0:0:0:
256,192,218431,1,8,0:0:0:0:
256,192,218539,1,8,0:0:0:0:
256,192,218648,1,0,0:0:0:0:
256,192,218865,1,8,0:0:0:0:
256,192,218974,1,8,0:0:0:0:
256,192,219083,1,0,0:0:0:0:
256,192,219191,1,0,0:0:0:0:
256,192,219300,1,8,0:0:0:0:
256,192,219409,1,0,0:0:0:0:
