osu file format v14

[General]
AudioFilename: audio.mp3
AudioLeadIn: 0
PreviewTime: 163974
Countdown: 1
SampleSet: Normal
StackLeniency: 0.7
Mode: 1
LetterboxInBreaks: 0
WidescreenStoryboard: 1

[Editor]
DistanceSpacing: 0.4
BeatDivisor: 4
GridSize: 32
TimelineZoom: 1

[Metadata]
Title:Overtime
TitleUnicode:Overtime
Artist:KNOWER
ArtistUnicode:KNOWER
Creator:Zetera
Version:Muzukashii
Source:osu!
Tags:featured artist Life electronic jazz fusion genevieve artadi louis cole onitime English
BeatmapID:2168075
BeatmapSetID:927890

[Difficulty]
HPDrainRate:5.5
CircleSize:2
OverallDifficulty:5
ApproachRate:10
SliderMultiplier:1.4
SliderTickRate:1

[Events]
//Background and Video events
0,0,"BG_OT.png",0,0
//Break Periods
//Storyboard Layer 0 (Background)
//Storyboard Layer 1 (Fail)
//Storyboard Layer 2 (Pass)
//Storyboard Layer 3 (Foreground)
//Storyboard Layer 4 (Overlay)
//Storyboard Sound Samples

[TimingPoints]
605,434.782608695652,4,1,0,70,1,0
28431,-100,4,1,0,70,0,1
42344,-100,4,1,0,70,0,0
87561,-100,4,1,0,70,0,1
99735,-100,4,1,0,70,0,0
101474,-100,4,1,0,70,0,1
115387,-100,4,1,0,70,0,0
164083,-100,4,1,0,70,0,1
190170,-100,4,1,0,70,0,0
191909,-100,4,1,0,70,0,1
219300,-100,4,1,0,70,0,0

[HitObjects]
256,192,1039,5,8,0:0:0:0:
256,192,1909,1,8,0:0:0:0:
256,192,2778,1,8,0:0:0:0:
256,192,3213,1,8,0:0:0:0:
256,192,3648,1,8,0:0:0:0:
256,192,4518,1,8,0:0:0:0:
256,192,5387,1,8,0:0:0:0:
256,192,6257,1,8,0:0:0:0:
256,192,6691,1,8,0:0:0:0:
256,192,6909,1,0,0:0:0:0:
256,192,7126,1,8,0:0:0:0:
256,192,7996,1,8,0:0:0:0:
256,192,8865,1,8,0:0:0:0:
256,192,9735,1,8,0:0:0:0:
256,192,10170,1,8,0:0:0:0:
256,192,10604,1,8,0:0:0:0:
256,192,11474,1,8,0:0:0:0:
256,192,12344,1,8,0:0:0:0:
256,192,13213,1,8,0:0:0:0:
256,192,13648,1,8,0:0:0:0:
256,192,14083,1,8,0:0:0:0:
256,192,14300,1,8,0:0:0:0:
256,192,14518,1,0,0:0:0:0:
256,192,14844,1,0,0:0:0:0:
256,192,15170,1,0,0:0:0:0:
256,192,15496,1,0,0:0:0:0:
256,192,15822,1,0,0:0:0:0:
256,192,16148,1,0,0:0:0:0:
256,192,16474,1,0,0:0:0:0:
256,192,16800,1,0,0:0:0:0:
256,192,17344,1,8,0:0:0:0:
256,192,17670,1,8,0:0:0:0:
256,192,17996,1,0,0:0:0:0:
256,192,18322,1,0,0:0:0:0:
256,192,18648,1,0,0:0:0:0:
256,192,18974,1,0,0:0:0:0:
256,192,19300,1,0,0:0:0:0:
256,192,19626,1,0,0:0:0:0:
256,192,19952,1,0,0:0:0:0:
256,192,20278,1,0,0:0:0:0:
256,192,20822,1,8,0:0:0:0:
256,192,21039,1,0,0:0:0:0:
256,192,21148,1,8,0:0:0:0:
256,192,21474,1,0,0:0:0:0:
256,192,21800,1,0,0:0:0:0:
256,192,22126,1,0,0:0:0:0:
256,192,22452,1,0,0:0:0:0:
256,192,22778,1,0,0:0:0:0:
256,192,23104,1,0,0:0:0:0:
256,192,23431,1,0,0:0:0:0:
256,192,23757,1,0,0:0:0:0:
256,192,24083,1,8,0:0:0:0:
256,192,24300,1,8,0:0:0:0:
256,192,24518,1,8,0:0:0:0:
256,192,24952,1,0,0:0:0:0:
256,192,25278,1,0,0:0:0:0:
256,192,25604,1,0,0:0:0:0:
256,192,25931,1,0,0:0:0:0:
256,192,26257,1,0,0:0:0:0:
256,192,26583,1,0,0:0:0:0:
256,192,26909,1,0,0:0:0:0:
256,192,27126,1,8,0:0:0:0:
256,192,27235,1,0,0:0:0:0:
256,192,28431,1,4,0:0:0:0:
256,192,28757,1,0,0:0:0:0:
256,192,28865,1,0,0:0:0:0:
256,192,29083,1,8,0:0:0:0:
256,192,29518,1,0,0:0:0:0:
256,192,29735,1,8,0:0:0:0:
256,192,29952,1,0,0:0:0:0:
256,192,30061,1,0,0:0:0:0:
256,192,30170,1,8,0:0:0:0:
256,192,30604,1,0,0:0:0:0:
256,192,30822,1,8,0:0:0:0:
256,192,31257,1,8,0:0:0:0:
256,192,31583,1,0,0:0:0:0:
256,192,31909,1,8,0:0:0:0:
256,192,32344,1,8,0:0:0:0:
256,192,32561,1,8,0:0:0:0:
256,192,32996,1,8,0:0:0:0:
256,192,33213,1,8,0:0:0:0:
256,192,33431,1,0,0:0:0:0:
256,192,33539,1,0,0:0:0:0:
256,192,33648,1,8,0:0:0:0:
256,192,34083,1,8,0:0:0:0:
256,192,34300,1,8,0:0:0:0:
256,192,34735,1,0,0:0:0:0:
256,192,35061,1,8,0:0:0:0:
256,192,35387,1,4,0:0:0:0:
256,192,35713,1,0,0:0:0:0:
256,192,35822,1,0,0:0:0:0:
256,192,36039,1,8,0:0:0:0:
256,192,36474,1,0,0:0:0:0:
256,192,36691,1,8,0:0:0:0:
256,192,36909,1,0,0:0:0:0:
256,192,37018,1,0,0:0:0:0:
256,192,37126,1,8,0:0:0:0:
256,192,37561,1,0,0:0:0:0:
256,192,37778,1,8,0:0:0:0:
256,192,37887,1,8,0:0:0:0:
256,192,37996,1,0,0:0:0:0:
256,192,38213,1,8,0:0:0:0:
256,192,38539,1,0,0:0:0:0:
256,192,38865,1,8,0:0:0:0:
256,192,39300,1,8,0:0:0:0:
256,192,39518,1,8,0:0:0:0:
256,192,39952,1,8,0:0:0:0:
256,192,40170,1,8,0:0:0:0:
256,192,40387,1,0,0:0:0:0:
256,192,40496,1,0,0:0:0:0:
256,192,40604,1,8,0:0:0:0:
256,192,41039,1,8,0:0:0:0:
256,192,41257,1,8,0:0:0:0:
256,192,41691,1,0,0:0:0:0:
256,192,42018,1,8,0:0:0:0:
256,192,42344,1,4,0:0:0:0:
256,192,44083,1,12,0:0:0:0:
256,192,45170,1,0,0:0:0:0:
256,192,45496,1,0,0:0:0:0:
256,192,45822,1,12,0:0:0:0:
256,192,46257,1,0,0:0:0:0:
256,192,46474,1,0,0:0:0:0:
256,192,46691,1,8,0:0:0:0:
256,192,46800,1,0,0:0:0:0:
256,192,47018,1,8,0:0:0:0:
256,192,47561,1,0,0:0:0:0:
256,192,47778,1,8,0:0:0:0:
256,192,48104,1,8,0:0:0:0:
256,192,48431,1,8,0:0:0:0:
256,192,48539,1,0,0:0:0:0:
256,192,48757,1,8,0:0:0:0:
256,192,49300,1,0,0:0:0:0:
256,192,49735,1,8,0:0:0:0:
256,192,49952,1,8,0:0:0:0:
256,192,50170,1,8,0:0:0:0:
256,192,50278,1,0,0:0:0:0:
256,192,50496,1,8,0:0:0:0:
256,192,51039,1,0,0:0:0:0:
256,192,51257,1,8,0:0:0:0:
256,192,51474,1,0,0:0:0:0:
256,192,51909,1,8,0:0:0:0:
256,192,52018,1,0,0:0:0:0:
256,192,52235,1,8,0:0:0:0:
256,192,52778,1,0,0:0:0:0:
256,192,53213,1,0,0:0:0:0:
256,192,53431,1,0,0:0:0:0:
256,192,53648,1,8,0:0:0:0:
256,192,53757,1,0,0:0:0:0:
256,192,53974,1,8,0:0:0:0:
256,192,54518,1,0,0:0:0:0:
256,192,54735,1,8,0:0:0:0:
256,192,55061,1,8,0:0:0:0:
256,192,55387,1,8,0:0:0:0:
256,192,55496,1,0,0:0:0:0:
256,192,55713,1,8,0:0:0:0:
256,192,56039,1,0,0:0:0:0:
256,192,56257,1,8,0:0:0:0:
256,192,56691,1,8,0:0:0:0:
256,192,56909,1,8,0:0:0:0:
256,192,57126,1,8,0:0:0:0:
256,192,57235,1,0,0:0:0:0:
256,192,57452,1,8,0:0:0:0:
256,192,57778,1,0,0:0:0:0:
256,192,57996,1,12,0:0:0:0:
256,192,59083,1,0,0:0:0:0:
256,192,59409,1,0,0:0:0:0:
256,192,59735,1,12,0:0:0:0:
256,192,60061,1,0,0:0:0:0:
256,192,60170,1,8,0:0:0:0:
256,192,60387,1,8,0:0:0:0:
256,192,60604,1,8,0:0:0:0:
256,192,60822,1,0,0:0:0:0:
256,192,60931,1,8,0:0:0:0:
256,192,61474,1,0,0:0:0:0:
256,192,61691,1,8,0:0:0:0:
256,192,62018,1,8,0:0:0:0:
256,192,62344,1,8,0:0:0:0:
256,192,62452,1,0,0:0:0:0:
256,192,62670,1,8,0:0:0:0:
256,192,62996,1,0,0:0:0:0:
256,192,63213,1,8,0:0:0:0:
256,192,63539,1,0,0:0:0:0:
256,192,63648,1,8,0:0:0:0:
256,192,63865,1,8,0:0:0:0:
256,192,64083,1,8,0:0:0:0:
256,192,64300,1,0,0:0:0:0:
256,192,64409,1,8,0:0:0:0:
256,192,64952,1,0,0:0:0:0:
256,192,65170,1,8,0:0:0:0:
256,192,65387,1,0,0:0:0:0:
256,192,65822,1,8,0:0:0:0:
256,192,65931,1,0,0:0:0:0:
256,192,66148,1,8,0:0:0:0:
256,192,66691,1,0,0:0:0:0:
256,192,66909,1,0,0:0:0:0:
256,192,67126,1,8,0:0:0:0:
256,192,67561,1,8,0:0:0:0:
256,192,67778,1,0,0:0:0:0:
256,192,67887,1,8,0:0:0:0:
256,192,68431,1,0,0:0:0:0:
256,192,68648,1,8,0:0:0:0:
256,192,68974,1,8,0:0:0:0:
256,192,69300,1,0,0:0:0:0:
256,192,69409,1,0,0:0:0:0:
256,192,69518,1,0,0:0:0:0:
256,192,69735,1,8,0:0:0:0:
256,192,70170,1,0,0:0:0:0:
256,192,70496,1,0,0:0:0:0:
256,192,70604,1,8,0:0:0:0:
256,192,70822,1,8,0:0:0:0:
256,192,71039,1,8,0:0:0:0:
256,192,71257,1,0,0:0:0:0:
256,192,71365,1,8,0:0:0:0:
256,192,71583,1,0,0:0:0:0:
256,192,71909,1,4,0:0:0:0:
256,192,73648,1,4,0:0:0:0:
256,192,74083,1,8,0:0:0:0:
256,192,74952,1,8,0:0:0:0:
256,192,75822,1,8,0:0:0:0:
256,192,76257,1,8,0:0:0:0:
256,192,76691,1,8,0:0:0:0:
256,192,77561,1,8,0:0:0:0:
256,192,78431,1,8,0:0:0:0:
256,192,79300,1,8,0:0:0:0:
256,192,79735,1,8,0:0:0:0:
256,192,79952,1,0,0:0:0:0:
256,192,80170,1,8,0:0:0:0:
256,192,80604,1,0,0:0:0:0:
256,192,80931,1,0,0:0:0:0:
256,192,81257,1,0,0:0:0:0:
256,192,81583,1,0,0:0:0:0:
256,192,81909,1,0,0:0:0:0:
256,192,82235,1,0,0:0:0:0:
256,192,82561,1,0,0:0:0:0:
256,192,82887,1,0,0:0:0:0:
256,192,83431,1,8,0:0:0:0:
256,192,83757,1,8,0:0:0:0:
256,192,84083,1,0,0:0:0:0:
256,192,84409,1,0,0:0:0:0:
256,192,84735,1,0,0:0:0:0:
256,192,85061,1,0,0:0:0:0:
256,192,85387,1,0,0:0:0:0:
256,192,85822,1,8,0:0:0:0:
256,192,86039,1,0,0:0:0:0:
256,192,86257,1,8,0:0:0:0:
256,192,86474,1,0,0:0:0:0:
256,192,86583,1,0,0:0:0:0:
256,192,86691,1,0,0:0:0:0:
256,192,86909,1,0,0:0:0:0:
256,192,87126,1,8,0:0:0:0:
256,192,87344,1,8,0:0:0:0:
256,192,87561,1,4,0:0:0:0:
256,192,88213,1,8,0:0:0:0:
256,192,88648,1,8,0:0:0:0:
256,192,88865,1,8,0:0:0:0:
256,192,89082,1,0,0:0:0:0:
256,192,89191,1,0,0:0:0:0:
256,192,89300,1,8,0:0:0:0:
256,192,89734,1,0,0:0:0:0:
256,192,89952,1,8,0:0:0:0:
256,192,90387,1,8,0:0:0:0:
256,192,90713,1,0,0:0:0:0:
256,192,91039,1,8,0:0:0:0:
256,192,91474,1,8,0:0:0:0:
256,192,91691,1,8,0:0:0:0:
256,192,92126,1,8,0:0:0:0:
256,192,92343,1,8,0:0:0:0:
256,192,92561,1,0,0:0:0:0:
256,192,92669,1,0,0:0:0:0:
256,192,92778,1,8,0:0:0:0:
256,192,93213,1,8,0:0:0:0:
256,192,93430,1,8,0:0:0:0:
256,192,93865,1,0,0:0:0:0:
256,192,94191,1,8,0:0:0:0:
256,192,94517,1,4,0:0:0:0:
256,192,94844,1,0,0:0:0:0:
256,192,94952,1,0,0:0:0:0:
256,192,95169,1,8,0:0:0:0:
256,192,95604,1,0,0:0:0:0:
256,192,95821,1,8,0:0:0:0:
256,192,96039,1,0,0:0:0:0:
256,192,96148,1,0,0:0:0:0:
256,192,96256,1,8,0:0:0:0:
256,192,96691,1,0,0:0:0:0:
256,192,96908,1,8,0:0:0:0:
256,192,97017,1,8,0:0:0:0:
256,192,97126,1,0,0:0:0:0:
256,192,97343,1,8,0:0:0:0:
256,192,97669,1,0,0:0:0:0:
256,192,97995,1,8,0:0:0:0:
256,192,98430,1,8,0:0:0:0:
256,192,98648,1,8,0:0:0:0:
256,192,99082,1,8,0:0:0:0:
256,192,99300,1,8,0:0:0:0:
256,192,99517,1,0,0:0:0:0:
256,192,99626,1,0,0:0:0:0:
256,192,99734,1,8,0:0:0:0:
256,192,100169,1,8,0:0:0:0:
256,192,100387,1,8,0:0:0:0:
256,192,100604,1,8,0:0:0:0:
256,192,100822,1,8,0:0:0:0:
256,192,101039,1,8,0:0:0:0:
256,192,101257,1,8,0:0:0:0:
256,192,101474,1,4,0:0:0:0:
256,192,102126,1,0,0:0:0:0:
256,192,102452,1,8,0:0:0:0:
256,192,102778,1,0,0:0:0:0:
256,192,103104,1,8,0:0:0:0:
256,192,103213,1,0,0:0:0:0:
256,192,103431,1,8,0:0:0:0:
256,192,103648,1,0,0:0:0:0:
256,192,104083,1,0,0:0:0:0:
256,192,104300,1,8,0:0:0:0:
256,192,104518,1,0,0:0:0:0:
256,192,104952,1,8,0:0:0:0:
256,192,105278,1,0,0:0:0:0:
256,192,105604,1,8,0:0:0:0:
256,192,105931,1,8,0:0:0:0:
256,192,106257,1,0,0:0:0:0:
256,192,106583,1,8,0:0:0:0:
256,192,106691,1,0,0:0:0:0:
256,192,106909,1,0,0:0:0:0:
256,192,107126,1,8,0:0:0:0:
256,192,107561,1,0,0:0:0:0:
256,192,107778,1,0,0:0:0:0:
256,192,107996,1,8,0:0:0:0:
256,192,108213,1,0,0:0:0:0:
256,192,108322,1,0,0:0:0:0:
256,192,108431,1,0,0:0:0:0:
256,192,109083,1,0,0:0:0:0:
256,192,109409,1,8,0:0:0:0:
256,192,109735,1,0,0:0:0:0:
256,192,110061,1,8,0:0:0:0:
256,192,110170,1,0,0:0:0:0:
256,192,110387,1,0,0:0:0:0:
256,192,110604,1,8,0:0:0:0:
256,192,111039,1,0,0:0:0:0:
256,192,111257,1,0,0:0:0:0:
256,192,111474,1,8,0:0:0:0:
256,192,111909,1,4,0:0:0:0:
256,192,112344,1,0,0:0:0:0:
256,192,112561,1,8,0:0:0:0:
256,192,112996,1,0,0:0:0:0:
256,192,113213,1,8,0:0:0:0:
256,192,113431,1,0,0:0:0:0:
256,192,113539,1,0,0:0:0:0:
256,192,113648,1,8,0:0:0:0:
256,192,114083,1,0,0:0:0:0:
256,192,114300,1,8,0:0:0:0:
256,192,114735,1,0,0:0:0:0:
256,192,115061,1,8,0:0:0:0:
256,192,115387,1,4,0:0:0:0:
256,192,117126,1,12,0:0:0:0:
256,192,118213,1,0,0:0:0:0:
256,192,118539,1,0,0:0:0:0:
256,192,118865,1,12,0:0:0:0:
256,192,119191,1,8,0:0:0:0:
256,192,119300,1,8,0:0:0:0:
256,192,119518,1,8,0:0:0:0:
256,192,119735,1,0,0:0:0:0:
256,192,120061,1,8,0:0:0:0:
256,192,120604,1,0,0:0:0:0:
256,192,120822,1,8,0:0:0:0:
256,192,121148,1,8,0:0:0:0:
256,192,121474,1,8,0:0:0:0:
256,192,121583,1,0,0:0:0:0:
256,192,121800,1,8,0:0:0:0:
256,192,122126,1,0,0:0:0:0:
256,192,122344,1,8,0:0:0:0:
256,192,122670,1,8,0:0:0:0:
256,192,122778,1,8,0:0:0:0:
256,192,122996,1,8,0:0:0:0:
256,192,123213,1,0,0:0:0:0:
256,192,123539,1,8,0:0:0:0:
256,192,124083,1,0,0:0:0:0:
256,192,124300,1,8,0:0:0:0:
256,192,124518,1,0,0:0:0:0:
256,192,124952,1,8,0:0:0:0:
256,192,125061,1,0,0:0:0:0:
256,192,125278,1,0,0:0:0:0:
256,192,125387,1,8,0:0:0:0:
256,192,125822,1,4,0:0:0:0:
256,192,126257,1,8,0:0:0:0:
256,192,126474,1,8,0:0:0:0:
256,192,126583,1,8,0:0:0:0:
256,192,126691,1,0,0:0:0:0:
256,192,127018,1,8,0:0:0:0:
256,192,127561,1,0,0:0:0:0:
256,192,127778,1,8,0:0:0:0:
256,192,128104,1,8,0:0:0:0:
256,192,128431,1,8,0:0:0:0:
256,192,128539,1,0,0:0:0:0:
256,192,128757,1,0,0:0:0:0:
256,192,129083,1,0,0:0:0:0:
256,192,129300,1,8,0:0:0:0:
256,192,129735,1,8,0:0:0:0:
256,192,129952,1,8,0:0:0:0:
256,192,130170,1,0,0:0:0:0:
256,192,130387,1,0,0:0:0:0:
256,192,130496,1,8,0:0:0:0:
256,192,130822,1,0,0:0:0:0:
256,192,131039,1,4,0:0:0:0:
256,192,132126,1,0,0:0:0:0:
256,192,132452,1,0,0:0:0:0:
256,192,132778,1,12,0:0:0:0:
256,192,133213,1,0,0:0:0:0:
256,192,133431,1,0,0:0:0:0:
256,192,133648,1,8,0:0:0:0:
256,192,133757,1,8,0:0:0:0:
256,192,133865,1,0,0:0:0:0:
256,192,134083,1,8,0:0:0:0:
256,192,134518,1,0,0:0:0:0:
256,192,134735,1,8,0:0:0:0:
256,192,135061,1,8,0:0:0:0:
256,192,135387,1,8,0:0:0:0:
256,192,135496,1,0,0:0:0:0:
256,192,135713,1,8,0:0:0:0:
256,192,136257,1,0,0:0:0:0:
256,192,136691,1,0,0:0:0:0:
256,192,136909,1,0,0:0:0:0:
256,192,137126,1,8,0:0:0:0:
256,192,137235,1,8,0:0:0:0:
256,192,137344,1,0,0:0:0:0:
256,192,137561,1,8,0:0:0:0:
256,192,137996,1,0,0:0:0:0:
256,192,138213,1,8,0:0:0:0:
256,192,138431,1,0,0:0:0:0:
256,192,138865,1,8,0:0:0:0:
256,192,138974,1,0,0:0:0:0:
256,192,139191,1,8,0:0:0:0:
256,192,139518,1,0,0:0:0:0:
256,192,139626,1,0,0:0:0:0:
256,192,139735,1,0,0:0:0:0:
256,192,140170,1,0,0:0:0:0:
256,192,140387,1,0,0:0:0:0:
256,192,140604,1,8,0:0:0:0:
256,192,140713,1,8,0:0:0:0:
256,192,140822,1,0,0:0:0:0:
256,192,141039,1,8,0:0:0:0:
256,192,141474,1,0,0:0:0:0:
256,192,141691,1,8,0:0:0:0:
256,192,142018,1,8,0:0:0:0:
256,192,142344,1,8,0:0:0:0:
256,192,142452,1,0,0:0:0:0:
256,192,142670,1,0,0:0:0:0:
256,192,142778,1,8,0:0:0:0:
256,192,143213,1,0,0:0:0:0:
256,192,143648,1,0,0:0:0:0:
256,192,143865,1,0,0:0:0:0:
256,192,143974,1,0,0:0:0:0:
256,192,144083,1,8,0:0:0:0:
256,192,144300,1,0,0:0:0:0:
256,192,144518,1,8,0:0:0:0:
256,192,144735,1,0,0:0:0:0:
256,192,144952,1,8,0:0:0:0:
256,192,145387,1,8,0:0:0:0:
256,192,145822,1,8,0:0:0:0:
256,192,145931,1,8,0:0:0:0:
256,192,146039,1,8,0:0:0:0:
256,192,146257,1,0,0:0:0:0:
256,192,146474,1,0,0:0:0:0:
256,192,146691,1,12,0:0:0:0:
256,192,147126,5,8,0:0:0:0:
256,192,147996,1,8,0:0:0:0:
256,192,148865,1,8,0:0:0:0:
256,192,149300,1,8,0:0:0:0:
256,192,149735,1,8,0:0:0:0:
256,192,150605,1,8,0:0:0:0:
256,192,151474,1,8,0:0:0:0:
256,192,152344,1,8,0:0:0:0:
256,192,152778,1,8,0:0:0:0:
256,192,152996,1,0,0:0:0:0:
256,192,153213,1,8,0:0:0:0:
256,192,153648,5,0,0:0:0:0:
256,192,153974,1,0,0:0:0:0:
256,192,154300,1,0,0:0:0:0:
256,192,154626,1,0,0:0:0:0:
256,192,154952,1,0,0:0:0:0:
256,192,155278,1,0,0:0:0:0:
256,192,155604,1,0,0:0:0:0:
256,192,155930,1,0,0:0:0:0:
256,192,156474,1,8,0:0:0:0:
256,192,156800,1,8,0:0:0:0:
256,192,157126,1,0,0:0:0:0:
256,192,157452,1,0,0:0:0:0:
256,192,157778,1,0,0:0:0:0:
256,192,158104,1,0,0:0:0:0:
256,192,158430,1,0,0:0:0:0:
256,192,158756,1,0,0:0:0:0:
256,192,159082,1,0,0:0:0:0:
256,192,159408,1,0,0:0:0:0:
256,192,159952,1,8,0:0:0:0:
256,192,160169,1,0,0:0:0:0:
256,192,160278,1,8,0:0:0:0:
256,192,160604,1,0,0:0:0:0:
256,192,160930,1,0,0:0:0:0:
256,192,161256,1,0,0:0:0:0:
256,192,161582,1,0,0:0:0:0:
256,192,161908,1,8,0:0:0:0:
256,192,162344,2,0,B|352:192|352:192|352:64|352:64|256:64|256:64|160:96,1,420
256,192,164083,1,4,0:0:0:0:
256,192,164409,1,0,0:0:0:0:
256,192,164518,1,0,0:0:0:0:
256,192,164735,1,8,0:0:0:0:
256,192,165170,1,0,0:0:0:0:
256,192,165387,1,8,0:0:0:0:
256,192,165604,1,0,0:0:0:0:
256,192,165713,1,0,0:0:0:0:
256,192,165822,1,8,0:0:0:0:
256,192,166256,1,0,0:0:0:0:
256,192,166474,1,8,0:0:0:0:
256,192,166909,1,8,0:0:0:0:
256,192,167235,1,0,0:0:0:0:
256,192,167561,1,8,0:0:0:0:
256,192,167996,1,8,0:0:0:0:
256,192,168213,1,8,0:0:0:0:
256,192,168648,1,8,0:0:0:0:
256,192,168865,1,8,0:0:0:0:
256,192,169083,1,0,0:0:0:0:
256,192,169191,1,0,0:0:0:0:
256,192,169300,1,8,0:0:0:0:
256,192,169735,1,8,0:0:0:0:
256,192,169952,1,8,0:0:0:0:
256,192,170387,1,0,0:0:0:0:
256,192,170713,1,8,0:0:0:0:
256,192,171039,1,4,0:0:0:0:
256,192,171365,1,0,0:0:0:0:
256,192,171474,1,0,0:0:0:0:
256,192,171691,1,8,0:0:0:0:
256,192,172126,1,0,0:0:0:0:
256,192,172343,1,8,0:0:0:0:
256,192,172561,1,0,0:0:0:0:
256,192,172670,1,0,0:0:0:0:
256,192,172778,1,8,0:0:0:0:
256,192,173213,1,0,0:0:0:0:
256,192,173430,1,8,0:0:0:0:
256,192,173539,1,8,0:0:0:0:
256,192,173648,1,0,0:0:0:0:
256,192,173865,1,8,0:0:0:0:
256,192,174191,1,0,0:0:0:0:
256,192,174517,1,8,0:0:0:0:
256,192,174952,1,8,0:0:0:0:
256,192,175170,1,8,0:0:0:0:
256,192,175604,1,8,0:0:0:0:
256,192,175822,1,8,0:0:0:0:
256,192,176039,1,0,0:0:0:0:
256,192,176148,1,0,0:0:0:0:
256,192,176256,1,8,0:0:0:0:
256,192,176691,1,8,0:0:0:0:
256,192,176909,1,8,0:0:0:0:
256,192,177344,1,0,0:0:0:0:
256,192,177670,1,8,0:0:0:0:
256,192,177996,1,4,0:0:0:0:
256,192,178648,1,0,0:0:0:0:
256,192,178974,1,8,0:0:0:0:
256,192,179300,1,0,0:0:0:0:
256,192,179626,1,8,0:0:0:0:
256,192,179735,1,0,0:0:0:0:
256,192,179953,1,8,0:0:0:0:
256,192,180170,1,0,0:0:0:0:
256,192,180605,1,0,0:0:0:0:
256,192,180822,1,8,0:0:0:0:
256,192,181040,1,0,0:0:0:0:
256,192,181474,1,8,0:0:0:0:
256,192,181800,1,0,0:0:0:0:
256,192,182126,1,8,0:0:0:0:
256,192,182453,1,8,0:0:0:0:
256,192,182779,1,0,0:0:0:0:
256,192,183105,1,8,0:0:0:0:
256,192,183213,1,0,0:0:0:0:
256,192,183431,1,0,0:0:0:0:
256,192,183648,1,8,0:0:0:0:
256,192,184083,1,0,0:0:0:0:
256,192,184300,1,0,0:0:0:0:
256,192,184518,1,8,0:0:0:0:
256,192,184735,1,0,0:0:0:0:
256,192,184844,1,0,0:0:0:0:
256,192,184953,1,0,0:0:0:0:
256,192,185605,1,0,0:0:0:0:
256,192,185931,1,8,0:0:0:0:
256,192,186257,1,0,0:0:0:0:
256,192,186583,1,8,0:0:0:0:
256,192,186692,1,0,0:0:0:0:
256,192,186909,1,0,0:0:0:0:
256,192,187126,1,8,0:0:0:0:
256,192,187561,1,0,0:0:0:0:
256,192,187779,1,0,0:0:0:0:
256,192,187996,1,8,0:0:0:0:
256,192,188431,1,0,0:0:0:0:
256,192,188866,1,0,0:0:0:0:
256,192,189083,1,8,0:0:0:0:
256,192,189518,1,0,0:0:0:0:
256,192,189735,1,8,0:0:0:0:
256,192,189953,1,0,0:0:0:0:
256,192,190061,1,0,0:0:0:0:
256,192,190170,1,8,0:0:0:0:
256,192,190605,1,0,0:0:0:0:
256,192,190822,1,8,0:0:0:0:
256,192,191257,1,0,0:0:0:0:
256,192,191583,1,8,0:0:0:0:
256,192,191909,1,4,0:0:0:0:
256,192,192235,1,0,0:0:0:0:
256,192,192344,1,8,0:0:0:0:
256,192,192561,1,0,0:0:0:0:
256,192,192778,1,8,0:0:0:0:
256,192,193213,1,8,0:0:0:0:
256,192,193431,1,0,0:0:0:0:
256,192,193539,1,0,0:0:0:0:
256,192,193648,1,8,0:0:0:0:
256,192,194083,1,0,0:0:0:0:
256,192,194300,1,0,0:0:0:0:
256,192,194518,1,8,0:0:0:0:
256,192,194735,1,0,0:0:0:0:
256,192,194952,1,8,0:0:0:0:
256,192,195387,1,0,0:0:0:0:
256,192,196039,1,8,0:0:0:0:
256,192,196365,1,0,0:0:0:0:
256,192,196691,1,8,0:0:0:0:
256,192,196909,1,0,0:0:0:0:
256,192,197018,1,0,0:0:0:0:
256,192,197126,1,0,0:0:0:0:
256,192,197561,1,0,0:0:0:0:
256,192,197778,1,0,0:0:0:0:
256,192,197996,1,8,0:0:0:0:
256,192,198213,1,0,0:0:0:0:
256,192,198431,1,8,0:0:0:0:
256,192,198865,1,4,0:0:0:0:
256,192,199191,1,0,0:0:0:0:
256,192,199300,1,8,0:0:0:0:
256,192,199518,1,0,0:0:0:0:
256,192,199735,1,8,0:0:0:0:
256,192,200170,1,8,0:0:0:0:
256,192,200387,1,0,0:0:0:0:
256,192,200496,1,0,0:0:0:0:
256,192,200604,1,8,0:0:0:0:
256,192,201039,1,8,0:0:0:0:
256,192,201257,1,0,0:0:0:0:
256,192,201474,1,8,0:0:0:0:
256,192,201691,1,0,0:0:0:0:
256,192,201909,1,8,0:0:0:0:
256,192,202344,1,8,0:0:0:0:
256,192,202670,1,0,0:0:0:0:
256,192,202996,1,8,0:0:0:0:
256,192,203322,1,0,0:0:0:0:
256,192,203648,1,8,0:0:0:0:
256,192,203865,1,0,0:0:0:0:
256,192,203974,1,0,0:0:0:0:
256,192,204083,1,0,0:0:0:0:
256,192,204518,1,8,0:0:0:0:
256,192,204735,1,0,0:0:0:0:
256,192,204952,1,8,0:0:0:0:
256,192,205170,1,0,0:0:0:0:
256,192,205387,1,8,0:0:0:0:
256,192,205822,1,4,0:0:0:0:
256,192,206148,1,0,0:0:0:0:
256,192,206257,1,8,0:0:0:0:
256,192,206474,1,0,0:0:0:0:
256,192,206691,1,8,0:0:0:0:
256,192,207126,1,8,0:0:0:0:
256,192,207344,1,0,0:0:0:0:
256,192,207452,1,0,0:0:0:0:
256,192,207561,1,8,0:0:0:0:
256,192,207996,1,8,0:0:0:0:
256,192,208213,1,0,0:0:0:0:
256,192,208431,1,0,0:0:0:0:
256,192,208648,1,0,0:0:0:0:
256,192,208865,1,8,0:0:0:0:
256,192,209300,1,8,0:0:0:0:
256,192,209952,1,8,0:0:0:0:
256,192,210278,1,0,0:0:0:0:
256,192,210604,1,8,0:0:0:0:
256,192,210822,1,0,0:0:0:0:
256,192,210931,1,0,0:0:0:0:
256,192,211039,1,0,0:0:0:0:
256,192,211474,1,8,0:0:0:0:
256,192,211691,1,0,0:0:0:0:
256,192,211909,1,0,0:0:0:0:
256,192,212126,1,0,0:0:0:0:
256,192,212344,1,8,0:0:0:0:
256,192,212778,1,4,0:0:0:0:
256,192,213104,1,0,0:0:0:0:
256,192,213213,1,8,0:0:0:0:
256,192,213431,1,0,0:0:0:0:
256,192,213648,1,8,0:0:0:0:
256,192,214083,1,8,0:0:0:0:
256,192,214300,1,0,0:0:0:0:
256,192,214409,1,0,0:0:0:0:
256,192,214518,1,8,0:0:0:0:
256,192,214952,1,0,0:0:0:0:
256,192,215170,1,8,0:0:0:0:
256,192,215387,1,8,0:0:0:0:
256,192,215604,1,0,0:0:0:0:
256,192,215822,1,8,0:0:0:0:
256,192,216257,1,0,0:0:0:0:
256,192,216583,1,8,0:0:0:0:
256,192,216909,1,8,0:0:0:0:
256,192,217235,1,0,0:0:0:0:
256,192,217561,1,8,0:0:0:0:
256,192,217778,1,0,0:0:0:0:
256,192,217887,1,0,0:0:0:0:
256,192,217996,1,0,0:0:0:0:
256,192,218431,1,0,0:0:0:0:
256,192,218648,1,8,0:0:0:0:
256,192,218865,1,8,0:0:0:0:
256,192,219083,1,0,0:0:0:0:
256,192,219300,1,12,0:0:0:0:
