osu file format v14

[General]
AudioFilename: audio.mp3
AudioLeadIn: 0
PreviewTime: 163974
Countdown: 1
SampleSet: Normal
StackLeniency: 0.7
Mode: 1
LetterboxInBreaks: 0
WidescreenStoryboard: 1

[Editor]
DistanceSpacing: 0.4
BeatDivisor: 4
GridSize: 32
TimelineZoom: 1

[Metadata]
Title:Overtime
TitleUnicode:Overtime
Artist:KNOWER
ArtistUnicode:KNOWER
Creator:Zetera
Version:Futsuu
Source:osu!
Tags:featured artist Life electronic jazz fusion genevieve artadi louis cole onitime English
BeatmapID:2175861
BeatmapSetID:927890

[Difficulty]
HPDrainRate:6.5
CircleSize:2
OverallDifficulty:4.5
ApproachRate:10
SliderMultiplier:1.4
SliderTickRate:1

[Events]
//Background and Video events
0,0,"BG_OT.png",0,0
//Break Periods
//Storyboard Layer 0 (Background)
//Storyboard Layer 1 (Fail)
//Storyboard Layer 2 (Pass)
//Storyboard Layer 3 (Foreground)
//Storyboard Layer 4 (Overlay)
//Storyboard Sound Samples

[TimingPoints]
605,434.782608695652,4,1,0,70,1,0
28431,-100,4,1,0,70,0,1
42344,-100,4,1,0,70,0,0
87561,-100,4,1,0,70,0,1
99735,-100,4,1,0,70,0,0
101474,-100,4,1,0,70,0,1
115387,-100,4,1,0,70,0,0
164083,-100,4,1,0,70,0,1
190170,-100,4,1,0,70,0,0
191909,-100,4,1,0,70,0,1
219300,-100,4,1,0,70,0,0

[HitObjects]
256,192,1039,5,8,0:0:0:0:
256,192,1909,1,8,0:0:0:0:
256,192,2778,1,8,0:0:0:0:
256,192,3213,1,8,0:0:0:0:
256,192,3648,1,8,0:0:0:0:
256,192,4518,1,8,0:0:0:0:
256,192,5387,1,8,0:0:0:0:
256,192,6257,1,8,0:0:0:0:
256,192,6691,1,0,0:0:0:0:
256,192,7126,1,8,0:0:0:0:
256,192,7996,1,8,0:0:0:0:
256,192,8865,1,8,0:0:0:0:
256,192,9735,1,8,0:0:0:0:
256,192,10170,1,8,0:0:0:0:
256,192,10604,1,8,0:0:0:0:
256,192,11474,1,8,0:0:0:0:
256,192,12344,1,8,0:0:0:0:
256,192,13213,1,8,0:0:0:0:
256,192,13648,1,0,0:0:0:0:
256,192,14083,1,8,0:0:0:0:
256,192,14518,1,0,0:0:0:0:
256,192,15170,1,0,0:0:0:0:
256,192,15822,1,0,0:0:0:0:
256,192,16257,1,8,0:0:0:0:
256,192,16691,1,8,0:0:0:0:
256,192,17126,1,8,0:0:0:0:
256,192,17344,1,8,0:0:0:0:
256,192,17561,1,8,0:0:0:0:
256,192,17996,1,0,0:0:0:0:
256,192,18648,1,0,0:0:0:0:
256,192,19300,1,0,0:0:0:0:
256,192,19735,1,8,0:0:0:0:
256,192,20170,1,8,0:0:0:0:
256,192,20604,1,8,0:0:0:0:
256,192,20822,1,0,0:0:0:0:
256,192,21039,1,8,0:0:0:0:
256,192,21474,1,0,0:0:0:0:
256,192,22126,1,0,0:0:0:0:
256,192,22778,1,0,0:0:0:0:
256,192,23213,1,8,0:0:0:0:
256,192,23648,1,8,0:0:0:0:
256,192,23865,1,0,0:0:0:0:
256,192,24083,1,8,0:0:0:0:
256,192,24300,1,0,0:0:0:0:
256,192,24518,1,8,0:0:0:0:
256,192,24952,1,0,0:0:0:0:
256,192,25604,1,0,0:0:0:0:
256,192,26257,1,0,0:0:0:0:
256,192,26691,1,0,0:0:0:0:
256,192,28431,1,4,0:0:0:0:
256,192,28865,1,0,0:0:0:0:
256,192,29083,1,8,0:0:0:0:
256,192,29518,1,8,0:0:0:0:
256,192,29735,1,8,0:0:0:0:
256,192,30170,1,8,0:0:0:0:
256,192,30604,1,0,0:0:0:0:
256,192,30822,1,8,0:0:0:0:
256,192,31257,1,8,0:0:0:0:
256,192,31583,1,8,0:0:0:0:
256,192,31909,1,8,0:0:0:0:
256,192,32561,1,8,0:0:0:0:
256,192,32996,1,8,0:0:0:0:
256,192,33213,1,8,0:0:0:0:
256,192,33648,1,8,0:0:0:0:
256,192,34083,1,0,0:0:0:0:
256,192,34300,1,8,0:0:0:0:
256,192,34735,1,8,0:0:0:0:
256,192,35061,1,0,0:0:0:0:
256,192,35387,1,12,0:0:0:0:
256,192,36039,1,8,0:0:0:0:
256,192,36474,1,8,0:0:0:0:
256,192,36691,1,8,0:0:0:0:
256,192,37126,1,8,0:0:0:0:
256,192,37561,1,0,0:0:0:0:
256,192,37778,1,8,0:0:0:0:
256,192,38213,1,8,0:0:0:0:
256,192,38539,1,8,0:0:0:0:
256,192,38865,1,8,0:0:0:0:
256,192,39518,1,8,0:0:0:0:
256,192,39952,1,8,0:0:0:0:
256,192,40170,1,8,0:0:0:0:
256,192,40604,1,8,0:0:0:0:
256,192,41039,1,0,0:0:0:0:
256,192,41257,1,8,0:0:0:0:
256,192,41691,1,8,0:0:0:0:
256,192,42018,1,0,0:0:0:0:
256,192,42344,1,4,0:0:0:0:
256,192,44083,1,12,0:0:0:0:
256,192,45170,1,0,0:0:0:0:
256,192,45496,1,0,0:0:0:0:
256,192,45822,1,12,0:0:0:0:
256,192,46257,1,0,0:0:0:0:
256,192,46474,1,0,0:0:0:0:
256,192,46691,1,8,0:0:0:0:
256,192,47126,1,8,0:0:0:0:
256,192,47778,1,8,0:0:0:0:
256,192,48104,1,8,0:0:0:0:
256,192,48431,1,8,0:0:0:0:
256,192,48865,1,8,0:0:0:0:
256,192,49300,1,0,0:0:0:0:
256,192,49735,1,0,0:0:0:0:
256,192,49952,1,0,0:0:0:0:
256,192,50170,1,0,0:0:0:0:
256,192,50604,1,8,0:0:0:0:
256,192,51257,1,0,0:0:0:0:
256,192,51583,1,0,0:0:0:0:
256,192,51909,1,0,0:0:0:0:
256,192,52344,1,8,0:0:0:0:
256,192,52778,1,0,0:0:0:0:
256,192,53213,1,0,0:0:0:0:
256,192,53431,1,0,0:0:0:0:
256,192,53648,1,8,0:0:0:0:
256,192,54083,1,8,0:0:0:0:
256,192,54735,1,8,0:0:0:0:
256,192,55061,1,8,0:0:0:0:
256,192,55387,1,8,0:0:0:0:
256,192,55822,1,8,0:0:0:0:
256,192,56257,1,0,0:0:0:0:
256,192,56691,1,0,0:0:0:0:
256,192,56909,1,0,0:0:0:0:
256,192,57126,1,0,0:0:0:0:
256,192,57561,1,8,0:0:0:0:
256,192,57996,1,12,0:0:0:0:
256,192,59083,1,0,0:0:0:0:
256,192,59409,1,0,0:0:0:0:
256,192,59735,1,12,0:0:0:0:
256,192,60170,1,8,0:0:0:0:
256,192,60387,1,0,0:0:0:0:
256,192,60604,1,8,0:0:0:0:
256,192,61039,1,8,0:0:0:0:
256,192,61691,1,8,0:0:0:0:
256,192,62018,1,8,0:0:0:0:
256,192,62344,1,8,0:0:0:0:
256,192,62778,1,8,0:0:0:0:
256,192,63213,1,0,0:0:0:0:
256,192,63648,1,0,0:0:0:0:
256,192,63865,1,0,0:0:0:0:
256,192,64083,1,8,0:0:0:0:
256,192,64518,1,8,0:0:0:0:
256,192,65170,1,0,0:0:0:0:
256,192,65496,1,0,0:0:0:0:
256,192,65822,1,8,0:0:0:0:
256,192,66257,1,8,0:0:0:0:
256,192,66691,1,0,0:0:0:0:
256,192,66909,1,0,0:0:0:0:
256,192,67126,1,8,0:0:0:0:
256,192,67561,1,8,0:0:0:0:
256,192,67996,1,8,0:0:0:0:
256,192,68648,1,8,0:0:0:0:
256,192,68974,1,8,0:0:0:0:
256,192,69300,1,8,0:0:0:0:
256,192,69735,1,8,0:0:0:0:
256,192,70170,1,0,0:0:0:0:
256,192,70604,1,0,0:0:0:0:
256,192,70822,1,0,0:0:0:0:
256,192,71039,1,8,0:0:0:0:
256,192,71474,1,8,0:0:0:0:
256,192,71909,1,4,0:0:0:0:
256,192,73648,1,4,0:0:0:0:
256,192,74083,1,8,0:0:0:0:
256,192,74952,1,8,0:0:0:0:
256,192,75822,1,8,0:0:0:0:
256,192,76257,1,8,0:0:0:0:
256,192,76691,1,8,0:0:0:0:
256,192,77561,1,8,0:0:0:0:
256,192,78431,1,8,0:0:0:0:
256,192,79300,1,8,0:0:0:0:
256,192,79735,1,0,0:0:0:0:
256,192,80170,1,8,0:0:0:0:
256,192,80604,1,0,0:0:0:0:
256,192,81256,1,0,0:0:0:0:
256,192,81908,1,0,0:0:0:0:
256,192,82343,1,0,0:0:0:0:
256,192,82778,1,8,0:0:0:0:
256,192,83213,1,8,0:0:0:0:
256,192,83431,1,8,0:0:0:0:
256,192,83648,1,0,0:0:0:0:
256,192,84517,1,8,0:0:0:0:
256,192,84951,1,0,0:0:0:0:
256,192,85386,1,8,0:0:0:0:
256,192,85604,1,0,0:0:0:0:
256,192,86038,1,0,0:0:0:0:
256,192,86256,1,8,0:0:0:0:
256,192,86690,1,8,0:0:0:0:
256,192,86908,1,8,0:0:0:0:
256,192,87125,1,8,0:0:0:0:
256,192,87344,1,8,0:0:0:0:
256,192,87561,1,4,0:0:0:0:
256,192,87995,1,0,0:0:0:0:
256,192,88213,1,8,0:0:0:0:
256,192,88648,1,8,0:0:0:0:
256,192,88865,1,8,0:0:0:0:
256,192,89300,1,8,0:0:0:0:
256,192,89734,1,0,0:0:0:0:
256,192,89952,1,8,0:0:0:0:
256,192,90387,1,8,0:0:0:0:
256,192,90713,1,8,0:0:0:0:
256,192,91039,1,8,0:0:0:0:
256,192,91691,1,8,0:0:0:0:
256,192,92126,1,8,0:0:0:0:
256,192,92343,1,8,0:0:0:0:
256,192,92778,1,8,0:0:0:0:
256,192,93213,1,0,0:0:0:0:
256,192,93430,1,8,0:0:0:0:
256,192,93865,1,8,0:0:0:0:
256,192,94191,1,0,0:0:0:0:
256,192,94517,1,8,0:0:0:0:
256,192,95169,1,8,0:0:0:0:
256,192,95604,1,8,0:0:0:0:
256,192,95821,1,8,0:0:0:0:
256,192,96256,1,8,0:0:0:0:
256,192,96691,1,0,0:0:0:0:
256,192,96908,1,8,0:0:0:0:
256,192,97343,1,8,0:0:0:0:
256,192,97669,1,8,0:0:0:0:
256,192,97995,1,8,0:0:0:0:
256,192,98648,1,8,0:0:0:0:
256,192,99082,1,8,0:0:0:0:
256,192,99300,1,8,0:0:0:0:
256,192,99734,1,8,0:0:0:0:
256,192,100605,1,8,0:0:0:0:
256,192,100822,1,8,0:0:0:0:
256,192,101039,1,8,0:0:0:0:
256,192,101257,1,8,0:0:0:0:
256,192,101474,1,4,0:0:0:0:
256,192,102126,1,0,0:0:0:0:
256,192,102452,1,0,0:0:0:0:
256,192,102778,1,8,0:0:0:0:
256,192,103213,1,0,0:0:0:0:
256,192,103648,1,8,0:0:0:0:
256,192,104518,1,8,0:0:0:0:
256,192,104952,1,0,0:0:0:0:
256,192,105278,1,0,0:0:0:0:
256,192,105604,1,0,0:0:0:0:
256,192,105931,1,0,0:0:0:0:
256,192,106257,1,8,0:0:0:0:
256,192,106691,1,0,0:0:0:0:
256,192,107126,1,8,0:0:0:0:
256,192,107778,1,0,0:0:0:0:
256,192,107996,1,8,0:0:0:0:
256,192,108431,1,4,0:0:0:0:
256,192,109083,1,0,0:0:0:0:
256,192,109409,1,0,0:0:0:0:
256,192,109735,1,8,0:0:0:0:
256,192,110170,1,0,0:0:0:0:
256,192,110604,1,8,0:0:0:0:
256,192,111474,1,8,0:0:0:0:
256,192,111909,1,8,0:0:0:0:
256,192,112344,1,8,0:0:0:0:
256,192,112561,1,8,0:0:0:0:
256,192,112996,1,8,0:0:0:0:
256,192,113213,1,8,0:0:0:0:
256,192,113648,1,8,0:0:0:0:
256,192,114083,1,8,0:0:0:0:
256,192,114300,1,8,0:0:0:0:
256,192,114735,1,8,0:0:0:0:
256,192,115061,1,8,0:0:0:0:
256,192,115387,1,4,0:0:0:0:
256,192,117126,1,12,0:0:0:0:
256,192,118213,1,0,0:0:0:0:
256,192,118539,1,0,0:0:0:0:
256,192,118865,1,12,0:0:0:0:
256,192,119300,1,8,0:0:0:0:
256,192,119518,1,8,0:0:0:0:
256,192,119735,1,0,0:0:0:0:
256,192,120170,1,8,0:0:0:0:
256,192,120822,1,8,0:0:0:0:
256,192,121148,1,8,0:0:0:0:
256,192,121474,1,0,0:0:0:0:
256,192,121909,1,8,0:0:0:0:
256,192,122344,1,8,0:0:0:0:
256,192,122778,1,0,0:0:0:0:
256,192,122996,1,0,0:0:0:0:
256,192,123213,1,8,0:0:0:0:
256,192,123648,1,8,0:0:0:0:
256,192,124300,1,0,0:0:0:0:
256,192,124626,1,0,0:0:0:0:
256,192,124952,1,8,0:0:0:0:
256,192,125387,1,8,0:0:0:0:
256,192,125822,1,4,0:0:0:0:
256,192,126257,1,8,0:0:0:0:
256,192,126474,1,8,0:0:0:0:
256,192,126691,1,0,0:0:0:0:
256,192,127126,1,8,0:0:0:0:
256,192,127778,1,8,0:0:0:0:
256,192,128104,1,8,0:0:0:0:
256,192,128431,1,0,0:0:0:0:
256,192,128648,1,8,0:0:0:0:
256,192,128865,1,0,0:0:0:0:
256,192,129300,1,0,0:0:0:0:
256,192,129735,1,0,0:0:0:0:
256,192,129952,1,0,0:0:0:0:
256,192,130170,1,8,0:0:0:0:
256,192,130604,1,8,0:0:0:0:
256,192,131039,1,4,0:0:0:0:
256,192,132126,1,0,0:0:0:0:
256,192,132452,1,0,0:0:0:0:
256,192,132778,1,12,0:0:0:0:
256,192,133213,1,8,0:0:0:0:
256,192,133431,1,8,0:0:0:0:
256,192,133648,1,0,0:0:0:0:
256,192,134083,1,8,0:0:0:0:
256,192,134735,1,8,0:0:0:0:
256,192,135061,1,8,0:0:0:0:
256,192,135387,1,0,0:0:0:0:
256,192,135604,1,0,0:0:0:0:
256,192,135822,1,8,0:0:0:0:
256,192,136257,1,0,0:0:0:0:
256,192,136691,1,8,0:0:0:0:
256,192,136909,1,8,0:0:0:0:
256,192,137126,1,0,0:0:0:0:
256,192,137561,1,8,0:0:0:0:
256,192,138213,1,8,0:0:0:0:
256,192,138539,1,8,0:0:0:0:
256,192,138865,1,0,0:0:0:0:
256,192,139083,1,0,0:0:0:0:
256,192,139300,1,8,0:0:0:0:
256,192,139735,1,4,0:0:0:0:
256,192,140170,1,8,0:0:0:0:
256,192,140387,1,8,0:0:0:0:
256,192,140604,1,0,0:0:0:0:
256,192,141039,1,8,0:0:0:0:
256,192,141691,1,8,0:0:0:0:
256,192,142018,1,8,0:0:0:0:
256,192,142344,1,0,0:0:0:0:
256,192,142561,1,0,0:0:0:0:
256,192,142778,1,8,0:0:0:0:
256,192,143213,1,0,0:0:0:0:
256,192,143648,1,8,0:0:0:0:
256,192,143865,1,8,0:0:0:0:
256,192,144083,1,0,0:0:0:0:
256,192,144300,1,0,0:0:0:0:
256,192,144518,1,8,0:0:0:0:
256,192,144952,1,4,0:0:0:0:
256,192,145822,1,8,0:0:0:0:
256,192,146257,1,8,0:0:0:0:
256,192,146691,1,4,0:0:0:0:
256,192,147126,1,8,0:0:0:0:
256,192,147996,1,8,0:0:0:0:
256,192,148865,1,8,0:0:0:0:
256,192,149300,1,8,0:0:0:0:
256,192,149735,1,8,0:0:0:0:
256,192,150604,1,8,0:0:0:0:
256,192,151474,1,8,0:0:0:0:
256,192,152344,1,8,0:0:0:0:
256,192,152778,1,0,0:0:0:0:
256,192,153213,1,8,0:0:0:0:
256,192,153648,1,0,0:0:0:0:
256,192,154300,1,0,0:0:0:0:
256,192,154952,1,0,0:0:0:0:
256,192,155387,1,8,0:0:0:0:
256,192,155822,1,8,0:0:0:0:
256,192,156257,1,8,0:0:0:0:
256,192,156474,1,8,0:0:0:0:
256,192,156691,1,8,0:0:0:0:
256,192,157126,1,0,0:0:0:0:
256,192,157778,1,0,0:0:0:0:
256,192,158431,1,0,0:0:0:0:
256,192,158865,1,8,0:0:0:0:
256,192,159300,1,8,0:0:0:0:
256,192,159735,1,8,0:0:0:0:
256,192,159952,1,0,0:0:0:0:
256,192,160170,1,8,0:0:0:0:
256,192,160604,1,8,0:0:0:0:
32,192,162344,2,0,L|480:192,1,420
256,192,164083,1,4,0:0:0:0:
256,192,164518,1,0,0:0:0:0:
256,192,164736,1,8,0:0:0:0:
256,192,165171,1,8,0:0:0:0:
256,192,165388,1,8,0:0:0:0:
256,192,165823,1,8,0:0:0:0:
256,192,166257,1,0,0:0:0:0:
256,192,166475,1,8,0:0:0:0:
256,192,166910,1,8,0:0:0:0:
256,192,167236,1,8,0:0:0:0:
256,192,167562,1,8,0:0:0:0:
256,192,168214,1,8,0:0:0:0:
256,192,168649,1,8,0:0:0:0:
256,192,168866,1,8,0:0:0:0:
256,192,169301,1,8,0:0:0:0:
256,192,169736,1,0,0:0:0:0:
256,192,169953,1,8,0:0:0:0:
256,192,170388,1,8,0:0:0:0:
256,192,170714,1,0,0:0:0:0:
256,192,171040,1,8,0:0:0:0:
256,192,171691,1,8,0:0:0:0:
256,192,172127,1,8,0:0:0:0:
256,192,172344,1,8,0:0:0:0:
256,192,172779,1,8,0:0:0:0:
256,192,173214,1,0,0:0:0:0:
256,192,173431,1,8,0:0:0:0:
256,192,173866,1,8,0:0:0:0:
256,192,174192,1,8,0:0:0:0:
256,192,174518,1,8,0:0:0:0:
256,192,175171,1,8,0:0:0:0:
256,192,175605,1,8,0:0:0:0:
256,192,175823,1,8,0:0:0:0:
256,192,176257,1,8,0:0:0:0:
256,192,176692,1,0,0:0:0:0:
256,192,176910,1,8,0:0:0:0:
256,192,177344,1,8,0:0:0:0:
256,192,177671,1,0,0:0:0:0:
256,192,177997,1,4,0:0:0:0:
256,192,178648,1,0,0:0:0:0:
256,192,178974,1,0,0:0:0:0:
256,192,179300,1,8,0:0:0:0:
256,192,179735,1,0,0:0:0:0:
256,192,180170,1,8,0:0:0:0:
256,192,181040,1,8,0:0:0:0:
256,192,181474,1,0,0:0:0:0:
256,192,181800,1,0,0:0:0:0:
256,192,182126,1,0,0:0:0:0:
256,192,182453,1,0,0:0:0:0:
256,192,182779,1,8,0:0:0:0:
256,192,183213,1,0,0:0:0:0:
256,192,183648,1,8,0:0:0:0:
256,192,184300,1,0,0:0:0:0:
256,192,184518,1,8,0:0:0:0:
256,192,184953,1,4,0:0:0:0:
256,192,185605,1,0,0:0:0:0:
256,192,185931,1,0,0:0:0:0:
256,192,186257,1,8,0:0:0:0:
256,192,186692,1,0,0:0:0:0:
256,192,187126,1,8,0:0:0:0:
256,192,187996,1,8,0:0:0:0:
256,192,188431,1,8,0:0:0:0:
256,192,188866,1,8,0:0:0:0:
256,192,189083,1,8,0:0:0:0:
256,192,189518,1,8,0:0:0:0:
256,192,189735,1,8,0:0:0:0:
256,192,190170,1,8,0:0:0:0:
256,192,190605,1,8,0:0:0:0:
256,192,190822,1,8,0:0:0:0:
256,192,191257,1,8,0:0:0:0:
256,192,191583,1,8,0:0:0:0:
256,192,191909,1,4,0:0:0:0:
256,192,192344,1,8,0:0:0:0:
256,192,192778,1,8,0:0:0:0:
256,192,193213,1,8,0:0:0:0:
256,192,193431,1,8,0:0:0:0:
256,192,193648,1,0,0:0:0:0:
256,192,194083,1,0,0:0:0:0:
256,192,194518,1,8,0:0:0:0:
256,192,194735,1,0,0:0:0:0:
256,192,194952,1,8,0:0:0:0:
256,192,195387,1,0,0:0:0:0:
256,192,195713,1,0,0:0:0:0:
256,192,196039,1,8,0:0:0:0:
256,192,196365,1,0,0:0:0:0:
256,192,196691,1,8,0:0:0:0:
256,192,197561,1,0,0:0:0:0:
256,192,197778,1,0,0:0:0:0:
256,192,197996,1,8,0:0:0:0:
256,192,198213,1,0,0:0:0:0:
256,192,198431,1,8,0:0:0:0:
256,192,198865,1,4,0:0:0:0:
256,192,199300,1,8,0:0:0:0:
256,192,199735,1,8,0:0:0:0:
256,192,200170,1,8,0:0:0:0:
256,192,200387,1,8,0:0:0:0:
256,192,200604,1,0,0:0:0:0:
256,192,201039,1,8,0:0:0:0:
256,192,201474,1,8,0:0:0:0:
256,192,201691,1,0,0:0:0:0:
256,192,201909,1,8,0:0:0:0:
256,192,202344,1,8,0:0:0:0:
256,192,202670,1,8,0:0:0:0:
256,192,202996,1,8,0:0:0:0:
256,192,203322,1,0,0:0:0:0:
256,192,203648,1,8,0:0:0:0:
256,192,204518,1,8,0:0:0:0:
256,192,204735,1,8,0:0:0:0:
256,192,204952,1,8,0:0:0:0:
256,192,205170,1,0,0:0:0:0:
256,192,205387,1,8,0:0:0:0:
256,192,205822,1,4,0:0:0:0:
256,192,206257,1,8,0:0:0:0:
256,192,206691,1,8,0:0:0:0:
256,192,207126,1,8,0:0:0:0:
256,192,207344,1,8,0:0:0:0:
256,192,207561,1,0,0:0:0:0:
256,192,207996,1,0,0:0:0:0:
256,192,208431,1,8,0:0:0:0:
256,192,208648,1,0,0:0:0:0:
256,192,208865,1,8,0:0:0:0:
256,192,209300,1,0,0:0:0:0:
256,192,209626,1,0,0:0:0:0:
256,192,209952,1,8,0:0:0:0:
256,192,210278,1,0,0:0:0:0:
256,192,210604,1,8,0:0:0:0:
256,192,211474,1,0,0:0:0:0:
256,192,211691,1,0,0:0:0:0:
256,192,211909,1,8,0:0:0:0:
256,192,212126,1,0,0:0:0:0:
256,192,212344,1,8,0:0:0:0:
256,192,212778,1,4,0:0:0:0:
256,192,213213,1,8,0:0:0:0:
256,192,213648,1,8,0:0:0:0:
256,192,214083,1,8,0:0:0:0:
256,192,214300,1,8,0:0:0:0:
256,192,214518,1,0,0:0:0:0:
256,192,214952,1,0,0:0:0:0:
256,192,215387,1,8,0:0:0:0:
256,192,215604,1,0,0:0:0:0:
256,192,215822,1,8,0:0:0:0:
256,192,216257,1,8,0:0:0:0:
256,192,216583,1,0,0:0:0:0:
256,192,216909,1,8,0:0:0:0:
256,192,217235,1,8,0:0:0:0:
256,192,217561,1,8,0:0:0:0:
256,192,217996,1,0,0:0:0:0:
256,192,218431,1,8,0:0:0:0:
256,192,218648,1,0,0:0:0:0:
256,192,218865,1,8,0:0:0:0:
256,192,219300,1,12,0:0:0:0:
