osu file format v14

[General]
AudioFilename: audio.mp3
AudioLeadIn: 0
PreviewTime: 163820
Countdown: 0
SampleSet: Soft
StackLeniency: 0.7
Mode: 0
LetterboxInBreaks: 0
WidescreenStoryboard: 1

[Editor]
Bookmarks: 28277,45668,73494,87407,101320,115233,121537,146537,163929,219146
DistanceSpacing: 1.3
BeatDivisor: 8
GridSize: 32
TimelineZoom: 2.819999

[Metadata]
Title:Overtime
TitleUnicode:Overtime
Artist:KNOWER
ArtistUnicode:KNOWER
Creator:Mir
Version:Normal
Source:
Tags:featured artist electronic jazz english life louis cole genevieve artadi fa plaudible
BeatmapID:2507682
BeatmapSetID:1170697

[Difficulty]
HPDrainRate:2
CircleSize:3
OverallDifficulty:3
ApproachRate:6
SliderMultiplier:1.39999990463257
SliderTickRate:1

[Events]
//Background and Video events
0,0,"overtime.jpg",0,0
//Break Periods
2,73694,79325
2,146737,160450
//Storyboard Layer 0 (Background)
//Storyboard Layer 1 (Fail)
//Storyboard Layer 2 (Pass)
//Storyboard Layer 3 (Foreground)
//Storyboard Layer 4 (Overlay)
//Storyboard Sound Samples

[TimingPoints]
451,434.782608695652,4,2,1,90,1,0
28277,-100,4,2,1,90,0,1
28603,-100,4,2,1,90,0,1
35233,-100,4,2,1,90,0,1
35559,-100,4,2,1,90,0,1
42081,-100,4,2,1,90,0,0
42190,-100,4,2,1,90,0,1
42407,-100,4,2,1,5,0,0
42516,-100,4,2,1,90,0,0
43929,-100,4,2,1,90,0,1
44146,-100,4,2,1,5,0,0
44255,-100,4,2,1,90,0,0
45070,-100,4,2,1,5,0,0
45179,-100,4,2,1,90,0,0
45396,-100,4,2,1,5,0,0
45505,-100,4,2,1,60,0,0
45668,-100,4,2,1,60,0,0
57842,-100,4,2,1,60,0,0
58983,-100,4,2,1,5,0,0
59092,-100,4,2,1,60,0,0
59309,-100,4,2,1,5,0,0
59418,-100,4,2,1,60,0,0
59581,-100,4,2,1,60,0,0
69418,-100,4,2,1,5,0,0
69472,-100,4,2,1,60,0,0
80450,-100,4,2,1,60,0,0
84255,-100,4,2,1,60,0,0
84581,-100,4,2,1,60,0,0
84907,-100,4,2,1,60,0,0
85668,-100,4,2,1,60,0,0
87407,-100,4,2,1,90,0,1
87733,-100,4,2,1,90,0,1
94364,-100,4,2,1,90,0,1
95016,-100,4,2,1,90,0,1
99798,-100,4,2,1,90,0,0
100668,-100,4,2,1,90,0,0
101320,-83.3333333333333,4,2,1,90,0,1
101646,-83.3333333333333,4,2,1,90,0,1
108277,-83.3333333333333,4,2,1,90,0,1
110016,-83.3333333333333,4,2,1,90,0,1
111103,-83.3333333333333,4,2,1,90,0,1
115124,-100,4,2,1,90,0,0
115233,-100,4,2,1,90,0,1
115450,-100,4,2,1,5,0,0
115559,-100,4,2,1,90,0,0
116972,-100,4,2,1,90,0,1
117190,-100,4,2,1,5,0,0
117299,-100,4,2,1,90,0,0
118114,-100,4,2,1,5,0,0
118223,-100,4,2,1,90,0,0
118440,-100,4,2,1,5,0,0
118549,-100,4,2,1,90,0,0
118711,-100,4,2,1,60,0,0
130885,-100,4,2,1,60,0,0
132027,-100,4,2,1,5,0,0
132136,-100,4,2,1,60,0,0
132353,-100,4,2,1,5,0,0
132462,-100,4,2,1,60,0,0
132624,-100,4,2,1,60,0,0
163059,-100,4,2,1,75,0,0
163929,-100,4,2,1,90,0,1
164364,-100,4,2,1,90,0,1
170885,-100,4,2,1,90,0,1
171320,-100,4,2,1,90,0,1
177733,-100,4,2,1,90,0,0
177842,-100,4,2,1,90,0,1
178277,-100,4,2,1,90,0,1
184798,-100,4,2,1,90,0,1
185233,-100,4,2,1,90,0,1
191646,-100,4,2,1,90,0,0
191755,-100,4,2,1,90,0,1
192190,-100,4,2,1,90,0,1
198711,-100,4,2,1,90,0,1
199146,-100,4,2,1,90,0,1
205342,-100,4,2,1,90,0,1
205614,-100,4,2,1,5,0,0
205668,-100,4,2,1,90,0,1
206103,-100,4,2,1,90,0,1
212624,-100,4,2,1,90,0,1
213059,-100,4,2,1,90,0,1
219255,-100,4,2,1,90,0,0
219472,-100,4,2,1,5,0,0

[Colours]
Combo1 : 172,117,240
Combo2 : 247,145,244
Combo3 : 238,77,166
Combo4 : 206,91,95

[HitObjects]
22,336,28277,6,0,P|111:337|139:274,1,139.999990463257,6|10,3:2|0:2,0:2:0:0:
164,222,28929,2,0,L|315:210,1,139.999990463257,2|2,0:2|0:2,0:2:0:0:
376,253,29581,1,10,0:2:0:0:
501,141,30016,6,0,P|480:80|393:94,1,139.999990463257,2|10,3:2|0:2,0:0:0:0:
367,146,30668,1,2,0:2:0:0:
273,6,31103,1,2,0:2:0:0:
163,68,31429,1,2,0:2:0:0:
39,40,31755,6,0,P|30:85|78:187,1,139.999990463257,2|8,3:2|0:2,0:2:0:0:
154,174,32407,2,0,P|163:219|172:305,1,104.999992847443,2|2,0:2|0:2,0:2:0:0:
265,360,33059,2,0,P|330:339|382:310,1,104.999992847443,10|2,0:2|0:2,0:2:0:0:
441,224,33711,2,0,P|376:203|324:174,1,104.999992847443,2|0,0:2|0:2,0:2:0:0:
179,54,34581,1,2,0:2:0:0:
298,15,34907,1,2,0:2:0:0:
413,65,35233,6,0,P|398:154|390:215,1,139.999990463257,6|10,3:2|0:2,0:2:0:0:
330,262,35885,2,0,P|280:240|209:298,1,139.999990463257,2|2,0:2|0:2,0:2:0:0:
191,364,36537,1,10,0:2:0:0:
23,353,36972,6,0,P|18:303|26:232,1,104.999992847443,2|0,3:2|0:2,0:0:0:0:
35,208,37407,2,0,P|53:158|52:131,2,69.9999952316284,10|2|2,0:2|0:2|0:2,0:0:0:0:
100,261,38059,1,2,0:2:0:0:
202,187,38385,1,2,0:2:0:0:
174,74,38711,6,0,B|221:54|221:54|295:137,1,139.999990463257,2|8,3:2|0:2,0:2:0:0:
331,187,39364,2,0,B|367:226|367:226|414:206,1,104.999992847443,2|2,0:2|0:2,0:2:0:0:
496,301,40016,2,0,L|380:349,1,104.999992847443,10|2,0:2|0:2,0:2:0:0:
359,354,40450,1,2,3:2:0:0:
287,309,40669,2,0,B|240:289|240:289|203:328,1,104.999992847443,2|0,0:2|0:2,0:2:0:0:
35,202,41537,2,0,L|46:123,1,69.9999952316285,2|8,0:2|0:2,0:2:0:0:
86,124,41864,2,0,L|97:45,1,69.9999952316285,2|0,0:2|0:0,0:2:0:0:
130,30,42190,5,6,3:2:0:0:
466,219,43929,5,6,3:2:0:0:
208,349,45016,5,2,0:1:0:0:
208,349,45342,1,2,0:1:0:0:
312,278,45668,6,0,P|326:203|341:128,1,139.999990463257,6|8,3:2|0:2,0:2:0:0:
393,76,46320,1,0,0:2:0:0:
334,15,46537,2,0,P|277:3|248:79,1,139.999990463257,2|10,0:2|0:2,0:2:0:0:
211,231,47407,6,0,P|139:209|53:193,1,139.999990463257,0|8,3:2|0:2,0:0:0:0:
44,225,47950,1,0,0:2:0:0:
11,347,48277,2,0,P|56:361|139:303,1,139.999990463257,0|8,0:2|0:2,0:2:0:0:
235,185,49146,6,0,B|322:199|267:232|357:253,1,139.999990463257,2|8,3:2|0:2,0:2:0:0:
429,217,49798,1,2,0:2:0:0:
461,139,50016,2,0,P|472:78|478:-16,1,139.999990463257,2|8,0:2|0:2,0:2:0:0:
311,25,50885,5,0,0:0:0:0:
311,25,51103,2,0,P|240:19|193:7,1,104.999992847443,2|0,0:2|0:2,0:2:0:0:
84,40,51755,2,0,P|98:88|124:164,1,104.999992847443,0|0,0:2|0:2,0:2:0:0:
133,178,52190,1,8,0:2:0:0:
253,294,52624,6,0,P|214:353|127:355,1,139.999990463257,2|8,3:2|0:2,0:2:0:0:
69,355,53277,1,0,0:2:0:0:
69,355,53494,2,0,P|51:302|34:207,1,139.999990463257,0|10,0:2|0:2,0:2:0:0:
53,140,54146,1,2,0:2:0:0:
53,140,54364,6,0,P|155:155|161:199,1,139.999990463257,0|8,3:2|0:2,0:0:0:0:
308,255,55233,2,0,L|437:233,1,104.999992847443,0|0,0:2|0:2,0:2:0:0:
446,260,55668,1,8,0:2:0:0:
500,196,55885,1,2,0:2:0:0:
469,117,56103,6,0,B|448:19|448:19|395:14,1,139.999990463257,2|8,3:2|0:2,0:2:0:0:
324,5,56755,1,0,0:2:0:0:
324,5,56972,2,0,L|310:120,1,104.999992847443,2|2,0:2|0:2,0:0:0:0:
295,191,57516,1,2,0:2:0:0:
280,273,57733,2,0,L|273:322,1,34.9999976158142,2|4,0:2|3:2,0:0:0:0:
44,57,58929,5,2,0:1:0:0:
44,57,59255,1,2,0:1:0:0:
27,181,59581,6,0,L|184:166,1,139.999990463257,6|8,3:2|0:2,0:2:0:0:
223,105,60233,1,0,0:2:0:0:
265,32,60450,2,0,B|311:39|311:39|327:83|327:83|383:92,1,139.999990463257,2|10,0:2|0:2,0:0:0:0:
438,245,61320,5,0,0:0:0:0:
361,211,61537,2,0,P|353:259|346:322,1,104.999992847443,2|0,0:2|0:2,0:2:0:0:
238,379,62190,2,0,P|230:331|223:268,1,104.999992847443,0|0,0:2|0:2,0:2:0:0:
241,237,62624,1,8,0:2:0:0:
202,161,62842,1,2,0:2:0:0:
118,161,63059,6,0,B|7:180|7:180|-7:236,1,139.999990463257,2|8,3:2|0:2,0:2:0:0:
20,288,63711,1,0,0:2:0:0:
40,369,63929,2,0,B|151:350|151:350|157:323,1,139.999990463257,2|10,0:2|0:2,0:2:0:0:
232,172,64798,6,0,L|379:192,1,139.999990463257,0|8,0:0|0:2,0:0:0:0:
409,172,65342,1,0,0:2:0:0:
464,59,65668,2,0,P|390:44|343:112,1,139.999990463257,0|8,0:2|0:2,0:2:0:0:
295,247,66537,5,2,3:2:0:0:
295,247,66755,1,0,3:2:0:0:
276,328,66972,2,0,P|229:352|188:344,1,69.9999952316284,8|0,0:2|0:2,0:2:0:0:
147,298,67407,2,0,P|144:243|132:206,2,69.9999952316284,2|2|10,0:2|0:2|0:2,0:2:0:0:
299,227,68277,6,0,B|355:235|355:235|366:260|366:260|435:268,1,139.999990463257,0|8,3:2|0:2,0:0:0:0:
458,246,68820,1,0,0:2:0:0:
467,120,69146,1,0,0:2:0:0:
467,120,69364,2,0,P|411:91|371:15,1,139.999990463257,2|2,0:2|0:2,0:2:0:0:
341,104,70016,6,0,B|283:93|283:93|263:104|263:104|195:88,1,139.999990463257,2|8,3:2|0:2,0:2:0:0:
140,38,70668,1,0,0:2:0:0:
140,38,70885,2,0,P|88:41|65:101,1,104.999992847443,2|2,0:2|0:2,0:0:0:0:
73,166,71429,1,2,0:2:0:0:
150,197,71646,2,0,P|156:237|154:259,1,34.9999976158142,2|4,0:2|3:2,0:2:0:0:
255,194,73494,5,0,1:2:0:0:
28,166,80450,5,0,3:2:0:0:
113,310,80885,2,0,P|181:295|264:283,2,139.999990463257,2|2|2,1:2|0:2|1:2,0:2:0:0:
28,166,82190,2,0,P|97:176|127:100,1,139.999990463257,2|2,0:2|1:2,0:2:0:0:
140,40,82842,1,2,0:2:0:0:
221,21,83059,2,0,P|296:33|306:37,2,69.9999952316285,2|2|2,0:2|0:2|1:2,0:0:0:0:
256,192,83929,12,8,85668,0:2:0:0:
233,215,86972,6,0,P|227:174|217:137,1,69.9999952316285,4|4,0:3|0:3,0:2:0:0:
273,81,87407,6,0,B|333:70|333:70|360:87|360:87|427:70,1,139.999990463257,6|10,3:2|0:2,0:2:0:0:
470,128,88059,2,0,P|420:134|405:228,1,139.999990463257,2|2,0:2|0:2,0:2:0:0:
452,271,88711,1,10,0:2:0:0:
300,344,89146,6,0,B|196:330|196:330|167:283,1,139.999990463257,2|10,3:2|0:2,0:2:0:0:
149,220,89798,1,2,0:2:0:0:
235,76,90233,1,2,0:2:0:0:
126,11,90559,1,2,0:2:0:0:
20,80,90885,6,0,P|11:136|2:234,1,139.999990463257,2|8,3:2|0:2,0:2:0:0:
100,269,91537,2,0,P|107:217|112:164,1,104.999992847443,2|2,0:2|0:2,0:2:0:0:
221,100,92190,2,0,P|228:151|233:204,1,104.999992847443,10|2,0:2|0:2,0:2:0:0:
326,120,92842,2,0,P|320:67|313:15,1,104.999992847443,2|0,0:2|0:2,0:2:0:0:
354,0,93277,1,0,3:2:0:0:
484,104,93711,2,0,P|470:164|459:187,1,69.9999952316285,2|8,0:2|0:2,0:2:0:0:
490,206,94037,2,0,P|476:266|465:289,1,69.9999952316285,2|8,0:2|0:2,0:2:0:0:
451,310,94364,6,0,B|352:296|352:296|340:325|340:325|352:357,1,139.999990463257,6|10,3:2|0:2,0:2:0:0:
271,377,95016,2,0,P|218:376|204:287,1,139.999990463257,2|2,0:2|0:2,0:2:0:0:
250,240,95668,1,10,0:2:0:0:
85,203,96103,5,2,3:2:0:0:
69,120,96320,2,0,L|-13:132,2,69.9999952316285,2|10|2,0:2|0:2|0:2,0:0:0:0:
115,49,96972,1,2,0:2:0:0:
198,40,97190,2,0,B|230:56|230:56|321:19,1,104.999992847443,2|2,0:2|0:2,0:2:0:0:
419,42,97842,6,0,P|463:84|410:163,1,139.999990463257,2|8,3:2|0:2,0:2:0:0:
492,217,98494,2,0,P|450:261|396:227,1,104.999992847443,2|2,0:2|0:2,0:2:0:0:
308,320,99146,2,0,P|264:278|298:224,1,104.999992847443,10|2,0:2|0:2,0:2:0:0:
328,125,99798,6,0,P|240:109|209:103,1,104.999992847443,2|2,0:2|0:2,0:2:0:0:
45,150,100668,1,2,0:2:0:0:
40,275,100994,1,2,0:2:0:0:
136,355,101320,6,0,P|186:308|294:284,1,167.999983428956,6|8,3:2|0:2,0:2:0:0:
379,302,101972,2,0,P|397:249|435:156,1,125.999987571717,2|2,0:2|0:2,0:2:0:0:
272,181,102624,2,0,P|254:128|216:35,1,125.999987571717,10|2,0:2|0:2,0:2:0:0:
189,30,103059,1,0,3:2:0:0:
281,71,103277,2,0,P|344:46|376:32,2,83.9999917144779,2|8|0,0:2|0:2|0:0,0:2:0:0:
473,131,104146,2,0,P|462:179|423:213,1,83.9999917144779,2|8,0:2|0:2,0:2:0:0:
391,221,104472,1,2,0:2:0:0:
299,349,104798,6,0,P|262:286|168:294,1,167.999983428956,2|8,3:2|0:2,0:2:0:0:
128,358,105450,2,0,P|93:316|114:231,1,125.999987571717,2|2,0:2|0:2,0:2:0:0:
151,122,106103,2,0,P|159:61|122:12,1,125.999987571717,10|2,0:2|0:2,0:2:0:0:
15,53,106755,2,0,P|18:93|52:117,2,83.9999917144779,2|8|0,3:2|0:2|0:0,0:2:0:0:
167,126,107624,2,0,P|207:171|230:205,1,83.9999917144779,2|8,0:2|0:2,0:2:0:0:
260,203,107950,2,0,P|286:256|300:295,1,83.9999917144779,2|8,0:2|0:2,0:2:0:0:
328,304,108277,6,0,P|349:194|374:116,1,167.999983428956,6|8,3:2|0:2,0:2:0:0:
435,93,108929,1,2,0:2:0:0:
325,31,109255,1,2,0:2:0:0:
199,32,109581,1,10,0:2:0:0:
82,79,109907,1,2,0:2:0:0:
158,176,110233,6,0,P|138:221|125:265,1,83.9999917144779,2|10,3:2|0:2,0:0:0:0:
48,283,110668,2,0,P|60:322|78:361,1,83.9999917144779,2|2,0:2|0:2,0:0:0:0:
162,368,111103,2,0,P|219:345|270:332,2,83.9999917144779,2|8|2,0:2|0:2|0:2,0:2:0:0:
140,286,111755,6,0,P|148:203|198:118,1,167.999983428956,2|8,3:2|0:2,0:2:0:0:
171,46,112407,2,0,P|211:87|291:105,1,125.999987571717,2|2,0:2|0:2,0:2:0:0:
313,87,112842,2,0,P|342:52|359:18,1,83.9999917144779,2|10,0:2|0:2,0:0:0:0:
485,141,113494,6,0,P|401:136|373:223,1,167.999983428956,2|8,3:2|0:2,0:2:0:0:
378,286,114146,2,0,P|369:339|354:381,1,83.9999917144779,2|0,0:2|0:2,0:2:0:0:
276,352,114581,2,0,P|210:322|150:304,1,125.999987571717,2|2,3:2|0:2,0:2:0:0:
54,314,115233,5,6,3:2:0:0:
408,321,116972,5,6,3:2:0:0:
86,50,118059,5,2,0:1:0:0:
86,50,118385,1,2,0:1:0:0:
34,164,118711,6,0,B|94:180|94:180|93:194|93:194|170:214,1,139.999990463257,6|8,3:2|0:2,0:2:0:0:
227,166,119364,1,2,0:2:0:0:
239,83,119581,2,0,P|231:33|225:5,2,69.9999952316285,2|2|10,0:2|0:2|0:2,0:2:0:0:
261,249,120450,6,0,P|333:237|369:313,1,139.999990463257,0|8,3:2|0:2,0:0:0:0:
374,326,120994,1,0,0:2:0:0:
489,376,121320,2,0,P|492:299|488:224,1,139.999990463257,0|8,0:2|0:2,0:2:0:0:
458,157,121972,1,2,0:2:0:0:
411,86,122190,6,0,P|361:90|280:36,1,139.999990463257,2|8,3:2|0:2,0:2:0:0:
207,14,122842,1,0,0:2:0:0:
127,40,123059,2,0,P|118:84|125:163,1,104.999992847443,0|2,0:2|0:2,0:2:0:0:
135,183,123494,1,10,0:2:0:0:
76,340,123929,5,0,0:0:0:0:
4,296,124146,2,0,P|-8:245|42:205,1,104.999992847443,2|0,0:2|0:2,0:2:0:0:
150,214,124798,2,0,L|272:233,1,104.999992847443,0|0,0:2|0:2,0:2:0:0:
293,215,125233,1,8,0:2:0:0:
406,338,125668,6,0,P|472:363|491:293,1,139.999990463257,2|8,3:2|0:2,0:2:0:0:
484,229,126320,1,2,0:2:0:0:
484,229,126537,2,0,L|503:162,1,69.9999952316285,2|0,0:2|0:2,0:2:0:0:
491,78,126972,2,0,P|445:62|361:35,1,104.999992847443,10|2,0:2|0:2,0:2:0:0:
350,53,127407,5,0,3:2:0:0:
323,132,127624,2,0,P|260:175|219:171,1,104.999992847443,2|0,0:2|0:2,0:2:0:0:
149,80,128277,2,0,P|152:41|177:9,2,69.9999952316285,2|2|8,0:2|0:2|0:2,0:0:0:0:
75,120,128929,1,2,0:2:0:0:
118,191,129146,6,0,P|173:244|150:328,1,139.999990463257,2|8,3:2|0:2,0:2:0:0:
113,366,129798,1,0,0:2:0:0:
32,341,130016,2,0,P|8:310|25:258,2,69.9999952316285,2|0|8,0:2|0:2|0:2,0:0:0:0:
198,384,130885,5,4,3:2:0:0:
470,223,131972,5,2,0:1:0:0:
470,223,132298,1,2,0:1:0:0:
447,99,132624,6,0,B|357:83|357:83|323:140,1,139.999990463257,6|8,3:2|0:2,0:2:0:0:
290,198,133277,1,0,0:2:0:0:
334,269,133494,2,0,P|347:323|275:357,1,139.999990463257,2|10,0:2|0:2,0:2:0:0:
120,312,134364,5,0,3:2:0:0:
89,234,134581,2,0,P|84:193|74:103,1,104.999992847443,2|0,0:2|0:2,0:2:0:0:
149,27,135233,2,0,P|184:46|264:57,1,104.999992847443,0|0,0:2|0:2,0:2:0:0:
287,43,135668,1,8,0:2:0:0:
262,209,136103,6,0,P|293:180|411:158,1,139.999990463257,2|8,3:2|0:2,0:2:0:0:
450,207,136755,1,0,0:2:0:0:
483,284,136972,2,0,P|465:325|446:362,2,69.9999952316285,0|2|10,0:2|0:2|0:2,0:2:0:0:
323,337,137842,6,0,B|252:352|262:296|177:309,1,139.999990463257,0|10,0:0|0:2,0:0:0:0:
32,288,138711,2,0,P|26:236|20:153,1,104.999992847443,0|0,0:2|0:2,0:2:0:0:
38,144,139146,1,8,0:2:0:0:
176,48,139581,6,0,P|240:38|279:106,1,139.999990463257,2|8,3:2|0:2,0:2:0:0:
216,149,140233,1,0,0:2:0:0:
184,226,140450,2,0,P|208:285|250:369,1,139.999990463257,2|8,0:2|0:2,0:0:0:0:
409,355,141320,5,0,0:0:0:0:
478,308,141537,2,0,P|499:247|501:184,1,104.999992847443,2|0,0:2|0:2,0:2:0:0:
487,81,142190,2,0,P|418:105|376:120,1,104.999992847443,0|0,0:2|0:2,0:2:0:0:
350,134,142624,1,8,0:2:0:0:
274,97,142842,1,2,0:2:0:0:
198,60,143059,6,0,B|154:67|154:67|136:179,1,139.999990463257,2|8,3:2|0:2,0:2:0:0:
116,242,143711,1,0,0:2:0:0:
138,323,143929,2,0,P|189:331|297:345,1,139.999990463257,0|10,0:2|0:2,0:2:0:0:
440,306,144798,5,0,3:2:0:0:
451,138,145233,1,8,0:2:0:0:
303,56,145668,2,0,P|236:48|203:38,1,69.9999952316285,8|8,0:2|0:2,0:0:0:0:
149,41,146103,2,0,P|82:49|49:59,1,69.9999952316285,0|0,3:2|3:2,0:0:0:0:
28,116,146537,1,4,3:2:0:0:
184,286,162190,5,0,1:2:0:0:
161,120,162624,1,0,1:2:0:0:
327,97,163059,1,0,1:2:0:0:
350,263,163494,1,0,1:2:0:0:
184,286,163929,6,0,B|85:270|85:270|71:219,1,139.999990463257,6|10,3:2|0:2,0:2:0:0:
125,164,164581,2,0,P|128:100|55:82,1,139.999990463257,2|2,0:2|0:2,0:2:0:0:
7,138,165233,1,10,0:2:0:0:
44,301,165668,6,0,L|199:284,1,139.999990463257,2|10,3:2|0:2,0:0:0:0:
241,346,166320,1,2,0:2:0:0:
399,289,166755,2,0,P|391:323|381:356,2,69.9999952316285,2|8|0,0:2|0:2|0:2,0:2:0:0:
472,247,167407,6,0,P|413:248|331:201,1,139.999990463257,2|8,3:2|0:2,0:2:0:0:
288,147,168059,2,0,P|237:159|187:177,1,104.999992847443,2|2,0:2|0:2,0:2:0:0:
65,178,168711,2,0,P|25:125|56:72,1,104.999992847443,10|2,0:2|0:2,0:2:0:0:
147,37,169364,1,2,0:2:0:0:
191,109,169581,2,0,P|196:150|174:195,1,69.9999952316285,8|0,0:2|0:2,0:0:0:0:
101,321,170233,1,2,0:2:0:0:
186,314,170450,2,0,P|252:339|303:341,1,104.999992847443,8|0,0:2|0:2,0:0:0:0:
329,335,170885,6,0,L|356:175,1,139.999990463257,6|10,3:2|0:2,0:2:0:0:
300,130,171537,2,0,P|342:77|426:80,1,139.999990463257,2|2,0:2|0:2,0:2:0:0:
477,129,172190,1,10,0:2:0:0:
498,295,172624,5,2,3:2:0:0:
424,251,172842,2,0,P|380:256|360:282,1,69.9999952316285,2|10,0:2|0:2,0:0:0:0:
293,229,173277,2,0,P|272:268|282:299,1,69.9999952316285,2|2,0:2|0:2,0:0:0:0:
335,366,173711,2,0,P|366:325|364:274,1,104.999992847443,2|2,0:2|0:2,0:2:0:0:
343,149,174364,6,0,P|312:132|197:117,1,139.999990463257,2|8,3:2|0:2,0:2:0:0:
137,71,175016,2,0,P|88:160|72:187,1,104.999992847443,2|2,0:2|0:2,0:2:0:0:
0,265,175668,2,0,P|49:354|65:381,1,104.999992847443,10|2,0:2|0:2,0:2:0:0:
172,323,176320,5,2,0:2:0:0:
238,271,176537,2,0,P|309:282|328:299,1,69.9999952316285,8|0,0:2|3:2,0:0:0:0:
462,341,177190,2,0,P|477:287|483:247,1,69.9999952316285,2|8,0:2|0:2,0:2:0:0:
480,231,177516,1,2,0:2:0:0:
438,111,177842,6,0,P|371:104|276:82,1,139.999990463257,6|8,3:2|0:2,0:2:0:0:
233,36,178494,1,2,0:2:0:0:
103,52,178820,1,2,0:2:0:0:
54,168,179146,2,0,P|69:220|99:287,1,104.999992847443,10|2,0:2|0:2,0:2:0:0:
125,286,179581,1,0,3:2:0:0:
183,226,179798,2,0,P|218:225|259:230,2,69.9999952316285,2|10|2,0:2|0:2|0:2,0:0:0:0:
226,63,180668,2,0,P|260:64|301:59,1,69.9999952316285,2|8,0:2|0:2,0:2:0:0:
334,44,180994,1,2,0:2:0:0:
455,77,181320,6,0,P|484:151|506:238,1,139.999990463257,2|8,3:2|0:2,0:2:0:0:
405,213,181972,2,0,P|376:287|361:335,1,104.999992847443,2|2,0:2|0:2,0:2:0:0:
255,368,182624,1,10,0:2:0:0:
141,314,182950,1,2,0:2:0:0:
204,204,183277,1,2,0:2:0:0:
189,121,183494,2,0,L|177:64,1,34.9999976158143,8|2,0:2|3:2,0:0:0:0:
275,274,184146,2,0,L|359:293,1,69.9999952316285,2|8,0:2|0:2,0:2:0:0:
364,326,184472,2,0,L|448:345,1,69.9999952316285,2|0,0:2|0:2,0:2:0:0:
456,306,184798,6,0,P|477:221|486:153,1,139.999990463257,6|8,3:2|0:2,0:2:0:0:
458,88,185450,2,0,P|423:61|360:47,1,104.999992847443,2|2,0:2|0:2,0:2:0:0:
242,15,186103,2,0,P|190:25|148:56,1,104.999992847443,10|2,0:2|0:2,0:2:0:0:
145,97,186537,1,0,3:2:0:0:
208,152,186755,6,0,P|205:222|201:228,1,69.9999952316285,2|10,0:2|0:2,0:0:0:0:
285,247,187190,2,0,P|233:294|226:295,1,69.9999952316285,2|2,0:2|0:2,0:0:0:0:
271,369,187624,2,0,P|201:366|195:362,2,69.9999952316285,2|8|0,0:2|0:2|0:2,0:2:0:0:
339,319,188277,6,0,P|392:294|492:278,1,139.999990463257,2|8,3:2|0:2,0:2:0:0:
477,194,188929,2,0,P|442:147|424:88,1,104.999992847443,2|2,0:2|0:2,0:2:0:0:
324,30,189581,2,0,P|289:77|271:136,1,104.999992847443,10|2,0:2|0:2,0:2:0:0:
294,157,190016,5,0,3:2:0:0:
260,233,190233,1,0,1:2:0:0:
180,260,190450,1,8,1:2:0:0:
100,231,190668,1,0,1:2:0:0:
78,149,190885,2,0,P|86:95|109:67,1,69.9999952316285,0|0,1:2|3:2,0:0:0:0:
175,101,191320,2,0,P|174:135|159:167,1,69.9999952316285,8|0,0:2|1:2,0:0:0:0:
100,231,191755,6,0,P|95:284|171:354,1,139.999990463257,6|8,3:2|0:2,0:2:0:0:
227,319,192407,2,0,P|289:298|353:292,1,104.999992847443,2|2,0:2|0:2,0:2:0:0:
410,197,193059,2,0,P|358:188|309:170,1,104.999992847443,10|2,0:2|0:2,0:2:0:0:
284,136,193494,1,0,3:2:0:0:
280,52,193711,2,0,P|351:34|360:28,2,69.9999952316285,2|8|0,0:2|0:2|0:2,0:2:0:0:
112,31,194581,2,0,P|97:63|66:137,1,104.999992847443,2|2,0:2|0:2,0:2:0:0:
43,250,195233,6,0,P|99:298|180:318,1,139.999990463257,2|8,3:2|0:2,0:2:0:0:
229,267,195885,1,2,0:2:0:0:
320,353,196211,1,2,0:2:0:0:
444,331,196537,2,0,P|464:277|487:223,1,104.999992847443,10|2,0:2|0:2,0:2:0:0:
356,227,197190,2,0,P|336:173|313:119,1,104.999992847443,2|2,0:2|0:2,0:2:0:0:
285,102,197624,1,0,3:2:0:0:
429,15,198059,2,0,P|457:64|457:95,1,69.9999952316285,2|8,0:2|0:2,0:2:0:0:
488,106,198385,2,0,P|473:160|451:182,1,69.9999952316285,2|8,0:2|0:2,0:2:0:0:
442,205,198711,6,0,B|437:261|437:261|448:285|448:285|442:357,1,139.999990463257,6|8,3:2|0:2,0:2:0:0:
358,347,199364,1,2,0:2:0:0:
252,278,199690,1,2,0:2:0:0:
139,335,200016,2,0,B|102:330|102:330|66:258,1,104.999992847443,10|2,0:2|0:2,0:2:0:0:
54,231,200450,2,0,L|89:90,1,139.999990463257,0|8,3:2|0:2,0:0:0:0:
188,18,201211,1,2,0:2:0:0:
307,57,201537,2,0,B|348:61|380:42,1,69.9999952316285,2|8,0:2|0:2,0:2:0:0:
406,15,201864,1,2,0:2:0:0:
443,137,202190,6,0,P|391:198|316:183,1,139.999990463257,2|8,3:2|0:2,0:2:0:0:
284,261,202842,2,0,P|236:231|181:210,1,104.999992847443,2|2,0:2|0:2,0:2:0:0:
175,87,203494,2,0,P|126:106|82:135,1,104.999992847443,10|2,0:2|0:2,0:2:0:0:
63,172,203929,1,0,3:2:0:0:
40,252,204146,2,0,P|39:306|46:351,2,69.9999952316285,2|8|0,0:2|0:2|0:2,0:2:0:0:
205,221,205016,1,2,3:2:0:0:
288,212,205233,1,10,0:2:0:0:
399,345,205668,6,0,P|451:348|465:262,1,139.999990463257,6|8,3:2|0:2,0:2:0:0:
474,190,206320,2,0,P|444:141|434:75,1,104.999992847443,2|2,0:2|0:2,0:2:0:0:
320,39,206972,2,0,P|281:35|229:24,1,69.9999952316285,10|0,0:2|0:2,0:2:0:0:
208,25,207298,1,2,0:2:0:0:
131,61,207516,1,2,0:2:0:0:
120,144,207733,2,0,P|132:191|156:302,1,139.999990463257,2|2,0:2|0:2,0:2:0:0:
81,384,208494,2,0,P|33:361|89:300,1,139.999990463257,2|2,0:2|0:0,0:2:0:0:
151,280,209146,6,0,P|240:294|299:310,1,139.999990463257,2|8,3:2|0:2,0:2:0:0:
360,349,209798,2,0,P|420:338|428:291,1,104.999992847443,2|2,0:2|0:2,0:2:0:0:
505,200,210450,2,0,P|494:140|447:132,1,104.999992847443,10|2,0:2|0:2,0:2:0:0:
413,11,211103,2,0,P|353:22|344:46,1,69.9999952316285,2|8,0:2|0:0,0:2:0:0:
337,64,211429,2,0,L|332:111,1,34.9999976158143,2|0,0:0|3:0,0:0:0:0:
217,221,211972,2,0,P|164:190|141:174,1,69.9999952316285,2|8,0:2|0:2,0:2:0:0:
119,204,212298,2,0,P|103:144|98:117,1,69.9999952316285,2|8,0:2|0:2,0:2:0:0:
69,108,212624,6,0,B|103:62|103:62|219:69,1,139.999990463257,6|8,3:2|0:2,0:2:0:0:
269,76,213277,1,2,0:2:0:0:
393,55,213603,1,2,0:2:0:0:
465,157,213929,2,0,P|467:227|431:273,1,104.999992847443,10|2,0:2|0:2,0:2:0:0:
417,283,214364,2,0,P|405:330|401:363,2,69.9999952316285,2|2|10,3:2|0:2|0:2,0:0:0:0:
306,222,215124,1,2,0:2:0:0:
180,225,215450,2,0,P|116:262|102:272,1,69.9999952316285,2|8,0:2|0:2,0:2:0:0:
96,295,215777,1,2,0:2:0:0:
25,190,216103,6,0,L|44:21,1,139.999990463257,2|8,3:2|0:2,0:2:0:0:
124,50,216755,2,0,P|196:57|250:70,1,104.999992847443,2|2,0:2|0:2,0:2:0:0:
269,182,217407,2,0,P|321:178|372:168,1,104.999992847443,10|2,0:2|0:2,0:2:0:0:
414,161,217842,1,0,3:2:0:0:
474,219,218059,2,0,P|470:271|464:304,1,69.9999952316285,2|8,0:2|0:2,0:2:0:0:
443,323,218385,2,0,P|387:310|327:315,1,104.999992847443,2|4,3:2|0:3,0:2:0:0:
258,332,218929,1,2,3:2:0:0:
185,374,219146,2,0,P|176:356|174:327,1,34.9999976158143,8|2,0:2|3:2,0:0:0:0:
