osu file format v14

[General]
AudioFilename: audio.mp3
AudioLeadIn: 0
PreviewTime: 32259
Countdown: 0
SampleSet: Normal
StackLeniency: 0.7
Mode: 1
LetterboxInBreaks: 0
WidescreenStoryboard: 0

[Editor]
Bookmarks: 204904,222150
DistanceSpacing: 0.8
BeatDivisor: 4
GridSize: 32
TimelineZoom: 1.952283

[Metadata]
Title:Overtime (Live Band Session)
TitleUnicode:Overtime (Live Band Session)
Artist:KNOWER
ArtistUnicode:KNOWER
Creator:Nifty
Version:Onitime (Live Drum Session)
Source:
Tags:pop jazz funk sesh electronic english genenieve artadi louis cole life dance sam wilkes rai thistlethwayte house bass fa featured artist
BeatmapID:2108996
BeatmapSetID:983446

[Difficulty]
HPDrainRate:5
CircleSize:2
OverallDifficulty:5
ApproachRate:10
SliderMultiplier:1.4
SliderTickRate:1

[Events]
//Background and Video events
0,0,"louiscole.jpg",0,60
//Break Periods
//Storyboard Layer 0 (Background)
//Storyboard Layer 1 (Fail)
//Storyboard Layer 2 (Pass)
//Storyboard Layer 3 (Foreground)
//Storyboard Layer 4 (Overlay)
//Storyboard Sound Samples

[TimingPoints]
99,422.535211267606,4,1,0,30,1,0
99,-63.791554357592,4,1,0,30,0,0
1566,-78.8888888888887,4,1,0,30,0,0
2634,458.015267175573,4,1,0,30,1,8
2634,-72.7777777777777,4,1,0,30,0,0
3550,410.958904109589,4,1,0,30,1,0
3550,-81.1111111111111,4,1,0,30,0,0
5193,431.965442764579,4,1,0,30,1,0
5193,-77.1666666666666,4,1,0,30,0,0
6920,420.168067226891,4,1,0,40,1,0
6920,-104.11198600175,4,1,0,40,0,0
10281,418.118466898955,4,1,0,40,1,0
10281,-104.78276743337,4,1,0,40,0,0
13625,421.644413211525,4,1,0,40,1,0
13625,-103.634112591945,4,1,0,40,0,0
16998,420.462508759636,4,1,0,40,1,0
16998,-104.016327720679,4,1,0,40,0,0
19520,437.956204379562,4,1,0,40,1,8
19520,-98.6321094312451,4,1,0,40,0,0
19738,-109.424920127795,4,1,0,40,0,0
20395,417.536534446764,4,1,0,50,1,0
20395,-104.97479728249,4,1,0,50,0,0
27075,418.118466898955,4,1,0,50,1,0
27075,-104.78276743337,4,1,0,50,0,0
28747,414.651002073255,4,1,0,50,1,0
28747,-105.937477121313,4,1,0,50,0,0
30405,412.371134020619,4,1,0,50,1,0
30405,-106.710671067106,4,1,0,50,0,0
32054,425.531914893617,4,1,0,50,1,0
32054,-102.39651416122,4,1,0,50,0,0
32905,447.761194029851,4,1,0,50,1,8
32905,-80.4321728691478,4,1,0,50,0,0
33800,419.58041958042,4,1,0,60,1,1
33800,-68.5522531160114,4,1,0,60,0,1
34009,-79.4444444444444,4,1,0,60,0,1
37156,422.535211267606,4,1,0,60,1,1
37156,-78.8888888888888,4,1,0,60,0,1
40536,420.315236427321,4,1,0,60,1,1
40536,-79.3055555555555,4,1,0,60,0,1
43057,409.556313993174,4,1,0,60,1,9
43057,-81.3888888888889,4,1,0,60,0,1
43876,420.315236427321,4,1,0,60,1,1
43876,-79.3055555555555,4,1,0,60,0,1
47238,425.531914893617,4,1,0,60,1,1
47238,-56.2874251497006,4,1,0,60,0,1
47450,-56.2874251497006,4,1,0,60,0,0
48940,424.028268551237,4,1,0,60,1,1
48940,-59.8055790363483,4,1,0,60,0,1
49152,-59.8055790363483,4,1,0,60,0,0
49788,437.956204379562,4,1,0,60,1,8
49788,-61.9629127091812,4,1,0,60,0,0
50663,418.118466898955,4,1,0,50,1,0
50663,-79.7222222222222,4,1,0,50,0,0
52335,425.531914893617,4,1,0,50,1,0
52335,-78.3333333333333,4,1,0,50,0,0
53186,412.371134020619,4,1,0,50,1,8
53186,-80.8333333333332,4,1,0,50,0,0
54010,425.531914893617,4,1,0,50,1,0
54010,-78.3333333333333,4,1,0,50,0,0
56563,415.22491349481,4,1,0,50,1,8
56563,-80.2777777777777,4,1,0,50,0,0
57393,420.609884332282,4,1,0,50,1,0
57393,-79.25,4,1,0,50,0,0
62440,422.535211267606,4,1,0,50,1,0
62440,-59.9662162162161,4,1,0,50,0,0
63285,425.531914893617,4,1,0,50,1,8
63285,-63.4278002699056,4,1,0,50,0,0
64136,421.052631578947,4,1,0,50,1,0
64136,-79.1666666666667,4,1,0,50,0,0
75925,441.176470588235,4,1,0,50,1,0
75925,-75.5555555555556,4,1,0,50,0,0
76218,-81.730769230769,4,1,0,50,0,0
76685,-89.0052356020939,4,1,0,50,0,0
77192,-93.4579439252336,4,1,0,50,0,0
77689,422.535211267606,4,1,0,40,1,0
77689,-103.34788937409,4,1,0,40,0,0
81069,418.994413407821,4,1,0,40,1,0
81069,-104.495037945126,4,1,0,40,0,0
84420,416.666666666667,4,1,0,40,1,0
84420,-105.263157894737,4,1,0,40,0,0
86086,411.663807890223,4,1,0,40,1,0
86086,-106.95285268758,4,1,0,40,0,0
87732,408.163265306122,4,1,0,40,1,0
87732,-108.167770419426,4,1,0,40,0,0
89364,419.58041958042,4,1,0,40,1,0
89364,-104.303428154632,4,1,0,40,0,0
89783,-100,4,1,0,40,0,0
89993,-96.1538461538461,4,1,0,40,0,0
90203,442.80442804428,4,1,0,40,1,8
90203,-88.6200130804448,4,1,0,40,0,0
91088,418.118466898955,4,1,0,60,1,1
91088,-68.7589841878296,4,1,0,60,0,1
91278,-79.7222222222222,4,1,0,60,0,1
94432,419.58041958042,4,1,0,60,1,1
94432,-79.4444444444444,4,1,0,60,0,1
97788,415.22491349481,4,1,0,60,1,1
97788,-80.2777777777777,4,1,0,60,0,1
101109,419.58041958042,4,1,0,60,1,1
101109,-79.4444444444444,4,1,0,60,0,1
102787,421.052631578948,4,1,0,60,1,1
102787,-79.1666666666665,4,1,0,60,0,1
103313,-79.1666666666668,4,1,0,60,0,0
103629,427.807486631016,4,1,0,60,1,8
103629,-84.5006778129235,4,1,0,60,0,0
104484,422.535211267606,4,1,0,60,1,1
104484,-78.8888888888887,4,1,0,60,0,1
106174,417.391304347826,4,1,0,60,1,1
106174,-79.8611111111111,4,1,0,60,0,1
107843,421.052631578948,4,1,0,60,1,1
107843,-79.1666666666665,4,1,0,60,0,1
114579,423.280423280424,4,1,0,60,1,1
114579,-78.7499999999999,4,1,0,60,0,1
114790,-76.9230769230769,4,1,0,60,0,1
114861,-76.5039529592494,4,1,0,60,0,1
114931,-76.0894294281955,4,1,0,60,0,1
115002,-75.6793164644137,4,1,0,60,0,1
115108,-75.0724261231023,4,1,0,60,0,1
115213,-74.4751364756876,4,1,0,60,0,1
115319,-73.8873306871817,4,1,0,60,0,1
115425,-73.3086771815746,4,1,0,60,0,1
115531,-72.7390696818466,4,1,0,60,0,1
115637,-72.1781935241725,4,1,0,60,0,1
115707,-71.8090568454856,4,1,0,60,0,1
115778,-71.4437277050917,4,1,0,60,0,1
115848,-71.0820464521174,4,1,0,60,0,1
115954,-70.5463888361751,4,1,0,60,0,1
116060,-70.0186949915627,4,1,0,60,0,1
116131,-69.6712631121317,4,1,0,60,0,1
116201,-69.3273101766252,4,1,0,60,0,1
116272,-68.9866890183539,4,1,0,60,0,1
116342,-68.6493985969436,4,1,0,60,0,1
116413,-68.3154369660295,4,1,0,60,0,1
116483,-67.9846626601039,4,1,0,60,0,1
116554,-67.6570760506129,4,1,0,60,0,1
116624,-67.3326766152941,4,1,0,60,0,1
116695,-67.0113282650432,4,1,0,60,0,1
116765,-66.6930326455726,4,1,0,60,0,1
116836,-66.3777905223136,4,1,0,60,0,1
116907,-66.0654708816437,4,1,0,60,0,1
116977,-65.7560765190311,4,1,0,60,0,1
117048,-65.4496093640065,4,1,0,60,0,1
117118,-65.1459431992521,4,1,0,60,0,1
117224,-64.6957327341646,4,1,0,60,0,1
117330,-64.2516609054344,4,1,0,60,0,1
117400,-63.9590252900382,4,1,0,60,0,1
117471,-63.6690026823751,4,1,0,60,0,1
117541,-63.3815984205306,4,1,0,60,0,1
117647,-62.9553640173581,4,1,0,60,0,1
117753,-62.5347849741419,4,1,0,60,0,1
117965,441.176470588236,4,1,0,60,1,1
117965,-58.0204778156995,4,1,0,60,0,1
118185,-58.0204778156995,4,1,0,60,0,0
119729,435.57168784029,4,1,0,60,1,1
119729,-55.3490708186841,4,1,0,60,0,1
119946,-55.3490708186841,4,1,0,60,0,0
120724,-62.2387891110359,4,1,0,60,0,0
121471,442.804428044281,4,1,0,50,1,0
121471,-75.2777777777777,4,1,0,50,0,0
122356,413.793103448276,4,1,0,50,1,8
122356,-80.5555555555555,4,1,0,50,0,0
123183,421.792618629174,4,1,0,50,1,0
123183,-79.0277777777778,4,1,0,50,0,0
124870,416.666666666667,4,1,0,50,1,0
124870,-79.9999999999999,4,1,0,50,0,0
126536,433.212996389892,4,1,0,50,1,0
126536,-76.9444444444444,4,1,0,50,0,0
127402,415.22491349481,4,1,0,50,1,8
127402,-80.2777777777777,4,1,0,50,0,0
128232,421.052631578948,4,1,0,50,1,0
128232,-79.1666666666665,4,1,0,50,0,0
131600,424.778761061947,4,1,0,50,1,0
131600,-78.4722222222222,4,1,0,50,0,0
133299,412.371134020619,4,1,0,50,1,0
133299,-61.0831234256925,4,1,0,50,0,0
134123,427.046263345196,4,1,0,50,1,8
134123,-63.2455548053116,4,1,0,50,0,0
134977,431.654676258993,4,1,0,50,1,0
134977,-77.2222222222222,4,1,0,50,0,0
135840,413.793103448276,4,1,0,50,1,8
135840,-80.5555555555555,4,1,0,50,0,0
136667,423.280423280424,4,1,0,50,1,0
136667,-78.7499999999999,4,1,0,50,0,0
143439,419.58041958042,4,1,0,50,1,0
143439,-79.4444444444444,4,1,0,50,0,0
145117,425.531914893617,4,1,0,50,1,0
145117,-78.3333333333333,4,1,0,50,0,0
146819,431.654676258993,4,1,0,50,1,0
146819,-77.2222222222222,4,1,0,50,0,0
147250,-83.6845273931365,4,1,0,50,0,0
147682,-91.3272010512482,4,1,0,50,0,0
148113,-100.506146059291,4,1,0,50,0,0
148221,-104.166666666667,4,1,0,50,0,0
148329,-107.52688172043,4,1,0,50,0,0
148545,428.571428571429,4,1,0,40,1,0
148545,-111.111111111111,4,1,0,40,0,0
150152,-113.636363636364,4,1,0,40,0,0
151973,427.046263345196,4,1,0,40,1,0
151973,-113.489499192245,4,1,0,40,0,0
155119,-104.166666666667,4,1,0,40,0,0
155389,413.793103448276,4,1,0,40,1,0
155389,-106.227106227106,4,1,0,40,0,0
157044,409.556313993174,4,1,0,40,1,0
157044,-103.092783505155,4,1,0,40,0,0
158682,413.793103448276,4,1,0,40,1,0
158682,-96.0264900662249,4,1,0,40,0,0
160337,418.118466898955,4,1,0,40,1,0
160337,-90.9090909090909,4,1,0,40,0,0
162009,405.405405405406,4,1,0,50,1,0
162009,-82.2222222222221,4,1,0,50,0,0
162617,424.028268551237,4,1,0,50,1,8
162617,-78.6111111111111,4,1,0,50,0,0
163253,408.163265306123,4,1,0,50,1,8
163253,-81.6666666666666,4,1,0,50,0,0
163661,434.782608695652,4,1,0,50,1,0
163661,-76.6666666666667,4,1,0,50,0,0
164095,-83.3333333333333,4,1,0,50,0,0
164313,-81.0962263492993,4,1,0,50,0,0
164530,-78.9760284060979,4,1,0,50,0,0
164747,-76.9639270074116,4,1,0,50,0,0
164965,-75.0517481803704,4,1,0,50,0,0
165182,-73.2323361774332,4,1,0,50,0,0
165400,413.793103448276,4,1,0,60,1,1
165400,-64.8769574944071,4,1,0,60,0,1
165606,-74.5501285347042,4,1,0,60,0,1
167055,419.58041958042,4,1,0,60,1,1
167055,-73.5975295934122,4,1,0,60,0,1
168733,425.531914893617,4,1,0,60,1,1
168733,-72.6429675425039,4,1,0,60,0,1
170435,421.644413211525,4,1,0,60,1,1
170435,-73.2636564897284,4,1,0,60,0,1
172121,423.280423280423,4,1,0,60,1,1
172121,-73.0011587485516,4,1,0,60,0,1
173814,417.827298050139,4,1,0,60,1,1
173814,-73.8835151265691,4,1,0,60,0,1
175485,420.315236427321,4,1,0,60,1,1
175485,-73.4783168189423,4,1,0,60,0,1
177166,408.163265306123,4,1,0,60,1,1
177166,-75.5007704160245,4,1,0,60,0,1
177574,433.212996389892,4,1,0,60,1,9
177574,-71.4469950993033,4,1,0,60,0,1
177682,-71.4469950993033,4,1,0,60,0,0
178440,-76.9444444444442,4,1,0,60,0,0
178873,410.958904109589,4,1,0,60,1,0
178873,-75.0256937307295,4,1,0,60,0,0
179694,400,4,1,0,60,1,8
179694,-76.9230769230769,4,1,0,60,0,0
180494,404.040404040405,4,1,0,60,1,0
180494,-76.2124711316393,4,1,0,60,0,0
182110,408.163265306123,4,1,0,60,1,0
182110,-75.5007704160245,4,1,0,60,0,0
185375,410.256410256411,4,1,0,60,1,0
185375,-75.1445086705203,4,1,0,60,0,0
188657,408.163265306122,4,1,0,60,1,0
188657,-75.5007704160245,4,1,0,60,0,0
190289,411.663807890223,4,1,0,60,1,0
190289,-74.906848259026,4,1,0,60,0,0
190494,-75.187969924812,4,1,0,60,0,0
190597,-74.2700369419164,4,1,0,60,0,0
190700,-73.374192975595,4,1,0,60,0,0
190803,-72.4997553133258,4,1,0,60,0,0
190906,-71.6459144275527,4,1,0,60,0,0
191009,-70.8119009313181,4,1,0,60,0,0
191112,-69.9971301176652,4,1,0,60,0,0
191523,-81.391468546267,4,1,0,60,0,0
191935,404.040404040404,4,1,0,60,1,0
191935,-76.2124711316398,4,1,0,60,0,0
193551,408.858603066439,4,1,0,60,1,0
193551,-75.3820470014125,4,1,0,60,0,0
195186,405.405405405405,4,1,0,60,1,0
195186,-75.9753593429156,4,1,0,60,0,0
196807,402.684563758389,4,1,0,60,1,0
196807,-76.4494612621856,4,1,0,60,0,0
198417,405.405405405405,4,1,0,60,1,0
198417,-75.9753593429156,4,1,0,60,0,0
200038,400.667779632721,4,1,0,60,1,0
200038,-76.8047185536609,4,1,0,60,0,0
203243,-76.9230769230769,4,1,0,60,0,0
203443,-75.4716981132076,4,1,0,60,0,0
203644,-74.0740740740741,4,1,0,60,0,0
203844,-72.7272727272727,4,1,0,60,0,0
203911,-72.2891740455841,4,1,0,60,0,0
203977,-71.856270214067,4,1,0,60,0,0
204044,431.654676258993,4,1,0,60,1,8
204044,-66.3009778201765,4,1,0,60,0,0
204907,550.45871559633,4,1,0,60,1,1
204907,-86.8525896414343,4,1,0,60,0,1
206558,542.986425339367,4,1,0,60,1,9
206558,-88.5771543086172,4,1,0,60,0,1
207100,542.986425339367,4,1,0,60,1,1
207100,-88.5771543086172,4,1,0,60,0,1
208185,538.116591928251,4,1,0,60,1,9
208185,-89.7384305835013,4,1,0,60,0,1
209261,539.325842696629,4,1,0,60,1,1
209261,-89.4472361809043,4,1,0,60,0,1
211418,547.945205479452,4,1,0,60,1,1
211418,-87.4251497005985,4,1,0,60,0,1
212513,533.333333333334,4,1,0,60,1,9
212513,-90.0900900900901,4,1,0,60,0,1
213579,544.21768707483,4,1,0,60,1,1
213579,-88.2882882882883,4,1,0,60,0,1
213851,-83.3333333333333,4,1,0,60,0,1
213941,-82.8221138356826,4,1,0,60,0,1
214032,-82.3170606223993,4,1,0,60,0,1
214123,-81.8181966942176,4,1,0,60,0,1
214213,-81.325276709254,4,1,0,60,0,1
214304,-80.8383257736026,4,1,0,60,0,1
214395,-80.3571715561327,4,1,0,60,0,1
214486,-79.8816473512843,4,1,0,60,0,1
214576,-79.4117810553667,4,1,0,60,0,1
214667,-78.9473476454348,4,1,0,60,0,1
214758,-78.488376656301,4,1,0,60,0,1
214848,-78.0347114003251,4,1,0,60,0,1
214939,-77.5862002080862,4,1,0,60,0,1
215030,-77.1428747755142,4,1,0,60,0,1
215120,-76.7045280216982,4,1,0,60,0,1
215211,-76.2711929043384,4,1,0,60,0,1
215347,-75.6302648118092,4,1,0,60,0,1
215483,-75.0000187500047,4,1,0,60,0,1
215619,-74.3801898777487,4,1,0,60,0,1
215755,528.63436123348,4,1,0,60,1,1
215755,-75.7575757575758,4,1,0,60,0,1
215887,-75.3276736798274,4,1,0,60,0,1
216019,-74.7201986132662,4,1,0,60,0,1
216151,-74.1224430497964,4,1,0,60,0,1
216283,-73.5341755749919,4,1,0,60,0,1
216371,-73.1471747724636,4,1,0,60,0,1
216459,-72.7641746836079,4,1,0,60,0,1
216547,-72.3852153918226,4,1,0,60,0,1
216636,-72.0101325552686,4,1,0,60,0,1
216724,-71.6389667106614,4,1,0,60,0,1
216812,-71.2716074870252,4,1,0,60,0,1
216944,-70.7275060560972,4,1,0,60,0,1
217076,-70.1916970961975,4,1,0,60,0,1
217164,-69.8389943822282,4,1,0,60,0,1
217252,-69.4898185025584,4,1,0,60,0,1
217340,-69.1440703806588,4,1,0,60,0,1
217473,-68.6318972033258,4,1,0,60,0,1
217561,-68.2946581812269,4,1,0,60,0,1
217649,-67.9606722966096,4,1,0,60,0,1
217737,-67.6299815696979,4,1,0,60,0,1
217869,542.986425339366,4,1,0,60,1,1
217869,-65.3652907552466,4,1,0,60,0,1
217936,-65.1292961153238,4,1,0,60,0,1
218004,-64.8950414321364,4,1,0,60,0,1
218072,-64.6624241094287,4,1,0,60,0,1
218140,-64.4314684714755,4,1,0,60,0,1
218276,-63.9745123690066,4,1,0,60,0,1
218344,-63.7484765952992,4,1,0,60,0,1
218411,-63.5239922027145,4,1,0,60,0,1
218479,-63.3011232442035,4,1,0,60,0,1
218547,-63.0797729543187,4,1,0,60,0,1
218683,-62.6417233560091,4,1,0,60,0,1
218751,-62.4249527077315,4,1,0,60,0,1
218819,-62.2097157611204,4,1,0,60,0,1
218887,-61.9959196109122,4,1,0,60,0,1
218954,-61.7836260201221,4,1,0,60,0,1
219090,-61.3633333616688,4,1,0,60,0,1
219158,-61.1553054353373,4,1,0,60,0,1
219226,-60.9487202784738,4,1,0,60,0,1
219362,-60.5396358502005,4,1,0,60,0,1
219430,-60.3371823855327,4,1,0,60,0,1
219497,-60.1360423945602,4,1,0,60,0,1
219565,-59.9362748305037,4,1,0,60,0,1
219633,-59.7377944934399,4,1,0,60,0,1
219701,-59.5406597325749,4,1,0,60,0,1
219769,-59.3447866435358,4,1,0,60,0,1
219837,-59.15023297885,4,1,0,60,0,1
219905,-58.9569160997733,4,1,0,60,0,1
219973,-58.7648587144688,4,1,0,60,0,1
220040,-58.5740827857541,4,1,0,60,0,1
220176,-58.1961892076716,4,1,0,60,0,1
220244,-58.0090482513463,4,1,0,60,0,1
220312,-57.8231403715354,4,1,0,60,0,1
220380,-57.6383871366226,4,1,0,60,0,1
220448,-57.4548437035609,4,1,0,60,0,1
220583,-57.0911764532801,4,1,0,60,0,1
220651,-56.9110961033203,4,1,0,60,0,1
220719,-56.7321161088165,4,1,0,60,0,1
220787,-56.5542902467154,4,1,0,60,0,1
220855,-56.3775439732152,4,1,0,60,0,1
220991,-56.0273764160965,4,1,0,60,0,1
221059,-55.8539343493664,4,1,0,60,0,1
221126,512.820512820513,4,1,0,60,1,8
221126,-58.9569160997733,4,1,0,60,0,0
222151,378.310214375788,4,1,0,60,1,1
222151,-80.9762074951499,4,1,0,60,0,1
223664,388.349514563106,4,1,0,60,1,1
223664,-79.048349961627,4,1,0,60,0,1
225217,384.615384615385,4,1,0,60,1,1
225217,-79.7546012269941,4,1,0,60,0,1
228293,394.736842105263,4,1,0,60,1,1
228293,-77.8688524590164,4,1,0,60,0,1
229871,389.61038961039,4,1,0,60,1,1
229871,-78.8126919140225,4,1,0,60,0,1
231429,387.722132471729,4,1,0,60,1,1
231429,-79.1661337766975,4,1,0,60,0,1
232979,390.879478827362,4,1,0,60,1,0
232979,-78.740157480315,4,1,0,60,0,0
233174,-80,4,1,0,60,0,0
233369,-81.3008130081301,4,1,0,60,0,0
233467,-81.9672131147541,4,1,0,60,0,0
233663,-83.3333333333333,4,1,0,60,0,0
233760,-84.0336134453782,4,1,0,60,0,0
233956,-85.4700854700855,4,1,0,60,0,0
234053,-86.2068965517241,4,1,0,60,0,0
234151,410.958904109589,4,1,0,60,1,8
234151,-82.7078317518766,4,1,0,60,0,0
234561,388.978930307942,4,1,0,60,1,1
234561,-68.1692630648545,4,1,0,60,0,1
234753,-78.9305360112572,4,1,0,60,0,1
236116,394.088669950739,4,1,0,60,1,1
236116,-77.9869381482902,4,1,0,60,0,1
237692,393.107514905327,4,1,0,60,1,1
237692,-78.1663704849357,4,1,0,60,0,1
240836,394.736842105264,4,1,0,60,1,1
240836,-77.8688524590164,4,1,0,60,0,1
242414,391.517128874389,4,1,0,60,1,1
242414,-78.4589786253676,4,1,0,60,0,1
243980,394.736842105264,4,1,0,60,1,1
243980,-77.8688524590164,4,1,0,60,0,1
245558,389.61038961039,4,1,0,60,1,1
245558,-78.8126919140225,4,1,0,60,0,1
246142,-76.9230769230769,4,1,0,60,0,1
246337,-75.187969924812,4,1,0,60,0,1
246532,-73.5294117647059,4,1,0,60,0,1
246726,-71.9424460431655,4,1,0,60,0,1
246921,-70.4225352112676,4,1,0,60,0,1
247116,396.694214876033,4,1,0,60,1,1
247116,-68.9655172413793,4,1,0,60,0,1
247314,-74.0740740740741,4,1,0,60,0,1
247413,-72.7272727272727,4,1,0,60,0,1
247512,-71.4285714285714,4,1,0,60,0,1
247611,-77.5193798449612,4,1,0,60,0,1
248702,389.61038961039,4,1,0,60,1,1
248702,-78.8126919140225,4,1,0,60,0,1
250260,396.039603960396,4,1,0,60,1,1
250260,-77.6325903151421,4,1,0,60,0,1
251844,391.517128874388,4,1,0,60,1,1
251844,-78.4589786253683,4,1,0,60,0,1
253410,393.44262295082,4,1,0,60,1,1
253410,-78.1049935979513,4,1,0,60,0,1
254983,384.615384615385,4,1,0,60,1,1
254983,-79.7546012269941,4,1,0,60,0,1
256521,389.61038961039,4,1,0,60,1,1
256521,-78.8126919140225,4,1,0,60,0,1
258663,-76.9230769230769,4,1,0,60,0,1
258858,-75.187969924812,4,1,0,60,0,1
259053,-73.5294117647059,4,1,0,60,0,1
259248,-71.9424460431655,4,1,0,60,0,0
259637,377.358490566038,4,1,0,60,1,1
259637,-75.0708215297452,4,1,0,60,0,1
261146,382.165605095542,4,1,0,60,1,1
261146,-74.2667928098388,4,1,0,60,0,1
264203,387.096774193549,4,1,0,60,1,1
264203,-73.4597156398102,4,1,0,60,0,1
268460,408.163265306123,4,1,0,60,1,9
268460,-70.2005730659024,4,1,0,60,0,1
268868,387.096774193549,4,1,0,60,1,1
268868,-73.4597156398102,4,1,0,60,0,1
268964,-73.4597156398102,4,1,0,60,0,0
269448,-68.4326710816775,4,1,0,60,0,1
269545,-68.4326710816775,4,1,0,60,0,0
270029,-64.0495867768593,4,1,0,60,0,1
270126,-64.0495867768593,4,1,0,60,0,0
270416,-74.0740740740741,4,1,0,60,0,0
270513,-74.5762762424594,4,1,0,60,0,0
270609,-75.0853344826395,4,1,0,60,0,0
270706,-75.6013901583622,4,1,0,60,0,0
270803,-76.1245885465989,4,1,0,60,0,0
270900,-76.6550789738951,4,1,0,60,0,0
270997,-77.1929553708928,4,1,0,60,0,0
271093,-77.7384939255141,4,1,0,60,0,0
271190,394.736842105263,4,1,0,60,1,8
271190,-76.7764731024866,4,1,0,60,0,0
271288,-77.3268475100833,4,1,0,60,0,0
271387,-77.8851696414575,4,1,0,60,0,0
271486,-78.4516129032259,4,1,0,60,0,0
271584,-79.0263557835686,4,1,0,60,0,0
271683,-79.6095820397432,4,1,0,60,0,0
271782,-80.2014808939628,4,1,0,60,0,0
271880,-80.8022472380783,4,1,0,60,0,0
271979,431.654676258993,4,1,0,60,1,0
271979,-74.4492064263592,4,1,0,60,0,0
272086,-75.0153032567841,4,1,0,60,0,0
272194,-75.5901387389021,4,1,0,60,0,0
272302,-76.1738520758047,4,1,0,60,0,0
272410,-76.7666505346246,4,1,0,60,0,0
272518,-77.3687478850572,4,1,0,60,0,0
272626,-77.9803646563816,4,1,0,60,0,0
272842,416.666666666667,4,1,0,60,1,8
272842,-60.6060606060606,4,1,0,60,0,8
273675,400,4,1,0,60,1,8
273675,-25,4,1,0,60,0,0
273875,-25,4,1,0,60,0,1
274875,-25,4,1,0,60,0,0

[HitObjects]
256,192,99,12,0,944,0:0:0:0:
287,86,1577,5,8,0:0:0:0:
287,86,1789,1,8,0:0:0:0:
287,86,2000,1,8,0:0:0:0:
272,77,3550,1,8,0:0:0:0:
280,74,3755,1,8,0:0:0:0:
280,74,3858,1,8,0:0:0:0:
280,74,3960,1,8,0:0:0:0:
280,74,4166,1,8,0:0:0:0:
280,74,4269,1,8,0:0:0:0:
280,74,4371,1,8,0:0:0:0:
280,74,4577,1,8,0:0:0:0:
280,74,4680,1,8,0:0:0:0:
280,74,4782,1,8,0:0:0:0:
280,74,4988,1,8,0:0:0:0:
296,99,6920,5,0,0:0:0:0:
298,75,7340,1,8,0:0:0:0:
296,76,7760,1,8,0:0:0:0:
296,76,8180,1,8,0:0:0:0:
296,76,8600,1,8,0:0:0:0:
296,76,9020,1,8,0:0:0:0:
296,76,9441,1,8,0:0:0:0:
305,81,9651,1,8,0:0:0:0:
296,76,9861,1,8,0:0:0:0:
296,76,10281,1,8,0:0:0:0:
296,76,10699,1,8,0:0:0:0:
296,76,11117,1,8,0:0:0:0:
296,76,11535,1,8,0:0:0:0:
296,76,11953,1,8,0:0:0:0:
296,76,12371,1,8,0:0:0:0:
296,76,12789,1,8,0:0:0:0:
297,83,12998,1,8,0:0:0:0:
296,76,13207,1,8,0:0:0:0:
296,76,13625,1,0,0:0:0:0:
296,76,14046,1,8,0:0:0:0:
296,76,14468,1,8,0:0:0:0:
296,76,14889,1,8,0:0:0:0:
297,76,15311,1,8,0:0:0:0:
297,76,15733,1,8,0:0:0:0:
296,76,16154,1,8,0:0:0:0:
297,83,16365,1,8,0:0:0:0:
296,76,16576,1,8,0:0:0:0:
296,76,16998,1,0,0:0:0:0:
296,76,17418,1,8,0:0:0:0:
296,76,17838,1,8,0:0:0:0:
296,76,18259,1,8,0:0:0:0:
296,76,18679,1,8,0:0:0:0:
296,76,19100,1,8,0:0:0:0:
297,83,19310,1,8,0:0:0:0:
296,76,19520,1,8,0:0:0:0:
296,76,19848,1,0,0:0:0:0:
296,76,20176,1,0,0:0:0:0:
296,76,20395,1,0,0:0:0:0:
311,83,20812,1,8,0:0:0:0:
303,80,21230,1,8,0:0:0:0:
303,80,21647,1,8,0:0:0:0:
303,80,22065,1,8,0:0:0:0:
303,80,22482,1,8,0:0:0:0:
303,80,22900,1,8,0:0:0:0:
303,80,23108,1,8,0:0:0:0:
303,80,23317,1,8,0:0:0:0:
267,90,23735,1,0,0:0:0:0:
303,80,24152,1,8,0:0:0:0:
303,80,24570,1,8,0:0:0:0:
303,80,24987,1,8,0:0:0:0:
303,80,25405,1,8,0:0:0:0:
303,80,25822,1,8,0:0:0:0:
298,83,26240,1,8,0:0:0:0:
278,86,26449,1,0,0:0:0:0:
305,78,26658,1,8,0:0:0:0:
278,87,26762,1,0,0:0:0:0:
305,78,26866,1,8,0:0:0:0:
288,84,27075,1,0,0:0:0:0:
287,77,27493,1,8,0:0:0:0:
287,77,27911,1,8,0:0:0:0:
287,77,28329,1,8,0:0:0:0:
287,77,28747,1,8,0:0:0:0:
287,77,29161,1,8,0:0:0:0:
287,77,29576,1,8,0:0:0:0:
296,82,29783,1,8,0:0:0:0:
287,77,29990,1,8,0:0:0:0:
296,95,30405,1,0,0:0:0:0:
287,88,30817,1,8,0:0:0:0:
290,87,31229,1,8,0:0:0:0:
290,87,31642,1,8,0:0:0:0:
291,121,32054,1,8,0:0:0:0:
291,121,32479,1,8,0:0:0:0:
279,100,33352,1,8,0:0:0:0:
302,115,33800,1,12,0:0:0:0:
291,123,34114,1,0,0:0:0:0:
291,123,34219,1,8,0:0:0:0:
291,123,34429,1,0,0:0:0:0:
291,123,34639,1,8,0:0:0:0:
291,123,34744,1,0,0:0:0:0:
291,123,34953,1,0,0:0:0:0:
291,123,35058,1,8,0:0:0:0:
291,123,35268,1,0,0:0:0:0:
291,123,35373,1,8,0:0:0:0:
291,123,35478,1,0,0:0:0:0:
299,116,35688,1,0,0:0:0:0:
291,123,35793,1,0,0:0:0:0:
291,123,35897,1,8,0:0:0:0:
291,123,36107,1,0,0:0:0:0:
291,123,36212,1,0,0:0:0:0:
291,123,36422,1,8,0:0:0:0:
291,123,36527,1,0,0:0:0:0:
291,123,36737,1,8,0:0:0:0:
291,123,36841,1,0,0:0:0:0:
291,123,37156,1,0,0:0:0:0:
300,111,37367,1,8,0:0:0:0:
291,123,37472,1,0,0:0:0:0:
289,127,37578,1,8,0:0:0:0:
289,127,37789,1,0,0:0:0:0:
273,123,38001,1,8,0:0:0:0:
281,122,38106,1,0,0:0:0:0:
281,122,38212,1,0,0:0:0:0:
287,121,38423,1,8,0:0:0:0:
287,121,38634,1,0,0:0:0:0:
287,121,38740,1,8,0:0:0:0:
287,121,38846,1,0,0:0:0:0:
287,121,39057,1,0,0:0:0:0:
287,121,39268,1,8,0:0:0:0:
289,112,39374,1,0,0:0:0:0:
289,112,39585,1,8,0:0:0:0:
289,112,39691,1,0,0:0:0:0:
289,112,39796,1,0,0:0:0:0:
289,112,39902,1,8,0:0:0:0:
289,112,40113,1,0,0:0:0:0:
289,112,40219,1,8,0:0:0:0:
289,112,40536,1,0,0:0:0:0:
268,114,40746,1,8,0:0:0:0:
289,111,40851,1,0,0:0:0:0:
289,111,40956,1,8,0:0:0:0:
289,111,41166,1,0,0:0:0:0:
293,111,41376,1,8,0:0:0:0:
293,111,41586,1,0,0:0:0:0:
293,111,41691,1,0,0:0:0:0:
293,111,41796,1,8,0:0:0:0:
295,98,42007,1,8,0:0:0:0:
299,107,42112,1,0,0:0:0:0:
280,99,42322,1,8,0:0:0:0:
294,113,42532,1,0,0:0:0:0:
297,107,42637,1,8,0:0:0:0:
297,89,42742,1,0,0:0:0:0:
297,107,42847,1,0,0:0:0:0:
297,107,43057,1,0,0:0:0:0:
297,107,43159,1,8,0:0:0:0:
297,107,43261,1,0,0:0:0:0:
297,107,43466,1,8,0:0:0:0:
297,107,43568,1,0,0:0:0:0:
307,104,43876,1,8,0:0:0:0:
295,97,44086,1,0,0:0:0:0:
295,97,44191,1,8,0:0:0:0:
305,105,44296,1,8,0:0:0:0:
305,105,44506,1,0,0:0:0:0:
305,105,44716,1,8,0:0:0:0:
305,105,44821,1,0,0:0:0:0:
305,105,44926,1,8,0:0:0:0:
305,105,45136,1,0,0:0:0:0:
305,105,45242,1,8,0:0:0:0:
315,95,45452,1,8,0:0:0:0:
295,108,45557,1,0,0:0:0:0:
315,95,45662,1,0,0:0:0:0:
313,96,45767,1,8,0:0:0:0:
313,96,45977,1,0,0:0:0:0:
313,96,46082,1,8,0:0:0:0:
313,96,46397,1,8,0:0:0:0:
313,96,46502,1,0,0:0:0:0:
313,96,46608,1,8,0:0:0:0:
313,96,46818,1,0,0:0:0:0:
313,96,46923,1,8,0:0:0:0:
291,121,47238,1,12,0:0:0:0:
293,120,48940,1,12,0:0:0:0:
323,91,50006,1,12,0:0:0:0:
320,93,50335,1,12,0:0:0:0:
316,76,50663,1,8,0:0:0:0:
325,83,50976,1,0,0:0:0:0:
325,83,51081,1,8,0:0:0:0:
325,83,51290,1,0,0:0:0:0:
325,83,51499,1,0,0:0:0:0:
325,83,51708,1,8,0:0:0:0:
307,81,51812,1,0,0:0:0:0:
325,83,51917,1,8,0:0:0:0:
320,79,52021,1,0,0:0:0:0:
320,79,52230,1,8,0:0:0:0:
316,92,52335,1,0,0:0:0:0:
318,79,52547,1,0,0:0:0:0:
336,83,52760,1,8,0:0:0:0:
316,83,52973,1,0,0:0:0:0:
316,83,53186,1,8,0:0:0:0:
315,81,53289,1,0,0:0:0:0:
320,72,53392,1,0,0:0:0:0:
320,72,53598,1,8,0:0:0:0:
320,72,53804,1,0,0:0:0:0:
321,79,54010,1,8,0:0:0:0:
316,74,54329,1,0,0:0:0:0:
316,74,54435,1,8,0:0:0:0:
325,73,54648,1,8,0:0:0:0:
322,66,54754,1,0,0:0:0:0:
325,73,54861,1,8,0:0:0:0:
325,73,54967,1,0,0:0:0:0:
325,73,55180,1,8,0:0:0:0:
325,73,55392,1,0,0:0:0:0:
341,75,55605,1,8,0:0:0:0:
301,108,55712,1,0,0:0:0:0:
324,84,55924,1,0,0:0:0:0:
324,84,56137,1,8,0:0:0:0:
319,89,56350,1,0,0:0:0:0:
326,83,56456,1,8,0:0:0:0:
343,92,56666,1,8,0:0:0:0:
319,89,56770,1,0,0:0:0:0:
319,89,56978,1,8,0:0:0:0:
319,87,57082,1,8,0:0:0:0:
319,89,57185,1,0,0:0:0:0:
311,121,57393,1,0,0:0:0:0:
307,108,57708,1,0,0:0:0:0:
316,107,57813,1,8,0:0:0:0:
327,105,58023,1,0,0:0:0:0:
311,94,58129,1,8,0:0:0:0:
312,94,58234,1,0,0:0:0:0:
312,94,58444,1,0,0:0:0:0:
312,94,58654,1,8,0:0:0:0:
304,93,58865,1,0,0:0:0:0:
304,93,58970,1,8,0:0:0:0:
288,127,59180,1,0,0:0:0:0:
316,91,59285,1,0,0:0:0:0:
314,99,59496,1,8,0:0:0:0:
314,99,59706,1,0,0:0:0:0:
314,99,59811,1,8,0:0:0:0:
314,99,60021,1,8,0:0:0:0:
314,99,60126,1,0,0:0:0:0:
314,99,60232,1,0,0:0:0:0:
314,99,60337,1,8,0:0:0:0:
314,99,60547,1,0,0:0:0:0:
317,88,60757,1,8,0:0:0:0:
318,93,61073,1,0,0:0:0:0:
318,93,61178,1,8,0:0:0:0:
318,93,61283,1,0,0:0:0:0:
318,93,61388,1,0,0:0:0:0:
318,93,61599,1,8,0:0:0:0:
326,91,61704,1,0,0:0:0:0:
321,96,61914,1,0,0:0:0:0:
330,100,62124,1,0,0:0:0:0:
283,137,62440,1,12,0:0:0:0:
286,121,63497,1,12,0:0:0:0:
286,121,63816,1,12,0:0:0:0:
279,122,64136,1,4,0:0:0:0:
292,116,64451,1,0,0:0:0:0:
292,116,64557,1,8,0:0:0:0:
289,129,64767,1,0,0:0:0:0:
289,129,64978,1,8,0:0:0:0:
289,129,65083,1,0,0:0:0:0:
292,117,65188,1,8,0:0:0:0:
292,117,65399,1,8,0:0:0:0:
278,97,65609,1,0,0:0:0:0:
286,104,65714,1,8,0:0:0:0:
298,149,65820,1,0,0:0:0:0:
297,119,66030,1,0,0:0:0:0:
297,119,66241,1,8,0:0:0:0:
304,111,66451,1,0,0:0:0:0:
304,111,66557,1,8,0:0:0:0:
304,111,66767,1,8,0:0:0:0:
304,111,66872,1,0,0:0:0:0:
304,111,67083,1,8,0:0:0:0:
297,108,67188,1,0,0:0:0:0:
291,132,67293,1,8,0:0:0:0:
294,109,67504,1,0,0:0:0:0:
294,109,67820,1,0,0:0:0:0:
294,109,67925,1,8,0:0:0:0:
288,102,68136,1,0,0:0:0:0:
288,102,68241,1,0,0:0:0:0:
288,102,68346,1,8,0:0:0:0:
295,107,68557,1,0,0:0:0:0:
295,107,68767,1,8,0:0:0:0:
346,154,68978,1,8,0:0:0:0:
317,173,69083,1,0,0:0:0:0:
336,162,69188,1,0,0:0:0:0:
297,104,69399,1,0,0:0:0:0:
297,104,69609,1,8,0:0:0:0:
297,104,69820,1,0,0:0:0:0:
297,104,69925,1,0,0:0:0:0:
297,104,70136,1,8,0:0:0:0:
297,104,70241,1,0,0:0:0:0:
297,104,70346,1,0,0:0:0:0:
297,104,70451,1,8,0:0:0:0:
297,104,70662,1,0,0:0:0:0:
305,94,70872,1,8,0:0:0:0:
310,105,71188,1,0,0:0:0:0:
310,105,71293,1,8,0:0:0:0:
310,105,71504,1,0,0:0:0:0:
310,105,71609,1,0,0:0:0:0:
310,105,71714,1,8,0:0:0:0:
310,105,71925,1,0,0:0:0:0:
313,89,72136,1,8,0:0:0:0:
313,89,72346,1,0,0:0:0:0:
313,89,72451,1,8,0:0:0:0:
319,98,72662,1,0,0:0:0:0:
319,98,72767,1,8,0:0:0:0:
319,98,72978,1,8,0:0:0:0:
319,98,73188,1,0,0:0:0:0:
319,98,73399,1,0,0:0:0:0:
319,98,73504,1,8,0:0:0:0:
319,98,73609,1,8,0:0:0:0:
319,98,73820,1,8,0:0:0:0:
319,98,74030,1,0,0:0:0:0:
323,84,74241,1,8,0:0:0:0:
319,98,74557,1,0,0:0:0:0:
312,83,74662,1,8,0:0:0:0:
312,83,74872,1,0,0:0:0:0:
312,83,75083,1,8,0:0:0:0:
312,83,75188,1,0,0:0:0:0:
312,83,75399,1,8,0:0:0:0:
312,83,75609,1,0,0:0:0:0:
312,83,75714,1,8,0:0:0:0:
306,129,75925,1,0,0:0:0:0:
294,117,76366,1,8,0:0:0:0:
297,117,76807,1,8,0:0:0:0:
297,117,77248,1,8,0:0:0:0:
295,123,77689,1,0,0:0:0:0:
315,133,78111,1,8,0:0:0:0:
315,133,78534,1,8,0:0:0:0:
313,132,78956,1,8,0:0:0:0:
313,132,79379,1,8,0:0:0:0:
313,132,79801,1,8,0:0:0:0:
313,132,80224,1,8,0:0:0:0:
313,132,80435,1,8,0:0:0:0:
313,132,80646,1,8,0:0:0:0:
314,133,81069,1,0,0:0:0:0:
314,125,81487,1,8,0:0:0:0:
314,125,81906,1,8,0:0:0:0:
314,125,82325,1,8,0:0:0:0:
314,125,82744,1,8,0:0:0:0:
314,125,83163,1,8,0:0:0:0:
315,125,83582,1,8,0:0:0:0:
315,125,83792,1,8,0:0:0:0:
315,125,84001,1,8,0:0:0:0:
315,126,84420,1,0,0:0:0:0:
306,121,84836,1,8,0:0:0:0:
306,121,85253,1,8,0:0:0:0:
306,121,85670,1,8,0:0:0:0:
306,121,86086,1,8,0:0:0:0:
306,121,86497,1,8,0:0:0:0:
307,121,86909,1,8,0:0:0:0:
307,121,87115,1,8,0:0:0:0:
307,121,87320,1,8,0:0:0:0:
307,121,87732,1,0,0:0:0:0:
308,120,88140,1,8,0:0:0:0:
308,120,88548,1,8,0:0:0:0:
308,120,88956,1,8,0:0:0:0:
309,119,89364,1,8,0:0:0:0:
313,128,89783,1,8,0:0:0:0:
313,128,89993,1,0,0:0:0:0:
313,128,90203,1,8,0:0:0:0:
314,127,91088,1,12,0:0:0:0:
310,113,91401,1,0,0:0:0:0:
317,120,91506,1,8,0:0:0:0:
305,113,91715,1,0,0:0:0:0:
305,113,91924,1,8,0:0:0:0:
305,113,92028,1,0,0:0:0:0:
317,120,92133,1,0,0:0:0:0:
317,120,92342,1,8,0:0:0:0:
317,120,92551,1,8,0:0:0:0:
303,136,92760,1,0,0:0:0:0:
313,102,92969,1,0,0:0:0:0:
301,122,93178,1,8,0:0:0:0:
321,113,93283,1,0,0:0:0:0:
321,113,93492,1,0,0:0:0:0:
321,113,93701,1,0,0:0:0:0:
321,113,93805,1,8,0:0:0:0:
329,111,94014,1,8,0:0:0:0:
329,111,94119,1,0,0:0:0:0:
330,116,94328,1,8,0:0:0:0:
311,123,94432,1,0,0:0:0:0:
333,116,94746,1,0,0:0:0:0:
297,112,94851,1,8,0:0:0:0:
324,116,95061,1,8,0:0:0:0:
324,116,95166,1,0,0:0:0:0:
324,116,95271,1,8,0:0:0:0:
302,113,95480,1,0,0:0:0:0:
302,113,95690,1,8,0:0:0:0:
331,114,95900,1,0,0:0:0:0:
319,109,96005,1,8,0:0:0:0:
325,117,96215,1,0,0:0:0:0:
324,117,96320,1,8,0:0:0:0:
302,113,96529,1,8,0:0:0:0:
326,103,96739,1,0,0:0:0:0:
321,104,96949,1,8,0:0:0:0:
313,95,97054,1,8,0:0:0:0:
302,113,97159,1,0,0:0:0:0:
302,113,97369,1,8,0:0:0:0:
302,113,97473,1,0,0:0:0:0:
320,103,97683,1,8,0:0:0:0:
302,113,97788,1,0,0:0:0:0:
316,108,98099,1,0,0:0:0:0:
283,110,98203,1,8,0:0:0:0:
317,106,98410,1,0,0:0:0:0:
317,106,98618,1,8,0:0:0:0:
317,106,98722,1,0,0:0:0:0:
317,106,98826,1,8,0:0:0:0:
288,108,99033,1,8,0:0:0:0:
266,120,99137,1,0,0:0:0:0:
283,95,99345,1,0,0:0:0:0:
315,98,99552,1,0,0:0:0:0:
283,95,99760,1,0,0:0:0:0:
283,95,99864,1,8,0:0:0:0:
283,95,99967,1,0,0:0:0:0:
283,95,100071,1,0,0:0:0:0:
283,95,100279,1,8,0:0:0:0:
283,95,100383,1,0,0:0:0:0:
283,95,100486,1,0,0:0:0:0:
283,95,100694,1,8,0:0:0:0:
283,95,100798,1,8,0:0:0:0:
291,100,100902,1,0,0:0:0:0:
305,110,101109,1,0,0:0:0:0:
315,90,101423,1,0,0:0:0:0:
293,96,101528,1,8,0:0:0:0:
310,96,101738,1,0,0:0:0:0:
310,96,101843,1,8,0:0:0:0:
310,96,102053,1,8,0:0:0:0:
293,96,102157,1,0,0:0:0:0:
293,96,102367,1,8,0:0:0:0:
310,97,102577,1,0,0:0:0:0:
310,97,102682,1,8,0:0:0:0:
293,96,102787,1,0,0:0:0:0:
293,96,102997,1,4,0:0:0:0:
293,96,103313,1,4,0:0:0:0:
293,96,104056,1,8,0:0:0:0:
281,89,104484,1,12,0:0:0:0:
281,89,104695,1,0,0:0:0:0:
291,95,104800,1,8,0:0:0:0:
290,96,104906,1,8,0:0:0:0:
281,99,105117,1,0,0:0:0:0:
291,95,105223,1,8,0:0:0:0:
295,89,105329,1,8,0:0:0:0:
295,89,105540,1,0,0:0:0:0:
291,95,105645,1,8,0:0:0:0:
295,89,105751,1,8,0:0:0:0:
295,89,105962,1,0,0:0:0:0:
295,89,106174,1,8,0:0:0:0:
291,95,106278,1,8,0:0:0:0:
295,89,106382,1,0,0:0:0:0:
295,89,106591,1,8,0:0:0:0:
295,89,106800,1,0,0:0:0:0:
295,89,107008,1,8,0:0:0:0:
304,92,107113,1,8,0:0:0:0:
304,92,107217,1,0,0:0:0:0:
304,92,107426,1,8,0:0:0:0:
293,88,107530,1,0,0:0:0:0:
288,83,107634,1,8,0:0:0:0:
301,95,107843,1,0,0:0:0:0:
294,86,108369,1,8,0:0:0:0:
294,86,108579,1,0,0:0:0:0:
294,86,108685,1,8,0:0:0:0:
294,86,108895,1,0,0:0:0:0:
294,86,109000,1,0,0:0:0:0:
294,86,109106,1,8,0:0:0:0:
294,86,109316,1,0,0:0:0:0:
294,86,109527,1,8,0:0:0:0:
294,86,109632,1,0,0:0:0:0:
294,86,109843,1,8,0:0:0:0:
294,86,109948,1,8,0:0:0:0:
294,86,110158,1,0,0:0:0:0:
294,86,110264,1,8,0:0:0:0:
294,86,110369,1,8,0:0:0:0:
294,86,110474,1,8,0:0:0:0:
294,86,110579,1,0,0:0:0:0:
294,86,110790,1,8,0:0:0:0:
294,86,110895,1,0,0:0:0:0:
294,86,111106,1,8,0:0:0:0:
294,86,111211,1,0,0:0:0:0:
294,86,111421,1,0,0:0:0:0:
294,86,111527,1,8,0:0:0:0:
294,86,111632,1,8,0:0:0:0:
294,86,111843,1,0,0:0:0:0:
294,86,112053,1,0,0:0:0:0:
294,86,112158,1,8,0:0:0:0:
294,86,112474,1,8,0:0:0:0:
294,86,112579,1,8,0:0:0:0:
294,86,112685,1,0,0:0:0:0:
294,86,112895,1,8,0:0:0:0:
314,85,113000,1,0,0:0:0:0:
314,85,113106,1,0,0:0:0:0:
301,83,113316,1,8,0:0:0:0:
301,83,113421,1,8,0:0:0:0:
313,83,113527,1,0,0:0:0:0:
313,83,113737,1,8,0:0:0:0:
313,83,113843,1,0,0:0:0:0:
313,83,113948,1,0,0:0:0:0:
313,83,114158,1,8,0:0:0:0:
313,83,114264,1,8,0:0:0:0:
313,83,114369,1,0,0:0:0:0:
313,75,114579,1,0,0:0:0:0:
317,80,114790,1,8,0:0:0:0:
317,80,114896,1,0,0:0:0:0:
317,80,115002,1,8,0:0:0:0:
311,90,115213,1,0,0:0:0:0:
317,80,115425,1,0,0:0:0:0:
319,74,115531,1,8,0:0:0:0:
337,72,115637,1,0,0:0:0:0:
306,78,115848,1,8,0:0:0:0:
319,66,116060,1,8,0:0:0:0:
332,63,116166,1,8,0:0:0:0:
332,63,116272,1,0,0:0:0:0:
332,63,116483,1,0,0:0:0:0:
346,72,116589,1,0,0:0:0:0:
332,63,116695,1,8,0:0:0:0:
332,63,116907,1,8,0:0:0:0:
332,63,117118,1,0,0:0:0:0:
336,64,117224,1,0,0:0:0:0:
339,56,117330,1,8,0:0:0:0:
328,71,117436,1,8,0:0:0:0:
329,70,117541,1,0,0:0:0:0:
316,62,117647,1,0,0:0:0:0:
314,65,117753,1,8,0:0:0:0:
320,87,117965,1,12,0:0:0:0:
308,113,119729,1,12,0:0:0:0:
301,100,120817,1,12,0:0:0:0:
301,100,121144,1,12,0:0:0:0:
295,105,121471,1,4,0:0:0:0:
298,96,121803,1,0,0:0:0:0:
292,104,121913,1,8,0:0:0:0:
298,96,122135,1,0,0:0:0:0:
298,96,122245,1,8,0:0:0:0:
298,96,122356,1,0,0:0:0:0:
298,96,122562,1,0,0:0:0:0:
287,100,122769,1,8,0:0:0:0:
310,97,122873,1,0,0:0:0:0:
298,87,123080,1,8,0:0:0:0:
286,100,123183,1,0,0:0:0:0:
298,87,123393,1,0,0:0:0:0:
298,87,123499,1,0,0:0:0:0:
288,97,123604,1,8,0:0:0:0:
299,87,123815,1,0,0:0:0:0:
299,87,124026,1,0,0:0:0:0:
299,87,124132,1,8,0:0:0:0:
288,97,124237,1,0,0:0:0:0:
288,97,124448,1,8,0:0:0:0:
295,83,124659,1,0,0:0:0:0:
295,83,124870,1,8,0:0:0:0:
295,83,125182,1,0,0:0:0:0:
288,97,125286,1,8,0:0:0:0:
295,83,125495,1,0,0:0:0:0:
295,83,125599,1,8,0:0:0:0:
295,83,125807,1,0,0:0:0:0:
295,83,125911,1,0,0:0:0:0:
286,97,126120,1,8,0:0:0:0:
310,85,126224,1,0,0:0:0:0:
286,97,126328,1,8,0:0:0:0:
290,110,126536,1,0,0:0:0:0:
295,83,126752,1,0,0:0:0:0:
297,96,126969,1,8,0:0:0:0:
296,84,127185,1,0,0:0:0:0:
296,84,127402,1,8,0:0:0:0:
301,94,127609,1,0,0:0:0:0:
301,94,127713,1,8,0:0:0:0:
295,99,127817,1,8,0:0:0:0:
296,85,128024,1,0,0:0:0:0:
304,83,128232,1,8,0:0:0:0:
304,83,128547,1,0,0:0:0:0:
300,100,128653,1,8,0:0:0:0:
304,83,128863,1,0,0:0:0:0:
304,83,128968,1,0,0:0:0:0:
304,83,129074,1,0,0:0:0:0:
304,83,129284,1,0,0:0:0:0:
300,100,129495,1,8,0:0:0:0:
299,79,129705,1,0,0:0:0:0:
299,79,129810,1,8,0:0:0:0:
298,87,129916,1,8,0:0:0:0:
306,94,130126,1,0,0:0:0:0:
300,100,130337,1,8,0:0:0:0:
298,86,130442,1,0,0:0:0:0:
305,80,130653,1,8,0:0:0:0:
305,80,130758,1,0,0:0:0:0:
305,94,130968,1,0,0:0:0:0:
300,100,131179,1,8,0:0:0:0:
301,91,131284,1,0,0:0:0:0:
302,91,131389,1,0,0:0:0:0:
302,91,131600,1,8,0:0:0:0:
302,91,131918,1,0,0:0:0:0:
302,108,132024,1,8,0:0:0:0:
300,89,132237,1,0,0:0:0:0:
300,89,132343,1,8,0:0:0:0:
300,89,132449,1,0,0:0:0:0:
300,89,132555,1,8,0:0:0:0:
300,89,132768,1,0,0:0:0:0:
303,108,132874,1,8,0:0:0:0:
297,88,132980,1,0,0:0:0:0:
303,108,133299,1,12,0:0:0:0:
300,89,134336,1,12,0:0:0:0:
300,89,134656,1,12,0:0:0:0:
283,90,134977,1,8,0:0:0:0:
302,94,135300,1,0,0:0:0:0:
297,103,135408,1,8,0:0:0:0:
288,98,135624,1,8,0:0:0:0:
288,98,135732,1,0,0:0:0:0:
288,98,135840,1,8,0:0:0:0:
288,98,135943,1,8,0:0:0:0:
288,98,136150,1,0,0:0:0:0:
297,103,136253,1,8,0:0:0:0:
281,99,136357,1,0,0:0:0:0:
281,99,136564,1,8,0:0:0:0:
286,88,136772,1,8,0:0:0:0:
286,88,136984,1,0,0:0:0:0:
286,88,137090,1,8,0:0:0:0:
289,84,137301,1,0,0:0:0:0:
289,84,137513,1,8,0:0:0:0:
276,87,137619,1,8,0:0:0:0:
305,97,137725,1,0,0:0:0:0:
305,97,137936,1,8,0:0:0:0:
294,78,138148,1,0,0:0:0:0:
305,97,138360,1,0,0:0:0:0:
300,87,138677,1,0,0:0:0:0:
294,96,138783,1,8,0:0:0:0:
305,92,138995,1,0,0:0:0:0:
305,92,139100,1,8,0:0:0:0:
305,92,139206,1,8,0:0:0:0:
305,92,139418,1,0,0:0:0:0:
299,92,139629,1,8,0:0:0:0:
302,85,139841,1,0,0:0:0:0:
302,85,139947,1,8,0:0:0:0:
302,85,140159,1,0,0:0:0:0:
299,92,140264,1,8,0:0:0:0:
295,85,140476,1,8,0:0:0:0:
301,81,140688,1,0,0:0:0:0:
301,81,140793,1,8,0:0:0:0:
301,81,140899,1,0,0:0:0:0:
295,88,141111,1,0,0:0:0:0:
311,92,141323,1,8,0:0:0:0:
295,88,141428,1,0,0:0:0:0:
293,92,141534,1,0,0:0:0:0:
293,92,141746,1,0,0:0:0:0:
301,81,141852,1,8,0:0:0:0:
291,82,142063,1,0,0:0:0:0:
293,82,142169,1,8,0:0:0:0:
293,82,142381,1,8,0:0:0:0:
293,82,142592,1,0,0:0:0:0:
293,82,142698,1,0,0:0:0:0:
289,74,142910,1,8,0:0:0:0:
289,74,143122,1,8,0:0:0:0:
289,74,143333,1,8,0:0:0:0:
289,74,143543,1,0,0:0:0:0:
292,73,143648,1,8,0:0:0:0:
293,82,143858,1,0,0:0:0:0:
293,82,143963,1,8,0:0:0:0:
293,82,144068,1,0,0:0:0:0:
297,73,144278,1,8,0:0:0:0:
297,73,144487,1,0,0:0:0:0:
297,73,144592,1,8,0:0:0:0:
296,71,144802,1,0,0:0:0:0:
296,71,144907,1,8,0:0:0:0:
296,71,145117,1,8,0:0:0:0:
300,72,145436,1,0,0:0:0:0:
301,82,145542,1,8,0:0:0:0:
300,72,145755,1,0,0:0:0:0:
300,72,145968,1,8,0:0:0:0:
301,80,146074,1,8,0:0:0:0:
334,91,146180,1,0,0:0:0:0:
334,91,146393,1,8,0:0:0:0:
334,91,146606,1,8,0:0:0:0:
339,81,146819,1,0,0:0:0:0:
320,68,147250,1,8,0:0:0:0:
320,68,147682,1,8,0:0:0:0:
343,77,148113,1,0,0:0:0:0:
343,77,148257,1,0,0:0:0:0:
343,77,148401,1,0,0:0:0:0:
298,96,148545,1,0,0:0:0:0:
314,93,151759,1,0,0:0:0:0:
314,93,151973,1,0,0:0:0:0:
279,72,154001,1,0,0:0:0:0:
279,72,154108,1,0,0:0:0:0:
280,70,155175,1,0,0:0:0:0:
281,70,155389,1,0,0:0:0:0:
288,103,155802,1,8,0:0:0:0:
297,94,156216,1,8,0:0:0:0:
296,95,156630,1,8,0:0:0:0:
296,95,157044,1,8,0:0:0:0:
296,95,157453,1,8,0:0:0:0:
294,94,157863,1,8,0:0:0:0:
294,94,158067,1,8,0:0:0:0:
294,94,158272,1,8,0:0:0:0:
322,91,158682,1,0,0:0:0:0:
300,75,159095,1,8,0:0:0:0:
300,75,159509,1,8,0:0:0:0:
300,76,159923,1,8,0:0:0:0:
300,76,160337,1,8,0:0:0:0:
301,75,160755,1,8,0:0:0:0:
301,75,161173,1,8,0:0:0:0:
301,74,161382,1,8,0:0:0:0:
301,74,161591,1,8,0:0:0:0:
290,71,162009,1,8,0:0:0:0:
310,109,162110,1,0,0:0:0:0:
290,71,162211,1,0,0:0:0:0:
289,58,162313,1,8,0:0:0:0:
289,58,162515,1,0,0:0:0:0:
295,53,162617,1,8,0:0:0:0:
317,106,162723,1,0,0:0:0:0:
301,60,162829,1,0,0:0:0:0:
301,60,162935,1,8,0:0:0:0:
312,52,163147,1,0,0:0:0:0:
312,52,163253,1,8,0:0:0:0:
312,52,163559,1,0,0:0:0:0:
312,52,163661,1,8,0:0:0:0:
307,61,163769,1,0,0:0:0:0:
319,62,164095,1,0,0:0:0:0:
319,62,164313,1,8,0:0:0:0:
318,62,164530,1,0,0:0:0:0:
316,51,164747,1,8,0:0:0:0:
316,51,164965,1,0,0:0:0:0:
316,51,165182,1,8,0:0:0:0:
316,51,165400,1,12,0:0:0:0:
313,70,165710,1,0,0:0:0:0:
313,70,165813,1,8,0:0:0:0:
304,56,166020,1,0,0:0:0:0:
304,56,166227,1,8,0:0:0:0:
304,56,166331,1,8,0:0:0:0:
304,56,166434,1,0,0:0:0:0:
314,64,166641,1,8,0:0:0:0:
306,59,166744,1,0,0:0:0:0:
306,59,166951,1,8,0:0:0:0:
314,64,167055,1,0,0:0:0:0:
308,55,167159,1,8,0:0:0:0:
308,55,167369,1,0,0:0:0:0:
321,88,167474,1,8,0:0:0:0:
308,55,167789,1,8,0:0:0:0:
308,55,167999,1,0,0:0:0:0:
308,55,168103,1,0,0:0:0:0:
321,66,168313,1,8,0:0:0:0:
321,66,168418,1,0,0:0:0:0:
321,66,168628,1,8,0:0:0:0:
321,74,168733,1,0,0:0:0:0:
320,61,169052,1,0,0:0:0:0:
316,68,169158,1,8,0:0:0:0:
320,61,169371,1,0,0:0:0:0:
320,61,169584,1,8,0:0:0:0:
320,61,169690,1,0,0:0:0:0:
320,61,169903,1,0,0:0:0:0:
316,68,170009,1,8,0:0:0:0:
308,49,170115,1,0,0:0:0:0:
308,49,170328,1,8,0:0:0:0:
308,49,170435,1,8,0:0:0:0:
308,49,170645,1,0,0:0:0:0:
308,49,170751,1,0,0:0:0:0:
317,68,170856,1,8,0:0:0:0:
308,49,170962,1,0,0:0:0:0:
308,49,171172,1,8,0:0:0:0:
308,49,171383,1,0,0:0:0:0:
308,49,171489,1,8,0:0:0:0:
308,49,171699,1,0,0:0:0:0:
308,49,171805,1,8,0:0:0:0:
311,51,172016,1,8,0:0:0:0:
311,51,172121,1,0,0:0:0:0:
306,65,172438,1,0,0:0:0:0:
318,107,172544,1,8,0:0:0:0:
315,57,172755,1,0,0:0:0:0:
315,57,172967,1,8,0:0:0:0:
315,57,173073,1,0,0:0:0:0:
315,57,173285,1,0,0:0:0:0:
322,108,173390,1,8,0:0:0:0:
316,57,173602,1,0,0:0:0:0:
316,57,173708,1,0,0:0:0:0:
316,57,173814,1,8,0:0:0:0:
316,57,173918,1,0,0:0:0:0:
329,74,174127,1,0,0:0:0:0:
323,53,174336,1,8,0:0:0:0:
323,53,174440,1,8,0:0:0:0:
323,53,174545,1,0,0:0:0:0:
323,53,174649,1,0,0:0:0:0:
313,107,174858,1,0,0:0:0:0:
323,53,175067,1,8,0:0:0:0:
323,53,175171,1,0,0:0:0:0:
323,53,175485,1,8,0:0:0:0:
312,93,175800,1,0,0:0:0:0:
312,93,175905,1,8,0:0:0:0:
314,77,176115,1,0,0:0:0:0:
324,43,176220,1,0,0:0:0:0:
314,77,176430,1,8,0:0:0:0:
314,77,176535,1,0,0:0:0:0:
314,77,176745,1,8,0:0:0:0:
325,38,176956,1,0,0:0:0:0:
325,38,177061,1,8,0:0:0:0:
315,64,177166,1,0,0:0:0:0:
325,93,177370,1,4,0:0:0:0:
332,88,177682,1,4,0:0:0:0:
325,83,178440,1,8,0:0:0:0:
326,93,178873,1,12,0:0:0:0:
316,80,179181,1,0,0:0:0:0:
316,80,179283,1,8,0:0:0:0:
327,78,179489,1,0,0:0:0:0:
317,80,179694,1,0,0:0:0:0:
317,80,179794,1,8,0:0:0:0:
317,80,179894,1,0,0:0:0:0:
320,80,180094,1,8,0:0:0:0:
324,73,180294,1,8,0:0:0:0:
324,73,180494,1,0,0:0:0:0:
324,73,180595,1,8,0:0:0:0:
298,81,180696,1,8,0:0:0:0:
298,81,180898,1,8,0:0:0:0:
315,84,181100,1,0,0:0:0:0:
315,84,181201,1,0,0:0:0:0:
315,84,181302,1,8,0:0:0:0:
310,86,181605,1,0,0:0:0:0:
287,71,181706,1,8,0:0:0:0:
311,89,181908,1,0,0:0:0:0:
292,91,182110,1,0,0:0:0:0:
292,91,182314,1,0,0:0:0:0:
292,91,182416,1,0,0:0:0:0:
292,83,182518,1,8,0:0:0:0:
301,73,182722,1,0,0:0:0:0:
301,73,182926,1,8,0:0:0:0:
301,73,183028,1,0,0:0:0:0:
301,73,183130,1,8,0:0:0:0:
301,73,183334,1,8,0:0:0:0:
301,73,183538,1,0,0:0:0:0:
301,73,183742,1,8,0:0:0:0:
301,73,183844,1,8,0:0:0:0:
301,73,183946,1,0,0:0:0:0:
301,73,184048,1,8,0:0:0:0:
301,73,184150,1,0,0:0:0:0:
301,73,184354,1,0,0:0:0:0:
301,73,184558,1,8,0:0:0:0:
293,70,184661,1,8,0:0:0:0:
301,73,184763,1,0,0:0:0:0:
301,73,184865,1,0,0:0:0:0:
301,73,184967,1,8,0:0:0:0:
275,95,185171,1,0,0:0:0:0:
301,73,185273,1,0,0:0:0:0:
301,73,185375,1,8,0:0:0:0:
302,78,185682,1,0,0:0:0:0:
301,73,185785,1,8,0:0:0:0:
301,73,185990,1,0,0:0:0:0:
301,73,186092,1,8,0:0:0:0:
301,73,186195,1,8,0:0:0:0:
301,73,186400,1,0,0:0:0:0:
301,73,186605,1,8,0:0:0:0:
301,73,186708,1,0,0:0:0:0:
301,73,186810,1,8,0:0:0:0:
301,73,187016,1,0,0:0:0:0:
303,65,187221,1,8,0:0:0:0:
303,66,187323,1,8,0:0:0:0:
303,65,187426,1,8,0:0:0:0:
303,65,187631,1,0,0:0:0:0:
303,65,187836,1,8,0:0:0:0:
303,66,187939,1,0,0:0:0:0:
303,65,188041,1,8,0:0:0:0:
303,65,188246,1,8,0:0:0:0:
303,66,188349,1,0,0:0:0:0:
303,65,188451,1,0,0:0:0:0:
312,67,188657,1,8,0:0:0:0:
299,60,188861,1,0,0:0:0:0:
299,60,188963,1,0,0:0:0:0:
299,60,189065,1,8,0:0:0:0:
305,64,189269,1,0,0:0:0:0:
323,51,189371,1,0,0:0:0:0:
320,53,189473,1,8,0:0:0:0:
312,61,189575,1,0,0:0:0:0:
312,61,189677,1,0,0:0:0:0:
312,61,189881,1,8,0:0:0:0:
325,64,190085,1,0,0:0:0:0:
308,84,190289,1,8,0:0:0:0:
308,84,190494,1,0,0:0:0:0:
321,102,190700,1,0,0:0:0:0:
320,69,190906,1,0,0:0:0:0:
320,69,191112,1,12,0:0:0:0:
308,77,191523,1,0,0:0:0:0:
308,76,191935,1,12,0:0:0:0:
294,76,192238,1,0,0:0:0:0:
294,76,192339,1,8,0:0:0:0:
294,76,192541,1,0,0:0:0:0:
294,76,192642,1,8,0:0:0:0:
294,76,192743,1,0,0:0:0:0:
294,76,192945,1,0,0:0:0:0:
294,76,193147,1,8,0:0:0:0:
304,74,193349,1,0,0:0:0:0:
296,63,193450,1,0,0:0:0:0:
299,63,193551,1,8,0:0:0:0:
304,74,193653,1,0,0:0:0:0:
304,74,193755,1,8,0:0:0:0:
304,74,193959,1,8,0:0:0:0:
304,60,194164,1,0,0:0:0:0:
304,60,194368,1,8,0:0:0:0:
304,60,194470,1,8,0:0:0:0:
304,60,194573,1,0,0:0:0:0:
304,60,194777,1,8,0:0:0:0:
304,60,194879,1,0,0:0:0:0:
304,60,195084,1,8,0:0:0:0:
281,58,195186,1,0,0:0:0:0:
304,60,195388,1,8,0:0:0:0:
304,60,195591,1,8,0:0:0:0:
304,60,195692,1,0,0:0:0:0:
304,60,195794,1,8,0:0:0:0:
300,67,195996,1,0,0:0:0:0:
306,53,196098,1,8,0:0:0:0:
306,53,196199,1,0,0:0:0:0:
306,53,196402,1,8,0:0:0:0:
296,57,196604,1,0,0:0:0:0:
307,51,196706,1,0,0:0:0:0:
296,57,196807,1,8,0:0:0:0:
307,51,197008,1,0,0:0:0:0:
307,51,197209,1,8,0:0:0:0:
307,51,197310,1,0,0:0:0:0:
307,51,197411,1,0,0:0:0:0:
313,60,197612,1,8,0:0:0:0:
313,60,197813,1,0,0:0:0:0:
313,58,197914,1,0,0:0:0:0:
313,60,198015,1,8,0:0:0:0:
313,60,198216,1,0,0:0:0:0:
311,52,198417,1,8,0:0:0:0:
313,58,198518,1,0,0:0:0:0:
327,60,198619,1,8,0:0:0:0:
313,58,198721,1,0,0:0:0:0:
311,52,198822,1,8,0:0:0:0:
313,58,199025,1,0,0:0:0:0:
313,58,199227,1,8,0:0:0:0:
301,77,199329,1,8,0:0:0:0:
311,73,199430,1,0,0:0:0:0:
311,73,199633,1,8,0:0:0:0:
311,73,199835,1,0,0:0:0:0:
324,96,199937,1,8,0:0:0:0:
304,91,200038,1,0,0:0:0:0:
312,84,200238,1,0,0:0:0:0:
319,84,200338,1,0,0:0:0:0:
312,84,200438,1,8,0:0:0:0:
312,84,200639,1,0,0:0:0:0:
327,97,200739,1,0,0:0:0:0:
312,84,200839,1,8,0:0:0:0:
311,84,200939,1,8,0:0:0:0:
312,84,201039,1,0,0:0:0:0:
312,84,201240,1,8,0:0:0:0:
312,84,201340,1,0,0:0:0:0:
312,84,201540,1,8,0:0:0:0:
297,84,201640,1,0,0:0:0:0:
311,84,201841,1,0,0:0:0:0:
288,77,201941,1,0,0:0:0:0:
297,83,202041,1,8,0:0:0:0:
314,84,202241,1,0,0:0:0:0:
307,88,202442,1,8,0:0:0:0:
301,78,202542,1,0,0:0:0:0:
292,93,202742,1,0,0:0:0:0:
301,78,202842,1,8,0:0:0:0:
305,83,202942,1,8,0:0:0:0:
301,78,203043,1,0,0:0:0:0:
301,78,203243,1,0,0:0:0:0:
312,100,203443,1,0,0:0:0:0:
312,100,203644,1,0,0:0:0:0:
312,100,203844,1,0,0:0:0:0:
349,87,203944,1,0,0:0:0:0:
330,105,204044,1,8,0:0:0:0:
320,96,204907,1,4,0:0:0:0:
321,81,205319,1,0,0:0:0:0:
321,81,205457,1,8,0:0:0:0:
323,71,205732,1,0,0:0:0:0:
323,71,205870,1,8,0:0:0:0:
323,71,206145,1,8,0:0:0:0:
322,68,206283,1,0,0:0:0:0:
322,68,206558,1,8,0:0:0:0:
325,68,206829,1,0,0:0:0:0:
325,68,206965,1,8,0:0:0:0:
325,68,207100,1,8,0:0:0:0:
321,59,207371,1,0,0:0:0:0:
329,51,207642,1,8,0:0:0:0:
314,55,207914,1,0,0:0:0:0:
325,68,208050,1,0,0:0:0:0:
325,68,208185,1,8,0:0:0:0:
322,50,208454,1,0,0:0:0:0:
322,50,208723,1,8,0:0:0:0:
322,50,208992,1,0,0:0:0:0:
332,66,209126,1,8,0:0:0:0:
317,58,209395,1,0,0:0:0:0:
317,58,209530,1,8,0:0:0:0:
317,58,209665,1,0,0:0:0:0:
320,40,209935,1,0,0:0:0:0:
320,40,210069,1,8,0:0:0:0:
323,46,210339,1,0,0:0:0:0:
323,46,210744,1,0,0:0:0:0:
313,42,210878,1,8,0:0:0:0:
329,55,211013,1,0,0:0:0:0:
312,48,211418,1,0,0:0:0:0:
330,41,211554,1,0,0:0:0:0:
330,41,211691,1,8,0:0:0:0:
313,42,211965,1,8,0:0:0:0:
311,52,212102,1,8,0:0:0:0:
311,52,212239,1,0,0:0:0:0:
316,54,212513,1,0,0:0:0:0:
351,41,212646,1,8,0:0:0:0:
301,55,212779,1,0,0:0:0:0:
301,55,212913,1,0,0:0:0:0:
301,55,213046,1,8,0:0:0:0:
301,55,213313,1,8,0:0:0:0:
301,55,213446,1,0,0:0:0:0:
301,55,213579,1,8,0:0:0:0:
297,52,213851,1,8,0:0:0:0:
311,61,213987,1,8,0:0:0:0:
298,68,214123,1,0,0:0:0:0:
311,61,214259,1,0,0:0:0:0:
310,62,214395,1,8,0:0:0:0:
301,56,214667,1,0,0:0:0:0:
291,56,214803,1,8,0:0:0:0:
306,57,214939,1,0,0:0:0:0:
292,57,215211,1,8,0:0:0:0:
292,57,215347,1,8,0:0:0:0:
292,57,215483,1,8,0:0:0:0:
292,57,215619,1,0,0:0:0:0:
292,57,215887,1,8,0:0:0:0:
292,57,216019,1,0,0:0:0:0:
301,56,216151,1,0,0:0:0:0:
301,56,216283,1,8,0:0:0:0:
301,56,216415,1,0,0:0:0:0:
301,56,216680,1,8,0:0:0:0:
310,67,216812,1,8,0:0:0:0:
301,56,216944,1,0,0:0:0:0:
301,56,217208,1,0,0:0:0:0:
301,56,217340,1,8,0:0:0:0:
301,56,217473,1,0,0:0:0:0:
301,56,217605,1,8,0:0:0:0:
321,75,217737,1,0,0:0:0:0:
291,103,217869,1,8,0:0:0:0:
312,63,217936,1,8,0:0:0:0:
312,63,218004,1,0,0:0:0:0:
307,74,218276,1,8,0:0:0:0:
306,53,218344,1,8,0:0:0:0:
316,62,218411,1,0,0:0:0:0:
316,62,218683,1,8,0:0:0:0:
316,62,218751,1,8,0:0:0:0:
316,62,218819,1,8,0:0:0:0:
314,47,219090,1,0,0:0:0:0:
314,47,219226,1,8,0:0:0:0:
309,51,219497,1,8,0:0:0:0:
321,56,219633,1,8,0:0:0:0:
321,57,219769,1,0,0:0:0:0:
321,55,219837,1,0,0:0:0:0:
346,80,219905,1,0,0:0:0:0:
309,51,220040,1,8,0:0:0:0:
321,57,220176,1,0,0:0:0:0:
314,63,220312,1,8,0:0:0:0:
328,55,220448,1,0,0:0:0:0:
328,55,220583,1,8,0:0:0:0:
328,55,220719,1,0,0:0:0:0:
328,55,220855,1,8,0:0:0:0:
328,55,220991,1,0,0:0:0:0:
328,55,221059,1,0,0:0:0:0:
309,59,221126,1,8,0:0:0:0:
331,112,222151,1,4,0:0:0:0:
295,94,222434,1,0,0:0:0:0:
302,96,222529,1,8,0:0:0:0:
302,96,222718,1,0,0:0:0:0:
302,96,222907,1,0,0:0:0:0:
307,91,223002,1,8,0:0:0:0:
307,91,223096,1,0,0:0:0:0:
307,91,223285,1,8,0:0:0:0:
296,88,223475,1,0,0:0:0:0:
296,88,223569,1,8,0:0:0:0:
307,91,223761,1,8,0:0:0:0:
307,91,223858,1,0,0:0:0:0:
307,91,223955,1,0,0:0:0:0:
298,90,224052,1,8,0:0:0:0:
298,90,224246,1,8,0:0:0:0:
307,91,224343,1,8,0:0:0:0:
298,90,224440,1,0,0:0:0:0:
313,114,224634,1,0,0:0:0:0:
301,91,224731,1,0,0:0:0:0:
307,102,224829,1,8,0:0:0:0:
301,91,225023,1,8,0:0:0:0:
301,91,225217,1,0,0:0:0:0:
301,91,225313,1,8,0:0:0:0:
301,91,225409,1,0,0:0:0:0:
307,80,225505,1,8,0:0:0:0:
307,88,225697,1,0,0:0:0:0:
307,88,225890,1,8,0:0:0:0:
307,88,225986,1,8,0:0:0:0:
285,104,226178,1,0,0:0:0:0:
304,90,226274,1,0,0:0:0:0:
290,113,226370,1,8,0:0:0:0:
304,91,226563,1,8,0:0:0:0:
310,93,226659,1,0,0:0:0:0:
304,91,226755,1,8,0:0:0:0:
288,106,226947,1,0,0:0:0:0:
288,106,227140,1,8,0:0:0:0:
294,90,227236,1,0,0:0:0:0:
295,90,227332,1,0,0:0:0:0:
284,102,227428,1,8,0:0:0:0:
296,91,227620,1,0,0:0:0:0:
288,93,227717,1,0,0:0:0:0:
288,93,227909,1,8,0:0:0:0:
288,93,228005,1,0,0:0:0:0:
296,85,228101,1,8,0:0:0:0:
288,93,228293,1,0,0:0:0:0:
281,84,228391,1,8,0:0:0:0:
281,84,228589,1,0,0:0:0:0:
281,84,228687,1,8,0:0:0:0:
275,102,228885,1,0,0:0:0:0:
297,86,228983,1,0,0:0:0:0:
297,86,229181,1,0,0:0:0:0:
297,86,229279,1,8,0:0:0:0:
300,78,229378,1,0,0:0:0:0:
294,87,229477,1,8,0:0:0:0:
292,76,229674,1,0,0:0:0:0:
292,76,229871,1,8,0:0:0:0:
292,87,229968,1,8,0:0:0:0:
292,87,230065,1,0,0:0:0:0:
300,76,230163,1,8,0:0:0:0:
300,76,230358,1,0,0:0:0:0:
301,75,230455,1,8,0:0:0:0:
300,76,230552,1,8,0:0:0:0:
301,75,230650,1,0,0:0:0:0:
321,89,230845,1,0,0:0:0:0:
325,97,231039,1,8,0:0:0:0:
317,88,231137,1,0,0:0:0:0:
307,87,231234,1,8,0:0:0:0:
322,81,231429,1,0,0:0:0:0:
315,78,231525,1,0,0:0:0:0:
329,90,231622,1,8,0:0:0:0:
329,90,231719,1,0,0:0:0:0:
329,90,231913,1,8,0:0:0:0:
280,80,232010,1,0,0:0:0:0:
329,77,232107,1,0,0:0:0:0:
300,103,232204,1,8,0:0:0:0:
329,77,232398,1,0,0:0:0:0:
329,90,232592,1,0,0:0:0:0:
329,90,232786,1,0,0:0:0:0:
336,96,232979,1,8,0:0:0:0:
336,96,233174,1,8,0:0:0:0:
336,96,233369,1,0,0:0:0:0:
336,96,233467,1,0,0:0:0:0:
342,88,233663,1,0,0:0:0:0:
342,88,233760,1,0,0:0:0:0:
342,88,233956,1,0,0:0:0:0:
342,88,234053,1,0,0:0:0:0:
342,88,234151,1,0,0:0:0:0:
339,87,234561,1,12,0:0:0:0:
338,82,234852,1,0,0:0:0:0:
338,82,234949,1,8,0:0:0:0:
324,85,235144,1,0,0:0:0:0:
343,88,235338,1,8,0:0:0:0:
336,81,235436,1,8,0:0:0:0:
343,92,235533,1,0,0:0:0:0:
310,90,235727,1,8,0:0:0:0:
345,91,235922,1,0,0:0:0:0:
338,81,236019,1,8,0:0:0:0:
315,91,236116,1,0,0:0:0:0:
337,83,236313,1,0,0:0:0:0:
338,81,236411,1,0,0:0:0:0:
315,91,236510,1,8,0:0:0:0:
336,89,236707,1,0,0:0:0:0:
336,89,236904,1,8,0:0:0:0:
336,89,237002,1,8,0:0:0:0:
336,89,237101,1,0,0:0:0:0:
297,105,237298,1,8,0:0:0:0:
336,90,237396,1,0,0:0:0:0:
336,90,237495,1,8,0:0:0:0:
336,90,237593,1,8,0:0:0:0:
306,101,237692,1,0,0:0:0:0:
335,90,237986,1,0,0:0:0:0:
296,93,238085,1,8,0:0:0:0:
330,90,238281,1,8,0:0:0:0:
330,90,238478,1,0,0:0:0:0:
330,90,238576,1,8,0:0:0:0:
330,90,238773,1,0,0:0:0:0:
306,88,238871,1,8,0:0:0:0:
325,86,239067,1,8,0:0:0:0:
325,86,239166,1,0,0:0:0:0:
338,78,239362,1,0,0:0:0:0:
338,78,239460,1,8,0:0:0:0:
315,74,239657,1,8,0:0:0:0:
343,88,239755,1,8,0:0:0:0:
315,74,239854,1,0,0:0:0:0:
315,74,240050,1,0,0:0:0:0:
315,74,240148,1,8,0:0:0:0:
315,74,240247,1,0,0:0:0:0:
315,74,240443,1,8,0:0:0:0:
299,91,240542,1,0,0:0:0:0:
344,83,240738,1,0,0:0:0:0:
344,83,240836,1,8,0:0:0:0:
321,83,241132,1,0,0:0:0:0:
318,82,241230,1,8,0:0:0:0:
329,81,241428,1,0,0:0:0:0:
329,81,241526,1,0,0:0:0:0:
329,81,241625,1,8,0:0:0:0:
312,82,241822,1,0,0:0:0:0:
266,89,242020,1,8,0:0:0:0:
329,79,242118,1,8,0:0:0:0:
306,72,242316,1,0,0:0:0:0:
306,72,242511,1,0,0:0:0:0:
306,72,242707,1,0,0:0:0:0:
311,73,242805,1,8,0:0:0:0:
311,73,243001,1,0,0:0:0:0:
299,81,243197,1,0,0:0:0:0:
299,81,243294,1,8,0:0:0:0:
299,81,243392,1,0,0:0:0:0:
314,81,243490,1,0,0:0:0:0:
299,81,243588,1,8,0:0:0:0:
314,84,243784,1,8,0:0:0:0:
299,81,243980,1,0,0:0:0:0:
304,82,244276,1,0,0:0:0:0:
304,82,244374,1,8,0:0:0:0:
304,82,244572,1,0,0:0:0:0:
294,75,244769,1,8,0:0:0:0:
299,80,244868,1,8,0:0:0:0:
294,75,244966,1,0,0:0:0:0:
294,75,245164,1,8,0:0:0:0:
275,83,245361,1,0,0:0:0:0:
293,82,245460,1,8,0:0:0:0:
293,82,245655,1,0,0:0:0:0:
294,78,245752,1,0,0:0:0:0:
294,78,245947,1,8,0:0:0:0:
294,78,246142,1,8,0:0:0:0:
294,78,246337,1,8,0:0:0:0:
294,78,246532,1,8,0:0:0:0:
294,78,246726,1,8,0:0:0:0:
294,78,246921,1,8,0:0:0:0:
294,78,247116,1,4,0:0:0:0:
300,88,247512,1,12,0:0:0:0:
296,78,247711,1,0,0:0:0:0:
296,78,247810,1,0,0:0:0:0:
296,78,248008,1,8,0:0:0:0:
299,78,248107,1,0,0:0:0:0:
299,78,248306,1,8,0:0:0:0:
299,78,248504,1,0,0:0:0:0:
299,78,248603,1,8,0:0:0:0:
299,78,248702,1,0,0:0:0:0:
299,78,248896,1,0,0:0:0:0:
299,78,248994,1,0,0:0:0:0:
299,78,249091,1,8,0:0:0:0:
299,78,249286,1,0,0:0:0:0:
299,78,249481,1,8,0:0:0:0:
299,78,249578,1,8,0:0:0:0:
286,104,249676,1,0,0:0:0:0:
286,104,249870,1,8,0:0:0:0:
286,104,249968,1,0,0:0:0:0:
294,79,250065,1,8,0:0:0:0:
294,79,250163,1,8,0:0:0:0:
292,102,250260,1,0,0:0:0:0:
287,108,250557,1,0,0:0:0:0:
313,96,250656,1,8,0:0:0:0:
293,93,250854,1,0,0:0:0:0:
293,93,251052,1,8,0:0:0:0:
327,88,251151,1,8,0:0:0:0:
328,89,251250,1,0,0:0:0:0:
294,87,251349,1,0,0:0:0:0:
314,96,251448,1,8,0:0:0:0:
290,90,251646,1,0,0:0:0:0:
339,81,251745,1,8,0:0:0:0:
314,96,251941,1,8,0:0:0:0:
314,96,252039,1,0,0:0:0:0:
314,96,252235,1,8,0:0:0:0:
314,96,252333,1,0,0:0:0:0:
322,81,252431,1,8,0:0:0:0:
322,81,252627,1,0,0:0:0:0:
297,85,252724,1,8,0:0:0:0:
297,85,252822,1,0,0:0:0:0:
297,85,253018,1,8,0:0:0:0:
297,85,253116,1,8,0:0:0:0:
297,85,253214,1,8,0:0:0:0:
297,85,253410,1,0,0:0:0:0:
319,90,253606,1,0,0:0:0:0:
291,77,253705,1,8,0:0:0:0:
301,90,253803,1,8,0:0:0:0:
309,72,254000,1,0,0:0:0:0:
318,73,254098,1,8,0:0:0:0:
293,71,254196,1,0,0:0:0:0:
293,71,254295,1,8,0:0:0:0:
293,71,254491,1,0,0:0:0:0:
293,71,254590,1,8,0:0:0:0:
299,77,254787,1,0,0:0:0:0:
299,77,254885,1,0,0:0:0:0:
299,77,255079,1,0,0:0:0:0:
299,77,255271,1,0,0:0:0:0:
299,77,255367,1,8,0:0:0:0:
299,77,255463,1,0,0:0:0:0:
299,77,255656,1,0,0:0:0:0:
296,67,255752,1,8,0:0:0:0:
296,67,255944,1,0,0:0:0:0:
296,67,256136,1,8,0:0:0:0:
296,67,256233,1,0,0:0:0:0:
296,67,256329,1,0,0:0:0:0:
309,68,256521,1,8,0:0:0:0:
309,68,256813,1,0,0:0:0:0:
301,72,256910,1,8,0:0:0:0:
253,103,257105,1,0,0:0:0:0:
281,84,257300,1,0,0:0:0:0:
281,84,257397,1,8,0:0:0:0:
281,84,257495,1,0,0:0:0:0:
281,84,257689,1,8,0:0:0:0:
299,57,257884,1,8,0:0:0:0:
291,69,257982,1,0,0:0:0:0:
299,71,258079,1,0,0:0:0:0:
299,71,258176,1,8,0:0:0:0:
292,77,258274,1,0,0:0:0:0:
292,77,258469,1,8,0:0:0:0:
292,77,258663,1,8,0:0:0:0:
292,77,258858,1,8,0:0:0:0:
292,77,259053,1,8,0:0:0:0:
292,77,259248,1,8,0:0:0:0:
288,75,259637,1,8,0:0:0:0:
279,67,259731,1,0,0:0:0:0:
285,68,260014,1,8,0:0:0:0:
288,70,260108,1,0,0:0:0:0:
288,70,260391,1,8,0:0:0:0:
295,64,260486,1,0,0:0:0:0:
288,70,260769,1,8,0:0:0:0:
295,64,260863,1,0,0:0:0:0:
288,70,261146,1,8,0:0:0:0:
295,64,261241,1,0,0:0:0:0:
295,64,261528,1,8,0:0:0:0:
295,64,261623,1,0,0:0:0:0:
295,64,261910,1,8,0:0:0:0:
295,64,262005,1,0,0:0:0:0:
295,64,262292,1,8,0:0:0:0:
295,64,262388,1,0,0:0:0:0:
295,64,262674,1,8,0:0:0:0:
295,64,262770,1,0,0:0:0:0:
295,64,263056,1,8,0:0:0:0:
295,64,263152,1,0,0:0:0:0:
295,64,263438,1,8,0:0:0:0:
295,64,263534,1,0,0:0:0:0:
295,64,263821,1,8,0:0:0:0:
295,64,263916,1,0,0:0:0:0:
295,64,264203,1,8,0:0:0:0:
295,64,264299,1,0,0:0:0:0:
295,64,264590,1,8,0:0:0:0:
295,64,264686,1,0,0:0:0:0:
295,64,264977,1,8,0:0:0:0:
295,64,265073,1,0,0:0:0:0:
295,64,265364,1,8,0:0:0:0:
295,64,265461,1,0,0:0:0:0:
294,96,265751,1,8,0:0:0:0:
294,96,265847,1,0,0:0:0:0:
294,96,266138,1,8,0:0:0:0:
294,96,266234,1,0,0:0:0:0:
294,96,266525,1,8,0:0:0:0:
294,96,266621,1,0,0:0:0:0:
294,96,266912,1,8,0:0:0:0:
294,96,267009,1,0,0:0:0:0:
294,96,267299,1,8,0:0:0:0:
294,96,267396,1,0,0:0:0:0:
294,96,267686,1,8,0:0:0:0:
294,96,267783,1,0,0:0:0:0:
294,96,268073,1,8,0:0:0:0:
294,96,268170,1,0,0:0:0:0:
301,95,268460,1,8,0:0:0:0:
301,95,268562,1,0,0:0:0:0:
309,95,268868,1,8,0:0:0:0:
304,88,268964,1,8,0:0:0:0:
291,89,269448,1,8,0:0:0:0:
291,89,269545,1,8,0:0:0:0:
296,95,270029,1,8,0:0:0:0:
296,95,270126,1,8,0:0:0:0:
279,109,270416,1,8,0:0:0:0:
285,98,270609,1,0,0:0:0:0:
285,98,270803,1,8,0:0:0:0:
285,98,270900,1,0,0:0:0:0:
285,98,270997,1,8,0:0:0:0:
276,129,271190,1,8,0:0:0:0:
276,129,271387,1,8,0:0:0:0:
276,129,271584,1,0,0:0:0:0:
276,129,271683,1,8,0:0:0:0:
276,129,271782,1,0,0:0:0:0:
276,129,271979,1,8,0:0:0:0:
259,122,272194,1,0,0:0:0:0:
254,122,272302,1,0,0:0:0:0:
259,122,272410,1,0,0:0:0:0:
259,122,272626,1,0,0:0:0:0:
271,103,272842,1,8,0:0:0:0:
271,103,272946,1,0,0:0:0:0:
271,103,273050,1,0,0:0:0:0:
271,103,273154,1,12,0:0:0:0:
256,192,273875,12,0,274875,0:0:0:0:
