osu file format v14

[General]
AudioFilename: audio.mp3
AudioLeadIn: 0
PreviewTime: 84666
Countdown: 0
SampleSet: Normal
StackLeniency: 0.7
Mode: 1
LetterboxInBreaks: 0
WidescreenStoryboard: 0

[Editor]
Bookmarks: 16649,33201,68373,84925,101477,118029,153201,169753,178029,186304,194580,202856,219408,244235,260787,285615,293891,306304
DistanceSpacing: 1
BeatDivisor: 4
GridSize: 16
TimelineZoom: 1.799999

[Metadata]
Title:Hanging On
TitleUnicode:Hanging On
Artist:KNOWER
ArtistUnicode:KNOWER
Creator:Nifty
Version:Clutches
Source:
Tags:louis cole genevieve artadi life indietronic pop funk
BeatmapID:1793709
BeatmapSetID:858293

[Difficulty]
HPDrainRate:6
CircleSize:2
OverallDifficulty:5.4
ApproachRate:10
SliderMultiplier:1.4
SliderTickRate:1

[Events]
//Background and Video events
0,0,"kaori-miyazono-hd-caca61.png",0,0
//Break Periods
2,203056,217406
//Storyboard Layer 0 (Background)
//Storyboard Layer 1 (Fail)
//Storyboard Layer 2 (Pass)
//Storyboard Layer 3 (Foreground)
//Storyboard Sound Samples

[TimingPoints]
98,517.241379310345,4,1,0,40,1,0
98,-102.040816326531,4,1,0,40,0,0
13029,-98.0392156862745,4,1,0,45,0,0
13546,-94.3396226415094,4,1,0,50,0,0
14063,-90.9090909090909,4,1,0,55,0,0
14580,-87.719298245614,4,1,0,60,0,0
15098,-84.7457627118644,4,1,0,60,0,0
15485,-81.9672131147541,4,1,0,60,0,0
15615,-80.6451612903226,4,1,0,60,0,0
15744,-79.3650793650794,4,1,0,60,0,0
15873,-78.125,4,1,0,60,0,0
16003,-76.9230769230769,4,1,0,60,0,0
16132,-75.7575757575758,4,1,0,60,0,0
16261,-74.6268656716418,4,1,0,60,0,0
16391,-73.5294117647059,4,1,0,60,0,0
16520,-72.463768115942,4,1,0,60,0,0
16649,-71.4285714285714,4,1,0,65,0,0
31908,-74.0740740740741,4,1,0,65,0,0
33201,-71.4285714285714,4,1,0,65,0,0
67080,-74.0740740740741,4,1,0,65,0,0
67339,-76.9230769230769,4,1,0,65,0,0
67598,-80,4,1,0,65,0,0
67856,-83.3333333333333,4,1,0,65,0,0
68115,-102.040816326531,4,1,0,40,0,0
81046,-100,4,1,0,40,0,0
81304,-98.0392156862745,4,1,0,40,0,0
81563,-96.1538461538461,4,1,0,40,0,0
81822,-94.3396226415094,4,1,0,40,0,0
82080,-92.5925925925926,4,1,0,40,0,0
82339,-90.9090909090909,4,1,0,40,0,0
82727,-83.3333333333333,4,1,0,50,0,0
84020,-81.9672131147541,4,1,0,50,0,0
84149,-80.6451612903226,4,1,0,50,0,0
84279,-79.3650793650794,4,1,0,50,0,0
84408,-78.125,4,1,0,50,0,0
84537,-76.9230769230769,4,1,0,50,0,0
84925,-71.4285714285714,4,1,0,65,0,1
118029,-71.4285714285714,4,1,0,65,0,0
153330,-102.040816326531,4,1,0,40,0,0
165873,-100,4,1,0,40,0,0
166132,-98.0392156862745,4,1,0,45,0,0
166391,-96.1538461538461,4,1,0,45,0,0
166649,-94.3396226415094,4,1,0,50,0,0
166908,-92.5925925925926,4,1,0,50,0,0
167166,-90.9090909090909,4,1,0,55,0,0
167683,-87.719298245614,4,1,0,60,0,0
167942,-86.2068965517241,4,1,0,60,0,0
168072,-85.4700854700855,4,1,0,60,0,0
168201,-84.7457627118644,4,1,0,60,0,0
168460,-83.3333333333333,4,1,0,60,0,0
168588,-81.9672131147541,4,1,0,60,0,0
168654,-81.3008130081301,4,1,0,60,0,0
168718,-80.6451612903226,4,1,0,60,0,0
168847,-79.3650793650794,4,1,0,60,0,0
168976,-78.125,4,1,0,60,0,0
169041,-77.5193798449612,4,1,0,60,0,0
169106,-76.9230769230769,4,1,0,60,0,0
169235,-75.7575757575758,4,1,0,60,0,0
169364,-74.6268656716418,4,1,0,60,0,0
169429,-74.0740740740741,4,1,0,60,0,0
169494,-73.5294117647059,4,1,0,60,0,0
169623,-72.463768115942,4,1,0,60,0,0
169753,-71.4285714285714,4,1,0,65,0,1
202856,-71.4285714285714,4,1,0,65,0,0
202985,-102.040816326531,4,1,0,40,0,0
217856,-83.3333333333333,4,1,0,40,0,0
218373,-80.6451612903226,4,1,0,40,0,0
218503,-79.3650793650794,4,1,0,40,0,0
218632,-78.125,4,1,0,40,0,0
218761,-76.9230769230769,4,1,0,40,0,0
218891,-75.7575757575758,4,1,0,40,0,0
219020,-74.6268656716418,4,1,0,40,0,0
219149,-73.5294117647059,4,1,0,40,0,0
219279,-72.463768115942,4,1,0,40,0,0
219408,-71.4285714285714,4,1,0,65,0,0
260787,-71.4285714285714,4,1,0,65,0,1
293891,-71.4285714285714,4,1,0,65,0,0
295960,-83.3333333333333,4,1,0,65,0,0
296089,-80.8080808080808,4,1,0,65,0,0
296218,-78.4313725490196,4,1,0,65,0,0
296348,-76.1904761904762,4,1,0,65,0,0
296477,-74.0740740740741,4,1,0,65,0,0
296606,-72.0720720720721,4,1,0,65,0,0
296735,-70.1754385964912,4,1,0,65,0,0
296865,-68.3760683760684,4,1,0,65,0,0
296994,-66.6666666666667,4,1,0,65,0,0
297382,-71.4285714285714,4,1,0,65,0,0
297511,-72.2222422839562,4,1,0,65,0,0
297641,-73.0336955561187,4,1,0,65,0,0
297770,-73.8636447572324,4,1,0,65,0,0
297899,-74.7126179151892,4,1,0,65,0,0
298029,-75.5813909545703,4,1,0,65,0,0
298158,-76.4706062283779,4,1,0,65,0,0
298287,-77.3809339569205,4,1,0,65,0,0
298416,-78.3132577297143,4,1,0,65,0,0
298675,-80.2469036732218,4,1,0,65,0,0
298934,-82.2784549751725,4,1,0,65,0,0
299063,-83.3333333333333,4,1,0,65,0,0
299580,-83.3333333333333,4,1,0,65,0,0
299710,-80.0653333119826,4,1,0,65,0,0
299774,-78.5256649356993,4,1,0,65,0,0
299839,-77.0440360596906,4,1,0,65,0,0
299968,-74.2424118686889,4,1,0,65,0,0
300098,-71.6374457525442,4,1,0,65,0,0
301304,-70.5925538974149,4,1,0,65,0,0
301477,-69.7758311871451,4,1,0,65,0,0
301649,-68.9778381103935,4,1,0,65,0,0
301822,-68.1978911848088,4,1,0,65,0,0
301994,-67.435339624601,4,1,0,65,0,0
302166,-66.6896968419761,4,1,0,65,0,0
302339,-65.9603630986068,4,1,0,65,0,0
302511,-65.2468091048007,4,1,0,65,0,0
302684,-64.5484865639098,4,1,0,65,0,0
302856,-63.8649945108037,4,1,0,65,0,0
303029,-63.1958255365484,4,1,0,65,0,0
303201,-62.5404949704934,4,1,0,65,0,0

[HitObjects]
288,112,615,5,8,0:0:0:0:
288,112,1132,1,0,0:0:0:0:
288,112,1649,1,8,0:0:0:0:
288,112,2166,1,8,0:0:0:0:
288,128,2942,1,8,0:0:0:0:
288,128,3072,1,0,0:0:0:0:
288,128,3201,1,8,0:0:0:0:
288,128,4235,1,8,0:0:0:0:
288,128,5011,1,8,0:0:0:0:
288,128,5270,1,0,0:0:0:0:
288,128,6304,1,8,0:0:0:0:
288,112,7080,1,0,0:0:0:0:
288,112,7339,1,0,0:0:0:0:
288,128,8373,1,0,0:0:0:0:
288,128,8891,1,8,0:0:0:0:
288,128,9408,1,8,0:0:0:0:
288,128,9925,1,0,0:0:0:0:
288,128,10442,1,8,0:0:0:0:
288,128,11218,1,8,0:0:0:0:
288,128,11348,1,0,0:0:0:0:
288,128,11477,1,8,0:0:0:0:
224,160,12511,5,8,0:0:0:0:
224,160,13029,1,8,0:0:0:0:
224,160,13546,1,8,0:0:0:0:
224,160,14063,1,8,0:0:0:0:
240,160,14580,1,8,0:0:0:0:
240,160,15098,1,12,0:0:0:0:
240,160,15485,1,0,0:0:0:0:
240,160,15615,1,8,0:0:0:0:
240,160,15744,1,8,0:0:0:0:
240,160,15873,1,8,0:0:0:0:
240,160,16003,1,8,0:0:0:0:
240,160,16132,1,0,0:0:0:0:
240,160,16261,1,0,0:0:0:0:
240,160,16391,1,0,0:0:0:0:
240,160,16520,1,0,0:0:0:0:
240,160,16649,1,12,0:0:0:0:
240,160,16779,1,0,0:0:0:0:
240,160,17037,1,0,0:0:0:0:
240,160,17166,1,8,0:0:0:0:
240,160,17425,1,0,0:0:0:0:
240,160,17554,1,0,0:0:0:0:
240,144,17813,1,8,0:0:0:0:
240,144,17942,1,0,0:0:0:0:
240,144,18201,1,8,0:0:0:0:
240,144,18330,1,0,0:0:0:0:
240,144,18718,1,8,0:0:0:0:
240,144,18848,1,8,0:0:0:0:
240,144,19106,1,0,0:0:0:0:
240,144,19235,1,8,0:0:0:0:
240,144,19494,1,8,0:0:0:0:
256,144,19623,1,8,0:0:0:0:
256,144,19882,1,0,0:0:0:0:
256,144,20011,1,8,0:0:0:0:
256,128,20270,1,8,0:0:0:0:
256,128,20399,1,0,0:0:0:0:
256,144,20787,1,8,0:0:0:0:
256,144,20916,1,0,0:0:0:0:
256,144,21175,1,0,0:0:0:0:
256,144,21304,1,12,0:0:0:0:
256,128,21563,1,0,0:0:0:0:
256,128,21692,1,0,0:0:0:0:
256,128,21951,1,8,0:0:0:0:
256,128,22080,1,0,0:0:0:0:
272,128,22339,1,8,0:0:0:0:
272,128,22468,1,8,0:0:0:0:
256,128,22856,1,0,0:0:0:0:
256,128,22985,1,0,0:0:0:0:
272,112,23244,1,0,0:0:0:0:
272,112,23373,1,8,0:0:0:0:
272,112,23632,1,0,0:0:0:0:
272,128,23761,1,0,0:0:0:0:
272,112,24149,1,0,0:0:0:0:
272,112,24408,1,8,0:0:0:0:
272,112,24537,1,0,0:0:0:0:
288,112,24925,1,12,0:0:0:0:
288,112,25054,1,0,0:0:0:0:
288,112,25313,1,0,0:0:0:0:
288,112,25442,1,8,0:0:0:0:
288,112,25572,1,8,0:0:0:0:
288,112,25701,1,0,0:0:0:0:
288,112,25830,1,0,0:0:0:0:
288,112,25960,1,8,0:0:0:0:
288,112,26218,1,0,0:0:0:0:
288,112,26477,1,8,0:0:0:0:
288,112,26606,1,0,0:0:0:0:
288,112,26735,1,8,0:0:0:0:
288,112,26994,1,8,0:0:0:0:
288,112,27123,1,0,0:0:0:0:
288,112,27382,1,0,0:0:0:0:
288,112,27511,1,8,0:0:0:0:
288,112,27770,1,8,0:0:0:0:
288,112,27899,1,8,0:0:0:0:
288,112,28158,1,0,0:0:0:0:
288,112,28287,1,8,0:0:0:0:
288,112,28546,1,8,0:0:0:0:
288,112,28675,1,0,0:0:0:0:
288,96,29063,1,8,0:0:0:0:
288,96,29192,1,0,0:0:0:0:
288,96,29451,1,0,0:0:0:0:
288,96,29580,1,8,0:0:0:0:
288,96,29839,1,0,0:0:0:0:
272,112,29968,1,0,0:0:0:0:
272,112,30033,1,0,0:0:0:0:
272,112,30098,1,8,0:0:0:0:
272,112,30227,1,0,0:0:0:0:
256,112,30356,1,8,0:0:0:0:
256,96,30421,1,8,0:0:0:0:
256,96,30485,1,0,0:0:0:0:
256,112,30615,1,8,0:0:0:0:
256,112,30744,1,0,0:0:0:0:
256,112,30809,1,0,0:0:0:0:
256,112,30873,1,0,0:0:0:0:
256,96,31003,1,8,0:0:0:0:
272,96,31132,1,0,0:0:0:0:
272,96,31261,1,0,0:0:0:0:
272,96,31908,1,0,0:0:0:0:
272,96,32037,1,0,0:0:0:0:
272,96,32425,1,0,0:0:0:0:
272,96,32684,1,0,0:0:0:0:
272,144,33201,5,4,0:0:0:0:
272,96,33330,1,8,0:0:0:0:
272,144,33460,1,0,0:0:0:0:
272,144,33589,1,0,0:0:0:0:
272,144,33718,1,8,0:0:0:0:
272,144,33977,1,8,0:0:0:0:
272,144,34235,1,0,0:0:0:0:
272,144,34365,1,8,0:0:0:0:
272,144,34623,1,0,0:0:0:0:
118,102,34753,1,8,0:0:0:0:
272,128,34882,1,0,0:0:0:0:
272,128,35141,1,8,0:0:0:0:
272,128,35270,1,0,0:0:0:0:
272,128,35399,1,8,0:0:0:0:
272,128,35529,1,0,0:0:0:0:
272,128,35658,1,0,0:0:0:0:
272,128,35787,1,8,0:0:0:0:
272,128,36046,1,8,0:0:0:0:
272,128,36304,1,0,0:0:0:0:
272,128,36434,1,8,0:0:0:0:
272,128,36692,1,0,0:0:0:0:
272,128,36822,1,8,0:0:0:0:
272,128,36951,1,0,0:0:0:0:
272,128,37210,1,8,0:0:0:0:
272,128,37339,1,0,0:0:0:0:
288,128,37468,1,0,0:0:0:0:
288,128,37598,1,8,0:0:0:0:
288,112,37727,1,8,0:0:0:0:
288,112,37856,1,0,0:0:0:0:
288,112,38115,1,8,0:0:0:0:
288,112,38373,1,0,0:0:0:0:
288,112,38503,1,8,0:0:0:0:
288,112,38761,1,0,0:0:0:0:
288,112,38891,1,8,0:0:0:0:
288,112,39020,1,0,0:0:0:0:
288,112,39279,1,8,0:0:0:0:
288,112,39408,1,0,0:0:0:0:
288,112,39537,1,0,0:0:0:0:
304,112,39666,1,0,0:0:0:0:
304,112,39796,1,8,0:0:0:0:
304,112,39925,1,0,0:0:0:0:
304,112,40184,1,8,0:0:0:0:
304,112,40442,1,0,0:0:0:0:
304,112,40572,1,8,0:0:0:0:
304,112,40830,1,0,0:0:0:0:
304,112,41089,1,0,0:0:0:0:
304,112,41218,1,0,0:0:0:0:
304,112,41348,1,8,0:0:0:0:
304,112,41477,1,0,0:0:0:0:
304,112,41735,1,0,0:0:0:0:
304,112,41865,1,0,0:0:0:0:
304,112,41994,1,8,0:0:0:0:
304,112,42253,1,8,0:0:0:0:
304,112,42511,1,0,0:0:0:0:
304,112,42641,1,8,0:0:0:0:
320,96,42899,1,0,0:0:0:0:
320,96,43029,1,8,0:0:0:0:
320,96,43158,1,8,0:0:0:0:
320,96,43416,1,8,0:0:0:0:
320,96,43546,1,0,0:0:0:0:
320,96,43675,1,8,0:0:0:0:
320,96,43804,1,0,0:0:0:0:
320,96,43934,1,0,0:0:0:0:
320,96,44063,1,8,0:0:0:0:
320,96,44322,1,8,0:0:0:0:
320,96,44580,1,0,0:0:0:0:
320,96,44710,1,8,0:0:0:0:
320,96,44968,1,0,0:0:0:0:
320,96,45098,1,8,0:0:0:0:
320,96,45227,1,0,0:0:0:0:
320,96,45615,1,8,0:0:0:0:
320,96,45873,1,0,0:0:0:0:
320,96,46003,1,0,0:0:0:0:
320,96,46132,1,8,0:0:0:0:
336,96,46261,1,0,0:0:0:0:
336,96,46391,1,8,0:0:0:0:
304,96,46649,1,8,0:0:0:0:
320,96,46908,1,0,0:0:0:0:
320,96,47166,1,8,0:0:0:0:
320,96,47296,1,0,0:0:0:0:
320,96,47425,1,0,0:0:0:0:
320,96,47554,1,8,0:0:0:0:
320,112,47684,1,0,0:0:0:0:
320,112,47942,1,0,0:0:0:0:
336,96,48072,1,0,0:0:0:0:
336,112,48201,1,8,0:0:0:0:
336,80,48460,1,0,0:0:0:0:
336,96,48589,1,8,0:0:0:0:
336,96,48848,1,8,0:0:0:0:
336,96,48977,1,0,0:0:0:0:
336,96,49106,1,0,0:0:0:0:
336,96,49235,1,8,0:0:0:0:
336,96,49365,1,0,0:0:0:0:
336,96,49494,1,8,0:0:0:0:
336,96,49623,1,8,0:0:0:0:
272,144,49753,5,4,0:0:0:0:
272,96,49882,1,8,0:0:0:0:
272,144,50011,1,0,0:0:0:0:
272,144,50141,1,0,0:0:0:0:
272,144,50270,1,8,0:0:0:0:
272,144,50529,1,8,0:0:0:0:
272,144,50787,1,0,0:0:0:0:
272,144,50916,1,8,0:0:0:0:
272,144,51175,1,0,0:0:0:0:
272,128,51304,1,8,0:0:0:0:
300,144,51434,1,0,0:0:0:0:
272,128,51692,1,8,0:0:0:0:
272,128,51822,1,0,0:0:0:0:
272,128,51951,1,8,0:0:0:0:
272,128,52080,1,0,0:0:0:0:
272,128,52210,1,0,0:0:0:0:
272,128,52339,1,8,0:0:0:0:
272,128,52598,1,8,0:0:0:0:
272,128,52856,1,0,0:0:0:0:
272,128,52985,1,8,0:0:0:0:
272,128,53244,1,0,0:0:0:0:
272,128,53373,1,8,0:0:0:0:
272,128,53503,1,0,0:0:0:0:
272,128,53761,1,8,0:0:0:0:
272,128,53891,1,0,0:0:0:0:
288,128,54020,1,0,0:0:0:0:
288,128,54149,1,8,0:0:0:0:
288,112,54279,1,0,0:0:0:0:
288,112,54408,1,8,0:0:0:0:
288,112,54666,1,8,0:0:0:0:
288,112,54925,1,0,0:0:0:0:
288,112,55054,1,8,0:0:0:0:
288,112,55313,1,0,0:0:0:0:
288,112,55442,1,8,0:0:0:0:
288,112,55572,1,8,0:0:0:0:
288,112,55830,1,8,0:0:0:0:
288,112,55960,1,0,0:0:0:0:
288,112,56089,1,0,0:0:0:0:
304,112,56218,1,0,0:0:0:0:
304,112,56348,1,8,0:0:0:0:
304,112,56477,1,0,0:0:0:0:
304,112,56735,1,8,0:0:0:0:
240,128,57123,1,0,0:0:0:0:
272,128,57253,1,8,0:0:0:0:
272,128,57382,1,8,0:0:0:0:
272,128,57511,1,0,0:0:0:0:
288,128,57641,1,8,0:0:0:0:
304,112,57899,1,8,0:0:0:0:
304,112,58029,1,0,0:0:0:0:
304,112,58287,1,0,0:0:0:0:
304,112,58416,1,0,0:0:0:0:
304,112,58546,1,8,0:0:0:0:
304,112,58804,1,8,0:0:0:0:
304,112,59063,1,0,0:0:0:0:
304,112,59192,1,8,0:0:0:0:
320,96,59451,1,0,0:0:0:0:
320,96,59580,1,8,0:0:0:0:
320,96,59710,1,8,0:0:0:0:
320,96,59968,1,8,0:0:0:0:
320,96,60098,1,0,0:0:0:0:
320,96,60227,1,8,0:0:0:0:
320,96,60356,1,0,0:0:0:0:
320,96,60485,1,0,0:0:0:0:
320,96,60615,1,8,0:0:0:0:
320,96,60873,1,8,0:0:0:0:
320,96,61132,1,0,0:0:0:0:
320,96,61261,1,0,0:0:0:0:
304,112,61391,1,8,0:0:0:0:
304,80,61520,1,8,0:0:0:0:
320,96,61649,1,0,0:0:0:0:
304,96,61908,1,0,0:0:0:0:
320,96,62166,1,8,0:0:0:0:
320,96,62425,1,0,0:0:0:0:
320,96,62554,1,0,0:0:0:0:
320,96,62684,1,8,0:0:0:0:
336,96,62813,1,0,0:0:0:0:
336,96,62942,1,8,0:0:0:0:
304,96,63201,1,8,0:0:0:0:
320,96,63460,1,0,0:0:0:0:
320,96,63718,1,8,0:0:0:0:
320,96,63977,1,0,0:0:0:0:
320,96,64106,1,8,0:0:0:0:
320,112,64235,1,0,0:0:0:0:
320,112,64494,1,0,0:0:0:0:
336,96,64623,1,0,0:0:0:0:
336,112,64753,1,8,0:0:0:0:
336,80,65011,1,0,0:0:0:0:
336,96,65141,1,8,0:0:0:0:
336,96,65399,1,8,0:0:0:0:
336,96,65529,1,0,0:0:0:0:
336,96,65658,1,0,0:0:0:0:
336,96,65787,1,8,0:0:0:0:
336,96,65916,1,0,0:0:0:0:
336,96,66046,1,8,0:0:0:0:
336,96,66175,1,8,0:0:0:0:
336,112,66304,1,0,0:0:0:0:
336,112,66692,1,0,0:0:0:0:
336,112,66822,1,8,0:0:0:0:
336,112,67080,1,8,0:0:0:0:
336,112,67339,1,8,0:0:0:0:
336,112,67598,1,8,0:0:0:0:
336,112,67856,1,8,0:0:0:0:
336,112,68244,1,8,0:0:0:0:
336,128,68373,1,4,0:0:0:0:
288,144,70701,1,8,0:0:0:0:
288,144,70960,1,8,0:0:0:0:
288,144,71218,1,0,0:0:0:0:
288,144,71477,1,0,0:0:0:0:
288,144,71735,1,8,0:0:0:0:
288,144,71994,1,8,0:0:0:0:
288,144,72770,1,8,0:0:0:0:
288,144,73029,1,8,0:0:0:0:
288,144,73287,1,0,0:0:0:0:
288,144,73546,1,8,0:0:0:0:
288,144,73804,1,0,0:0:0:0:
288,144,74063,1,8,0:0:0:0:
288,144,74839,1,8,0:0:0:0:
288,144,75098,1,8,0:0:0:0:
288,144,75356,1,0,0:0:0:0:
288,144,75615,1,0,0:0:0:0:
288,144,76132,1,0,0:0:0:0:
288,144,76649,1,8,0:0:0:0:
288,144,77166,1,8,0:0:0:0:
288,144,77684,1,8,0:0:0:0:
288,144,78201,1,8,0:0:0:0:
288,144,78718,1,8,0:0:0:0:
288,144,78977,1,8,0:0:0:0:
288,144,79235,1,8,0:0:0:0:
288,144,79494,1,0,0:0:0:0:
288,144,79753,1,0,0:0:0:0:
288,144,80011,1,8,0:0:0:0:
288,144,80270,1,8,0:0:0:0:
288,144,80787,1,8,0:0:0:0:
288,144,81046,1,8,0:0:0:0:
288,144,81304,1,8,0:0:0:0:
288,144,81563,1,0,0:0:0:0:
288,144,81822,1,8,0:0:0:0:
288,144,82080,1,0,0:0:0:0:
288,144,82339,1,8,0:0:0:0:
288,144,82856,1,8,0:0:0:0:
288,144,83115,1,0,0:0:0:0:
288,144,83373,1,12,0:0:0:0:
288,144,83632,1,0,0:0:0:0:
304,160,83761,1,0,0:0:0:0:
304,160,83826,1,0,0:0:0:0:
304,160,83891,1,8,0:0:0:0:
304,144,84020,1,0,0:0:0:0:
304,144,84149,1,8,0:0:0:0:
304,144,84279,1,0,0:0:0:0:
304,144,84408,1,8,0:0:0:0:
304,144,84537,1,0,0:0:0:0:
304,144,84925,1,12,0:0:0:0:
304,144,85054,1,0,0:0:0:0:
288,144,85313,1,0,0:0:0:0:
288,144,85442,1,8,0:0:0:0:
256,144,85701,1,0,0:0:0:0:
224,128,85830,1,0,0:0:0:0:
256,128,86089,1,8,0:0:0:0:
256,128,86218,1,0,0:0:0:0:
288,144,86477,1,8,0:0:0:0:
272,128,86606,1,8,0:0:0:0:
272,128,86994,1,8,0:0:0:0:
272,128,87123,1,8,0:0:0:0:
272,128,87382,1,0,0:0:0:0:
272,128,87511,1,8,0:0:0:0:
272,128,87770,1,8,0:0:0:0:
272,128,87899,1,8,0:0:0:0:
272,128,88158,1,0,0:0:0:0:
272,128,88287,1,8,0:0:0:0:
272,128,88546,1,8,0:0:0:0:
272,128,88675,1,0,0:0:0:0:
288,128,89063,1,8,0:0:0:0:
272,128,89192,1,0,0:0:0:0:
288,128,89451,1,0,0:0:0:0:
288,128,89580,1,8,0:0:0:0:
288,128,89839,1,0,0:0:0:0:
272,112,89968,1,0,0:0:0:0:
288,96,90098,1,8,0:0:0:0:
288,112,90356,1,0,0:0:0:0:
288,112,90615,1,8,0:0:0:0:
288,112,90744,1,0,0:0:0:0:
288,112,91132,1,0,0:0:0:0:
288,112,91261,1,0,0:0:0:0:
272,112,91520,1,0,0:0:0:0:
272,112,91649,1,8,0:0:0:0:
272,112,91908,1,0,0:0:0:0:
272,112,92037,1,0,0:0:0:0:
272,112,92425,1,0,0:0:0:0:
272,112,92684,1,8,0:0:0:0:
272,112,92813,1,0,0:0:0:0:
272,112,93201,1,12,0:0:0:0:
272,112,93330,1,0,0:0:0:0:
272,112,93589,1,0,0:0:0:0:
272,112,93718,1,8,0:0:0:0:
272,112,93977,1,0,0:0:0:0:
272,112,94106,1,0,0:0:0:0:
272,112,94365,1,8,0:0:0:0:
272,112,94494,1,0,0:0:0:0:
272,96,94753,1,8,0:0:0:0:
272,96,94882,1,8,0:0:0:0:
272,112,95270,1,8,0:0:0:0:
272,112,95399,1,8,0:0:0:0:
272,112,95658,1,0,0:0:0:0:
272,112,95787,1,8,0:0:0:0:
272,96,96046,1,8,0:0:0:0:
272,96,96175,1,8,0:0:0:0:
272,96,96434,1,0,0:0:0:0:
272,96,96563,1,8,0:0:0:0:
272,96,96822,1,8,0:0:0:0:
272,96,96951,1,0,0:0:0:0:
272,96,97339,1,8,0:0:0:0:
272,96,97468,1,0,0:0:0:0:
272,96,97727,1,0,0:0:0:0:
272,96,97856,1,8,0:0:0:0:
272,96,98115,1,0,0:0:0:0:
272,96,98244,1,0,0:0:0:0:
288,96,98373,1,8,0:0:0:0:
272,96,98632,1,0,0:0:0:0:
272,80,98891,1,8,0:0:0:0:
272,80,99020,1,0,0:0:0:0:
272,112,99408,1,0,0:0:0:0:
256,112,99537,1,0,0:0:0:0:
256,112,99796,1,0,0:0:0:0:
256,112,99925,1,8,0:0:0:0:
256,112,100184,1,0,0:0:0:0:
256,112,100313,1,0,0:0:0:0:
256,128,100572,1,8,0:0:0:0:
256,128,100701,1,0,0:0:0:0:
256,128,100830,1,0,0:0:0:0:
256,128,100960,1,8,0:0:0:0:
256,128,101089,1,8,0:0:0:0:
256,128,101218,1,0,0:0:0:0:
256,128,101348,1,0,0:0:0:0:
272,144,101477,1,12,0:0:0:0:
304,144,101606,1,0,0:0:0:0:
288,144,101865,1,0,0:0:0:0:
288,144,101994,1,8,0:0:0:0:
256,144,102253,1,0,0:0:0:0:
224,128,102382,1,0,0:0:0:0:
256,128,102641,1,8,0:0:0:0:
256,128,102770,1,0,0:0:0:0:
288,144,103029,1,8,0:0:0:0:
272,128,103158,1,8,0:0:0:0:
272,128,103546,1,8,0:0:0:0:
272,128,103675,1,8,0:0:0:0:
272,128,103934,1,0,0:0:0:0:
272,128,104063,1,8,0:0:0:0:
272,128,104322,1,8,0:0:0:0:
272,128,104451,1,8,0:0:0:0:
272,128,104710,1,0,0:0:0:0:
272,128,104839,1,8,0:0:0:0:
272,128,105098,1,8,0:0:0:0:
272,128,105227,1,0,0:0:0:0:
288,128,105615,1,8,0:0:0:0:
272,128,105744,1,0,0:0:0:0:
288,128,106003,1,0,0:0:0:0:
288,128,106132,1,8,0:0:0:0:
288,128,106391,1,0,0:0:0:0:
272,112,106520,1,0,0:0:0:0:
304,96,106649,1,8,0:0:0:0:
288,112,106908,1,0,0:0:0:0:
288,112,107166,1,8,0:0:0:0:
288,112,107296,1,0,0:0:0:0:
288,112,107684,1,0,0:0:0:0:
288,112,107813,1,0,0:0:0:0:
272,112,108072,1,0,0:0:0:0:
272,112,108201,1,8,0:0:0:0:
272,112,108460,1,0,0:0:0:0:
272,96,108589,1,8,0:0:0:0:
272,96,108848,1,8,0:0:0:0:
272,112,108977,1,0,0:0:0:0:
272,112,109235,1,8,0:0:0:0:
272,112,109365,1,0,0:0:0:0:
272,112,109753,1,12,0:0:0:0:
272,112,109882,1,0,0:0:0:0:
272,112,110141,1,0,0:0:0:0:
272,112,110270,1,8,0:0:0:0:
272,112,110399,1,8,0:0:0:0:
272,112,110529,1,0,0:0:0:0:
272,112,110658,1,0,0:0:0:0:
272,112,110787,1,8,0:0:0:0:
272,112,111046,1,0,0:0:0:0:
256,112,111304,1,8,0:0:0:0:
256,112,111434,1,0,0:0:0:0:
272,128,111563,1,8,0:0:0:0:
272,128,111822,1,8,0:0:0:0:
256,96,111951,1,0,0:0:0:0:
272,128,112210,1,0,0:0:0:0:
272,128,112339,1,8,0:0:0:0:
272,96,112598,1,8,0:0:0:0:
272,96,112727,1,8,0:0:0:0:
272,128,112985,1,0,0:0:0:0:
272,128,113115,1,8,0:0:0:0:
272,128,113373,1,8,0:0:0:0:
272,128,113503,1,0,0:0:0:0:
272,128,113891,1,8,0:0:0:0:
272,128,114020,1,0,0:0:0:0:
272,128,114279,1,0,0:0:0:0:
272,128,114408,1,8,0:0:0:0:
272,128,114666,1,0,0:0:0:0:
272,128,114796,1,0,0:0:0:0:
272,128,115054,1,8,0:0:0:0:
272,128,115184,1,0,0:0:0:0:
272,128,115313,1,0,0:0:0:0:
256,128,115442,1,8,0:0:0:0:
256,128,115572,1,0,0:0:0:0:
256,128,115701,1,0,0:0:0:0:
256,128,115960,1,0,0:0:0:0:
256,128,116089,1,0,0:0:0:0:
256,128,116348,1,0,0:0:0:0:
256,128,116477,1,8,0:0:0:0:
272,128,116735,1,0,0:0:0:0:
256,128,116865,1,0,0:0:0:0:
272,128,116929,1,0,0:0:0:0:
272,128,116994,1,8,0:0:0:0:
272,128,117123,1,8,0:0:0:0:
272,128,117253,1,0,0:0:0:0:
272,128,117317,1,0,0:0:0:0:
272,128,117382,1,0,0:0:0:0:
272,128,117511,1,8,0:0:0:0:
272,128,117641,1,0,0:0:0:0:
272,128,117705,1,0,0:0:0:0:
272,128,117770,1,8,0:0:0:0:
272,128,117899,1,8,0:0:0:0:
288,144,118029,1,4,0:0:0:0:
272,112,118287,1,0,0:0:0:0:
272,112,118416,1,0,0:0:0:0:
272,112,118546,1,0,0:0:0:0:
272,112,118804,1,0,0:0:0:0:
272,112,119192,1,8,0:0:0:0:
272,112,119451,1,0,0:0:0:0:
272,112,119710,1,0,0:0:0:0:
272,112,119968,1,8,0:0:0:0:
272,112,120227,1,0,0:0:0:0:
272,112,120356,1,0,0:0:0:0:
272,112,120485,1,8,0:0:0:0:
272,112,120615,1,0,0:0:0:0:
272,112,120873,1,0,0:0:0:0:
272,112,121261,1,8,0:0:0:0:
272,112,121520,1,0,0:0:0:0:
272,112,121779,1,0,0:0:0:0:
272,112,122037,1,8,0:0:0:0:
272,112,122296,1,0,0:0:0:0:
272,112,122425,1,0,0:0:0:0:
272,112,122684,1,0,0:0:0:0:
272,112,122942,1,0,0:0:0:0:
272,112,123330,1,0,0:0:0:0:
272,112,123460,1,8,0:0:0:0:
272,112,123589,1,0,0:0:0:0:
272,128,123977,1,0,0:0:0:0:
288,128,124106,1,0,0:0:0:0:
288,128,124235,1,0,0:0:0:0:
272,128,124494,1,0,0:0:0:0:
272,112,124623,1,0,0:0:0:0:
272,112,125011,1,0,0:0:0:0:
272,112,125399,1,8,0:0:0:0:
272,112,125658,1,0,0:0:0:0:
272,112,125787,1,8,0:0:0:0:
272,112,125916,1,0,0:0:0:0:
272,112,126046,1,8,0:0:0:0:
272,112,126175,1,8,0:0:0:0:
272,112,126304,1,4,0:0:0:0:
304,112,126563,1,0,0:0:0:0:
304,112,126692,1,0,0:0:0:0:
304,112,126822,1,8,0:0:0:0:
304,112,127080,1,8,0:0:0:0:
304,112,127339,1,0,0:0:0:0:
304,112,127468,1,8,0:0:0:0:
320,96,127727,1,0,0:0:0:0:
320,96,127856,1,8,0:0:0:0:
320,96,127985,1,8,0:0:0:0:
320,96,128244,1,8,0:0:0:0:
320,96,128373,1,0,0:0:0:0:
320,96,128503,1,8,0:0:0:0:
320,96,128632,1,0,0:0:0:0:
320,96,128761,1,0,0:0:0:0:
320,96,128891,1,8,0:0:0:0:
320,96,129149,1,8,0:0:0:0:
320,96,129408,1,0,0:0:0:0:
320,96,129537,1,8,0:0:0:0:
320,96,129796,1,0,0:0:0:0:
320,96,129925,1,8,0:0:0:0:
320,96,130054,1,0,0:0:0:0:
320,96,130442,1,8,0:0:0:0:
320,96,130701,1,0,0:0:0:0:
320,96,130830,1,0,0:0:0:0:
320,96,130960,1,8,0:0:0:0:
336,96,131089,1,0,0:0:0:0:
336,96,131218,1,8,0:0:0:0:
304,96,131477,1,8,0:0:0:0:
320,96,131735,1,0,0:0:0:0:
320,96,131994,1,8,0:0:0:0:
320,96,132123,1,0,0:0:0:0:
320,96,132253,1,8,0:0:0:0:
320,96,132382,1,8,0:0:0:0:
336,112,132511,1,0,0:0:0:0:
336,112,132641,1,0,0:0:0:0:
336,112,132770,1,8,0:0:0:0:
336,96,132899,1,0,0:0:0:0:
336,112,133029,1,8,0:0:0:0:
336,80,133287,1,0,0:0:0:0:
336,96,133416,1,8,0:0:0:0:
336,96,133675,1,8,0:0:0:0:
336,96,133804,1,0,0:0:0:0:
336,96,133934,1,0,0:0:0:0:
336,96,134063,1,8,0:0:0:0:
336,96,134192,1,0,0:0:0:0:
336,96,134322,1,8,0:0:0:0:
336,96,134451,1,8,0:0:0:0:
272,144,134580,5,4,0:0:0:0:
272,96,134710,1,8,0:0:0:0:
272,144,134839,1,0,0:0:0:0:
272,144,134968,1,0,0:0:0:0:
272,144,135098,1,8,0:0:0:0:
272,144,135356,1,8,0:0:0:0:
272,144,135615,1,0,0:0:0:0:
272,144,135744,1,8,0:0:0:0:
272,144,136003,1,0,0:0:0:0:
240,144,136132,1,8,0:0:0:0:
272,128,136261,1,8,0:0:0:0:
272,128,136520,1,8,0:0:0:0:
272,128,136649,1,0,0:0:0:0:
272,128,136779,1,8,0:0:0:0:
272,128,136908,1,0,0:0:0:0:
272,128,137037,1,0,0:0:0:0:
272,128,137166,1,8,0:0:0:0:
272,128,137425,1,8,0:0:0:0:
272,128,137684,1,0,0:0:0:0:
272,128,137813,1,8,0:0:0:0:
272,128,138072,1,0,0:0:0:0:
272,128,138201,1,8,0:0:0:0:
272,128,138330,1,0,0:0:0:0:
272,128,138589,1,8,0:0:0:0:
272,128,138718,1,0,0:0:0:0:
288,128,138848,1,0,0:0:0:0:
288,128,138977,1,8,0:0:0:0:
288,112,139106,1,8,0:0:0:0:
288,112,139235,1,0,0:0:0:0:
288,112,139494,1,8,0:0:0:0:
288,112,139753,1,0,0:0:0:0:
288,112,139882,1,8,0:0:0:0:
288,112,140141,1,0,0:0:0:0:
288,112,140270,1,8,0:0:0:0:
288,112,140399,1,8,0:0:0:0:
288,112,140658,1,8,0:0:0:0:
288,112,140787,1,0,0:0:0:0:
288,112,140916,1,0,0:0:0:0:
304,112,141046,1,0,0:0:0:0:
304,112,141175,1,8,0:0:0:0:
304,112,141304,1,0,0:0:0:0:
304,112,141563,1,8,0:0:0:0:
240,128,141951,1,0,0:0:0:0:
272,128,142210,1,8,0:0:0:0:
288,128,142468,1,8,0:0:0:0:
272,112,142598,1,0,0:0:0:0:
304,112,142727,1,8,0:0:0:0:
304,112,142856,1,0,0:0:0:0:
304,112,143115,1,0,0:0:0:0:
304,112,143244,1,0,0:0:0:0:
304,112,143373,1,8,0:0:0:0:
304,112,143632,1,8,0:0:0:0:
304,112,143891,1,0,0:0:0:0:
304,112,144020,1,8,0:0:0:0:
320,96,144149,1,0,0:0:0:0:
320,96,144279,1,0,0:0:0:0:
320,96,144408,1,8,0:0:0:0:
320,96,144537,1,8,0:0:0:0:
320,96,144796,1,8,0:0:0:0:
320,96,144925,1,0,0:0:0:0:
320,96,145054,1,8,0:0:0:0:
320,96,145184,1,0,0:0:0:0:
320,96,145313,1,0,0:0:0:0:
320,96,145442,1,8,0:0:0:0:
320,96,145701,1,8,0:0:0:0:
320,96,145960,1,0,0:0:0:0:
320,96,146089,1,8,0:0:0:0:
304,112,146218,1,0,0:0:0:0:
304,80,146348,1,0,0:0:0:0:
320,96,146477,1,8,0:0:0:0:
320,96,146994,1,8,0:0:0:0:
320,96,147253,1,0,0:0:0:0:
320,96,147382,1,0,0:0:0:0:
320,96,147511,1,8,0:0:0:0:
336,96,147641,1,0,0:0:0:0:
336,96,147770,1,8,0:0:0:0:
336,93,148029,1,8,0:0:0:0:
336,93,148158,1,0,0:0:0:0:
336,93,148287,1,0,0:0:0:0:
336,93,148416,1,0,0:0:0:0:
320,96,148546,1,8,0:0:0:0:
326,107,148675,1,0,0:0:0:0:
320,96,148934,1,8,0:0:0:0:
320,112,149063,1,0,0:0:0:0:
320,112,149322,1,0,0:0:0:0:
336,96,149451,1,0,0:0:0:0:
336,112,149580,1,8,0:0:0:0:
336,80,149839,1,0,0:0:0:0:
336,96,149968,1,8,0:0:0:0:
336,96,150227,1,8,0:0:0:0:
336,96,150356,1,0,0:0:0:0:
336,96,150485,1,0,0:0:0:0:
336,96,150615,1,8,0:0:0:0:
336,96,150744,1,0,0:0:0:0:
336,96,150873,1,8,0:0:0:0:
336,96,151003,1,8,0:0:0:0:
336,112,151132,1,0,0:0:0:0:
320,128,151261,1,0,0:0:0:0:
320,128,151391,1,8,0:0:0:0:
320,128,151520,1,8,0:0:0:0:
336,112,151649,1,8,0:0:0:0:
320,128,151779,1,8,0:0:0:0:
336,112,151908,1,8,0:0:0:0:
320,128,152037,1,8,0:0:0:0:
320,128,152166,1,8,0:0:0:0:
320,112,152296,1,0,0:0:0:0:
336,112,152425,1,8,0:0:0:0:
320,112,152554,1,0,0:0:0:0:
336,112,152684,1,8,0:0:0:0:
320,112,152813,1,0,0:0:0:0:
336,128,153201,1,4,0:0:0:0:
288,144,155529,1,8,0:0:0:0:
288,144,155787,1,8,0:0:0:0:
288,144,156046,1,0,0:0:0:0:
288,144,156304,1,0,0:0:0:0:
288,144,156563,1,8,0:0:0:0:
288,144,156822,1,8,0:0:0:0:
288,144,157598,1,8,0:0:0:0:
288,144,157856,1,8,0:0:0:0:
288,144,158115,1,0,0:0:0:0:
288,144,158373,1,8,0:0:0:0:
288,144,158632,1,0,0:0:0:0:
288,144,158891,1,8,0:0:0:0:
288,144,159666,1,8,0:0:0:0:
288,144,159925,1,8,0:0:0:0:
288,144,160184,1,0,0:0:0:0:
288,144,160442,1,0,0:0:0:0:
288,144,160960,1,0,0:0:0:0:
288,144,161477,1,8,0:0:0:0:
288,144,161994,1,8,0:0:0:0:
288,144,162511,1,8,0:0:0:0:
288,144,163029,1,8,0:0:0:0:
288,144,163546,1,8,0:0:0:0:
288,144,163804,1,8,0:0:0:0:
288,144,164063,1,8,0:0:0:0:
288,144,164322,1,0,0:0:0:0:
288,144,164580,1,0,0:0:0:0:
288,144,164839,1,8,0:0:0:0:
288,144,165098,1,8,0:0:0:0:
288,144,165615,1,8,0:0:0:0:
288,144,165873,1,8,0:0:0:0:
288,144,166132,1,8,0:0:0:0:
288,144,166391,1,0,0:0:0:0:
288,144,166649,1,8,0:0:0:0:
288,144,166908,1,0,0:0:0:0:
288,144,167166,1,8,0:0:0:0:
288,144,167684,1,8,0:0:0:0:
288,144,167942,1,0,0:0:0:0:
288,144,168072,1,8,0:0:0:0:
272,128,168201,1,0,0:0:0:0:
288,128,168460,1,8,0:0:0:0:
304,160,168589,1,0,0:0:0:0:
304,160,168654,1,0,0:0:0:0:
304,160,168718,1,8,0:0:0:0:
304,144,168848,1,0,0:0:0:0:
304,144,168977,1,8,0:0:0:0:
304,144,169041,1,8,0:0:0:0:
304,144,169106,1,0,0:0:0:0:
304,144,169235,1,8,0:0:0:0:
304,144,169365,1,0,0:0:0:0:
304,144,169429,1,0,0:0:0:0:
304,144,169494,1,0,0:0:0:0:
304,160,169623,1,0,0:0:0:0:
304,144,169753,1,12,0:0:0:0:
304,144,169882,1,0,0:0:0:0:
288,144,170141,1,0,0:0:0:0:
288,144,170270,1,8,0:0:0:0:
256,144,170529,1,0,0:0:0:0:
222,142,170658,1,0,0:0:0:0:
256,128,170916,1,8,0:0:0:0:
256,128,171046,1,0,0:0:0:0:
288,144,171304,1,8,0:0:0:0:
272,128,171434,1,8,0:0:0:0:
272,128,171822,1,8,0:0:0:0:
272,128,171951,1,8,0:0:0:0:
272,128,172210,1,0,0:0:0:0:
272,128,172339,1,8,0:0:0:0:
272,128,172598,1,8,0:0:0:0:
272,128,172727,1,8,0:0:0:0:
272,128,172985,1,0,0:0:0:0:
272,128,173115,1,8,0:0:0:0:
272,128,173373,1,8,0:0:0:0:
272,128,173503,1,0,0:0:0:0:
288,128,173891,1,8,0:0:0:0:
272,128,174020,1,0,0:0:0:0:
288,128,174279,1,0,0:0:0:0:
288,128,174408,1,8,0:0:0:0:
288,128,174666,1,0,0:0:0:0:
272,112,174796,1,0,0:0:0:0:
272,112,175054,1,8,0:0:0:0:
288,112,175184,1,8,0:0:0:0:
288,112,175313,1,0,0:0:0:0:
288,112,175442,1,8,0:0:0:0:
288,112,175572,1,0,0:0:0:0:
288,112,175701,1,8,0:0:0:0:
288,112,175830,1,8,0:0:0:0:
288,112,175960,1,0,0:0:0:0:
288,112,176089,1,0,0:0:0:0:
272,112,176348,1,0,0:0:0:0:
272,112,176477,1,8,0:0:0:0:
272,112,176735,1,0,0:0:0:0:
272,112,176865,1,0,0:0:0:0:
272,112,177253,1,0,0:0:0:0:
272,112,177511,1,8,0:0:0:0:
272,112,177641,1,0,0:0:0:0:
272,112,178029,1,12,0:0:0:0:
272,112,178158,1,0,0:0:0:0:
272,112,178416,1,0,0:0:0:0:
272,112,178546,1,8,0:0:0:0:
272,112,178804,1,0,0:0:0:0:
272,112,178934,1,0,0:0:0:0:
272,112,179192,1,8,0:0:0:0:
272,112,179322,1,0,0:0:0:0:
272,96,179580,1,8,0:0:0:0:
272,96,179710,1,8,0:0:0:0:
272,112,180098,1,8,0:0:0:0:
272,112,180227,1,8,0:0:0:0:
272,112,180485,1,0,0:0:0:0:
272,112,180615,1,8,0:0:0:0:
272,96,180873,1,8,0:0:0:0:
272,96,181003,1,8,0:0:0:0:
272,96,181261,1,0,0:0:0:0:
272,96,181391,1,8,0:0:0:0:
272,96,181649,1,8,0:0:0:0:
272,96,181779,1,0,0:0:0:0:
272,96,182166,1,8,0:0:0:0:
272,96,182296,1,0,0:0:0:0:
272,96,182554,1,0,0:0:0:0:
272,96,182684,1,8,0:0:0:0:
256,96,182813,1,0,0:0:0:0:
256,80,182942,1,8,0:0:0:0:
272,96,183072,1,8,0:0:0:0:
256,80,183201,1,8,0:0:0:0:
256,80,183330,1,0,0:0:0:0:
256,80,183460,1,8,0:0:0:0:
272,112,183589,1,8,0:0:0:0:
272,80,183718,1,0,0:0:0:0:
272,80,183848,1,8,0:0:0:0:
256,96,183977,1,8,0:0:0:0:
256,96,184106,1,8,0:0:0:0:
272,112,184235,1,0,0:0:0:0:
256,112,184365,1,0,0:0:0:0:
256,112,184623,1,0,0:0:0:0:
256,112,184753,1,8,0:0:0:0:
272,96,184882,1,0,0:0:0:0:
272,96,185011,1,8,0:0:0:0:
272,96,185141,1,8,0:0:0:0:
256,112,185529,1,0,0:0:0:0:
256,112,185787,1,8,0:0:0:0:
256,112,185916,1,0,0:0:0:0:
256,112,186304,1,12,0:0:0:0:
272,112,186434,1,0,0:0:0:0:
256,112,186692,1,0,0:0:0:0:
256,112,186822,1,8,0:0:0:0:
256,112,187080,1,0,0:0:0:0:
256,112,187210,1,0,0:0:0:0:
272,112,187468,1,8,0:0:0:0:
272,112,187598,1,0,0:0:0:0:
272,112,187856,1,8,0:0:0:0:
272,112,187985,1,8,0:0:0:0:
272,112,188373,1,0,0:0:0:0:
272,112,188632,1,0,0:0:0:0:
272,112,188761,1,0,0:0:0:0:
272,112,188891,1,8,0:0:0:0:
272,112,189149,1,8,0:0:0:0:
272,112,189279,1,0,0:0:0:0:
272,112,189408,1,8,0:0:0:0:
272,112,189537,1,8,0:0:0:0:
272,112,189666,1,0,0:0:0:0:
272,112,189925,1,8,0:0:0:0:
272,112,190054,1,0,0:0:0:0:
272,112,190184,1,0,0:0:0:0:
272,112,190442,1,0,0:0:0:0:
272,112,190830,1,0,0:0:0:0:
272,112,190960,1,8,0:0:0:0:
272,112,191218,1,0,0:0:0:0:
272,112,191348,1,8,0:0:0:0:
272,112,191735,1,8,0:0:0:0:
272,112,191865,1,0,0:0:0:0:
272,112,191994,1,8,0:0:0:0:
272,112,192123,1,8,0:0:0:0:
272,112,192253,1,0,0:0:0:0:
272,112,192511,1,0,0:0:0:0:
272,112,192641,1,0,0:0:0:0:
272,112,193029,1,8,0:0:0:0:
272,112,193287,1,8,0:0:0:0:
272,112,193546,1,8,0:0:0:0:
272,112,193804,1,8,0:0:0:0:
272,112,193998,1,0,0:0:0:0:
272,112,194063,1,8,0:0:0:0:
256,96,194451,1,0,0:0:0:0:
256,96,194580,1,12,0:0:0:0:
272,96,194710,1,0,0:0:0:0:
272,96,194968,1,0,0:0:0:0:
272,96,195098,1,8,0:0:0:0:
272,96,195356,1,0,0:0:0:0:
272,96,195485,1,8,0:0:0:0:
272,96,195615,1,0,0:0:0:0:
272,96,195873,1,0,0:0:0:0:
272,96,196132,1,8,0:0:0:0:
272,96,196261,1,0,0:0:0:0:
272,96,196520,1,0,0:0:0:0:
272,96,196649,1,8,0:0:0:0:
272,96,196779,1,8,0:0:0:0:
272,96,197037,1,0,0:0:0:0:
272,96,197166,1,8,0:0:0:0:
272,96,197425,1,8,0:0:0:0:
272,96,197554,1,8,0:0:0:0:
272,96,197813,1,0,0:0:0:0:
272,96,197942,1,8,0:0:0:0:
272,96,198201,1,8,0:0:0:0:
288,80,198330,1,0,0:0:0:0:
272,96,198589,1,8,0:0:0:0:
288,96,198718,1,8,0:0:0:0:
288,96,198848,1,0,0:0:0:0:
288,96,199106,1,0,0:0:0:0:
288,96,199235,1,8,0:0:0:0:
288,96,199494,1,8,0:0:0:0:
288,96,199623,1,0,0:0:0:0:
272,112,199753,1,8,0:0:0:0:
288,96,200011,1,0,0:0:0:0:
288,96,200270,1,8,0:0:0:0:
288,96,200399,1,0,0:0:0:0:
288,80,200787,1,0,0:0:0:0:
288,80,200916,1,0,0:0:0:0:
288,80,201175,1,0,0:0:0:0:
288,80,201304,1,8,0:0:0:0:
288,80,201563,1,0,0:0:0:0:
288,80,201692,1,0,0:0:0:0:
288,80,201822,1,8,0:0:0:0:
288,80,201951,1,8,0:0:0:0:
288,80,202080,1,0,0:0:0:0:
288,80,202210,1,0,0:0:0:0:
288,80,202339,1,8,0:0:0:0:
288,80,202468,1,0,0:0:0:0:
288,80,202598,1,8,0:0:0:0:
288,80,202856,1,4,0:0:0:0:
224,79,217856,5,12,0:0:0:0:
224,80,218373,1,8,0:0:0:0:
224,80,218503,1,8,0:0:0:0:
224,80,218632,1,8,0:0:0:0:
224,80,218761,1,8,0:0:0:0:
224,80,218891,1,0,0:0:0:0:
224,80,219020,1,0,0:0:0:0:
224,80,219149,1,0,0:0:0:0:
224,80,219279,1,0,0:0:0:0:
304,144,219408,1,12,0:0:0:0:
224,144,219537,1,0,0:0:0:0:
288,144,219796,1,0,0:0:0:0:
288,144,219925,1,8,0:0:0:0:
256,144,220184,1,0,0:0:0:0:
224,128,220313,1,0,0:0:0:0:
256,128,220572,1,8,0:0:0:0:
256,128,220701,1,0,0:0:0:0:
288,144,220960,1,8,0:0:0:0:
272,128,221089,1,8,0:0:0:0:
272,128,221477,1,8,0:0:0:0:
272,128,221606,1,8,0:0:0:0:
272,128,221865,1,0,0:0:0:0:
272,128,221994,1,8,0:0:0:0:
272,128,222253,1,8,0:0:0:0:
272,128,222382,1,8,0:0:0:0:
272,128,222641,1,0,0:0:0:0:
272,128,222770,1,8,0:0:0:0:
272,128,223029,1,8,0:0:0:0:
272,128,223158,1,0,0:0:0:0:
272,128,223416,1,0,0:0:0:0:
288,128,223546,1,8,0:0:0:0:
272,128,223675,1,0,0:0:0:0:
288,128,223934,1,0,0:0:0:0:
288,128,224063,1,8,0:0:0:0:
288,128,224192,1,8,0:0:0:0:
288,128,224322,1,0,0:0:0:0:
272,112,224451,1,0,0:0:0:0:
272,112,224710,1,8,0:0:0:0:
288,112,224839,1,0,0:0:0:0:
279,110,224968,1,0,0:0:0:0:
288,112,225098,1,8,0:0:0:0:
288,112,225227,1,0,0:0:0:0:
288,128,225356,1,8,0:0:0:0:
288,128,225485,1,8,0:0:0:0:
288,112,225615,1,0,0:0:0:0:
288,112,225744,1,0,0:0:0:0:
272,112,226003,1,0,0:0:0:0:
272,112,226132,1,8,0:0:0:0:
272,112,226391,1,0,0:0:0:0:
272,112,226520,1,0,0:0:0:0:
272,112,226779,1,8,0:0:0:0:
288,128,226908,1,0,0:0:0:0:
272,112,227166,1,8,0:0:0:0:
272,112,227296,1,0,0:0:0:0:
272,112,227684,1,12,0:0:0:0:
272,112,227813,1,0,0:0:0:0:
272,112,228072,1,0,0:0:0:0:
272,112,228201,1,8,0:0:0:0:
272,112,228460,1,0,0:0:0:0:
272,112,228589,1,0,0:0:0:0:
272,112,228848,1,8,0:0:0:0:
272,112,228977,1,0,0:0:0:0:
272,96,229235,1,8,0:0:0:0:
272,96,229365,1,8,0:0:0:0:
272,112,229494,1,0,0:0:0:0:
272,112,229623,1,0,0:0:0:0:
272,112,229753,1,8,0:0:0:0:
272,112,229882,1,8,0:0:0:0:
272,112,230141,1,0,0:0:0:0:
272,112,230270,1,8,0:0:0:0:
272,96,230529,1,8,0:0:0:0:
272,96,230658,1,8,0:0:0:0:
272,96,230916,1,0,0:0:0:0:
272,96,231046,1,8,0:0:0:0:
272,96,231304,1,8,0:0:0:0:
272,96,231434,1,0,0:0:0:0:
272,96,231563,1,8,0:0:0:0:
272,96,231822,1,8,0:0:0:0:
272,96,231951,1,0,0:0:0:0:
272,96,232210,1,0,0:0:0:0:
272,96,232339,1,8,0:0:0:0:
272,96,232598,1,0,0:0:0:0:
272,96,232727,1,0,0:0:0:0:
272,96,232985,1,8,0:0:0:0:
272,96,233115,1,0,0:0:0:0:
272,80,233244,1,0,0:0:0:0:
272,80,233373,1,8,0:0:0:0:
272,80,233503,1,0,0:0:0:0:
272,80,233632,1,8,0:0:0:0:
272,112,233891,1,0,0:0:0:0:
256,112,234020,1,0,0:0:0:0:
256,112,234279,1,0,0:0:0:0:
256,112,234408,1,8,0:0:0:0:
256,112,234666,1,0,0:0:0:0:
256,112,234796,1,0,0:0:0:0:
256,96,235055,1,8,0:0:0:0:
256,96,235184,1,0,0:0:0:0:
272,96,235442,1,8,0:0:0:0:
272,96,235572,1,0,0:0:0:0:
272,96,235701,1,0,0:0:0:0:
272,96,235830,1,0,0:0:0:0:
272,96,235960,1,12,0:0:0:0:
272,96,236089,1,0,0:0:0:0:
272,96,236348,1,0,0:0:0:0:
272,96,236477,1,8,0:0:0:0:
272,96,236735,1,0,0:0:0:0:
272,96,236865,1,0,0:0:0:0:
288,96,237253,1,0,0:0:0:0:
256,96,237511,1,8,0:0:0:0:
256,96,237770,1,0,0:0:0:0:
256,96,238029,1,8,0:0:0:0:
272,96,238158,1,8,0:0:0:0:
272,80,238416,1,0,0:0:0:0:
272,96,238546,1,8,0:0:0:0:
256,96,238804,1,0,0:0:0:0:
256,96,238934,1,8,0:0:0:0:
256,96,239063,1,0,0:0:0:0:
240,128,239322,1,0,0:0:0:0:
256,112,239451,1,0,0:0:0:0:
256,112,239580,1,8,0:0:0:0:
256,112,239839,1,8,0:0:0:0:
240,128,240098,1,0,0:0:0:0:
224,144,240485,1,0,0:0:0:0:
224,144,240615,1,8,0:0:0:0:
240,128,240744,1,0,0:0:0:0:
240,128,240873,1,8,0:0:0:0:
240,128,241003,1,8,0:0:0:0:
240,128,241132,1,0,0:0:0:0:
224,144,241391,1,0,0:0:0:0:
240,144,241520,1,0,0:0:0:0:
240,144,241649,1,8,0:0:0:0:
256,128,241908,1,0,0:0:0:0:
256,128,242166,1,8,0:0:0:0:
256,128,242296,1,0,0:0:0:0:
272,112,242942,1,0,0:0:0:0:
272,128,243072,1,8,0:0:0:0:
272,128,243201,1,8,0:0:0:0:
272,128,243330,1,8,0:0:0:0:
272,128,243460,1,8,0:0:0:0:
272,128,243589,1,8,0:0:0:0:
272,128,243718,1,0,0:0:0:0:
272,128,243848,1,0,0:0:0:0:
272,128,243977,1,0,0:0:0:0:
272,128,244106,1,0,0:0:0:0:
272,144,244235,1,12,0:0:0:0:
272,128,244365,1,0,0:0:0:0:
272,128,244623,1,0,0:0:0:0:
272,128,244753,1,8,0:0:0:0:
272,128,244882,1,8,0:0:0:0:
272,128,245011,1,0,0:0:0:0:
272,128,245141,1,0,0:0:0:0:
272,128,245270,1,8,0:0:0:0:
272,128,245529,1,0,0:0:0:0:
272,128,245787,1,8,0:0:0:0:
272,128,245916,1,0,0:0:0:0:
272,128,246046,1,8,0:0:0:0:
272,128,246175,1,0,0:0:0:0:
272,112,246304,1,8,0:0:0:0:
288,112,246434,1,0,0:0:0:0:
272,128,246692,1,0,0:0:0:0:
272,128,246822,1,8,0:0:0:0:
288,128,247080,1,8,0:0:0:0:
272,112,247210,1,8,0:0:0:0:
288,112,247468,1,8,0:0:0:0:
288,128,247598,1,0,0:0:0:0:
288,128,247856,1,8,0:0:0:0:
288,128,247985,1,0,0:0:0:0:
288,128,248373,1,8,0:0:0:0:
272,128,248503,1,0,0:0:0:0:
288,128,248761,1,0,0:0:0:0:
288,128,248891,1,8,0:0:0:0:
288,128,249149,1,0,0:0:0:0:
288,128,249279,1,0,0:0:0:0:
288,128,249408,1,8,0:0:0:0:
288,128,249666,1,0,0:0:0:0:
288,128,249796,1,8,0:0:0:0:
288,128,249925,1,8,0:0:0:0:
288,128,250054,1,0,0:0:0:0:
288,128,250184,1,8,0:0:0:0:
288,128,250313,1,8,0:0:0:0:
288,128,250442,1,0,0:0:0:0:
288,128,250572,1,0,0:0:0:0:
288,128,250830,1,0,0:0:0:0:
288,128,250960,1,8,0:0:0:0:
288,128,251089,1,0,0:0:0:0:
288,128,251218,1,8,0:0:0:0:
288,128,251348,1,0,0:0:0:0:
288,128,251477,1,0,0:0:0:0:
288,128,251735,1,8,0:0:0:0:
288,128,251994,1,8,0:0:0:0:
288,128,252123,1,0,0:0:0:0:
288,128,252511,1,12,0:0:0:0:
288,128,252641,1,0,0:0:0:0:
288,128,252899,1,0,0:0:0:0:
288,128,253029,1,8,0:0:0:0:
288,128,253158,1,8,0:0:0:0:
288,112,253287,1,0,0:0:0:0:
288,112,253416,1,0,0:0:0:0:
288,96,253675,1,8,0:0:0:0:
288,112,253804,1,0,0:0:0:0:
288,112,253934,1,8,0:0:0:0:
288,96,254063,1,0,0:0:0:0:
288,96,254192,1,0,0:0:0:0:
288,96,254322,1,8,0:0:0:0:
288,96,254580,1,0,0:0:0:0:
288,96,254710,1,0,0:0:0:0:
288,96,254968,1,8,0:0:0:0:
288,96,255098,1,8,0:0:0:0:
288,96,255227,1,0,0:0:0:0:
288,96,255356,1,8,0:0:0:0:
288,96,255485,1,0,0:0:0:0:
288,96,255615,1,0,0:0:0:0:
288,96,255873,1,0,0:0:0:0:
288,128,255960,1,8,0:0:0:0:
288,96,256132,1,8,0:0:0:0:
304,96,256218,1,8,0:0:0:0:
288,96,256304,1,0,0:0:0:0:
288,96,256391,1,8,0:0:0:0:
256,128,256649,1,0,0:0:0:0:
272,128,256779,1,0,0:0:0:0:
272,128,257037,1,8,0:0:0:0:
272,128,257166,1,8,0:0:0:0:
272,128,257296,1,0,0:0:0:0:
272,128,257425,1,0,0:0:0:0:
272,128,257554,1,8,0:0:0:0:
272,128,257813,1,8,0:0:0:0:
272,128,257942,1,0,0:0:0:0:
288,112,258072,1,8,0:0:0:0:
288,112,258201,1,8,0:0:0:0:
288,112,258330,1,0,0:0:0:0:
288,112,258460,1,8,0:0:0:0:
288,112,258718,1,0,0:0:0:0:
288,112,258848,1,8,0:0:0:0:
288,128,258934,1,0,0:0:0:0:
272,112,259020,1,8,0:0:0:0:
288,112,259106,1,0,0:0:0:0:
272,96,259192,1,8,0:0:0:0:
182,102,259279,1,8,0:0:0:0:
288,112,259365,1,0,0:0:0:0:
288,112,259429,1,8,0:0:0:0:
288,112,259494,1,0,0:0:0:0:
304,96,259623,1,0,0:0:0:0:
288,96,259882,1,8,0:0:0:0:
288,96,260011,1,0,0:0:0:0:
288,96,260141,1,8,0:0:0:0:
288,80,260270,1,0,0:0:0:0:
288,96,260399,1,0,0:0:0:0:
288,96,260658,1,0,0:0:0:0:
304,80,260787,1,12,0:0:0:0:
304,80,260916,1,0,0:0:0:0:
240,144,261175,1,0,0:0:0:0:
240,144,261304,1,8,0:0:0:0:
240,144,261563,1,0,0:0:0:0:
240,144,261692,1,0,0:0:0:0:
240,144,261951,1,8,0:0:0:0:
240,144,262080,1,0,0:0:0:0:
256,144,262339,1,8,0:0:0:0:
256,144,262468,1,8,0:0:0:0:
256,128,262856,1,8,0:0:0:0:
256,128,262985,1,8,0:0:0:0:
256,144,263244,1,0,0:0:0:0:
224,160,263373,1,8,0:0:0:0:
224,160,263632,1,8,0:0:0:0:
224,160,263761,1,8,0:0:0:0:
224,160,264020,1,8,0:0:0:0:
224,160,264149,1,0,0:0:0:0:
224,160,264408,1,8,0:0:0:0:
240,160,264537,1,0,0:0:0:0:
272,160,264796,1,8,0:0:0:0:
272,160,264925,1,0,0:0:0:0:
256,160,265054,1,0,0:0:0:0:
272,144,265313,1,0,0:0:0:0:
272,144,265442,1,8,0:0:0:0:
272,144,265701,1,0,0:0:0:0:
272,144,265830,1,0,0:0:0:0:
288,144,266089,1,8,0:0:0:0:
288,128,266218,1,0,0:0:0:0:
288,128,266477,1,8,0:0:0:0:
288,128,266606,1,0,0:0:0:0:
288,144,266994,1,8,0:0:0:0:
288,144,267123,1,0,0:0:0:0:
288,128,267382,1,0,0:0:0:0:
288,144,267511,1,8,0:0:0:0:
288,128,267770,1,0,0:0:0:0:
288,128,267899,1,0,0:0:0:0:
304,128,268029,1,8,0:0:0:0:
304,128,268158,1,8,0:0:0:0:
304,128,268287,1,8,0:0:0:0:
304,128,268416,1,8,0:0:0:0:
320,144,268546,1,8,0:0:0:0:
320,144,268675,1,8,0:0:0:0:
320,144,268804,1,0,0:0:0:0:
320,144,268934,1,0,0:0:0:0:
320,128,269063,1,12,0:0:0:0:
320,128,269192,1,0,0:0:0:0:
320,128,269451,1,0,0:0:0:0:
304,128,269580,1,8,0:0:0:0:
304,128,269710,1,0,0:0:0:0:
320,112,269968,1,8,0:0:0:0:
320,112,270227,1,0,0:0:0:0:
320,112,270356,1,0,0:0:0:0:
320,112,270615,1,8,0:0:0:0:
320,112,270744,1,0,0:0:0:0:
320,112,271132,1,0,0:0:0:0:
320,112,271261,1,8,0:0:0:0:
320,112,271391,1,0,0:0:0:0:
320,112,271520,1,8,0:0:0:0:
320,112,271649,1,8,0:0:0:0:
336,112,271779,1,0,0:0:0:0:
336,112,271908,1,0,0:0:0:0:
267,178,272037,1,0,0:0:0:0:
320,112,272166,1,8,0:0:0:0:
320,112,272425,1,0,0:0:0:0:
320,112,272684,1,8,0:0:0:0:
320,112,272813,1,0,0:0:0:0:
320,112,273072,1,8,0:0:0:0:
320,112,273201,1,0,0:0:0:0:
320,112,273330,1,8,0:0:0:0:
336,112,273589,1,0,0:0:0:0:
336,112,273718,1,8,0:0:0:0:
320,112,273848,1,0,0:0:0:0:
320,112,273977,1,0,0:0:0:0:
320,112,274106,1,8,0:0:0:0:
320,112,274235,1,8,0:0:0:0:
320,112,274365,1,0,0:0:0:0:
320,112,274494,1,8,0:0:0:0:
320,112,274623,1,8,0:0:0:0:
336,96,274753,1,8,0:0:0:0:
336,96,275011,1,0,0:0:0:0:
336,96,275270,1,8,0:0:0:0:
320,96,275399,1,0,0:0:0:0:
320,96,275658,1,0,0:0:0:0:
320,96,275787,1,8,0:0:0:0:
320,96,275916,1,8,0:0:0:0:
320,96,276175,1,0,0:0:0:0:
320,96,276434,1,8,0:0:0:0:
320,96,276563,1,0,0:0:0:0:
336,96,276822,1,8,0:0:0:0:
336,96,276951,1,0,0:0:0:0:
320,96,277339,1,12,0:0:0:0:
320,96,277468,1,0,0:0:0:0:
288,96,277727,1,0,0:0:0:0:
304,96,277856,1,8,0:0:0:0:
304,96,278115,1,0,0:0:0:0:
320,80,278244,1,0,0:0:0:0:
320,80,278503,1,8,0:0:0:0:
320,80,278632,1,0,0:0:0:0:
320,80,278891,1,8,0:0:0:0:
304,80,279020,1,0,0:0:0:0:
304,80,279149,1,8,0:0:0:0:
304,80,279279,1,0,0:0:0:0:
304,80,279408,1,8,0:0:0:0:
304,80,279537,1,8,0:0:0:0:
304,96,279796,1,0,0:0:0:0:
304,96,279925,1,8,0:0:0:0:
304,96,280184,1,0,0:0:0:0:
304,96,280313,1,0,0:0:0:0:
288,96,280572,1,8,0:0:0:0:
304,96,280701,1,0,0:0:0:0:
304,96,280960,1,8,0:0:0:0:
288,96,281089,1,0,0:0:0:0:
304,96,281348,1,8,0:0:0:0:
304,96,281477,1,4,0:0:0:0:
288,96,281606,1,0,0:0:0:0:
304,96,281865,1,0,0:0:0:0:
304,96,281994,1,8,0:0:0:0:
304,96,282123,1,0,0:0:0:0:
304,96,282253,1,8,0:0:0:0:
304,96,282382,1,0,0:0:0:0:
304,96,282641,1,0,0:0:0:0:
304,96,282770,1,8,0:0:0:0:
304,96,283029,1,8,0:0:0:0:
304,96,283158,1,8,0:0:0:0:
304,96,283287,1,0,0:0:0:0:
288,96,283416,1,8,0:0:0:0:
288,96,283546,1,0,0:0:0:0:
304,96,283675,1,0,0:0:0:0:
304,96,283804,1,8,0:0:0:0:
304,96,283934,1,0,0:0:0:0:
304,96,284192,1,0,0:0:0:0:
314,106,284322,1,8,0:0:0:0:
304,96,284451,1,0,0:0:0:0:
304,96,284580,1,8,0:0:0:0:
304,96,284710,1,0,0:0:0:0:
304,96,284839,1,0,0:0:0:0:
304,96,284968,1,8,0:0:0:0:
320,96,285227,1,0,0:0:0:0:
320,96,285356,1,8,0:0:0:0:
320,80,285485,1,0,0:0:0:0:
320,80,285615,1,12,0:0:0:0:
320,80,285744,1,0,0:0:0:0:
288,112,286003,1,0,0:0:0:0:
256,112,286132,1,8,0:0:0:0:
256,112,286391,1,8,0:0:0:0:
256,112,286520,1,0,0:0:0:0:
272,96,286779,1,8,0:0:0:0:
256,112,286908,1,0,0:0:0:0:
272,112,287166,1,8,0:0:0:0:
256,96,287296,1,8,0:0:0:0:
272,96,287684,1,8,0:0:0:0:
272,96,287813,1,8,0:0:0:0:
272,96,288072,1,0,0:0:0:0:
272,96,288201,1,8,0:0:0:0:
272,96,288460,1,8,0:0:0:0:
272,96,288589,1,8,0:0:0:0:
272,96,288848,1,8,0:0:0:0:
272,96,288977,1,0,0:0:0:0:
272,96,289235,1,8,0:0:0:0:
272,96,289365,1,0,0:0:0:0:
272,96,289753,1,8,0:0:0:0:
272,96,289882,1,0,0:0:0:0:
272,96,290141,1,0,0:0:0:0:
272,96,290270,1,8,0:0:0:0:
272,96,290529,1,0,0:0:0:0:
272,96,290658,1,0,0:0:0:0:
272,96,290787,1,8,0:0:0:0:
272,96,291046,1,0,0:0:0:0:
272,96,291304,1,8,0:0:0:0:
256,96,291434,1,0,0:0:0:0:
272,96,291822,1,0,0:0:0:0:
272,96,291951,1,0,0:0:0:0:
272,112,292210,1,0,0:0:0:0:
272,112,292339,1,8,0:0:0:0:
272,96,292598,1,0,0:0:0:0:
272,96,292727,1,0,0:0:0:0:
272,96,292985,1,8,0:0:0:0:
272,96,293115,1,0,0:0:0:0:
272,96,293373,1,8,0:0:0:0:
272,96,293546,1,0,0:0:0:0:
275,125,293718,1,0,0:0:0:0:
272,96,293891,1,8,0:0:0:0:
272,80,294020,1,8,0:0:0:0:
272,96,294149,1,0,0:0:0:0:
272,96,294214,1,0,0:0:0:0:
272,96,294279,1,0,0:0:0:0:
272,96,294408,1,8,0:0:0:0:
272,96,294537,1,0,0:0:0:0:
272,96,294602,1,0,0:0:0:0:
272,96,294666,1,0,0:0:0:0:
272,112,294796,1,0,0:0:0:0:
288,96,294925,1,12,0:0:0:0:
288,96,295960,1,8,0:0:0:0:
288,96,296089,1,8,0:0:0:0:
288,96,296218,1,8,0:0:0:0:
288,96,296348,1,8,0:0:0:0:
288,96,296477,1,8,0:0:0:0:
272,96,296606,1,8,0:0:0:0:
272,96,296735,1,0,0:0:0:0:
272,96,296865,1,0,0:0:0:0:
272,96,296994,1,12,0:0:0:0:
288,96,297382,1,0,0:0:0:0:
272,96,297511,1,0,0:0:0:0:
272,96,297641,1,0,0:0:0:0:
272,96,297770,1,0,0:0:0:0:
272,96,297899,1,0,0:0:0:0:
288,96,298029,1,12,0:0:0:0:
291,107,298158,1,0,0:0:0:0:
288,96,298287,1,8,0:0:0:0:
288,96,298416,1,0,0:0:0:0:
288,96,298675,1,0,0:0:0:0:
288,96,298934,1,0,0:0:0:0:
272,96,299063,1,12,0:0:0:0:
288,96,299580,1,8,0:0:0:0:
288,96,299710,1,0,0:0:0:0:
288,80,299774,1,0,0:0:0:0:
288,80,299839,1,0,0:0:0:0:
288,80,299968,1,0,0:0:0:0:
288,80,300098,1,12,0:0:0:0:
304,96,301132,1,0,0:0:0:0:
272,96,301304,1,8,0:0:0:0:
304,80,301477,1,0,0:0:0:0:
304,80,301649,1,8,0:0:0:0:
304,80,301822,1,8,0:0:0:0:
304,80,301994,1,0,0:0:0:0:
304,80,302166,1,0,0:0:0:0:
304,63,302339,1,8,0:0:0:0:
304,80,302511,1,0,0:0:0:0:
304,80,302684,1,8,0:0:0:0:
304,80,302856,1,8,0:0:0:0:
304,80,303029,1,0,0:0:0:0:
304,80,303201,1,8,0:0:0:0:
