osu file format v14

[General]
AudioFilename: audio.mp3
AudioLeadIn: 0
PreviewTime: 238369
Countdown: 1
SampleSet: Soft
StackLeniency: 0.2
Mode: 0
LetterboxInBreaks: 0
WidescreenStoryboard: 0

[Editor]
DistanceSpacing: 1
BeatDivisor: 4
GridSize: 16
TimelineZoom: 1

[Metadata]
Title:Cry Tomorrow, Laugh Today
TitleUnicode:Cry Tomorrow, Laugh Today
Artist:KNOWER
ArtistUnicode:KNOWER
Creator:fieryrage
Version:everything is okay
Source:osu!
Tags:fa featured artist mappers' mappers guild life english pop relaxing mayflower
BeatmapID:2251195
BeatmapSetID:1075865

[Difficulty]
HPDrainRate:4
CircleSize:3
OverallDifficulty:6.2
ApproachRate:7.2
SliderMultiplier:2.8
SliderTickRate:1

[Events]
//Background and Video events
0,0,"Dope.png",0,0
//Break Periods
//Storyboard Layer 0 (Background)
//Storyboard Layer 1 (Fail)
//Storyboard Layer 2 (Pass)
//Storyboard Layer 3 (Foreground)
//Storyboard Layer 4 (Overlay)
//Storyboard Sound Samples

[TimingPoints]
206,845.070422535211,4,2,1,14,1,0
206,-250,4,2,1,14,0,0
1051,923.076923076923,4,2,1,14,1,0
1051,-250,4,2,1,14,0,0
1974,821.917808219178,4,2,1,14,1,0
1974,-250,4,2,1,14,0,0
2795,937.5,4,2,1,14,1,0
2795,-250,4,2,1,14,0,0
3732,800,4,2,1,14,1,0
3732,-250,4,2,1,14,0,0
4532,952.380952380952,4,2,1,14,1,0
4532,-250,4,2,1,14,0,0
5484,789.473684210526,4,2,1,14,1,0
5484,-250,4,2,1,14,0,0
6273,895.522388059701,4,2,1,14,1,0
6273,-250,4,2,1,14,0,0
7168,845.070422535211,4,2,1,14,1,0
7168,-250,4,2,1,14,0,0
8013,909.090909090909,4,2,1,14,1,0
8013,-250,4,2,1,14,0,0
8922,833.333333333333,4,2,1,14,1,0
8922,-250,4,2,1,14,0,0
9755,937.5,4,2,1,14,1,0
9755,-250,4,2,1,14,0,0
10692,800,4,2,1,14,1,0
10692,-250,4,2,1,14,0,0
11492,952.380952380952,4,2,1,14,1,0
11492,-250,4,2,1,14,0,0
12444,789.473684210526,4,2,1,14,1,0
12444,-250,4,2,1,14,0,0
13233,849.256900212314,4,2,1,14,1,0
13233,-250,4,2,1,14,0,0
14082,869.565217391304,4,2,1,20,1,0
14082,-166.666666666667,4,2,1,20,0,0
27234,-1000,4,2,0,15,0,0
27342,-1000,4,2,0,5,0,0
27995,-125,4,2,1,26,0,0
55821,-125,4,2,1,29,0,0
59299,-125,4,2,1,32,0,0
62777,-100,4,2,1,35,0,0
66255,-125,4,2,1,32,0,0
67125,-125,4,2,1,29,0,0
67560,-125,4,2,2,29,0,0
67995,-125,4,2,2,26,0,0
69734,-100,4,2,2,35,0,0
111473,-125,4,2,1,35,0,0
123647,-125,4,2,2,35,0,0
125386,-100,4,2,2,35,0,0
160168,-100,4,2,3,35,0,0
167125,-83.3333333333333,4,2,3,35,0,0
188103,-83.3333333333333,4,2,3,15,0,0
188647,-83.3333333333333,4,2,3,20,0,0
189299,-83.3333333333333,4,2,3,25,0,0
190168,-83.3333333333333,4,2,3,30,0,0
191473,-83.3333333333333,4,2,3,35,0,0
192777,-83.3333333333333,4,2,3,40,0,0
194082,-83.3333333333333,4,2,3,45,0,0
194951,-100,4,2,1,35,0,0
196690,652.173913043478,4,2,2,45,1,0
196690,-133.333333333333,4,2,2,45,0,0
217559,-117.647058823529,4,2,4,45,0,0
217641,-117.647058823529,4,2,2,45,0,0
238429,-100,4,2,4,65,0,1
259298,-100,4,2,4,70,0,1
280168,-90.9090909090909,4,2,4,75,0,1
301037,-90.9090909090909,4,2,4,80,0,1
321907,-100,4,2,5,100,0,0
321988,-100,4,2,4,60,0,0
329733,-100,4,2,4,65,0,0
330603,-100,4,2,4,70,0,0
331037,-100,4,2,4,5,0,0

[Colours]
Combo1 : 79,125,45
Combo2 : 108,192,80
Combo3 : 190,188,86
Combo4 : 138,132,94

[HitObjects]
73,199,207,6,0,P|129:203|181:182,1,112,2|8,0:0|0:0,0:0:0:0:
180,182,1974,2,0,L|182:250,2,56,2|2|8,0:0|0:0|0:0,0:0:0:0:
437,184,3732,6,0,P|381:180|327:200,1,112,2|8,0:0|0:0,0:0:0:0:
329,198,5484,2,0,L|328:139,2,56,2|2|8,0:0|0:0|0:0,0:0:0:0:
152,36,7168,6,0,P|139:92|150:146,1,112,2|8,0:0|0:0,0:0:0:0:
217,253,8922,1,2,0:0:0:0:
223,262,9338,1,2,0:0:0:0:
127,249,9755,1,8,0:0:0:0:
360,348,10692,6,0,P|373:292|359:240,1,112,2|8,0:0|0:0,0:0:0:0:
295,131,12444,1,2,0:0:0:0:
289,122,12838,1,2,0:0:0:0:
385,135,13233,1,8,0:0:0:0:
79,294,14082,6,0,B|121:305|162:290|162:290|205:276|245:291,1,167.999994873047,2|10,0:0|0:0,0:0:0:0:
369,375,15386,2,0,B|389:308|389:308|376:207,1,167.999994873047,2|0,0:0|0:0,0:0:0:0:
356,84,16690,1,8,0:0:0:0:
356,84,17560,6,0,B|296:75|296:75|257:90|257:90|192:80,1,167.999994873047,2|10,0:0|0:0,0:0:0:0:
64,0,18864,2,0,P|38:59|63:165,1,167.999994873047,2|0,0:0|0:0,0:0:0:0:
155,242,20168,1,8,0:0:0:0:
436,81,21038,6,0,L|442:248,1,167.999994873047,2|10,0:0|0:0,0:0:0:0:
342,320,22342,2,0,L|335:152,1,167.999994873047,2|0,0:0|0:0,0:0:0:0:
330,23,23647,1,8,0:0:0:0:
436,81,24082,1,0,0:0:0:0:
228,152,24516,6,0,P|148:168|66:132,1,167.999994873047,2|10,0:0|0:0,0:0:0:0:
53,306,25821,2,0,P|134:290|210:322,1,167.999994873047,2|0,0:0|0:0,0:0:0:0:
340,312,27125,1,8,0:0:0:0:
348,318,27270,1,2,0:0:0:0:
457,358,27995,6,0,P|464:318|440:247,1,112,2|0,0:0|0:0,0:0:0:0:
283,140,28864,1,8,0:0:0:0:
283,140,29299,2,0,B|338:124|394:143|394:143|454:161|506:142,1,224,2|0,0:0|0:0,0:0:0:0:
190,200,30603,2,0,P|176:143|189:76,1,112,8|0,0:0|0:0,0:0:0:0:
71,307,31473,5,2,0:0:0:0:
283,140,31908,1,0,0:0:0:0:
43,209,32342,1,8,0:0:0:0:
314,247,32777,2,0,B|356:264|414:257|450:221|450:221|428:262|453:309,1,224,2|0,0:0|0:0,0:0:0:0:
367,150,34082,2,0,P|351:89|361:32,1,112,8|0,0:0|0:0,0:0:0:0:
181,214,34951,5,2,0:0:0:0:
367,150,35386,1,0,0:0:0:0:
324,343,35821,1,8,0:0:0:0:
213,120,36255,2,0,P|166:116|97:151,1,112,2|0,0:0|0:0,0:0:0:0:
79,299,37125,1,0,0:0:0:0:
79,299,37560,2,0,P|126:303|195:268,1,112,8|0,0:0|0:0,0:0:0:0:
343,89,38429,6,0,B|352:176|352:176|377:189|377:189|389:301,1,224,2|8,0:0|0:0,0:0:0:0:
184,277,39734,2,0,P|158:218|250:260,1,224,2|0,0:0|0:0,0:0:0:0:
100,117,41038,2,0,P|148:83|215:80,1,112,8|0,0:0|0:0,0:0:0:0:
388,296,41908,6,0,B|415:218|415:218|399:67,1,224,2|8,0:2|0:2,0:0:0:0:
285,199,43212,2,0,P|227:207|94:102,1,224,2|0,0:2|0:0,0:0:0:0:
400,77,44516,1,8,0:2:0:0:
300,305,45386,6,0,P|280:255|288:189,2,112,2|0|8,0:0|0:0|0:0,0:0:0:0:
363,101,46690,2,0,P|302:88|161:164,1,224,2|0,0:0|0:0,0:0:0:0:
82,311,47995,1,8,0:0:0:0:
379,117,48864,5,2,0:0:0:0:
275,233,49299,1,0,0:0:0:0:
429,254,49734,1,8,0:0:0:0:
175,284,50168,2,0,P|167:233|184:167,1,112,2|0,0:0|0:0,0:0:0:0:
379,117,51038,1,0,0:0:0:0:
379,117,51473,2,0,P|328:125|262:108,1,112,8|0,0:0|0:0,0:0:0:0:
81,33,52342,6,0,B|49:72|68:139|68:139|97:170|96:229|96:229|70:286|83:368,2,336,2|2|8,0:0|0:0|0:0,0:0:0:0:
256,104,55386,1,0,0:0:0:0:
431,33,55821,6,0,B|463:72|444:139|444:139|415:170|416:229|416:229|442:286|429:368,2,336,2|2|8,0:0|0:0|0:0,0:0:0:0:
256,104,58864,1,2,0:0:0:0:
92,257,59299,6,0,B|174:290|256:257|256:257|337:290|419:257,2,336,2|2|8,0:0|0:0|0:0,0:0:0:0:
403,120,62777,6,0,P|423:182|416:264,1,140,6|0,3:2|0:0,0:0:0:0:
144,262,63647,1,8,0:0:0:0:
144,262,64082,2,0,B|211:237|281:263|281:263|346:285|417:256,1,280,2|2,0:0|0:0,0:0:0:0:
128,126,65386,2,0,P|122:195|143:261,1,140,10|0,0:0|0:0,0:0:0:0:
308,355,66255,5,2,3:2:0:0:
400,260,66690,1,0,0:0:0:0:
272,226,67125,1,8,0:0:0:0:
481,360,67560,2,0,B|499:250|499:250|461:142,1,224,0|0,3:0|1:0,0:0:0:0:
272,226,68864,1,8,3:0:0:0:
272,226,69734,6,0,L|112:230,1,140,6|0,3:2|0:0,0:0:0:0:
22,171,70603,1,8,0:2:0:0:
230,95,71038,2,0,L|369:91,1,140,2|0,3:2|0:0,0:0:0:0:
480,150,71908,1,0,0:0:0:0:
266,361,72342,2,0,P|253:295|273:222,1,140,8|0,0:0|0:0,0:0:0:0:
458,58,73212,5,2,3:2:0:0:
280,109,73647,1,2,0:2:0:0:
126,10,74082,1,10,0:2:0:0:
271,225,74516,2,0,P|280:281|145:241,1,280,2|0,3:2|0:0,0:0:0:0:
381,177,75821,2,0,P|399:218|399:327,1,140,8|0,0:0|0:0,0:0:0:0:
143,245,76690,5,2,3:2:0:0:
203,142,77125,1,2,0:0:0:0:
26,223,77560,1,10,0:0:0:0:
149,55,77995,2,0,P|207:43|283:69,1,140,2|0,3:2|0:0,0:0:0:0:
478,170,78864,1,2,0:0:0:0:
478,170,79299,2,0,P|420:182|344:156,1,140,10|0,0:0|0:0,0:0:0:0:
119,217,80168,6,0,P|58:251|172:282,1,280,2|8,3:2|0:0,0:0:0:0:
243,63,81473,2,0,B|254:174|254:174|289:202|289:202|303:330,1,280,2|0,3:2|0:0,0:0:0:0:
405,102,82777,1,8,0:0:0:0:
405,102,83647,6,0,B|334:77|267:98|267:98|199:119|129:98,1,280,2|8,3:2|0:0,0:0:0:0:
43,256,84951,2,0,P|35:302|123:235,1,280,2|0,3:2|0:0,0:0:0:0:
23,55,86255,1,8,0:0:0:0:
189,149,86690,1,0,0:0:0:0:
343,35,87125,6,0,P|398:26|480:48,2,140,2|2|10,3:2|0:2|0:2,0:0:0:0:
411,239,88429,2,0,P|458:186|346:208,1,280,2|0,3:2|0:0,0:0:0:0:
194,345,89734,1,8,0:0:0:0:
194,345,90603,5,2,3:2:0:0:
0,300,91038,1,2,0:0:0:0:
142,161,91473,1,10,0:0:0:0:
331,221,91908,2,0,L|475:217,1,140,2|0,3:2|0:0,0:0:0:0:
410,72,92777,1,2,0:0:0:0:
410,72,93212,2,0,L|270:75,1,140,10|0,0:0|0:0,0:0:0:0:
80,96,94082,6,0,B|44:156|68:216|68:216|92:263|73:344|73:344|129:258|231:260,2,420,2|2|8,3:2|3:2|0:0,0:0:0:0:
256,144,97125,1,0,0:0:0:0:
432,96,97560,6,0,B|468:156|444:216|444:216|420:263|439:344|439:344|383:258|281:260,2,420,6|2|8,3:2|3:2|0:0,0:0:0:0:
256,160,100603,1,0,0:0:0:0:
62,281,101038,6,0,B|161:270|256:326|256:326|350:270|464:281,2,420,2|2|8,3:2|3:2|0:0,0:0:0:0:
344,151,104516,5,2,3:2:0:0:
234,74,104951,1,2,0:0:0:0:
109,118,105386,1,10,0:0:0:0:
344,288,105821,2,0,P|356:223|341:144,1,140,2|0,3:2|3:0,0:0:0:0:
191,215,106690,1,2,0:0:0:0:
191,215,107125,2,0,P|179:280|194:359,1,140,10|0,0:0|0:0,0:0:0:0:
141,122,107995,6,0,P|207:87|177:211,1,280,2|8,3:2|0:0,0:0:0:0:
313,23,109299,2,0,P|356:79|361:168,1,140,2|0,3:2|3:0,0:0:0:0:
191,352,110603,1,10,0:0:0:0:
460,135,111473,6,0,P|386:110|232:131,1,224,2|8,0:0|0:0,0:0:0:0:
268,258,112777,2,0,P|159:277|52:249,1,224,2|0,0:0|0:0,0:0:0:0:
84,126,114082,1,8,0:0:0:0:
268,258,114516,1,0,0:0:0:0:
394,68,114951,6,0,P|446:80|362:136,1,224,2|8,0:0|0:0,0:0:0:0:
266,40,116255,2,0,P|176:58|242:121,1,224,2|0,0:0|0:0,0:0:0:0:
268,258,117560,1,8,0:0:0:0:
60,123,118429,6,0,B|24:191|24:191|40:353,1,224,2|8,0:0|0:0,0:0:0:0:
208,262,119734,2,0,P|228:191|135:232,1,224,2|0,0:0|0:0,0:0:0:0:
322,343,121038,1,8,0:0:0:0:
345,214,121473,1,0,0:0:0:0:
264,75,121908,6,8,P|362:60|483:123,1,224,2|8,0:0|0:0,0:0:0:0:
345,214,123212,1,2,0:0:0:0:
264,75,123647,1,0,3:0:0:0:
167,205,124082,1,0,0:0:0:0:
472,111,124516,5,8,0:0:0:0:
472,111,125386,6,0,P|488:165|479:254,1,140,6|0,3:2|0:0,0:0:0:0:
339,187,126255,1,8,0:2:0:0:
206,266,126690,2,0,P|190:212|199:123,2,140,2|0|0,3:2|0:0|0:0,0:0:0:0:
351,341,127995,1,8,0:0:0:0:
481,247,128429,1,0,0:0:0:0:
206,266,128864,6,0,L|58:263,1,140,2|2,3:2|0:2,0:0:0:0:
136,124,129734,1,10,0:2:0:0:
300,252,130168,2,0,P|311:330|207:263,1,280,2|0,3:2|0:0,0:0:0:0:
407,159,131473,2,0,P|415:84|389:18,1,140,8|0,0:0|0:0,0:0:0:0:
94,85,132342,5,2,3:2:0:0:
206,173,132777,1,2,0:0:0:0:
234,31,133212,1,10,0:0:0:0:
141,259,133647,2,0,P|193:271|281:248,1,140,2|0,3:2|0:0,0:0:0:0:
478,159,134516,1,2,0:0:0:0:
478,159,134951,2,0,P|426:147|338:170,1,140,10|0,0:0|0:0,0:0:0:0:
141,259,135821,6,0,P|72:218|194:181,1,280,2|8,3:2|0:0,0:0:0:0:
274,333,137125,2,0,B|334:259|334:259|306:59,1,280,2|0,3:2|3:0,0:0:0:0:
464,153,138429,2,0,L|487:308,1,140,8|0,0:0|0:0,0:0:0:0:
249,195,139299,6,0,P|352:242|253:298,1,280,2|8,3:2|0:2,0:0:0:0:
366,97,140603,2,0,B|296:74|228:96|228:96|161:119|90:96,1,280,2|0,3:2|0:0,0:0:0:0:
19,216,141908,2,0,P|2:284|18:354,1,140,8|0,0:0|0:0,0:0:0:0:
249,195,142777,5,2,3:2:0:0:
272,336,143212,1,2,0:2:0:0:
138,286,143647,1,10,0:2:0:0:
352,108,144082,2,0,P|382:174|369:265,2,140,2|0|0,3:2|0:0|0:0,0:0:0:0:
272,336,145386,2,0,P|242:270|255:179,1,140,8|0,0:0|0:0,0:0:0:0:
352,108,146255,5,2,3:2:0:0:
221,49,146690,1,2,0:0:0:0:
115,145,147125,1,10,0:0:0:0:
352,108,147560,2,0,L|503:105,1,140,2|0,3:2|0:0,0:0:0:0:
345,273,148429,1,2,0:0:0:0:
345,273,148864,2,0,L|205:275,1,140,10|0,0:0|0:0,0:0:0:0:
58,68,149734,6,0,B|44:179|44:179|72:214|72:214|54:357,1,280,2|8,3:2|0:0,0:0:0:0:
284,122,151038,2,0,P|209:84|258:197,1,280,2|0,3:2|0:0,0:0:0:0:
413,96,152342,1,8,0:0:0:0:
413,96,153212,6,0,L|418:241,1,140,2|2,3:2|0:0,0:0:0:0:
423,377,154082,1,10,0:0:0:0:
233,251,154516,2,0,P|171:255|263:321,1,280,2|2,3:2|0:0,0:0:0:0:
107,173,155821,2,0,P|149:150|247:151,1,140,10|0,0:0|0:0,0:0:0:0:
432,336,156690,6,0,B|400:256|431:187|431:187|463:91|415:43|415:43|351:11|287:43,2,420,2|2|10,3:2|3:2|0:0,0:0:0:0:
256,256,159734,1,2,0:0:0:0:
80,336,160168,6,0,B|112:256|81:187|81:187|49:91|97:43|97:43|161:11|225:43,2,420,2|2|10,3:1|0:1|0:1,0:0:0:0:
256,240,163212,1,2,0:1:0:0:
442,91,163647,6,0,B|399:20|256:20|127:20|55:91,1,420,2|2,3:1|0:1,0:0:0:0:
256,224,165386,2,0,L|256:368,1,140,6|6,3:1|3:1,0:0:0:0:
67,237,166255,1,10,0:1:0:0:
352,160,167125,6,0,L|352:352,1,167.999994873047,2|2,3:1|0:1,0:0:0:0:
155,171,167995,1,10,0:1:0:0:
404,62,168429,2,0,P|478:88|350:155,1,335.999989746094,2|2,0:1|0:1,0:0:0:0:
267,0,169734,1,10,0:1:0:0:
404,62,170168,1,2,0:1:0:0:
112,97,170603,6,0,P|90:173|115:261,1,167.999994873047,2|2,3:1|0:1,0:0:0:0:
287,333,171473,1,10,0:1:0:0:
99,376,171908,1,2,0:1:0:0:
200,172,172342,5,6,3:1:0:0:
433,346,172777,2,0,P|524:294|381:248,1,335.999989746094,6|2,0:1|0:1,0:0:0:0:
192,366,174082,6,0,P|171:288|192:197,1,167.999994873047,2|2,3:1|0:1,0:0:0:0:
286,95,174951,1,10,0:1:0:0:
55,117,175386,2,0,B|177:79|177:79|398:113,1,335.999989746094,2|2,0:1|0:1,0:0:0:0:
188,204,176690,1,10,0:1:0:0:
344,230,177125,1,2,0:1:0:0:
123,121,177560,6,0,P|49:166|188:197,1,335.999989746094,2|10,3:1|0:1,0:0:0:0:
240,22,178864,1,2,0:1:0:0:
362,227,179299,5,6,3:1:0:0:
123,121,179734,1,6,0:1:0:0:
443,148,180168,2,0,P|469:222|450:313,1,167.999994873047,10|2,0:1|0:1,0:0:0:0:
194,230,181038,6,0,L|387:226,1,167.999994873047,2|2,3:1|0:1,0:0:0:0:
149,377,181908,1,10,0:1:0:0:
194,230,182342,2,0,P|187:154|113:268,1,335.999989746094,2|2,0:1|0:1,0:0:0:0:
177,35,183647,2,0,P|112:26|14:70,1,167.999994873047,10|2,0:1|0:1,0:0:0:0:
90,259,184516,6,0,B|171:289|255:262|255:262|346:228|422:255,1,335.999989746094,2|10,3:1|0:1,0:0:0:0:
176,162,185821,1,2,0:1:0:0:
422,73,186255,5,6,3:1:0:0:
301,245,186690,2,0,P|272:296|409:265,1,335.999989746094,6|2,0:1|0:1,0:0:0:0:
177,35,187995,5,6,3:1:0:0:
256,192,188103,12,8,194951,1:2:0:0:
177,34,196690,6,0,L|35:37,2,105.000004005432,6|2|2,0:0|0:0|0:0,0:0:0:0:
291,29,197668,1,2,0:0:0:0:
234,128,197994,2,0,B|202:199|202:199|208:345,1,210.000008010865,2|0,0:0|0:0,0:0:0:0:
326,223,198972,1,0,0:0:0:0:
120,132,199298,6,0,L|-22:135,2,105.000004005432,2|2|2,0:0|0:0|0:0,0:0:0:0:
234,128,200276,1,2,0:0:0:0:
317,29,200603,2,0,P|346:82|325:228,1,210.000008010865,2|0,0:0|0:0,0:0:0:0:
240,299,201581,1,0,0:0:0:0:
432,352,201907,6,0,L|435:222,1,105.000004005432,2|2,0:0|0:0,0:0:0:0:
240,299,202559,2,0,L|237:169,1,105.000004005432,2|2,0:0|0:0,0:0:0:0:
468,93,203211,2,0,B|422:68|366:82|366:82|314:56|258:68,1,210.000008010865,2|2,0:0|0:0,0:0:0:0:
44,291,204516,6,0,B|90:316|146:302|146:302|198:328|254:316,1,210.000008010865,2|0,0:0|0:0,0:0:0:0:
124,102,205820,2,0,P|76:120|163:167,1,210.000008010865,2|0,0:0|0:0,0:0:0:0:
413,41,207124,5,2,0:0:0:0:
470,124,207450,1,2,0:0:0:0:
401,197,207776,2,0,P|392:247|402:303,1,105.000004005432,2|2,0:0|0:0,0:0:0:0:
301,348,208429,2,0,P|200:321|91:346,1,210.000008010865,2|0,0:0|0:0,0:0:0:0:
99,343,209733,5,2,0:0:0:0:
42,260,210059,1,2,0:0:0:0:
111,187,210385,2,0,P|120:137|110:81,1,105.000004005432,2|0,0:0|0:0,0:0:0:0:
211,36,211037,2,0,P|312:63|421:38,1,210.000008010865,2|0,0:0|0:0,0:0:0:0:
256,192,212342,5,2,0:0:0:0:
373,241,212668,1,2,0:0:0:0:
154,268,212994,1,2,0:0:0:0:
240,65,213320,1,2,0:0:0:0:
72,202,213646,2,0,P|47:258|156:260,1,210.000008010865,2|0,0:0|0:0,0:0:0:0:
366,72,214950,6,0,B|374:151|374:151|393:181|393:181|405:293,1,210.000008010865,2|0,0:0|0:0,0:0:0:0:
13,114,216255,2,0,B|62:96|117:114|117:114|166:130|224:108,1,210.000008010865,2|0,0:0|0:0,0:0:0:0:
472,338,217559,5,14,3:0:0:0:
317,319,217885,1,2,0:0:0:0:
337,166,218211,1,2,0:0:0:0:
490,184,218537,1,2,0:0:0:0:
317,319,218863,2,0,B|255:337|200:315|200:315|144:291|76:313,1,238.00000453949,2|0,0:0|0:0,0:0:0:0:
13,66,220168,5,2,0:0:0:0:
163,36,220494,1,2,0:0:0:0:
304,103,220820,1,2,0:0:0:0:
454,73,221146,1,2,0:0:0:0:
256,203,221472,2,0,P|212:243|319:254,1,238.00000453949,2|0,0:0|0:0,0:0:0:0:
443,350,222776,6,0,P|455:287|445:227,1,119.000002269745,2|2,0:0|0:0,0:0:0:0:
261,87,223429,2,0,P|249:150|259:210,1,119.000002269745,2|0,0:0|0:0,0:0:0:0:
74,352,224081,1,2,0:0:0:0:
447,233,224733,1,2,0:0:0:0:
47,72,225385,6,0,B|167:67|167:67|246:63|253:130,1,238.00000453949,2|0,0:0|0:0,0:0:0:0:
465,312,226690,2,0,B|345:317|345:317|266:321|259:254,1,238.00000453949,2|0,0:0|0:0,0:0:0:0:
47,72,227994,5,2,0:0:0:0:
22,249,228320,1,2,0:0:0:0:
140,115,228646,1,2,0:0:0:0:
115,292,228972,1,2,0:0:0:0:
237,90,229298,2,0,B|288:71|353:95|353:95|414:114|471:95,1,238.00000453949,2|0,0:0|0:0,0:0:0:0:
115,292,230603,5,2,0:0:0:0:
342,255,230929,1,2,0:0:0:0:
137,150,231255,1,2,0:0:0:0:
242,357,231581,1,2,0:0:0:0:
278,128,231907,2,0,P|296:63|357:151,1,238.00000453949,2|0,0:0|0:0,0:0:0:0:
38,340,233211,6,0,P|110:354|159:338,1,119.000002269745,2|2,0:0|0:0,0:0:0:0:
330,261,233863,2,0,P|387:247|444:262,1,119.000002269745,2|2,0:0|0:0,0:0:0:0:
109,197,234516,2,0,P|77:128|177:170,1,238.00000453949,2|0,0:0|0:0,0:0:0:0:
152,341,235494,1,0,0:0:0:0:
330,261,235820,6,0,L|334:133,1,119.000002269745,2|0,0:0|0:0,0:0:0:0:
460,214,236472,2,0,L|456:332,1,119.000002269745,2|0,0:0|0:0,0:0:0:0:
182,261,237124,6,0,L|178:133,1,119.000002269745,2|2,0:0|0:0,0:0:0:0:
52,214,237776,2,0,L|55:332,1,119.000002269745,2|2,0:0|0:0,0:0:0:0:
333,142,238429,5,14,3:0:0:0:
61,91,238755,1,2,1:2:0:0:
61,91,238918,1,0,1:0:0:0:
61,91,239081,2,0,L|149:86,1,70,2|0,1:2|0:0,0:0:0:0:
240,51,239407,1,2,3:2:0:0:
88,213,239733,2,0,P|55:283|175:241,1,280,10|0,0:0|3:0,0:0:0:0:
130,87,240711,1,0,1:0:0:0:
345,201,241037,5,2,1:2:0:0:
411,91,241363,1,2,3:2:0:0:
181,260,241690,1,2,3:2:0:0:
405,327,242016,2,0,L|488:351,1,70,2|0,1:2|1:0,0:0:0:0:
407,226,242342,2,0,P|394:156|415:82,1,140,10|0,0:0|3:0,0:0:0:0:
512,0,242994,1,0,1:0:0:0:
255,57,243320,1,0,1:0:0:0:
255,57,243483,1,0,1:0:0:0:
255,57,243646,6,0,L|105:60,1,140,4|2,3:0|1:2,0:0:0:0:
106,226,244298,2,0,L|101:304,2,70,2|0|2,1:2|0:0|3:2,0:0:0:0:
10,84,244950,1,10,0:0:0:0:
207,160,245276,1,0,1:0:0:0:
5,232,245603,2,0,P|-11:292|1:372,1,140,2|0,3:2|0:0,0:0:0:0:
291,244,246255,5,2,1:2:0:0:
168,278,246581,1,2,3:2:0:0:
311,92,246907,1,2,3:2:0:0:
403,308,247233,2,0,L|431:378,1,70,2|0,1:2|1:0,0:0:0:0:
302,276,247559,2,0,P|261:262|164:280,1,140,10|0,0:0|3:0,0:0:0:0:
311,92,248211,2,0,P|352:106|449:88,1,140,2|0,1:2|1:0,0:0:0:0:
495,40,248700,1,0,0:0:0:0:
495,40,248863,5,6,3:0:0:0:
445,190,249189,2,0,L|442:276,1,70,2|0,1:2|1:0,0:0:0:0:
311,92,249516,2,0,L|314:178,1,70,2|0,1:2|0:0,0:0:0:0:
264,301,249842,1,2,3:2:0:0:
33,194,250168,2,0,P|15:258|31:344,1,140,10|0,0:0|0:0,0:0:0:0:
198,153,250820,2,0,P|216:89|200:3,1,140,0|0,3:0|0:0,0:0:0:0:
332,246,251472,5,2,1:2:0:0:
33,194,251798,1,2,3:2:0:0:
306,125,252124,1,2,3:2:0:0:
12,198,252450,2,0,L|7:285,1,70,2|0,1:2|1:0,0:0:0:0:
127,352,252776,2,0,L|135:212,1,140,10|0,0:0|3:0,0:0:0:0:
148,3,253429,1,0,1:0:0:0:
306,125,253755,1,0,1:0:0:0:
306,125,253918,1,0,1:0:0:0:
306,125,254081,6,0,L|297:264,1,140,6|2,3:0|1:2,0:0:0:0:
438,370,254733,2,0,L|518:377,2,70,2|0|2,1:2|0:0|3:2,0:0:0:0:
214,349,255385,1,10,0:0:0:0:
454,256,255711,1,0,1:0:0:0:
226,240,256037,2,0,L|68:230,1,140,2|0,3:2|1:0,0:0:0:0:
337,25,256689,6,0,P|359:92|346:172,1,140,2|2,1:2|3:2,0:0:0:0:
239,374,257342,2,0,P|217:307|230:227,1,140,2|2,3:2|1:2,0:0:0:0:
257,179,257831,1,0,1:0:0:0:
257,179,257994,1,14,0:1:0:0:
454,256,258320,1,2,3:0:0:0:
337,25,258646,1,2,1:0:0:0:
193,280,258972,2,0,L|152:358,1,70,2|2,1:0|0:0,0:0:0:0:
130,201,259298,6,0,P|117:133|135:61,1,140,14|2,3:0|1:2,0:0:0:0:
186,19,259787,1,0,1:0:0:0:
186,19,259950,2,0,L|277:16,2,70,2|0|2,1:2|0:0|3:2,0:0:0:0:
242,135,260603,2,0,L|414:131,1,140,10|0,0:0|0:0,0:0:0:0:
273,279,261255,2,0,L|133:282,1,140,0|0,3:0|0:0,0:0:0:0:
423,335,261907,5,2,1:2:0:0:
381,131,262233,1,2,3:2:0:0:
512,217,262559,1,2,3:2:0:0:
273,279,262885,2,0,L|373:253,1,70,2|0,1:2|1:0,0:0:0:0:
178,342,263211,2,0,P|163:290|190:196,1,140,10|0,0:0|3:0,0:0:0:0:
359,112,263863,1,0,1:0:0:0:
123,93,264190,2,0,L|32:86,1,70,0|0,1:0|0:0,0:0:0:0:
80,201,264516,6,0,P|60:267|76:335,1,140,4|2,3:0|1:2,0:0:0:0:
136,379,265005,1,0,1:0:0:0:
136,379,265168,2,0,L|219:376,1,70,2|0,1:2|0:0,0:0:0:0:
308,251,265494,1,2,3:2:0:0:
475,369,265820,2,0,P|494:302|478:234,1,140,10|0,0:0|1:0,0:0:0:0:
311,116,266472,2,0,P|292:183|308:251,1,140,2|0,3:2|1:0,0:0:0:0:
465,21,267124,5,2,1:2:0:0:
203,74,267450,1,2,3:2:0:0:
494,125,267776,1,2,3:2:0:0:
180,71,268103,2,0,L|92:70,1,70,2|0,1:2|1:0,0:0:0:0:
222,156,268429,2,0,P|241:223|225:291,1,140,14|0,0:1|3:0,0:0:0:0:
90,369,269081,1,2,1:2:0:0:
338,326,269407,1,0,1:0:0:0:
338,326,269570,1,0,1:0:0:0:
338,326,269733,6,0,L|489:330,1,140,6|2,3:0|1:2,0:0:0:0:
308,128,270385,2,0,L|256:64,2,70,2|0|2,1:2|0:0|3:2,0:0:0:0:
210,372,271037,1,10,0:0:0:0:
391,223,271363,1,0,1:0:0:0:
143,219,271690,2,0,L|3:215,1,140,0|0,3:0|0:0,0:0:0:0:
263,73,272342,5,2,1:2:0:0:
99,48,272668,1,2,3:2:0:0:
282,256,272994,1,2,3:2:0:0:
390,3,273320,2,0,L|358:81,1,70,2|0,1:2|1:0,0:0:0:0:
398,161,273646,2,0,P|312:150|266:100,1,140,10|0,0:0|3:0,0:0:0:0:
187,308,274298,2,0,P|272:318|318:368,1,140,0|0,1:0|1:0,0:0:0:0:
377,334,274787,1,0,0:0:0:0:
377,334,274950,5,4,3:0:0:0:
404,135,275276,2,0,L|393:212,1,70,2|0,1:2|1:0,0:0:0:0:
274,115,275603,2,0,L|283:45,1,70,2|0,1:2|0:0,0:0:0:0:
413,0,275929,1,2,3:2:0:0:
170,84,276255,2,0,L|150:222,1,140,10|0,0:0|0:0,0:0:0:0:
235,366,276907,1,2,3:2:0:0:
7,316,277233,1,0,1:0:0:0:
307,244,277559,6,0,P|316:175|295:102,1,140,6|0,1:2|0:0,0:0:0:0:
453,190,278211,2,0,P|444:259|465:332,1,140,2|0,3:2|1:2,0:0:0:0:
512,381,278700,1,0,1:0:0:0:
512,381,278863,1,14,0:1:0:0:
235,366,279190,1,0,3:0:0:0:
453,190,279516,2,0,P|462:121|441:48,1,140,2|0,1:2|0:0,0:0:0:0:
390,8,280005,1,2,0:0:0:0:
390,8,280168,6,0,L|217:10,1,154.000004699707,14|2,3:0|1:2,0:0:0:0:
214,209,280820,2,0,L|203:298,1,77.0000023498536,2|0,1:2|0:0,0:0:0:0:
135,145,281146,1,2,3:2:0:0:
344,226,281472,1,10,0:0:0:0:
32,312,281798,1,0,1:0:0:0:
298,126,282124,2,0,P|381:125|446:172,1,154.000004699707,0|0,3:0|1:0,0:0:0:0:
203,26,282776,5,2,1:2:0:0:
344,226,283103,1,2,3:2:0:0:
60,176,283429,1,2,3:2:0:0:
361,53,283755,1,2,1:2:0:0:
361,53,283918,1,0,1:0:0:0:
361,53,284081,1,10,0:0:0:0:
193,199,284407,2,0,L|186:359,1,154.000004699707,0|0,3:0|1:0,0:0:0:0:
446,262,285059,1,0,1:0:0:0:
446,262,285222,1,0,0:0:0:0:
446,262,285385,6,0,L|452:108,1,154.000004699707,4|2,3:0|1:2,0:0:0:0:
193,199,286037,2,0,L|285:165,1,77.0000023498536,2|0,1:2|0:0,0:0:0:0:
339,77,286363,1,2,3:2:0:0:
103,141,286690,2,0,P|92:223|126:287,1,154.000004699707,10|0,0:0|0:0,0:0:0:0:
446,262,287342,1,2,3:2:0:0:
193,199,287668,1,0,1:0:0:0:
427,370,287994,5,2,1:2:0:0:
435,80,288320,1,2,3:2:0:0:
267,357,288646,1,2,3:2:0:0:
275,67,288972,2,0,L|272:182,1,77.0000023498536,2|0,1:2|1:0,0:0:0:0:
111,266,289298,2,0,L|115:112,1,154.000004699707,14|0,0:1|3:0,0:0:0:0:
431,216,289950,2,0,L|426:369,1,154.000004699707,2|0,1:2|1:0,0:0:0:0:
375,349,290440,1,0,0:0:0:0:
375,349,290603,6,0,P|286:337|222:359,1,154.000004699707,6|0,3:0|0:0,0:0:0:0:
69,227,291255,1,2,1:2:0:0:
69,227,291418,1,0,0:0:0:0:
69,227,291581,1,2,3:2:0:0:
306,126,291907,1,10,0:0:0:0:
226,356,292233,1,0,1:0:0:0:
75,77,292559,2,0,P|57:151|69:227,1,154.000004699707,0|0,3:0|0:0,0:0:0:0:
352,290,293211,5,2,1:2:0:0:
181,156,293537,1,2,3:2:0:0:
469,206,293863,1,2,3:2:0:0:
196,324,294190,1,2,1:2:0:0:
196,324,294353,1,0,1:0:0:0:
196,324,294516,2,0,L|37:323,1,154.000004699707,10|0,0:0|0:0,0:0:0:0:
92,51,295168,2,0,L|251:52,1,154.000004699707,0|0,1:0|0:0,0:0:0:0:
299,54,295657,1,0,1:0:0:0:
299,54,295820,5,6,3:0:0:0:
246,240,296146,1,2,1:2:0:0:
431,293,296472,1,2,1:2:0:0:
484,108,296798,1,2,3:2:0:0:
155,167,297124,2,0,P|136:219|154:317,1,154.000004699707,10|0,0:0|1:0,0:0:0:0:
234,70,297776,2,0,P|182:51|84:69,1,154.000004699707,2|0,3:2|1:0,0:0:0:0:
333,147,298429,6,0,P|352:95|334:-3,1,154.000004699707,2|0,1:2|0:0,0:0:0:0:
256,244,299081,2,0,P|308:263|406:245,1,154.000004699707,2|2,3:2|1:2,0:0:0:0:
450,218,299570,1,0,1:0:0:0:
450,218,299733,1,14,0:1:0:0:
234,70,300059,1,2,3:0:0:0:
202,329,300385,1,2,1:0:0:0:
421,96,300711,2,0,L|478:32,1,77.0000023498536,2|2,1:0|0:0,0:0:0:0:
450,218,301037,5,14,3:0:0:0:
104,182,301363,1,2,1:2:0:0:
104,182,301526,1,0,1:0:0:0:
104,182,301689,2,0,L|101:267,1,77.0000023498536,2|0,1:2|0:0,0:0:0:0:
98,384,302016,1,2,3:2:0:0:
296,215,302342,2,0,L|464:218,1,154.000004699707,10|0,0:0|0:0,0:0:0:0:
228,60,302994,2,0,L|74:57,1,154.000004699707,0|0,3:0|0:0,0:0:0:0:
292,316,303646,5,2,1:2:0:0:
362,112,303972,1,2,3:2:0:0:
137,195,304298,1,2,3:2:0:0:
415,282,304624,1,2,1:2:0:0:
415,282,304787,1,0,1:0:0:0:
415,282,304950,1,10,0:0:0:0:
112,188,305276,1,0,3:0:0:0:
405,71,305603,2,0,L|411:244,1,154.000004699707,0|0,1:0|0:0,0:0:0:0:
415,282,306092,1,0,0:0:0:0:
415,282,306255,5,4,3:0:0:0:
112,188,306581,2,0,L|24:153,1,77.0000023498536,2|0,1:2|1:0,0:0:0:0:
151,281,306907,1,2,1:2:0:0:
151,281,307070,1,0,0:0:0:0:
151,281,307233,1,2,3:2:0:0:
256,90,307559,2,0,P|323:65|421:76,1,154.000004699707,10|0,0:0|1:0,0:0:0:0:
440,306,308211,2,0,P|373:331|275:320,1,154.000004699707,2|0,3:2|1:0,0:0:0:0:
68,59,308863,6,0,L|63:236,1,154.000004699707,2|2,1:2|3:2,0:0:0:0:
286,329,309516,2,0,L|291:152,1,154.000004699707,2|2,3:2|1:2,0:0:0:0:
295,125,310005,1,0,1:0:0:0:
295,125,310168,1,14,0:1:0:0:
63,212,310494,1,0,3:0:0:0:
237,30,310820,2,0,P|309:20|391:56,1,154.000004699707,2|0,1:2|1:0,0:0:0:0:
424,91,311309,1,0,1:0:0:0:
424,91,311472,5,6,3:0:0:0:
95,27,311798,1,2,1:2:0:0:
291,278,312124,2,0,L|295:105,1,154.000004699707,2|2,1:2|3:2,0:0:0:0:
39,206,312776,2,0,L|35:379,1,154.000004699707,10|0,0:0|1:0,0:0:0:0:
293,201,313429,1,0,3:0:0:0:
40,99,313755,1,0,1:0:0:0:
180,357,314081,5,2,1:2:0:0:
278,82,314407,1,2,3:2:0:0:
36,206,314733,1,2,3:2:0:0:
329,312,315059,2,0,L|411:343,1,77.0000023498536,2|0,1:2|1:0,0:0:0:0:
293,201,315385,2,0,L|458:192,1,154.000004699707,10|0,0:0|3:0,0:0:0:0:
175,303,316037,2,0,L|328:311,1,154.000004699707,0|0,1:0|1:0,0:0:0:0:
386,319,316526,1,0,0:0:0:0:
386,319,316689,5,4,3:0:0:0:
249,38,317016,1,2,1:2:0:0:
194,345,317342,2,0,L|259:280,1,77.0000023498536,2|0,1:2|0:0,0:0:0:0:
419,128,317668,1,2,3:2:0:0:
109,172,317994,1,10,0:0:0:0:
249,38,318320,1,0,1:0:0:0:
192,242,318646,2,0,P|120:273|39:262,1,154.000004699707,2|0,3:2|0:0,0:0:0:0:
419,27,319298,6,0,L|434:221,1,154.000004699707,2|0,1:2|0:0,0:0:0:0:
93,357,319950,2,0,L|78:163,1,154.000004699707,2|0,3:2|1:2,0:0:0:0:
421,355,320603,2,0,L|227:370,1,154.000004699707,14|0,0:1|0:0,0:0:0:0:
91,29,321255,2,0,L|285:14,1,154.000004699707,2|0,1:2|0:0,0:0:0:0:
301,11,321744,1,2,0:0:0:0:
301,11,321907,5,6,0:0:0:0:
256,192,321988,12,4,331037,0:1:0:0:
