osu file format v14

[General]
AudioFilename: audio.mp3
AudioLeadIn: 0
PreviewTime: 46042
Countdown: 0
SampleSet: Soft
StackLeniency: 0.7
Mode: 0
LetterboxInBreaks: 0
WidescreenStoryboard: 0

[Editor]
DistanceSpacing: 1.4
BeatDivisor: 6
GridSize: 4
TimelineZoom: 1

[Metadata]
Title:BUTTS TITS MONEY
TitleUnicode:BUTTS TITS MONEY
Artist:KNOWER
ArtistUnicode:KNOWER
Creator:Imakuri
Version:PACHIRU'S HARD
Source:osu!
Tags:featured artist fa louis cole genevieve artadi fieryrage pachiru english electronic mappers mappers' guild
BeatmapID:2251649
BeatmapSetID:1076064

[Difficulty]
HPDrainRate:6
CircleSize:4
OverallDifficulty:6.5
ApproachRate:7.5
SliderMultiplier:1.6
SliderTickRate:1

[Events]
//Background and Video events
0,0,"3891691860_a83537a516_b.jpg",0,0
//Break Periods
//Storyboard Layer 0 (Background)
//Storyboard Layer 1 (Fail)
//Storyboard Layer 2 (Pass)
//Storyboard Layer 3 (Foreground)
//Storyboard Layer 4 (Overlay)
//Storyboard Sound Samples

[TimingPoints]
160,441.176470588235,4,2,0,45,1,0
30159,-133.333333333333,4,2,1,50,0,0
30601,-133.333333333333,4,2,1,45,0,0
31924,-100,4,2,1,55,0,0
46042,-133.333333333333,4,2,0,50,0,0
53101,-100,4,2,1,65,0,1
65674,-100,4,2,0,55,0,0
67218,-100,4,2,0,45,0,0
70748,-100,4,2,1,55,0,0
86630,-133.333333333333,4,2,1,50,0,0
86851,-133.333333333333,4,2,1,45,0,0
88395,-100,4,2,1,55,0,0
102512,-133.333333333333,4,2,0,50,0,0
109571,-100,4,2,1,65,0,1
122145,-100,4,2,0,55,0,0
123689,-100,4,2,1,65,0,0
136262,-100,4,2,0,55,0,0
137365,-100,4,2,0,60,0,0
137807,-100,4,2,0,70,0,0
139130,-100,4,2,0,10,0,0
140012,-100,4,2,0,15,0,0
140895,-100,4,2,0,20,0,0
141336,-100,4,2,0,10,0,0
141777,-100,4,2,0,30,0,0
141998,-100,4,2,0,20,0,0
142659,-100,4,2,0,40,0,0
142880,-100,4,2,0,30,0,0
143542,-100,4,2,0,50,0,0
143983,-100,4,2,0,55,0,0
144424,-100,4,2,0,60,0,0
144865,-133.333333333333,4,2,0,60,0,0
145086,-133.333333333333,4,2,0,50,0,0
164277,-133.333333333333,4,2,1,45,0,0
164718,-133.333333333333,4,2,1,50,0,0
165159,-133.333333333333,4,2,1,55,0,0
165601,-133.333333333333,4,2,1,60,0,0
166042,-100,4,2,1,70,0,1
195159,-100,4,2,1,65,0,0
195601,-100,4,2,1,60,0,0
196042,-100,4,2,1,55,0,0
196483,-100,4,2,1,50,0,0
196924,-100,4,2,1,45,0,0
197365,-100,4,2,1,40,0,0
197807,-100,4,2,1,35,0,0
198248,-100,4,2,1,30,0,0
198689,-100,4,2,1,25,0,0
199130,-100,4,2,1,20,0,0
199571,-100,4,2,1,15,0,0
200012,-100,4,2,1,13,0,0
200454,-100,4,2,1,10,0,0
200895,-100,4,2,1,8,0,0
201336,-100,4,2,1,5,0,0

[Colours]
Combo1 : 250,199,160
Combo2 : 232,126,96
Combo3 : 234,157,87

[HitObjects]
396,342,3689,6,0,P|426:330|454:284,1,80,0|0,0:0|0:0,0:0:0:0:
410,187,4130,2,0,B|373:174|344:191|344:191|310:214|263:196,1,133.333333333333,8|0,0:0|0:0,0:0:0:0:
246,189,4571,2,0,L|254:268,1,80,0|0,0:0|0:0,0:0:0:0:
269,379,5012,1,8,0:0:0:0:
51,208,5380,6,0,P|98:233|114:288,1,106.666666666667,2|0,0:0|0:0,0:0:0:0:
42,367,5895,1,8,0:0:0:0:
199,267,6262,2,0,P|190:323|149:359,1,106.666666666667,2|0,0:0|0:0,0:0:0:0:
42,367,6777,1,8,0:0:0:0:
11,145,7145,6,0,B|43:125|43:125|119:135,1,106.666666666667,0|0,0:0|0:0,0:0:0:0:
193,58,7659,2,0,P|227:89|311:92,1,133.333333333333,8|0,0:0|0:0,0:0:0:0:
347,80,8101,2,0,P|391:71|434:87,1,80,0|0,0:0|0:0,0:0:0:0:
505,158,8542,1,8,0:0:0:0:
427,327,8909,6,0,B|352:302|385:344|301:316,1,106.666666666667,2|0,0:0|0:0,0:0:0:0:
229,259,9424,1,8,0:0:0:0:
54,326,9792,2,0,B|129:301|96:343|180:315,1,106.666666666667,2|0,0:0|0:0,0:0:0:0:
252,258,10307,1,8,0:0:0:0:
314,42,10748,6,0,L|326:143,1,80,6|0,0:0|0:0,0:0:0:0:
260,214,11189,2,0,B|303:205|328:230|328:230|353:253|403:246,1,133.333333333333,10|0,0:0|0:0,0:0:0:0:
421,241,11630,2,0,P|452:258|455:303,1,80,2|0,0:0|0:0,0:0:0:0:
372,373,12071,1,10,0:0:0:0:
226,255,12439,6,0,P|178:258|138:319,1,106.666666666667,0|0,0:0|0:0,0:0:0:0:
234,361,12954,1,10,0:0:0:0:
309,190,13321,2,0,P|357:193|397:254,1,106.666666666667,0|0,0:0|0:0,0:0:0:0:
301,296,13836,1,10,0:0:0:0:
142,197,14204,6,0,P|161:162|135:97,1,106.666666666667,0|0,0:0|0:0,0:0:0:0:
29,101,14718,2,0,B|21:130|39:160|39:160|57:190|43:230,1,133.333333333333,10|0,0:0|0:0,0:0:0:0:
29,264,15159,1,2,0:0:0:0:
113,337,15380,1,0,0:0:0:0:
205,273,15601,2,0,B|241:252|241:252|332:263,1,133.333333333333,10|0,0:0|0:0,0:0:0:0:
368,269,16042,6,0,L|360:187,1,80,2|0,0:0|0:0,0:0:0:0:
469,162,16483,2,0,L|466:302,1,133.333333333333,10|0,0:0|0:0,0:0:0:0:
462,332,16924,1,4,0:3:0:0:
462,332,17145,1,4,0:3:0:0:
357,370,17365,1,4,0:3:0:0:
357,370,17586,1,4,0:3:0:0:
282,286,17807,6,0,L|287:206,1,80,6|0,0:0|0:0,0:0:0:0:
378,140,18248,2,0,P|343:83|275:77,1,133.333333333333,10|0,0:0|0:0,0:0:0:0:
250,95,18689,2,0,P|213:108|168:92,1,80,2|0,0:0|0:0,0:0:0:0:
80,36,19130,2,0,L|90:172,1,133.333333333333,10|0,0:0|0:0,0:0:0:0:
64,196,19571,6,0,L|70:279,1,80,2|0,0:0|0:0,0:0:0:0:
155,348,20012,2,0,P|191:308|278:304,1,133.333333333333,10|0,0:0|0:0,0:0:0:0:
301,315,20454,1,2,0:0:0:0:
397,371,20674,1,0,0:0:0:0:
486,303,20895,2,0,P|487:263|463:221,1,80,10|0,0:0|0:0,0:0:0:0:
376,165,21336,6,0,L|281:180,2,80,2|0|10,0:0|0:0|0:0,0:0:0:0:
445,77,21998,1,0,0:0:0:0:
353,13,22218,1,2,0:0:0:0:
353,13,22439,1,0,0:0:0:0:
267,84,22659,2,0,P|204:93|144:40,1,133.333333333333,10|0,0:0|0:0,0:0:0:0:
144,15,23101,6,0,L|226:8,1,80,2|0,0:0|0:0,0:0:0:0:
333,31,23542,2,0,B|353:73|353:73|332:170,1,133.333333333333,10|0,0:0|0:0,0:0:0:0:
325,194,23983,1,2,0:0:0:0:
436,180,24204,1,0,0:0:0:0:
461,288,24424,2,0,P|408:313|335:298,1,133.333333333333,10|0,0:0|0:0,0:0:0:0:
304,280,24865,6,0,P|245:261|221:269,1,80,2|0,0:0|0:0,0:0:0:0:
252,375,25307,1,10,0:0:0:0:
336,299,25527,1,0,0:0:0:0:
420,373,25748,2,0,P|458:351|496:350,1,80,2|0,0:0|0:0,0:0:0:0:
439,235,26189,2,0,B|427:206|445:178|445:178|468:145|450:99,1,133.333333333333,10|0,0:0|0:0,0:0:0:0:
441,84,26630,2,0,L|355:94,1,80,2|0,0:0|0:0,0:0:0:0:
257,50,27071,2,0,P|216:56|191:138,1,133.333333333333,10|0,0:0|0:0,0:0:0:0:
208,166,27512,1,2,0:0:0:0:
306,218,27733,1,0,0:0:0:0:
254,317,27954,6,0,L|163:312,1,80,10|0,0:0|0:0,0:0:0:0:
73,262,28395,1,2,0:0:0:0:
85,373,28615,1,0,0:0:0:0:
174,312,28836,2,0,L|180:230,1,80,10|0,0:0|0:0,0:0:0:0:
78,182,29277,2,0,L|72:264,1,80,2|0,0:0|0:0,0:0:0:0:
179,232,29718,2,0,P|212:195|303:199,1,133.333333333333,10|0,0:0|0:0,0:0:0:0:
316,204,30159,6,0,L|309:272,1,60.0000022888185,2|0,0:0|0:0,0:0:0:0:
301,347,30601,1,8,0:0:0:0:
384,338,30821,2,0,L|436:332,1,40.000001525879,8|8,0:0|0:0,0:0:0:0:
451,330,31042,1,8,0:0:0:0:
508,218,31262,2,0,L|456:224,1,40.000001525879,8|8,0:0|0:0,0:0:0:0:
450,244,31483,2,0,B|420:244|403:227|403:227|385:209|355:210,1,100.000003814697,8|0,0:0|0:0,0:0:0:0:
321,215,31924,5,6,0:0:0:0:
346,105,32145,1,0,0:0:0:0:
244,150,32365,2,0,L|167:183,1,80,10|0,0:0|0:0,0:0:0:0:
79,115,32807,2,0,L|162:82,1,80,2|0,0:0|0:0,0:0:0:0:
244,150,33248,2,0,B|266:196|266:196|245:288,1,133.333333333333,10|0,0:0|0:0,0:0:0:0:
239,313,33689,6,0,P|285:321|324:303,1,80,2|0,0:0|0:0,0:0:0:0:
407,245,34130,2,0,P|374:211|359:123,1,133.333333333333,10|0,0:0|0:0,0:0:0:0:
366,92,34571,1,2,0:0:0:0:
438,6,34792,1,0,0:0:0:0:
503,96,35012,1,10,0:0:0:0:
503,96,35233,1,0,0:0:0:0:
439,188,35454,6,0,L|356:183,1,80,2|0,0:0|0:0,0:0:0:0:
261,128,35895,1,10,0:0:0:0:
261,128,36115,1,0,0:0:0:0:
167,189,36336,2,0,P|191:221|199:260,1,80,2|0,0:0|0:0,0:0:0:0:
167,367,36777,2,0,B|201:347|233:361|233:361|270:377|303:359,1,133.333333333333,10|0,0:0|0:0,0:0:0:0:
327,342,37218,6,0,P|332:309|296:271,1,80,2|0,0:0|0:0,0:0:0:0:
367,180,37659,2,0,P|348:147|408:90,1,133.333333333333,10|0,0:0|0:0,0:0:0:0:
443,95,38101,2,0,P|462:122|455:169,1,80,2|0,0:0|0:0,0:0:0:0:
399,263,38542,2,0,L|303:259,1,80,10|0,0:0|0:0,0:0:0:0:
221,203,38983,6,0,P|187:212|164:263,1,80,6|0,0:0|0:0,0:0:0:0:
65,301,39424,2,0,P|54:269|4:242,1,80,10|0,0:0|0:0,0:0:0:0:
55,138,39865,2,0,P|87:127|114:77,1,80,2|0,0:0|0:0,0:0:0:0:
200,19,40307,1,10,0:0:0:0:
289,85,40527,2,0,P|348:119|296:163,1,160,6|0,3:0|0:0,0:0:0:0:
381,236,41189,2,0,P|422:203|439:112,1,133.333333333333,10|0,0:0|0:0,0:0:0:0:
437,90,41630,2,0,P|430:59|388:17,1,80,2|0,0:0|0:0,0:0:0:0:
302,79,42071,6,0,P|312:117|339:145,1,80,10|0,0:0|0:0,0:0:0:0:
437,90,42512,1,2,0:0:0:0:
477,194,42733,1,0,0:0:0:0:
426,293,42954,2,0,P|424:344|440:381,1,80,10|0,0:0|0:0,0:0:0:0:
322,381,43395,2,0,P|328:342|313:298,1,80,2|0,0:0|0:0,0:0:0:0:
239,222,43836,2,0,P|243:181|324:185,1,133.333333333333,10|0,0:0|0:0,0:0:0:0:
339,210,44277,5,2,0:0:0:0:
339,210,44498,1,2,0:0:0:0:
268,296,44718,2,0,B|233:312|202:293|202:293|171:275|121:300,1,133.333333333333,10|8,0:0|0:0,0:0:0:0:
104,305,45159,1,2,0:0:0:0:
104,305,45380,1,8,0:0:0:0:
131,196,45601,1,10,0:0:0:0:
352,229,46042,5,2,0:0:0:0:
352,229,46262,1,0,0:0:0:0:
284,178,46483,1,2,0:0:0:0:
284,178,46704,1,2,0:0:0:0:
338,114,46924,1,2,0:0:0:0:
338,114,47145,1,0,0:0:0:0:
272,61,47365,1,6,0:0:0:0:
131,153,47807,5,2,0:0:0:0:
131,153,48027,1,0,0:0:0:0:
52,127,48248,1,2,0:0:0:0:
52,127,48468,1,2,0:0:0:0:
85,46,48689,1,2,0:0:0:0:
85,46,48909,1,0,0:0:0:0:
163,77,49130,1,6,0:0:0:0:
321,133,49571,5,2,0:0:0:0:
321,133,49792,1,0,0:0:0:0:
279,205,50012,1,2,0:0:0:0:
279,205,50233,1,2,0:0:0:0:
237,278,50454,1,2,0:0:0:0:
237,278,50675,1,0,0:0:0:0:
163,238,50895,1,6,0:0:0:0:
252,379,51336,6,0,L|320:365,1,60.0000022888185,2|0,0:0|0:0,0:0:0:0:
367,304,51777,2,0,L|425:316,1,60.0000022888185,2|2,0:0|0:0,0:0:0:0:
484,376,52218,1,2,0:0:0:0:
484,376,52439,1,0,0:0:0:0:
501,294,52659,1,6,0:0:0:0:
415,86,53101,6,0,P|369:123|289:122,1,133.333333333333,6|0,0:0|0:0,0:0:0:0:
262,110,53542,2,0,P|259:64|273:28,1,80,10|0,0:0|0:0,0:0:0:0:
158,24,53983,2,0,L|174:159,1,133.333333333333,2|0,0:0|0:0,0:0:0:0:
180,193,54424,1,10,0:0:0:0:
374,297,54865,2,0,B|305:278|309:328|241:302,1,133.333333333333,2|0,0:0|0:0,0:0:0:0:
209,289,55307,2,0,P|155:297|143:318,1,80,10|0,0:0|0:0,0:0:0:0:
45,246,55748,2,0,B|62:214|62:214|44:109,1,133.333333333333,2|0,0:0|0:0,0:0:0:0:
42,86,56189,1,10,0:0:0:0:
262,47,56630,6,0,B|253:89|253:89|267:141|267:141|259:177,1,133.333333333333,2|0,0:0|0:0,0:0:0:0:
249,212,57071,1,10,0:0:0:0:
144,171,57292,1,0,0:0:0:0:
160,281,57512,2,0,B|173:376|173:376|211:332,1,133.333333333333,2|0,0:0|0:0,0:0:0:0:
223,320,57954,1,10,0:0:0:0:
355,139,58395,2,0,P|388:133|434:221,1,133.333333333333,2|0,0:0|0:0,0:0:0:0:
434,241,58836,1,10,0:0:0:0:
434,241,59057,1,0,0:0:0:0:
364,328,59277,2,0,P|323:304|237:297,1,133.333333333333,2|0,0:0|0:0,0:0:0:0:
202,305,59718,1,10,0:0:0:0:
59,132,60159,6,0,P|88:162|104:251,1,133.333333333333,2|0,0:0|0:0,0:0:0:0:
96,286,60601,2,0,P|124:275|179:277,1,80,10|0,0:0|0:0,0:0:0:0:
281,304,61042,2,0,P|341:282|318:234,1,133.333333333333,2|0,0:0|0:0,0:0:0:0:
281,224,61483,1,10,0:0:0:0:
154,39,61924,2,0,B|189:53|220:35|220:35|245:20|288:28,1,133.333333333333,2|0,0:0|0:0,0:0:0:0:
319,34,62365,2,0,P|341:60|341:113,1,80,10|0,0:0|0:0,0:0:0:0:
455,88,62807,2,0,P|431:130|438:223,1,133.333333333333,2|0,0:0|0:0,0:0:0:0:
449,246,63248,1,14,0:0:0:0:
270,381,63689,6,0,P|251:331|305:282,1,133.333333333333,2|0,0:0|0:0,0:0:0:0:
340,286,64130,1,10,0:0:0:0:
340,286,64351,1,0,0:0:0:0:
274,195,64571,2,0,P|225:210|161:286,1,133.333333333333,2|0,0:0|0:0,0:0:0:0:
156,303,65012,1,10,0:0:0:0:
256,192,65454,12,6,66777,0:0:0:0:
69,57,67218,6,0,L|151:48,1,80,0|0,0:0|0:0,0:0:0:0:
217,137,67659,2,0,L|76:154,1,133.333333333333,8|0,0:0|0:0,0:0:0:0:
47,160,68101,2,0,P|32:196|51:250,1,80,0|0,0:0|0:0,0:0:0:0:
100,329,68542,1,8,0:0:0:0:
239,206,68909,6,0,P|271:221|299:293,1,106.666666666667,2|0,0:0|0:0,0:0:0:0:
243,380,69424,1,8,0:0:0:0:
163,210,69792,2,0,P|131:225|103:297,1,106.666666666667,2|0,0:0|0:0,0:0:0:0:
159,384,70307,1,8,0:0:0:0:
306,215,70748,6,0,L|371:209,1,53.3333333333333,6|0,0:0|0:0,0:0:0:0:
396,207,70968,2,0,P|438:214|494:301,1,133.333333333333,8|8,0:0|0:0,0:0:0:0:
496,318,71409,2,0,P|472:342|434:353,1,53.3333333333333,0|8,0:0|0:0,0:0:0:0:
417,352,71630,1,4,0:3:0:0:
319,296,71851,1,8,0:0:0:0:
224,355,72071,1,8,0:0:0:0:
46,218,72439,6,0,P|81:199|157:202,1,106.666666666667,0|0,0:0|0:0,0:0:0:0:
114,305,72954,1,10,0:0:0:0:
131,119,73321,2,0,P|83:121|27:142,1,106.666666666667,0|0,0:0|0:0,0:0:0:0:
3,250,73836,1,10,0:0:0:0:
208,339,74277,6,0,P|199:300|216:253,1,80,6|0,0:0|0:0,0:0:0:0:
273,170,74718,2,0,B|353:144|327:191|407:168,1,133.333333333333,10|0,0:0|0:0,0:0:0:0:
439,160,75159,2,0,L|429:248,1,80,2|0,0:0|0:0,0:0:0:0:
422,351,75601,2,0,P|386:323|297:325,1,133.333333333333,10|0,0:0|0:0,0:0:0:0:
268,341,76042,2,0,P|226:359|177:353,1,80,2|0,0:0|0:0,0:0:0:0:
120,271,76483,2,0,P|108:232|183:221,1,133.333333333333,10|0,0:0|0:0,0:0:0:0:
204,245,76924,2,0,L|283:229,1,80,2|0,0:0|0:0,0:0:0:0:
352,141,77365,1,10,0:0:0:0:
352,141,77586,1,0,0:0:0:0:
442,207,77807,5,2,0:0:0:0:
442,207,78027,1,0,0:0:0:0:
368,292,78248,1,10,0:0:0:0:
368,292,78468,1,0,0:0:0:0:
275,228,78689,2,0,P|224:228|197:255,1,80,2|0,0:0|0:0,0:0:0:0:
131,348,79130,2,0,B|143:316|129:284|129:284|114:251|124:218,1,133.333333333333,10|0,0:0|0:0,0:0:0:0:
138,183,79571,6,0,P|148:137|133:96,1,80,2|0,0:0|0:0,0:0:0:0:
61,25,80012,2,0,L|197:15,1,133.333333333333,10|0,0:0|0:0,0:0:0:0:
221,42,80454,2,0,L|306:36,1,80,2|0,0:0|0:0,0:0:0:0:
412,24,80895,1,10,0:0:0:0:
499,230,81336,5,2,0:0:0:0:
499,230,81557,1,0,0:0:0:0:
422,311,81777,1,10,0:0:0:0:
422,311,81998,1,0,0:0:0:0:
338,236,82218,2,0,L|248:250,1,80,2|0,0:0|0:0,0:0:0:0:
241,137,82659,2,0,B|277:119|319:129|306:149|341:152|379:138,1,133.333333333333,10|0,0:0|0:0,0:0:0:0:
399,116,83101,6,0,P|397:83|364:49,1,80,2|0,0:0|0:0,0:0:0:0:
261,9,83542,2,0,P|206:32|128:35,1,133.333333333333,10|0,0:0|0:0,0:0:0:0:
96,25,83983,2,0,P|112:66|114:117,1,80,2|0,0:0|0:0,0:0:0:0:
49,192,84424,1,10,0:0:0:0:
139,258,84645,1,0,0:0:0:0:
200,165,84865,5,2,0:0:0:0:
200,165,85086,1,0,0:0:0:0:
291,229,85307,1,10,0:0:0:0:
291,229,85527,1,0,0:0:0:0:
245,331,85748,2,0,P|194:345|160:334,1,80,2|0,0:0|0:0,0:0:0:0:
167,220,86189,2,0,P|199:206|295:232,1,133.333333333333,10|0,0:0|0:0,0:0:0:0:
308,250,86630,6,0,P|337:270|375:271,1,60.0000022888185,2|0,0:0|0:0,0:0:0:0:
438,240,87071,1,8,0:0:0:0:
419,157,87292,2,0,L|408:109,1,40.000001525879,8|8,0:0|0:0,0:0:0:0:
403,91,87512,1,8,0:0:0:0:
319,104,87733,2,0,L|330:56,1,40.000001525879,8|8,0:0|0:0,0:0:0:0:
335,38,87954,2,0,B|323:22|297:29|297:29|238:47,1,100.000003814697,8|0,0:0|0:0,0:0:0:0:
207,62,88395,6,0,L|110:54,1,80,6|0,0:0|0:0,0:0:0:0:
33,117,88836,2,0,P|69:130|100:215,1,133.333333333333,10|0,0:0|0:0,0:0:0:0:
94,250,89277,2,0,P|68:271|16:279,1,80,2|0,0:0|0:0,0:0:0:0:
66,383,89718,2,0,B|91:353|128:355|128:355|168:353|190:326,1,133.333333333333,10|0,0:0|0:0,0:0:0:0:
209,303,90159,5,2,0:0:0:0:
209,303,90380,1,0,0:0:0:0:
308,355,90601,2,0,B|304:323|330:294|330:294|294:270|294:232,1,133.333333333333,10|0,0:0|0:0,0:0:0:0:
293,203,91042,1,2,0:0:0:0:
293,203,91262,1,0,0:0:0:0:
211,125,91483,2,0,P|181:155|142:165,1,80,10|0,0:0|0:0,0:0:0:0:
203,47,91924,6,0,P|239:51|283:96,1,80,2|0,0:0|0:0,0:0:0:0:
140,84,92365,1,10,0:0:0:0:
140,84,92586,1,0,0:0:0:0:
67,180,92807,2,0,P|60:213|75:261,1,80,2|0,0:0|0:0,0:0:0:0:
142,354,93248,2,0,L|282:340,1,133.333333333333,10|0,0:0|0:0,0:0:0:0:
302,311,93689,6,0,L|385:301,1,80,2|0,0:0|0:0,0:0:0:0:
459,210,94130,1,10,0:0:0:0:
459,210,94351,1,0,0:0:0:0:
369,130,94571,2,0,L|374:92,2,26.6666666666667,2|0|0,0:0|0:0|0:0,0:0:0:0:
364,170,94792,1,0,0:0:0:0:
263,234,95012,2,0,P|229:206|133:193,1,133.333333333333,10|0,0:0|0:0,0:0:0:0:
102,198,95454,5,2,0:0:0:0:
102,198,95674,1,0,0:0:0:0:
24,289,95895,2,0,P|58:324|69:354,1,80,10|0,0:0|0:0,0:0:0:0:
187,332,96336,2,0,P|181:292|192:254,1,80,2|0,0:0|0:0,0:0:0:0:
274,166,96777,2,0,P|297:113|239:105,1,133.333333333333,10|0,0:0|0:0,0:0:0:0:
212,134,97218,5,2,0:0:0:0:
212,134,97439,1,0,0:0:0:0:
249,20,97659,2,0,P|294:22|368:81,1,133.333333333333,10|0,0:0|0:0,0:0:0:0:
378,110,98101,1,2,0:0:0:0:
378,110,98321,1,0,0:0:0:0:
492,72,98542,2,0,P|479:105|478:161,1,80,10|0,0:0|0:0,0:0:0:0:
495,267,98983,5,2,0:0:0:0:
495,267,99204,1,0,0:0:0:0:
384,220,99424,2,0,P|397:253|398:309,1,80,10|0,0:0|0:0,0:0:0:0:
296,236,99865,2,0,P|297:196|311:158,1,80,2|0,0:0|0:0,0:0:0:0:
312,321,100307,2,0,B|277:332|246:306|246:306|215:282|164:298,1,133.333333333333,10|8,0:0|0:0,0:0:0:0:
148,304,100748,6,0,L|141:240,1,53.3333333333333,6|0,0:3|0:0,0:0:0:0:
138,214,100968,1,8,0:0:0:0:
132,125,101189,1,8,0:0:0:0:
132,125,101409,1,0,0:0:0:0:
31,267,101630,6,0,L|26:209,1,53.3333333333333,4|2,0:3|0:0,0:0:0:0:
22,176,101851,1,8,0:0:0:0:
14,54,102071,1,8,0:0:0:0:
274,23,102512,5,2,0:0:0:0:
274,23,102733,1,0,0:0:0:0:
223,97,102954,1,2,0:0:0:0:
223,97,103174,1,2,0:0:0:0:
295,150,103395,1,2,0:0:0:0:
295,150,103615,1,0,0:0:0:0:
234,216,103836,1,6,0:0:0:0:
399,287,104277,5,2,0:0:0:0:
399,287,104498,1,0,0:0:0:0:
328,342,104718,1,2,0:0:0:0:
328,342,104939,1,2,0:0:0:0:
245,306,105159,1,2,0:0:0:0:
245,306,105380,1,0,0:0:0:0:
177,366,105601,1,6,0:0:0:0:
54,234,106042,5,2,0:0:0:0:
54,234,106262,1,0,0:0:0:0:
114,301,106483,1,2,0:0:0:0:
114,301,106704,1,2,0:0:0:0:
172,232,106924,1,2,0:0:0:0:
172,232,107145,1,0,0:0:0:0:
110,166,107365,1,6,0:0:0:0:
256,60,107807,6,0,L|324:48,1,60.0000022888184,2|0,0:0|0:0,0:0:0:0:
332,138,108248,2,0,L|272:148,1,60.0000022888184,2|2,0:0|0:0,0:0:0:0:
188,117,108689,1,2,0:0:0:0:
188,117,108909,1,0,0:0:0:0:
206,205,109130,1,6,0:0:0:0:
444,233,109571,6,0,P|403:251|359:341,1,133.333333333333,6|0,0:0|0:0,0:0:0:0:
359,361,110012,1,10,0:0:0:0:
359,361,110233,1,0,0:0:0:0:
295,259,110454,2,0,P|256:200|214:231,1,133.333333333333,2|0,0:0|0:0,0:0:0:0:
199,262,110895,1,10,0:0:0:0:
32,39,111336,6,0,P|61:84|51:167,1,133.333333333333,2|0,0:0|0:0,0:0:0:0:
36,197,111777,2,0,B|8:228|24:289,1,80,10|0,0:0|0:0,0:0:0:0:
114,347,112218,2,0,B|149:329|179:347|179:347|207:366|244:353,1,133.333333333333,2|0,0:0|0:0,0:0:0:0:
278,337,112659,2,0,L|257:201,1,133.333333333333,10|0,0:0|0:0,0:0:0:0:
249,165,113101,6,0,P|295:130|371:149,1,133.333333333333,2|0,0:0|0:0,0:0:0:0:
392,173,113542,1,10,0:0:0:0:
392,173,113762,1,0,0:0:0:0:
324,272,113983,2,0,P|268:305|204:293,1,133.333333333333,2|0,0:0|0:0,0:0:0:0:
169,272,114424,1,10,0:0:0:0:
345,109,114865,6,0,B|358:16|358:16|324:42,1,133.333333333333,2|0,0:0|0:0,0:0:0:0:
297,66,115307,1,10,0:0:0:0:
297,66,115527,1,0,0:0:0:0:
210,149,115748,2,0,P|178:135|149:42,1,133.333333333333,2|0,0:0|0:0,0:0:0:0:
147,7,116189,2,0,P|137:71|84:108,1,133.333333333333,10|0,0:0|0:0,0:0:0:0:
44,110,116630,6,0,B|60:145|41:177|41:177|19:213|34:250,1,133.333333333333,2|0,0:0|0:0,0:0:0:0:
38,276,117071,1,10,0:0:0:0:
38,276,117292,1,0,0:0:0:0:
145,222,117512,2,0,P|178:223|157:296,1,133.333333333333,2|0,0:0|0:0,0:0:0:0:
124,301,117954,1,10,0:0:0:0:
195,71,118395,6,0,B|238:62|264:89|264:89|290:111|328:104,1,133.333333333333,2|0,0:0|0:0,0:0:0:0:
358,98,118836,2,0,P|386:74|401:30,1,80,10|0,0:0|0:0,0:0:0:0:
470,132,119277,2,0,B|453:166|453:166|471:268,1,133.333333333333,2|0,0:0|0:0,0:0:0:0:
477,299,119718,2,0,B|442:290|417:313|417:313|388:343|342:330,1,133.333333333333,14|0,0:0|0:0,0:0:0:0:
314,324,120159,6,0,P|302:300|361:224,1,133.333333333333,2|0,0:0|0:0,0:0:0:0:
397,229,120601,1,10,0:0:0:0:
397,229,120821,1,0,0:0:0:0:
325,132,121042,2,0,P|296:155|193:156,1,133.333333333333,2|0,0:0|0:0,0:0:0:0:
167,141,121483,1,10,0:0:0:0:
256,192,121924,12,6,123248,0:0:0:0:
64,59,123689,6,0,B|105:78|105:78|156:60|156:60|195:77,1,133.333333333333,6|0,0:0|0:0,0:0:0:0:
223,91,124130,2,0,P|200:139|198:181,1,80,10|0,0:0|0:0,0:0:0:0:
138,270,124571,2,0,P|109:199|60:157,1,133.333333333333,2|0,0:0|0:0,0:0:0:0:
32,141,125012,1,10,0:0:0:0:
123,363,125454,6,0,B|161:376|193:350|193:350|228:363|264:346,1,133.333333333333,2|0,0:0|0:0,0:0:0:0:
288,337,125895,1,10,0:0:0:0:
288,337,126115,1,0,0:0:0:0:
226,233,126336,2,0,P|229:199|300:228,1,133.333333333333,2|0,0:0|0:0,0:0:0:0:
310,258,126777,2,0,P|355:295|384:244,1,133.333333333333,10|0,0:0|0:0,0:0:0:0:
375,204,127218,6,0,P|379:169|453:104,1,133.333333333333,2|0,0:0|0:0,0:0:0:0:
487,100,127659,1,10,0:0:0:0:
487,100,127880,1,0,0:0:0:0:
400,16,128101,2,0,P|370:34|263:30,1,133.333333333333,2|0,0:0|0:0,0:0:0:0:
237,17,128542,1,10,0:0:0:0:
56,175,128983,6,0,L|76:323,1,133.333333333333,2|0,0:0|0:0,0:0:0:0:
81,346,129424,2,0,P|112:324|165:318,1,80,10|0,0:0|0:0,0:0:0:0:
270,342,129865,2,0,P|302:324|241:272,1,133.333333333333,2|0,0:0|0:0,0:0:0:0:
221,264,130307,2,0,P|173:228|212:184,1,133.333333333333,14|0,0:0|0:0,0:0:0:0:
253,185,130748,6,0,B|282:187|308:160|308:160|329:135|373:138,1,133.333333333333,2|0,0:0|0:0,0:0:0:0:
412,142,131189,1,10,0:0:0:0:
412,142,131409,1,0,0:0:0:0:
499,223,131630,2,0,P|470:247|444:342,1,133.333333333333,2|0,0:0|0:0,0:0:0:0:
450,375,132071,2,0,P|407:346|371:346,1,80,10|0,0:0|0:0,0:0:0:0:
262,370,132512,6,0,B|242:333|242:333|265:228,1,133.333333333333,2|0,0:0|0:0,0:0:0:0:
273,204,132954,1,10,0:0:0:0:
273,204,133174,1,0,0:0:0:0:
156,233,133395,2,0,P|118:221|99:130,1,133.333333333333,2|0,0:0|0:0,0:0:0:0:
113,102,133836,2,0,B|153:85|181:110|181:110|206:132|248:122,1,133.333333333333,10|0,0:0|0:0,0:0:0:0:
276,113,134277,1,2,0:0:0:0:
276,113,134498,1,0,0:0:0:0:
361,196,134718,1,10,0:0:0:0:
361,196,134939,1,0,0:0:0:0:
460,129,135159,2,0,P|434:93|384:83,1,80,2|0,0:0|0:0,0:0:0:0:
361,196,135601,2,0,P|395:239|499:249,1,160,10|6,0:0|0:0,0:0:0:0:
256,192,136115,12,6,137807,0:0:0:0:
256,193,139130,5,2,0:0:0:0:
256,193,140012,1,2,0:0:0:0:
256,193,140895,1,6,0:0:0:0:
256,193,141777,1,6,0:0:0:0:
256,193,142659,1,6,0:0:0:0:
256,193,143542,1,6,0:0:0:0:
256,193,144424,5,6,0:0:0:0:
324,254,144865,6,0,P|362:249|408:183,1,120.000004577637,6|8,0:0|0:0,0:0:0:0:
350,116,145527,2,0,B|283:105|301:152|230:140,1,120.000004577637,0|0,0:0|0:0,0:0:0:0:
171,77,146189,1,8,0:0:0:0:
101,243,146630,5,0,0:0:0:0:
101,243,146851,1,0,0:0:0:0:
179,199,147071,1,8,0:0:0:0:
179,199,147292,1,0,0:0:0:0:
182,288,147512,1,0,0:0:0:0:
417,15,148395,6,0,B|398:51|398:51|415:137,1,120.000004577637,0|8,0:0|0:0,0:0:0:0:
485,182,149057,2,0,P|467:212|454:295,1,120.000004577637,0|0,0:0|0:0,0:0:0:0:
480,380,149718,1,8,0:0:0:0:
330,279,150159,5,0,0:0:0:0:
330,279,150380,1,0,0:0:0:0:
244,307,150601,1,8,0:0:0:0:
244,307,150821,1,0,0:0:0:0:
158,334,151042,1,0,0:0:0:0:
52,61,151924,6,0,B|131:48|131:48|183:62,1,120.000004577637,2|8,0:0|0:0,0:0:0:0:
200,143,152586,2,0,B|237:153|237:153|317:140,1,120.000004577637,0|0,0:0|0:0,0:0:0:0:
368,66,153248,1,8,0:0:0:0:
466,216,153689,5,0,0:0:0:0:
466,216,153909,1,0,0:0:0:0:
395,272,154130,1,8,0:0:0:0:
395,272,154351,1,0,0:0:0:0:
331,208,154571,1,0,0:0:0:0:
96,306,155454,6,0,B|141:297|141:297|173:305|173:305|219:295,1,120.000004577637,2|8,0:0|0:0,0:0:0:0:
284,241,156115,2,0,B|324:249|324:249|356:241|356:241|401:250,1,120.000004577637,0|0,0:0|0:0,0:0:0:0:
475,302,156777,1,8,0:0:0:0:
445,124,157218,5,0,0:0:0:0:
445,124,157439,1,0,0:0:0:0:
460,212,157659,1,8,0:0:0:0:
460,212,157880,1,0,0:0:0:0:
475,302,158101,1,0,0:0:0:0:
175,102,158983,6,0,P|145:121|178:183,1,120.000004577637,2|8,0:0|0:0,0:0:0:0:
265,198,159645,2,0,P|295:217|262:279,1,120.000004577637,0|0,0:0|0:0,0:0:0:0:
180,315,160307,1,8,0:0:0:0:
177,135,160748,5,2,0:0:0:0:
177,135,160968,1,0,0:0:0:0:
257,94,161189,1,8,0:0:0:0:
257,94,161409,1,0,0:0:0:0:
334,139,161630,1,0,0:0:0:0:
143,322,162512,6,0,P|194:339|243:306,1,100.000003814697,2|0,0:0|0:0,0:0:0:0:
256,299,162954,2,0,P|300:279|346:296,1,100.000003814697,8|0,0:0|0:0,0:0:0:0:
366,318,163395,2,0,L|351:203,1,100.000003814697,0|0,0:0|0:0,0:0:0:0:
331,197,163836,2,0,L|346:82,1,100.000003814697,8|0,0:0|0:0,0:0:0:0:
352,56,164277,5,8,0:0:0:0:
256,192,164351,12,0,165821,0:0:0:0:
469,265,166042,6,0,B|431:259|409:280|409:280|382:307|332:292,1,133.333333333333,6|0,0:0|0:0,0:0:0:0:
305,284,166483,2,0,P|248:276|188:345,1,133.333333333333,10|0,0:0|0:0,0:0:0:0:
180,360,166924,1,2,0:0:0:0:
180,360,167145,1,0,0:0:0:0:
74,303,167365,2,0,P|94:279|101:226,1,80,10|0,0:0|0:0,0:0:0:0:
47,124,167807,5,2,0:0:0:0:
47,124,168027,1,0,0:0:0:0:
159,80,168248,1,10,0:0:0:0:
159,80,168468,1,0,0:0:0:0:
143,199,168689,2,0,P|173:205|225:186,2,80,2|0|10,0:0|0:0|0:0,0:0:0:0:
329,48,169571,6,0,P|374:44|414:126,1,133.333333333333,2|0,0:0|0:0,0:0:0:0:
416,151,170012,2,0,L|258:142,1,133.333333333333,10|0,0:0|0:0,0:0:0:0:
242,140,170454,1,2,0:0:0:0:
242,140,170674,1,0,0:0:0:0:
152,220,170895,2,0,P|179:254|179:298,1,80,10|0,0:0|0:0,0:0:0:0:
82,357,171336,5,2,0:0:0:0:
82,357,171557,1,0,0:0:0:0:
182,292,171777,1,10,0:0:0:0:
182,292,171998,1,0,0:0:0:0:
282,356,172218,2,0,P|320:368|360:352,2,80,2|0|10,0:0|0:0|0:0,0:0:0:0:
272,115,173101,6,0,B|299:138|299:138|410:130,1,133.333333333333,2|0,0:0|0:0,0:0:0:0:
436,129,173542,2,0,P|464:175|447:256,1,133.333333333333,10|0,0:0|0:0,0:0:0:0:
436,287,173983,1,2,0:0:0:0:
436,287,174204,1,0,0:0:0:0:
318,263,174424,2,0,P|287:279|268:339,1,80,10|0,0:0|0:0,0:0:0:0:
168,249,174865,5,2,0:0:0:0:
168,249,175086,1,0,0:0:0:0:
187,367,175307,1,10,0:0:0:0:
187,367,175527,1,0,0:0:0:0:
78,315,175748,2,0,L|-6:327,2,80,2|0|10,0:0|0:0|0:0,0:0:0:0:
238,136,176630,6,0,B|282:124|305:151|305:151|325:175|370:168,1,133.333333333333,2|0,0:0|0:0,0:0:0:0:
400,166,177071,2,0,P|429:140|375:64,1,133.333333333333,10|0,0:0|0:0,0:0:0:0:
355,59,177512,1,2,0:0:0:0:
355,59,177733,1,0,0:0:0:0:
260,132,177954,2,0,L|266:225,1,80,10|0,0:0|0:0,0:0:0:0:
277,331,178395,5,2,0:0:0:0:
277,331,178615,1,0,0:0:0:0:
373,259,178836,1,10,0:0:0:0:
373,259,179057,1,0,0:0:0:0:
465,335,179277,2,0,P|484:311|495:262,2,80,2|0|10,0:0|0:0|0:0,0:0:0:0:
247,234,180159,6,0,P|238:272|201:308,1,80,6|0,0:0|0:0,0:0:0:0:
285,157,180601,2,0,P|318:183|331:231,1,80,10|0,0:0|0:0,0:0:0:0:
236,93,181042,2,0,B|198:88|175:113|175:113|151:140|105:137,1,133.333333333333,2|0,0:0|0:0,0:0:0:0:
75,129,181483,2,0,L|88:269,1,133.333333333333,10|0,0:0|0:0,0:0:0:0:
92,301,181924,6,0,P|134:316|217:269,1,133.333333333333,2|0,0:0|0:0,0:0:0:0:
234,248,182365,2,0,P|288:213|352:227,1,133.333333333333,10|0,0:0|0:0,0:0:0:0:
382,254,182807,1,2,0:0:0:0:
382,254,183027,1,0,0:0:0:0:
317,355,183248,1,10,0:0:0:0:
465,166,183689,6,0,P|488:190|499:244,1,80,2|0,0:0|0:0,0:0:0:0:
406,111,184130,2,0,P|432:91|487:88,1,80,10|0,0:0|0:0,0:0:0:0:
392,189,184571,2,0,B|356:213|356:213|251:194,1,133.333333333333,2|0,0:0|0:0,0:0:0:0:
242,165,185012,2,0,B|153:148|153:148|117:172,1,133.333333333333,10|0,0:0|0:0,0:0:0:0:
86,199,185454,6,0,P|113:228|135:322,1,133.333333333333,2|0,0:0|0:0,0:0:0:0:
131,356,185895,2,0,P|186:319|251:314,1,133.333333333333,10|0,0:0|0:0,0:0:0:0:
289,328,186336,1,2,0:0:0:0:
289,328,186557,1,0,0:0:0:0:
394,383,186777,1,10,0:0:0:0:
482,160,187218,6,0,P|453:177|434:270,1,133.333333333333,6|0,0:0|0:0,0:0:0:0:
445,306,187659,2,0,B|398:301|398:301|355:314|355:314|296:308,1,133.333333333333,10|0,0:0|0:0,0:0:0:0:
273,306,188101,1,2,0:0:0:0:
273,306,188321,1,0,0:0:0:0:
168,366,188542,2,0,P|122:347|80:345,1,80,10|0,0:0|0:0,0:0:0:0:
70,226,188983,5,2,0:0:0:0:
70,226,189204,1,0,0:0:0:0:
177,279,189424,1,10,0:0:0:0:
177,279,189645,1,0,0:0:0:0:
200,161,189865,2,0,P|189:122|193:82,2,80,2|0|10,0:0|0:0|0:0,0:0:0:0:
407,283,190748,6,0,P|443:252|389:194,1,133.333333333333,2|0,0:0|0:0,0:0:0:0:
361,194,191189,2,0,B|325:191|303:212|303:212|278:237|238:230,1,133.333333333333,10|0,0:0|0:0,0:0:0:0:
198,220,191630,1,2,0:0:0:0:
198,220,191851,1,0,0:0:0:0:
117,308,192071,2,0,P|146:337|185:343,1,80,10|0,0:0|0:0,0:0:0:0:
113,222,192512,5,2,0:0:0:0:
113,222,192733,1,0,0:0:0:0:
186,126,192954,1,10,0:0:0:0:
186,126,193174,1,0,0:0:0:0:
99,42,193395,2,0,L|19:51,2,80,2|0|10,0:0|0:0|0:0,0:0:0:0:
330,105,194277,6,0,P|290:118|254:207,1,133.333333333333,6|0,0:0|0:0,0:0:0:0:
264,234,194718,2,0,P|323:260|383:236,1,133.333333333333,10|0,0:0|0:0,0:0:0:0:
410,206,195159,1,2,0:0:0:0:
410,206,195380,1,0,0:0:0:0:
490,295,195601,2,0,P|449:320|436:366,1,80,10|0,0:0|0:0,0:0:0:0:
256,192,196042,12,6,201336,0:0:0:0:
