osu file format v14

[General]
AudioFilename: audio.mp3
AudioLeadIn: 0
PreviewTime: 67195
Countdown: 0
SampleSet: Soft
StackLeniency: 0.5
Mode: 0
LetterboxInBreaks: 0
WidescreenStoryboard: 0

[Editor]
DistanceSpacing: 1.1
BeatDivisor: 4
GridSize: 32
TimelineZoom: 2

[Metadata]
Title:RIOT
TitleUnicode:RIOT
Artist:KNOCK OUT MONKEY
ArtistUnicode:KNOCK OUT MONKEY
Creator:NeKroMan4ik
Version:REBELLION
Source:
Tags:japanese rock jrock male vocals Mr. Foundation NexusQI airincat reform kujinn nymphe kiyoshi guarden
BeatmapID:2670491
BeatmapSetID:1286119

[Difficulty]
HPDrainRate:6
CircleSize:4
OverallDifficulty:9.1
ApproachRate:9.3
SliderMultiplier:1.8
SliderTickRate:1

[Events]
//Background and Video events
0,0,"bg.jpg",0,0
//Break Periods
2,119700,122211
//Storyboard Layer 0 (Background)
//Storyboard Layer 1 (Fail)
//Storyboard Layer 2 (Pass)
//Storyboard Layer 3 (Foreground)
//Storyboard Layer 4 (Overlay)
//Storyboard Sound Samples

[TimingPoints]
278,310.880829015544,4,2,1,50,1,0
278,-83.3333333333333,4,2,1,50,0,0
511,-83.3333333333333,4,2,1,5,0,0
588,-500,4,2,1,50,0,0
2143,-100,4,2,1,50,0,0
2765,-83.3333333333333,4,2,1,50,0,0
2998,-83.3333333333333,4,2,1,5,0,0
3075,-500,4,2,1,50,0,0
4008,-100,4,2,1,50,0,0
5096,-100,4,2,1,60,0,0
5329,-100,4,2,1,5,0,0
5407,-100,4,2,1,60,0,0
10459,-100,4,2,1,5,0,0
10537,-100,4,2,1,60,0,0
15200,-83.3333333333333,4,2,1,50,0,0
19863,-166.666666666667,4,2,1,50,0,0
20096,-166.666666666667,4,2,1,5,0,0
20174,-111.111111111111,4,2,1,50,0,0
25148,-125,4,2,1,45,0,0
30122,-100,4,2,1,60,0,0
30355,-100,4,2,1,5,0,0
30433,-100,4,2,1,60,0,0
33853,-76.9230769230769,4,2,1,60,0,0
34008,-76.9230769230769,4,2,1,5,0,0
34086,-76.9230769230769,4,2,1,60,0,0
34241,-76.9230769230769,4,2,1,5,0,0
34319,-76.9230769230769,4,2,1,60,0,0
34941,-90.9090909090909,4,2,1,70,0,1
35174,-90.9090909090909,4,2,1,5,0,1
35252,-90.9090909090909,4,2,1,70,0,1
37661,-90.9090909090909,4,2,1,5,0,1
37739,-90.9090909090909,4,2,1,70,0,1
40148,-90.9090909090909,4,2,1,5,0,1
40226,-90.9090909090909,4,2,1,70,0,1
42635,-90.9090909090909,4,2,1,5,0,1
42713,-90.9090909090909,4,2,1,70,0,1
43257,-90.9090909090909,4,2,1,5,0,1
43334,-90.9090909090909,4,2,1,70,0,1
45122,-90.9090909090909,4,2,1,5,0,1
45200,-90.9090909090909,4,2,1,70,0,1
47609,-90.9090909090909,4,2,1,5,0,1
47687,-90.9090909090909,4,2,1,70,0,1
50096,-90.9090909090909,4,2,1,5,0,1
50174,-90.9090909090909,4,2,1,70,0,1
51262,-71.4285714285714,4,2,1,70,0,1
51366,-71.4285714285714,4,2,1,5,0,0
51469,-71.4285714285714,4,2,1,70,0,1
51573,-71.4285714285714,4,2,1,5,0,0
51676,-71.4285714285714,4,2,1,70,0,1
51780,-71.4285714285714,4,2,1,5,0,0
51884,-71.4285714285714,4,2,1,70,0,1
51987,-71.4285714285714,4,2,1,5,0,0
52091,-71.4285714285714,4,2,1,70,0,1
52195,-71.4285714285714,4,2,1,5,0,0
52350,-100,4,2,1,60,0,0
57480,-111.111111111111,4,2,1,55,0,0
62143,-166.666666666666,4,2,1,55,0,0
62376,-166.666666666666,4,2,1,5,0,0
62454,-111.111111111111,4,2,1,55,0,0
67272,-90.9090909090908,4,2,1,70,0,1
67505,-90.9090909090908,4,2,1,5,0,1
67583,-90.9090909090908,4,2,1,70,0,1
69993,-90.9090909090908,4,2,1,5,0,1
70070,-90.9090909090908,4,2,1,70,0,1
73723,-90.9090909090908,4,2,1,5,0,1
73801,-90.9090909090908,4,2,1,70,0,1
74967,-90.9090909090908,4,2,1,5,0,1
75044,-90.9090909090908,4,2,1,70,0,1
75588,-90.9090909090908,4,2,1,5,0,1
75666,-90.9090909090908,4,2,1,70,0,1
77454,-90.9090909090908,4,2,1,5,0,1
77531,-90.9090909090908,4,2,1,70,0,1
79941,-90.9090909090908,4,2,1,5,0,1
80018,-90.9090909090908,4,2,1,70,0,1
82428,-90.9090909090908,4,2,1,5,0,1
82505,-90.9090909090908,4,2,1,70,0,1
84138,-90.9090909090908,4,2,1,5,0,1
84371,-90.9090909090908,4,2,1,70,0,1
84448,-90.9090909090908,4,2,1,5,0,1
84682,-250.000000000001,4,2,1,70,0,0
84759,-250.000000000001,4,2,1,45,0,0
87169,-117.647058823529,4,2,1,50,0,0
89656,-105.263157894737,4,2,1,55,0,0
94785,-166.666666666666,4,2,1,50,0,0
96495,-166.666666666666,4,2,1,50,0,0
96534,-166.666666666666,4,2,1,5,0,0
96961,-166.666666666666,4,2,1,50,0,0
97000,-166.666666666666,4,2,1,5,0,0
97272,-166.666666666666,4,2,1,50,0,0
98360,-100,4,2,1,50,0,0
99837,-100,4,2,1,5,0,0
99915,-100,4,2,1,50,0,0
99993,-100,4,2,1,5,0,0
100070,-100,4,2,1,50,0,0
100148,-100,4,2,1,5,0,0
100226,-100,4,2,1,50,0,0
100303,-100,4,2,1,5,0,0
100381,-100,4,2,1,50,0,0
102324,-100,4,2,1,5,0,0
102402,-100,4,2,1,50,0,0
102480,-100,4,2,1,5,0,0
102557,-100,4,2,1,50,0,0
102635,-100,4,2,1,5,0,0
102713,-100,4,2,1,50,0,0
102790,-100,4,2,1,5,0,0
102868,-100,4,2,1,50,0,0
104733,-100,4,2,1,60,0,0
107143,-100,4,2,1,5,0,0
107221,-100,4,2,1,60,0,0
109708,-90.9090909090909,4,2,1,70,0,1
111573,-71.4285714285714,4,2,1,70,0,1
112505,-90.9090909090909,4,2,1,70,0,1
113127,-71.4285714285714,4,2,1,70,0,1
113594,-76.9230769230769,4,2,1,70,0,1
114060,-83.3333333333333,4,2,1,70,0,1
114682,-100,4,2,1,65,0,0
119500,-100,4,2,1,50,0,0
123231,-90.9090909090909,4,2,1,70,0,1
123464,-90.9090909090909,4,2,1,5,0,1
123542,-90.9090909090909,4,2,1,70,0,1
125951,-90.9090909090909,4,2,1,5,0,1
126029,-90.9090909090909,4,2,1,70,0,1
129682,-90.9090909090909,4,2,1,5,0,1
129759,-90.9090909090909,4,2,1,70,0,1
130925,-90.9090909090909,4,2,1,5,0,1
131003,-90.9090909090909,4,2,1,70,0,1
131547,-90.9090909090909,4,2,1,5,0,1
131625,-90.9090909090909,4,2,1,70,0,1
133412,-90.9090909090909,4,2,1,5,0,1
133490,-90.9090909090909,4,2,1,70,0,1
135899,-90.9090909090909,4,2,1,5,0,1
135977,-90.9090909090909,4,2,1,70,0,1
138386,-90.9090909090909,4,2,1,5,0,1
138464,-90.9090909090909,4,2,1,70,0,1
139552,-71.4285714285714,4,2,1,70,0,1
139656,-71.4285714285714,4,2,1,5,0,0
139759,-71.4285714285714,4,2,1,70,0,1
139863,-71.4285714285714,4,2,1,5,0,0
139967,-71.4285714285714,4,2,1,70,0,1
140070,-71.4285714285714,4,2,1,5,0,0
140174,-71.4285714285714,4,2,1,70,0,1
140277,-71.4285714285714,4,2,1,5,0,0
140381,-71.4285714285714,4,2,1,70,0,1
140485,-71.4285714285714,4,2,1,5,0,0
140640,-166.666666666667,4,2,1,60,0,0
141029,-166.666666666667,4,2,1,5,0,0
141107,-90.909090909091,4,2,1,70,0,1
143360,-90.9090909090909,4,2,1,5,0,1
143438,-90.9090909090909,4,2,1,70,0,1
147091,-90.9090909090909,4,2,1,5,0,1
147169,-90.9090909090909,4,2,1,70,0,1
148334,-90.9090909090909,4,2,1,5,0,1
148412,-90.9090909090909,4,2,1,70,0,1
148956,-90.9090909090909,4,2,1,5,0,1
149033,-90.9090909090909,4,2,1,70,0,1
150821,-90.9090909090909,4,2,1,5,0,1
150899,-90.9090909090909,4,2,1,70,0,1
153308,-90.9090909090909,4,2,1,5,0,1
153386,-90.9090909090909,4,2,1,70,0,1
156961,-71.4285714285714,4,2,1,70,0,1
157065,-71.4285714285714,4,2,1,5,0,0
157169,-71.4285714285714,4,2,1,70,0,1
157272,-71.4285714285714,4,2,1,5,0,0
157376,-71.4285714285714,4,2,1,70,0,1
157480,-71.4285714285714,4,2,1,5,0,0
157583,-71.4285714285714,4,2,1,70,0,1
157687,-71.4285714285714,4,2,1,5,0,0
157790,-71.4285714285714,4,2,1,70,0,1
157894,-71.4285714285714,4,2,1,5,0,0
158050,-100,4,2,1,60,0,0
163413,-100,4,2,1,5,0,0
163491,-100,4,2,1,60,0,0
168153,-111.111111111111,4,2,1,60,0,0

[Colours]
Combo1 : 172,81,81
Combo2 : 240,0,0
Combo3 : 222,197,158
Combo4 : 97,112,124

[HitObjects]
512,71,278,6,0,B|466:45|396:41|396:41|430:55|446:116,1,161.999995056153,6|0,1:2|0:0,0:0:0:0:
359,110,588,6,0,L|349:185,2,72,0|0|0,3:0|3:0|3:0,0:0:0:0:
226,253,2143,5,8,0:3:0:0:
157,225,2298,1,8,0:3:0:0:
88,254,2454,1,8,0:3:0:0:
67,325,2609,1,8,0:3:0:0:
0,155,2765,6,0,B|76:140|76:140|79:137|79:137|158:122,1,161.999995056153,6|0,1:2|0:0,0:0:0:0:
222,71,3075,6,0,P|196:47|156:45,1,72,0|0,3:0|3:0,0:0:0:0:
21,315,4008,5,8,0:0:0:0:
31,327,4086,1,8,0:3:0:0:
41,338,4164,2,0,L|95:350,1,45,8|8,0:3|0:3,0:0:0:0:
263,207,4319,5,8,0:3:0:0:
253,219,4397,1,8,0:3:0:0:
243,230,4475,2,0,L|189:242,1,45,8|8,0:3|0:3,0:0:0:0:
308,355,4630,6,0,L|362:367,1,45,8|0,0:0|0:0,0:0:0:0:
480,369,4785,1,2,1:2:0:0:
512,118,5096,6,0,B|439:134|473:164|384:184,1,135,6|0,1:2|0:0,0:0:0:0:
320,217,5407,2,0,P|344:249|413:256,1,90,2|10,0:0|0:0,0:0:0:0:
315,56,5718,1,0,0:0:0:0:
157,184,5873,1,2,1:2:0:0:
105,131,6029,1,0,0:0:0:0:
169,0,6184,2,0,P|199:37|181:102,1,90,10|2,0:0|0:0,0:0:0:0:
22,287,6495,6,0,L|-1:108,1,180,0|8,1:0|0:0,0:0:0:0:
163,332,7039,1,8,0:0:0:0:
172,327,7117,2,0,L|265:357,1,90,2|0,1:2|0:0,0:0:0:0:
455,301,7428,1,8,0:0:0:0:
482,226,7583,6,0,P|437:220|391:257,1,90,2|2,0:0|1:2,0:0:0:0:
211,96,7894,2,0,P|247:120|290:114,1,90,0|10,0:0|0:0,0:0:0:0:
470,0,8205,1,0,0:0:0:0:
410,217,8360,1,2,1:2:0:0:
275,4,8516,1,0,0:0:0:0:
512,86,8671,1,10,0:0:0:0:
324,261,8827,6,0,P|307:219|322:177,1,90,2|0,0:0|1:2,0:0:0:0:
470,0,9138,2,0,L|487:112,1,90,2|10,0:0|0:0,0:0:0:0:
388,360,9526,1,8,0:0:0:0:
396,349,9604,2,0,P|437:329|479:342,1,90,0|0,1:2|0:0,0:0:0:0:
306,223,9915,2,0,L|199:242,1,90,8|0,0:0|0:0,0:0:0:0:
375,135,10226,6,0,B|395:95|387:38|387:38|362:58|322:67,1,135,6|0,1:2|0:0,0:0:0:0:
293,19,10537,2,0,P|248:13|205:0,1,90,10|0,0:0|0:0,0:0:0:0:
0,163,10847,2,0,P|44:157|87:144,1,90,2|2,1:2|0:0,0:0:0:0:
213,244,11158,1,10,0:0:0:0:
142,384,11314,6,0,B|122:343|122:343|136:300,1,90,2|0,0:0|1:0,0:0:0:0:
277,108,11625,1,0,0:0:0:0:
277,108,11780,2,0,L|294:216,1,90,8|0,0:0|0:0,0:0:0:0:
348,251,12013,1,8,0:0:0:0:
355,260,12091,2,0,P|400:231|456:257,1,90,2|0,1:2|0:0,0:0:0:0:
192,160,12402,2,0,P|134:150|78:134,1,90,8|2,0:0|0:0,0:0:0:0:
291,7,12713,5,6,1:2:0:0:
403,168,12868,1,0,0:0:0:0:
328,195,13024,1,10,0:0:0:0:
210,321,13179,1,0,0:0:0:0:
266,370,13334,2,0,P|310:376|364:387,1,90,2|2,1:2|0:0,0:0:0:0:
476,143,13645,1,10,0:0:0:0:
512,222,13801,6,0,L|403:245,1,90,2|0,0:0|1:2,0:0:0:0:
308,124,14112,2,0,L|331:15,1,90,2|10,0:0|0:0,0:0:0:0:
176,229,14423,1,2,0:0:0:0:
50,83,14578,5,8,0:0:0:0:
38,73,14656,1,8,0:0:0:0:
27,63,14734,2,0,P|22:40|15:19,1,45,8|8,0:0|0:0,0:0:0:0:
173,150,14889,5,8,0:0:0:0:
185,140,14967,1,8,0:0:0:0:
195,130,15045,2,0,P|199:107|206:86,1,45,8|8,0:0|0:0,0:0:0:0:
35,216,15200,6,0,B|9:234|-12:247|-12:247|0:298,2,107.999996704102,6|2|8,1:2|1:2|0:0,0:0:0:0:
141,291,15822,1,8,0:0:0:0:
141,291,16132,1,8,0:0:0:0:
353,136,16443,6,0,L|478:116,2,107.999996704102,2|0|8,1:2|1:2|0:0,0:0:0:0:
270,220,17065,1,8,0:0:0:0:
270,220,17376,1,8,0:0:0:0:
94,24,17687,5,14,0:0:0:0:
48,49,17764,1,8,0:0:0:0:
34,101,17842,1,10,0:0:0:0:
59,147,17920,1,8,0:0:0:0:
71,154,17998,5,8,0:3:0:0:
96,201,18076,1,8,0:3:0:0:
81,252,18154,1,8,0:3:0:0:
36,278,18231,1,8,0:3:0:0:
23,273,18309,6,0,L|84:258,1,53.9999983520508,8|8,0:0|0:0,0:0:0:0:
147,349,18464,2,0,L|208:364,1,53.9999983520508,8|8,0:0|0:0,0:0:0:0:
271,219,18619,6,0,L|256:158,1,53.9999983520508,8|8,0:0|0:0,0:0:0:0:
360,297,18775,2,0,L|421:312,1,53.9999983520508,8|8,0:0|0:0,0:0:0:0:
459,171,18930,6,0,B|412:145|412:145|397:92,2,107.999996704102,6|2|2,1:2|1:2|0:0,0:0:0:0:
200,3,19863,6,0,L|184:92,1,80.9999975280763,4|0,0:3|0:0,0:0:0:0:
194,104,20174,6,0,P|145:91|110:58,1,80.9999975280763,6|2,1:2|1:2,0:0:0:0:
0,200,20485,2,0,L|87:212,1,80.9999975280763,10|8,0:0|0:0,0:0:0:0:
143,255,20718,1,8,0:0:0:0:
149,264,20796,2,0,P|159:309|137:347,1,80.9999975280763,2|2,1:2|1:2,0:0:0:0:
288,250,21107,2,0,P|295:204|304:164,1,80.9999975280763,10|2,0:0|0:0,0:0:0:0:
506,311,21417,5,2,1:2:0:0:
376,230,21573,1,2,1:2:0:0:
490,105,21728,1,8,0:0:0:0:
398,0,21884,2,0,L|415:97,1,80.9999975280763,2|2,0:0|1:2,0:0:0:0:
362,140,22117,1,8,0:0:0:0:
354,149,22195,2,0,P|312:139|257:132,1,80.9999975280763,2|8,1:2|0:0,0:0:0:0:
182,65,22505,1,2,0:0:0:0:
20,158,22661,5,2,1:2:0:0:
193,56,22816,1,2,1:2:0:0:
29,0,22972,1,8,0:0:0:0:
155,178,23127,5,8,0:0:0:0:
186,212,23204,1,8,0:0:0:0:
189,260,23282,1,8,0:3:0:0:
162,299,23360,1,8,0:3:0:0:
121,314,23438,1,8,0:3:0:0:
102,340,23516,1,8,0:3:0:0:
106,351,23594,6,0,L|159:364,1,40.4999987640381,8|8,0:0|0:0,0:0:0:0:
273,285,23749,2,0,L|327:299,1,40.4999987640381,8|8,0:0|0:0,0:0:0:0:
435,384,23904,5,2,1:2:0:0:
396,125,24060,1,2,1:2:0:0:
396,125,24371,5,2,0:0:0:0:
354,65,24526,1,2,0:0:0:0:
281,52,24682,1,2,0:0:0:0:
220,94,24837,1,2,0:0:0:0:
154,63,24993,1,2,0:0:0:0:
53,150,25148,6,0,L|70:237,1,72,4|0,1:2|1:2,0:0:0:0:
133,307,25459,1,2,1:2:0:0:
103,375,25614,1,2,1:2:0:0:
253,322,25770,1,10,0:0:0:0:
223,254,25925,1,2,1:2:0:0:
335,172,26081,2,0,L|321:242,1,72,2|2,0:0|1:2,0:0:0:0:
383,327,26391,5,2,0:0:0:0:
512,254,26547,1,8,0:0:0:0:
421,143,26702,1,0,1:2:0:0:
473,87,26858,2,0,P|440:63|393:76,1,72,2|8,1:2|0:0,0:0:0:0:
292,0,27169,2,0,P|255:9|204:19,2,72,2|2|0,1:2|1:2|0:0,0:0:0:0:
243,123,27635,5,6,1:2:0:0:
189,172,27790,1,8,0:0:0:0:
64,55,27946,1,2,1:2:0:0:
133,77,28101,1,2,1:2:0:0:
93,243,28257,2,0,L|78:172,1,72,10|2,0:0|0:0,0:0:0:0:
227,245,28568,2,0,P|219:280|212:315,1,72,2|2,1:2|1:2,0:0:0:0:
320,201,28879,5,2,0:0:0:0:
385,237,29034,1,8,0:0:0:0:
353,374,29189,1,0,1:2:0:0:
418,338,29345,2,0,P|455:327|496:323,1,72,2|8,1:2|0:0,0:0:0:0:
441,248,29656,1,2,1:2:0:0:
464,158,29811,2,0,P|427:169|386:173,1,72,10|0,0:0|1:0,0:0:0:0:
334,120,30044,1,0,1:0:0:0:
334,120,30122,6,0,P|359:69|299:3,1,135,12|0,0:0|0:0,0:0:0:0:
293,8,30433,1,8,0:0:0:0:
231,50,30588,1,8,0:0:0:0:
96,71,30744,5,8,0:0:0:0:
0,15,30899,1,8,0:0:0:0:
77,186,31055,5,8,0:0:0:0:
147,151,31210,1,8,0:0:0:0:
293,258,31366,5,8,0:0:0:0:
141,384,31521,1,8,0:0:0:0:
225,211,31676,5,8,0:0:0:0:
406,358,31832,1,8,0:0:0:0:
503,164,31987,6,0,P|448:177|410:218,1,90,8|8,0:0|0:0,0:0:0:0:
287,5,32298,2,0,P|322:31|366:38,1,90,8|8,0:0|0:0,0:0:0:0:
261,214,32609,6,0,P|256:192|248:170,1,45,14|0,0:0|0:0,0:0:0:0:
139,49,32765,1,8,0:3:0:0:
96,35,32842,1,8,0:3:0:0:
56,51,32920,1,0,1:0:0:0:
39,93,32998,1,0,1:0:0:0:
43,105,33075,6,0,L|56:168,1,45,14|0,0:0|0:0,0:0:0:0:
111,285,33231,1,8,0:3:0:0:
154,271,33308,1,8,0:3:0:0:
194,287,33386,1,0,1:0:0:0:
211,329,33464,1,0,1:0:0:0:
207,341,33541,6,0,P|199:371|194:404,1,45,12|0,0:0|0:0,0:0:0:0:
332,313,33697,1,0,1:0:0:0:
337,291,33774,1,0,1:0:0:0:
341,267,33853,6,0,B|395:267|390:230|462:233,1,116.999994644165,10|0,0:0|0:0,0:0:0:0:
512,146,34086,6,0,P|474:117|510:39,1,116.999994644165,10|0,0:0|0:0,0:0:0:0:
364,0,34319,6,0,L|345:130,1,116.999994644165,10|0,0:0|0:0,0:0:0:0:
0,82,34941,6,0,P|65:109|70:179,1,148.50000453186,6|0,1:2|0:0,0:0:0:0:
56,199,35252,2,0,L|178:222,1,99.0000030212403,0|8,1:0|0:0,0:0:0:0:
308,315,35562,1,2,0:0:0:0:
207,129,35718,1,2,1:2:0:0:
80,287,35874,1,2,1:2:0:0:
320,152,36029,1,10,0:0:0:0:
108,37,36185,1,2,0:0:0:0:
211,271,36340,5,2,1:2:0:0:
307,62,36496,2,0,P|331:105|319:152,1,99.0000030212403,2|8,1:2|0:0,0:0:0:0:
141,365,36806,1,8,0:0:0:0:
141,365,36884,1,8,0:0:0:0:
141,365,36961,2,0,L|123:248,1,99.0000030212403,0|0,1:2|1:2,0:0:0:0:
155,38,37272,1,8,0:0:0:0:
0,59,37428,6,0,B|83:69|42:126|155:141,1,148.50000453186,6|0,1:2|0:0,0:0:0:0:
184,193,37739,2,0,L|289:170,1,99.0000030212403,0|8,1:0|0:0,0:0:0:0:
422,77,38050,1,2,0:0:0:0:
248,277,38205,1,2,1:2:0:0:
466,205,38360,1,2,1:2:0:0:
222,92,38516,1,10,0:0:0:0:
477,215,38671,1,2,0:0:0:0:
280,171,38827,5,2,1:2:0:0:
439,0,38982,2,0,L|420:127,1,99.0000030212403,2|8,1:2|0:0,0:0:0:0:
277,192,39293,1,8,0:0:0:0:
277,192,39371,1,8,0:0:0:0:
277,192,39448,1,0,1:2:0:0:
447,368,39604,2,0,P|468:323|447:272,1,99.0000030212403,0|8,1:2|0:0,0:0:0:0:
317,101,39915,6,0,L|172:130,1,148.50000453186,6|0,1:2|0:0,0:0:0:0:
90,149,40226,1,2,1:2:0:0:
216,11,40381,5,10,0:0:0:0:
277,192,40537,1,0,1:2:0:0:
85,316,40692,5,10,0:0:0:0:
171,130,40847,1,0,1:2:0:0:
304,288,41003,1,8,0:0:0:0:
509,86,41158,6,0,P|437:79|423:202,1,198.000006042481,6|0,1:2|1:2,0:0:0:0:
465,233,41547,1,0,1:0:0:0:
465,233,41625,1,10,0:0:0:0:
247,356,41780,5,0,1:2:0:0:
207,345,41857,1,0,1:2:0:0:
168,335,41936,1,10,0:0:0:0:
319,162,42092,5,0,1:2:0:0:
352,141,42169,1,0,1:2:0:0:
391,144,42247,1,8,0:0:0:0:
165,0,42402,6,0,L|138:164,1,148.50000453186,6|0,1:2|0:0,0:0:0:0:
100,223,42713,2,0,P|62:192|52:144,1,99.0000030212403,2|8,1:2|0:0,0:0:0:0:
247,341,43024,6,0,B|317:349|311:281|424:299,1,148.50000453186,6|0,1:2|0:0,0:0:0:0:
462,336,43334,2,0,P|431:374|383:384,1,99.0000030212403,2|8,1:2|0:0,0:0:0:0:
416,162,43645,6,0,P|465:148|526:137,1,99.0000030212403,6|0,1:2|0:0,0:0:0:0:
312,0,43956,5,8,0:0:0:0:
269,23,44033,1,8,0:0:0:0:
258,70,44111,1,8,0:0:0:0:
282,111,44189,1,8,0:0:0:0:
289,122,44267,2,0,L|269:183,1,49.5000015106202,8|8,0:0|0:0,0:0:0:0:
275,288,44423,5,6,1:2:0:0:
119,123,44579,1,8,0:0:0:0:
85,105,44656,1,8,0:0:0:0:
46,108,44734,1,8,0:0:0:0:
14,131,44812,1,8,0:0:0:0:
0,168,44889,6,0,L|30:335,1,148.50000453186,6|0,1:2|0:0,0:0:0:0:
82,369,45200,2,0,P|126:351|204:339,1,99.0000030212403,0|8,1:0|0:0,0:0:0:0:
407,296,45511,1,2,0:0:0:0:
180,232,45666,1,2,1:2:0:0:
436,124,45822,1,2,1:2:0:0:
311,384,45977,1,10,0:0:0:0:
164,128,46132,1,2,0:0:0:0:
341,241,46288,5,2,1:2:0:0:
134,351,46443,2,0,P|108:318|123:250,1,99.0000030212403,2|8,1:2|0:0,0:0:0:0:
248,29,46754,1,8,0:0:0:0:
248,29,46832,1,8,0:0:0:0:
248,29,46910,2,0,B|254:74|254:74|258:77|258:77|264:125,1,99.0000030212403,0|0,1:2|1:2,0:0:0:0:
404,238,47221,1,8,0:0:0:0:
286,332,47376,6,0,P|318:268|392:260,1,148.50000453186,6|0,1:2|0:0,0:0:0:0:
444,325,47687,2,0,B|477:290|477:290|468:239,1,99.0000030212403,0|8,1:0|0:0,0:0:0:0:
303,29,47998,1,2,0:0:0:0:
512,147,48153,1,2,1:2:0:0:
276,223,48309,1,2,1:2:0:0:
398,60,48464,1,10,0:0:0:0:
208,113,48619,1,2,0:0:0:0:
468,239,48775,5,2,1:2:0:0:
311,384,48930,2,0,P|287:341|302:296,1,99.0000030212403,2|8,1:2|0:0,0:0:0:0:
402,154,49241,1,8,0:0:0:0:
402,154,49319,1,8,0:0:0:0:
402,154,49397,1,0,1:2:0:0:
258,1,49552,2,0,L|240:115,1,99.0000030212403,0|8,1:2|0:0,0:0:0:0:
26,229,49863,6,0,B|20:205|20:205|32:166|91:143|129:174,1,148.50000453186,6|0,1:2|0:0,0:0:0:0:
186,223,50174,1,2,1:2:0:0:
82,71,50329,5,10,0:0:0:0:
22,299,50485,1,0,1:2:0:0:
205,338,50640,5,10,0:0:0:0:
124,171,50795,1,0,1:2:0:0:
248,3,50951,6,0,P|291:26|300:89,1,99.0000030212403,8|0,0:0|1:0,0:0:0:0:
371,292,51262,6,0,L|484:271,1,83.9999974365235,10|0,0:0|0:0,0:0:0:0:
512,203,51469,6,0,P|493:170|506:124,1,83.9999974365235,10|0,0:0|0:0,0:0:0:0:
415,26,51676,6,0,L|394:139,1,83.9999974365235,10|0,0:0|0:0,0:0:0:0:
305,180,51884,6,0,P|264:150|203:181,1,83.9999974365235,10|0,0:0|0:0,0:0:0:0:
200,237,52091,6,0,P|239:265|299:234,1,83.9999974365235,10|0,0:0|0:0,0:0:0:0:
106,18,52350,6,0,P|31:19|20:128,1,180,6|2,1:2|0:0,0:0:0:0:
155,262,52816,1,10,0:0:0:0:
48,337,53050,1,2,0:0:0:0:
40,328,53127,2,0,P|49:284|54:239,1,90,2|0,1:2|0:0,0:0:0:0:
190,50,53438,2,0,L|205:138,1,90,10|2,0:0|0:0,0:0:0:0:
293,223,53749,6,0,B|385:230|372:151|491:168,1,180,0|10,1:2|0:0,0:0:0:0:
336,30,54293,1,8,0:0:0:0:
327,38,54371,2,0,B|305:79|305:79|317:120,1,90,2|0,1:2|0:0,0:0:0:0:
512,301,54682,2,0,P|486:259|445:251,1,90,10|0,0:0|0:0,0:0:0:0:
296,296,54993,6,0,L|277:407,1,90,0|2,1:2|0:0,0:0:0:0:
152,180,55303,2,0,L|136:91,1,90,10|0,0:0|0:0,0:0:0:0:
41,158,55614,5,2,1:2:0:0:
212,268,55770,1,2,0:0:0:0:
21,346,55925,1,10,0:0:0:0:
152,180,56081,1,2,0:0:0:0:
287,377,56236,6,0,P|308:362|346:353,1,45,8|8,0:0|0:3,0:0:0:0:
462,305,56391,2,0,P|441:296|423:283,1,45,8|8,0:0|0:3,0:0:0:0:
341,194,56547,5,0,1:0:0:0:
341,194,56625,1,0,1:0:0:0:
341,194,56702,2,0,P|331:162|316:130,1,45,8|8,0:0|0:3,0:0:0:0:
458,57,56858,2,0,P|449:77|443:99,1,45,8|8,0:0|0:3,0:0:0:0:
294,24,57013,5,0,1:0:0:0:
294,24,57091,1,0,1:0:0:0:
294,24,57169,2,0,L|234:44,1,45,10|0,0:0|0:0,0:0:0:0:
100,79,57324,1,0,1:0:0:0:
100,79,57402,1,0,1:0:0:0:
100,79,57480,6,0,P|114:117|125:185,1,80.9999975280763,12|0,0:0|0:0,0:0:0:0:
0,288,57790,2,0,P|31:264|71:267,1,80.9999975280763,10|2,0:0|0:0,0:0:0:0:
199,384,58101,1,10,0:0:0:0:
314,301,58257,1,2,1:2:0:0:
185,243,58412,1,10,0:0:0:0:
314,317,58568,1,2,1:2:0:0:
389,198,58723,5,8,0:0:0:0:
407,162,58800,1,8,0:3:0:0:
442,144,58878,1,8,0:3:0:0:
481,152,58956,1,8,0:3:0:0:
490,162,59034,6,0,L|510:93,1,40.4999987640381,8|8,0:3|0:3,0:0:0:0:
407,0,59189,1,8,0:3:0:0:
397,38,59266,1,8,0:3:0:0:
368,66,59345,1,8,0:0:0:0:
329,75,59422,1,8,0:3:0:0:
291,63,59500,6,0,P|265:52|234:48,1,40.4999987640381,8|8,0:3|0:3,0:0:0:0:
117,104,59656,1,8,0:3:0:0:
146,64,59733,1,8,0:3:0:0:
128,19,59811,1,0,1:0:0:0:
81,11,59889,1,0,1:3:0:0:
50,49,59967,6,0,L|35:142,1,80.9999975280763,14|0,0:0|1:0,0:0:0:0:
88,235,60277,1,10,0:0:0:0:
26,275,60433,1,0,1:0:0:0:
140,355,60588,1,10,0:0:0:0:
213,384,60744,1,0,1:2:0:0:
325,214,60899,1,10,0:0:0:0:
209,251,61055,1,2,0:0:0:0:
341,384,61210,5,10,0:0:0:0:
406,146,61366,1,10,0:0:0:0:
200,3,62143,6,0,P|195:43|184:92,1,80.9999975280763,4|0,0:3|0:0,0:0:0:0:
167,101,62454,6,0,P|131:80|73:103,1,80.9999975280763,6|2,1:2|1:2,0:0:0:0:
0,187,62765,1,10,0:0:0:0:
149,269,62920,1,8,0:0:0:0:
159,252,62997,1,8,0:0:0:0:
160,232,63075,1,2,1:2:0:0:
42,372,63231,1,2,1:2:0:0:
205,339,63386,2,0,P|249:329|302:322,1,80.9999975280763,10|2,0:0|0:0,0:0:0:0:
512,292,63697,5,2,1:2:0:0:
326,212,63853,1,2,1:2:0:0:
408,384,64008,1,8,0:0:0:0:
490,191,64164,1,8,0:0:0:0:
498,173,64241,1,8,0:0:0:0:
497,153,64319,1,2,1:2:0:0:
349,0,64474,5,10,0:2:0:0:
304,11,64551,1,8,0:2:0:0:
275,50,64629,1,8,0:0:0:0:
278,98,64707,1,8,0:0:0:0:
305,133,64785,1,8,0:0:0:0:
307,165,64863,1,8,0:0:0:0:
297,186,64941,5,6,1:2:0:0:
294,201,65018,1,8,0:0:0:0:
291,217,65096,1,8,0:0:0:0:
288,233,65174,1,8,0:0:0:0:
286,249,65251,1,8,0:0:0:0:
71,88,65407,5,6,1:2:0:0:
69,72,65484,1,8,0:0:0:0:
66,56,65562,1,8,0:0:0:0:
63,40,65640,1,8,0:0:0:0:
61,24,65717,1,8,0:0:0:0:
104,252,65873,5,6,1:2:0:0:
88,250,65950,1,8,0:0:0:0:
72,247,66028,1,8,0:0:0:0:
56,244,66106,1,8,0:0:0:0:
40,242,66183,1,8,0:0:0:0:
233,43,66340,5,2,1:2:0:0:
464,89,67272,6,0,P|399:116|394:186,1,148.50000453186,6|0,1:2|0:0,0:0:0:0:
447,259,67583,2,0,B|483:225|483:225|481:176,1,99.0000030212403,0|8,1:0|0:0,0:0:0:0:
236,32,67894,1,2,0:0:0:0:
394,186,68049,1,2,1:2:0:0:
459,0,68205,1,2,1:2:0:0:
242,200,68360,1,10,0:0:0:0:
477,298,68516,1,2,0:0:0:0:
367,78,68671,5,2,1:2:0:0:
265,296,68827,2,0,L|149:317,1,99.0000030212403,2|8,1:2|0:0,0:0:0:0:
0,166,69138,1,8,0:0:0:0:
0,166,69215,1,8,0:0:0:0:
0,166,69293,2,0,P|40:138|109:179,1,99.0000030212403,0|0,1:2|1:2,0:0:0:0:
331,93,69603,1,8,0:0:0:0:
244,0,69759,6,0,L|226:160,1,148.50000453186,6|0,1:2|0:0,0:0:0:0:
175,225,70070,2,0,P|146:201|135:135,1,99.0000030212403,0|8,1:0|0:0,0:0:0:0:
336,0,70381,1,2,0:0:0:0:
422,228,70537,1,2,1:2:0:0:
227,147,70692,1,2,1:2:0:0:
452,60,70847,1,10,0:0:0:0:
214,155,71003,1,2,0:0:0:0:
435,246,71158,5,2,1:2:0:0:
325,0,71314,2,0,P|301:43|313:90,1,99.0000030212403,2|8,1:2|0:0,0:0:0:0:
444,230,71624,1,8,0:0:0:0:
444,230,71702,1,8,0:0:0:0:
444,230,71779,1,0,1:2:0:0:
310,384,71936,2,0,P|303:334|295:286,1,99.0000030212403,0|8,1:2|0:0,0:0:0:0:
183,81,72246,6,0,P|177:161|70:157,1,198.000006042481,6|2,1:2|1:2,0:0:0:0:
28,111,72634,1,0,1:2:0:0:
28,111,72712,1,10,0:0:0:0:
94,305,72867,5,0,1:2:0:0:
105,345,72946,1,0,1:2:0:0:
115,384,73023,1,10,0:0:0:0:
279,208,73179,5,0,1:2:0:0:
289,169,73258,1,0,1:2:0:0:
300,129,73335,1,8,0:0:0:0:
491,342,73490,6,0,B|453:339|441:291|441:291|424:335|361:336,1,148.50000453186,6|0,1:2|0:0,0:0:0:0:
320,300,73801,1,0,1:2:0:0:
512,209,73956,5,10,0:0:0:0:
325,88,74112,1,0,1:2:0:0:
325,88,74189,1,0,1:2:0:0:
325,88,74267,5,10,0:0:0:0:
512,35,74423,1,0,1:2:0:0:
378,182,74578,1,8,0:0:0:0:
216,0,74733,6,0,L|193:153,1,148.50000453186,6|0,1:2|0:0,0:0:0:0:
135,205,75044,2,0,P|84:222|31:245,1,99.0000030212403,2|8,1:2|0:0,0:0:0:0:
294,356,75355,6,0,P|341:288|409:343,1,148.50000453186,6|0,1:2|0:0,0:0:0:0:
465,375,75666,2,0,P|473:326|482:277,1,99.0000030212403,2|8,1:2|0:0,0:0:0:0:
339,44,75977,6,0,L|356:141,1,99.0000030212403,6|0,1:2|0:0,0:0:0:0:
260,354,76287,5,8,0:0:0:0:
239,309,76366,1,8,0:0:0:0:
192,296,76442,1,8,0:0:0:0:
150,318,76520,1,8,0:0:0:0:
139,324,76598,2,0,L|78:304,1,49.5000015106202,8|8,0:0|0:0,0:0:0:0:
1,200,76754,5,6,1:2:0:0:
128,19,76910,1,8,0:0:0:0:
161,0,76987,1,8,0:0:0:0:
200,2,77065,1,8,0:0:0:0:
233,25,77143,1,8,0:0:0:0:
247,61,77220,6,0,L|219:228,1,148.50000453186,6|0,1:2|0:0,0:0:0:0:
194,296,77531,2,0,L|291:280,1,99.0000030212403,0|8,1:0|0:0,0:0:0:0:
464,301,77842,1,2,0:0:0:0:
223,207,77997,1,2,1:2:0:0:
429,124,78153,1,2,1:2:0:0:
260,369,78308,1,10,0:0:0:0:
146,120,78463,1,2,0:0:0:0:
341,241,78619,5,2,1:2:0:0:
134,351,78775,2,0,L|31:369,1,99.0000030212403,2|8,1:2|0:0,0:0:0:0:
146,120,79086,1,8,0:0:0:0:
146,120,79164,1,8,0:0:0:0:
146,120,79241,2,0,P|172:169|148:232,1,99.0000030212403,0|0,1:2|1:2,0:0:0:0:
29,31,79552,1,8,0:0:0:0:
214,10,79708,6,0,L|378:48,1,148.50000453186,6|0,1:2|0:0,0:0:0:0:
412,100,80018,2,0,L|510:85,1,99.0000030212403,0|8,1:0|0:0,0:0:0:0:
270,200,80329,1,2,0:0:0:0:
476,306,80485,1,2,1:2:0:0:
206,383,80640,1,2,1:2:0:0:
365,250,80796,1,10,0:0:0:0:
164,147,80951,1,2,0:0:0:0:
296,327,81107,5,2,1:2:0:0:
424,131,81262,2,0,P|445:87|430:33,1,99.0000030212403,2|8,1:2|0:0,0:0:0:0:
291,195,81572,1,8,0:0:0:0:
291,195,81650,1,8,0:0:0:0:
291,195,81728,1,0,1:2:0:0:
157,13,81883,2,0,L|139:127,1,99.0000030212403,0|8,1:2|0:0,0:0:0:0:
0,306,82195,6,0,P|31:247|111:264,1,148.50000453186,6|0,1:2|0:0,0:0:0:0:
148,321,82505,1,2,1:2:0:0:
262,234,82661,2,0,B|279:125,1,99.0000030212403,10|0,0:0|1:2,0:0:0:0:
417,325,82972,2,0,P|361:347|319:312,1,99.0000030212403,10|0,0:0|1:2,0:0:0:0:
421,179,83283,6,0,P|468:165|517:159,1,99.0000030212403,10|0,0:0|0:0,0:0:0:0:
307,12,83594,5,6,1:2:0:0:
260,26,83671,1,8,0:0:0:0:
232,66,83749,1,8,0:0:0:0:
233,114,83827,1,8,0:0:0:0:
263,152,83904,1,8,0:0:0:0:
276,198,83983,1,8,0:0:0:0:
259,243,84060,6,0,B|247:291,1,49.5000015106202,6|0,1:2|0:0,0:0:0:0:
6,140,84371,6,0,B|17:188,1,49.5000015106202,6|0,1:2|0:0,0:0:0:0:
158,13,84682,6,0,B|118:343,1,324,6|2,1:2|0:0,0:0:0:0:
408,341,86547,5,8,0:0:0:0:
487,259,86702,1,8,0:0:0:0:
444,199,86858,1,8,0:0:0:0:
485,137,87013,1,8,0:3:0:0:
492,50,87169,6,0,L|317:77,1,153.000002918243,6|2,1:2|0:0,0:0:0:0:
207,6,87635,1,2,1:2:0:0:
147,50,87790,1,2,0:0:0:0:
178,187,87946,2,0,P|185:149|194:112,1,76.5000014591217,10|2,0:0|0:0,0:0:0:0:
13,165,88257,1,2,0:0:0:0:
73,209,88412,1,2,1:2:0:0:
40,345,88568,6,0,L|25:271,2,76.5000014591217,2|10|0,0:0|0:0|1:2,0:0:0:0:
225,280,89034,2,0,P|192:258|146:268,1,76.5000014591217,2|8,1:2|0:0,0:0:0:0:
297,384,89345,1,10,0:0:0:0:
317,349,89422,1,8,0:0:0:0:
352,330,89500,1,8,0:0:0:0:
392,331,89578,1,8,0:0:0:0:
426,353,89656,6,0,L|451:169,1,170.999995433807,6|2,1:2|1:2,0:0:0:0:
326,24,90122,2,0,P|363:48|416:35,1,85.4999977169037,10|2,0:0|0:0,0:0:0:0:
250,172,90433,5,2,1:2:0:0:
197,117,90588,1,2,1:2:0:0:
314,2,90744,1,10,0:0:0:0:
351,129,90899,5,2,0:0:0:0:
200,234,91055,1,0,1:2:0:0:
253,310,91210,1,2,1:2:0:0:
403,384,91366,5,10,0:0:0:0:
315,230,91521,1,2,0:0:0:0:
485,118,91676,5,2,1:2:0:0:
448,219,91832,1,2,1:2:0:0:
299,108,91987,1,10,0:0:0:0:
168,239,92143,6,0,B|74:214|123:169|19:154,1,170.999995433807,6|2,1:2|1:2,0:0:0:0:
36,384,92609,2,0,P|71:375|96:313,1,85.4999977169037,10|0,0:0|1:2,0:0:0:0:
180,141,92920,6,0,L|246:124,1,42.7499988584519,10|8,0:0|0:0,0:0:0:0:
339,28,93075,2,0,P|366:32|405:45,1,42.7499988584519,8|8,0:0|0:0,0:0:0:0:
512,185,93231,5,0,1:0:0:0:
485,153,93308,1,0,1:0:0:0:
443,153,93386,2,0,P|408:172|375:177,1,42.7499988584519,8|8,0:0|0:0,0:0:0:0:
280,251,93542,2,0,P|299:259|317:271,1,42.7499988584519,8|8,0:0|0:0,0:0:0:0:
424,364,93697,5,0,1:0:0:0:
431,374,93775,1,0,1:0:0:0:
438,384,93853,2,0,P|455:343|462:283,1,85.4999977169037,12|0,0:0|1:2,0:0:0:0:
497,212,94086,1,0,1:2:0:0:
486,202,94164,6,0,L|396:227,1,85.4999977169037,8|8,0:2|0:0,0:0:0:0:
310,298,94397,1,8,0:0:0:0:
299,310,94474,6,0,L|287:351,1,42.7499988584519,8|8,0:3|0:3,0:0:0:0:
182,227,94630,2,0,P|178:207|169:181,1,42.7499988584519,8|8,0:3|0:3,0:0:0:0:
61,340,94785,5,4,1:2:0:0:
61,340,96029,5,12,0:0:0:0:
124,231,96495,6,0,L|148:226,1,13.4999995880127,8|0,0:3|0:0,0:0:0:0:
309,65,96961,6,0,L|322:67,1,13.4999995880127,8|0,0:3|0:0,0:0:0:0:
483,276,97272,5,12,0:0:0:0:
362,176,98360,5,8,0:0:0:0:
402,179,98438,1,8,0:0:0:0:
434,204,98516,5,8,0:0:0:0:
344,368,98671,1,8,0:0:0:0:
191,378,98827,5,8,0:0:0:0:
55,284,98982,1,8,0:0:0:0:
149,148,99138,5,8,0:0:0:0:
285,242,99293,1,8,0:0:0:0:
166,259,99448,5,0,1:2:0:0:
164,246,99525,1,0,1:2:0:0:
161,232,99603,1,0,1:2:0:0:
159,219,99681,1,0,1:2:0:0:
157,206,99759,6,0,P|153:178|176:135,1,45,4|0,1:2|0:0,0:0:0:0:
200,91,99915,2,0,P|222:73|270:71,1,45,0|0,1:2|0:0,0:0:0:0:
344,0,100070,6,0,P|348:28|325:71,1,45,0|0,1:2|0:0,0:0:0:0:
351,171,100226,2,0,P|324:160|299:119,1,45,0|0,1:2|0:0,0:0:0:0:
237,68,100381,5,12,0:0:0:0:
237,68,101003,1,4,1:2:0:0:
123,1,101158,5,10,0:0:0:0:
42,97,101314,1,2,0:0:0:0:
110,157,101469,1,2,1:2:0:0:
61,264,101625,1,12,0:0:0:0:
134,335,101780,2,0,P|100:302|28:318,2,90,0|2|10,1:2|0:0|0:0,0:0:0:0:
245,268,102246,6,0,P|268:284|316:283,1,45,4|0,1:2|0:0,0:0:0:0:
366,281,102402,2,0,P|392:269|415:227,1,45,0|0,1:2|0:0,0:0:0:0:
512,194,102557,6,0,P|488:177|440:178,1,45,0|0,1:2|0:0,0:0:0:0:
363,110,102713,2,0,P|360:139|385:179,1,45,0|0,1:2|0:0,0:0:0:0:
403,258,102868,5,12,0:0:0:0:
403,258,103490,1,4,1:2:0:0:
323,314,103645,5,10,0:0:0:0:
209,228,103801,1,2,0:0:0:0:
278,191,103956,1,2,1:2:0:0:
175,339,104112,1,12,0:0:0:0:
43,250,104267,1,0,1:2:0:0:
150,125,104423,5,8,0:0:0:0:
164,74,104500,1,8,0:0:0:0:
137,28,104578,1,8,0:0:0:0:
86,17,104656,1,8,0:0:0:0:
74,28,104733,6,0,P|66:72|60:117,1,90,2|0,1:3|1:2,0:0:0:0:
222,261,105044,2,0,L|234:172,1,90,10|2,0:0|0:0,0:0:0:0:
278,99,105277,1,8,0:0:0:0:
286,90,105355,2,0,P|329:75|375:97,1,90,2|0,1:3|1:2,0:0:0:0:
128,226,105666,2,0,P|82:232|30:246,1,90,10|2,0:0|0:0,0:0:0:0:
106,338,105977,1,2,1:3:0:0:
66,131,106132,5,0,1:2:0:0:
114,350,106288,2,0,L|205:367,1,90,8|8,0:0|0:0,0:0:0:0:
282,331,106521,1,8,0:0:0:0:
291,322,106599,2,0,P|310:283|281:220,1,90,0|0,1:2|1:2,0:0:0:0:
473,114,106910,2,0,P|462:178|448:284,1,135,8|0,0:0|0:0,0:0:0:0:
485,320,107221,6,0,P|440:330|397:303,1,90,2|0,1:3|1:2,0:0:0:0:
194,214,107531,2,0,P|237:206|284:201,1,90,10|2,0:0|0:0,0:0:0:0:
353,156,107764,1,8,0:0:0:0:
362,148,107842,2,0,P|377:105|355:59,1,90,2|0,1:3|1:2,0:0:0:0:
210,0,108153,2,0,L|197:90,1,90,10|2,0:0|0:0,0:0:0:0:
114,327,108464,1,2,1:3:0:0:
38,135,108619,5,2,1:2:0:0:
240,214,108775,2,0,P|198:235|145:211,1,90,8|8,0:0|0:0,0:0:0:0:
122,153,109008,1,8,0:0:0:0:
126,157,109086,1,8,0:0:0:0:
282,26,109241,5,0,1:2:0:0:
322,12,109318,1,0,1:0:0:0:
362,29,109396,1,8,0:0:0:0:
512,220,109552,5,0,1:0:0:0:
472,206,109629,1,0,1:0:0:0:
432,223,109708,5,14,0:0:0:0:
358,191,109863,1,0,1:2:0:0:
220,283,110019,1,0,1:2:0:0:
320,384,110175,5,10,0:0:0:0:
236,266,110330,1,0,1:2:0:0:
128,252,110485,1,0,1:2:0:0:
0,160,110640,5,14,0:0:0:0:
93,125,110796,1,0,1:0:0:0:
148,0,110951,1,0,1:0:0:0:
310,81,111107,5,8,0:0:0:0:
317,93,111184,1,2,0:0:0:0:
324,104,111262,2,0,L|305:174,1,49.5000015106202,2|2,1:2|0:0,0:0:0:0:
222,276,111417,1,2,1:2:0:0:
215,287,111495,1,2,0:2:0:0:
209,298,111573,6,0,P|182:256|82:253,1,125.999996154785,14|2,0:0|1:2,0:0:0:0:
338,262,111884,6,0,P|348:213|280:140,1,125.999996154785,14|2,0:0|1:2,0:0:0:0:
454,326,112195,6,0,P|496:299|499:198,1,125.999996154785,14|2,0:0|1:2,0:0:0:0:
310,374,112505,5,2,1:2:0:0:
310,374,112583,1,2,0:0:0:0:
310,374,112661,2,0,L|259:384,1,49.5000015106202,10|0,0:0|0:0,0:0:0:0:
161,258,112816,2,0,L|112:267,1,49.5000015106202,2|2,1:2|0:0,0:0:0:0:
3,383,112972,1,2,1:2:0:0:
108,137,113127,6,0,P|137:87|98:-1,1,125.999996154785,14|2,0:0|1:2,0:0:0:0:
279,161,113438,1,0,1:2:0:0:
190,260,113594,6,0,P|246:246|280:199,1,116.999994644165,10|2,0:0|1:2,0:0:0:0:
310,374,113904,1,0,1:2:0:0:
485,331,114060,6,0,P|429:316|401:269,1,107.999996704102,10|2,0:0|1:2,0:0:0:0:
396,188,114293,1,0,1:2:0:0:
407,179,114371,6,0,L|529:163,1,107.999996704102,10|2,0:0|1:2,0:0:0:0:
494,86,114604,1,0,1:2:0:0:
483,78,114682,6,0,L|438:72,1,45,10|0,0:0|0:0,0:0:0:0:
346,8,114837,2,0,L|301:14,1,45,10|0,0:0|0:0,0:0:0:0:
155,118,114993,5,2,1:2:0:0:
28,0,115148,1,10,0:0:0:0:
204,51,115303,5,2,1:2:0:0:
49,180,115459,1,10,0:0:0:0:
118,220,115614,5,2,1:2:0:0:
250,340,115770,1,10,0:0:0:0:
76,384,115925,5,2,1:2:0:0:
245,240,116081,1,10,0:0:0:0:
409,347,116236,5,2,1:2:0:0:
478,373,116391,1,10,0:0:0:0:
512,180,116547,5,2,1:2:0:0:
356,247,116702,1,10,0:0:0:0:
472,80,116858,5,2,1:2:0:0:
302,12,117013,1,10,0:0:0:0:
191,181,117169,5,6,1:2:0:0:
427,380,117324,1,8,0:0:0:0:
462,353,117401,1,8,0:0:0:0:
475,311,117479,1,8,0:0:0:0:
461,269,117557,1,8,0:0:0:0:
435,232,117635,1,8,0:0:0:0:
438,187,117713,1,8,0:0:0:0:
465,152,117790,6,0,P|475:132|477:91,1,45,6|0,1:2|1:0,0:0:0:0:
282,0,117946,1,8,0:0:0:0:
317,26,118023,1,8,0:0:0:0:
328,68,118101,6,0,L|315:138,1,45,2|0,1:2|1:0,0:0:0:0:
186,209,118257,2,0,L|177:164,1,45,8|8,0:0|0:0,0:0:0:0:
339,282,118412,5,6,1:2:0:0:
321,332,118489,1,10,0:0:0:0:
280,368,118567,1,10,0:0:0:0:
226,375,118645,1,10,0:0:0:0:
177,353,118722,1,10,0:0:0:0:
148,308,118801,1,10,0:0:0:0:
98,284,118879,1,8,0:0:0:0:
44,290,118957,1,8,0:0:0:0:
37,299,119034,6,0,P|13:318|-22:328,1,45,8|8,0:3|0:3,0:0:0:0:
221,166,119189,2,0,P|249:177|275:202,1,45,8|8,0:3|0:3,0:0:0:0:
13,73,119345,2,0,P|8:42|17:7,1,45,8|8,0:3|0:3,0:0:0:0:
83,184,119500,5,6,1:2:0:0:
256,138,122765,5,8,0:0:0:0:
256,151,122842,1,8,0:0:0:0:
256,165,122920,1,8,0:0:0:0:
256,178,122998,1,8,0:0:0:0:
256,190,123075,1,8,0:0:0:0:
471,226,123231,6,0,B|453:224|453:224|412:211|395:150|450:122,1,148.50000453186,6|0,1:2|0:0,0:0:0:0:
470,35,123542,2,0,B|427:46|427:46|422:42|422:42|375:53,1,99.0000030212403,0|8,1:0|0:0,0:0:0:0:
160,89,123853,1,2,0:0:0:0:
408,177,124008,1,2,1:2:0:0:
194,261,124164,1,2,1:2:0:0:
375,53,124319,1,10,0:0:0:0:
334,308,124474,1,2,0:0:0:0:
160,89,124630,5,2,1:2:0:0:
40,324,124786,2,0,P|14:281|24:234,1,99.0000030212403,2|8,1:2|0:0,0:0:0:0:
166,5,125096,1,8,0:0:0:0:
166,5,125174,1,8,0:0:0:0:
166,5,125252,2,0,P|180:57|196:116,1,99.0000030212403,0|0,1:2|1:2,0:0:0:0:
391,307,125562,1,8,0:0:0:0:
420,174,125718,6,0,B|343:186|366:235|263:253,1,148.50000453186,6|0,1:2|0:0,0:0:0:0:
209,254,126029,2,0,P|215:205|250:172,1,99.0000030212403,0|8,1:0|0:0,0:0:0:0:
428,259,126340,1,2,0:0:0:0:
270,384,126495,1,2,1:2:0:0:
373,136,126650,1,2,1:2:0:0:
512,384,126806,1,10,0:0:0:0:
209,254,126961,1,2,0:0:0:0:
484,123,127117,5,2,1:2:0:0:
354,384,127272,2,0,P|347:334|339:286,1,99.0000030212403,2|8,1:2|0:0,0:0:0:0:
168,149,127583,1,8,0:0:0:0:
168,149,127661,1,8,0:0:0:0:
168,149,127739,1,0,1:2:0:0:
264,0,127894,2,0,P|283:45|263:92,1,99.0000030212403,0|8,1:2|0:0,0:0:0:0:
19,235,128205,6,0,B|64:209|75:155|75:155|125:119|193:162,1,198.000006042481,6|2,1:2|1:2,0:0:0:0:
213,214,128593,1,0,1:2:0:0:
213,214,128671,1,10,0:0:0:0:
327,87,128826,5,0,1:2:0:0:
335,46,128905,1,0,1:2:0:0:
343,7,128982,1,10,0:0:0:0:
512,198,129138,5,0,1:2:0:0:
468,220,129215,1,0,1:2:0:0:
422,204,129293,1,8,0:0:0:0:
171,360,129449,6,0,B|209:357|221:309|221:309|238:353|301:354,1,148.50000453186,6|0,1:2|0:0,0:0:0:0:
293,273,129760,1,0,1:2:0:0:
148,204,129915,5,10,0:0:0:0:
335,83,130071,1,0,1:2:0:0:
335,83,130148,1,0,1:2:0:0:
335,83,130226,5,10,0:0:0:0:
149,16,130382,1,0,1:2:0:0:
274,175,130537,1,8,0:0:0:0:
436,0,130692,6,0,L|463:164,1,148.50000453186,6|0,1:2|0:0,0:0:0:0:
512,205,131003,2,0,L|482:312,1,99.0000030212403,2|8,1:2|0:0,0:0:0:0:
168,198,131314,6,0,P|202:136|277:163,1,148.50000453186,6|0,1:2|0:0,0:0:0:0:
334,198,131625,2,0,P|353:155|327:93,1,99.0000030212403,2|8,1:2|0:0,0:0:0:0:
142,0,131936,6,0,L|160:111,1,99.0000030212403,6|0,1:2|0:0,0:0:0:0:
55,318,132246,5,8,0:0:0:0:
11,295,132323,1,8,0:0:0:0:
0,248,132401,1,8,0:0:0:0:
29,209,132479,1,8,0:0:0:0:
40,205,132557,2,0,P|67:208|106:223,1,49.5000015106202,8|8,0:0|0:0,0:0:0:0:
185,357,132713,5,6,1:2:0:0:
362,220,132868,1,8,0:0:0:0:
406,200,132945,1,8,0:0:0:0:
453,210,133023,1,8,0:0:0:0:
485,248,133101,1,8,0:0:0:0:
488,296,133179,6,0,B|415:261|412:327|304:294,1,148.50000453186,6|0,1:2|0:0,0:0:0:0:
274,352,133490,2,0,B|247:310|247:310|270:266,1,99.0000030212403,0|8,1:0|0:0,0:0:0:0:
402,85,133801,1,2,0:0:0:0:
168,165,133956,1,2,1:2:0:0:
435,260,134112,1,2,1:2:0:0:
293,11,134267,1,10,0:0:0:0:
181,269,134422,1,2,0:0:0:0:
340,143,134578,5,2,1:2:0:0:
467,384,134733,2,0,P|493:351|478:283,1,99.0000030212403,2|8,1:2|0:0,0:0:0:0:
354,45,135044,1,8,0:0:0:0:
354,45,135122,1,8,0:0:0:0:
354,45,135200,2,0,B|339:142,1,99.0000030212403,0|0,1:2|1:2,0:0:0:0:
163,349,135511,1,8,0:0:0:0:
107,238,135666,6,0,B|177:253|177:253|180:258|180:258|248:275,1,148.50000453186,6|0,1:2|0:0,0:0:0:0:
303,339,135977,2,0,P|336:298|315:233,1,99.0000030212403,0|8,1:0|0:0,0:0:0:0:
152,33,136288,1,2,0:0:0:0:
370,143,136443,1,2,1:2:0:0:
107,238,136599,1,2,1:2:0:0:
286,8,136754,1,10,0:0:0:0:
331,254,136909,1,2,0:0:0:0:
101,106,137065,5,2,1:2:0:0:
170,354,137221,2,0,P|186:298|211:237,1,99.0000030212403,2|8,1:2|0:0,0:0:0:0:
370,143,137531,1,8,0:0:0:0:
370,143,137609,1,8,0:0:0:0:
370,143,137687,1,0,1:2:0:0:
257,0,137842,2,0,L|279:113,1,99.0000030212403,0|8,1:2|0:0,0:0:0:0:
505,306,138153,6,0,B|415:289|475:252|342:235,1,148.50000453186,6|0,1:2|0:0,0:0:0:0:
305,283,138464,1,2,1:2:0:0:
476,184,138619,5,10,0:0:0:0:
276,97,138775,1,0,1:2:0:0:
325,31,138930,5,10,0:0:0:0:
375,240,139085,1,0,1:2:0:0:
137,191,139241,6,0,P|160:148|223:139,1,99.0000030212403,8|0,0:0|1:0,0:0:0:0:
334,384,139552,6,0,P|301:374|273:316,1,83.9999974365235,10|0,0:0|0:0,0:0:0:0:
325,268,139759,6,0,L|421:250,1,83.9999974365235,10|0,0:0|0:0,0:0:0:0:
482,178,139967,6,0,L|399:162,1,83.9999974365235,10|0,0:0|0:0,0:0:0:0:
334,92,140174,6,0,P|359:62|347:12,1,83.9999974365235,10|0,0:0|0:0,0:0:0:0:
270,0,140381,6,0,P|244:29|256:79,1,83.9999974365235,10|0,0:0|0:0,0:0:0:0:
148,304,140640,6,2,L|14:333,1,134.999995880127,2|0,0:0|0:0,0:1:0:0:
27,256,141107,5,12,0:0:0:0:
223,100,141262,1,2,0:0:0:0:
148,304,141417,1,2,1:2:0:0:
13,82,141573,1,2,1:2:0:0:
275,201,141728,1,10,0:0:0:0:
16,332,141884,1,2,0:0:0:0:
148,40,142039,5,2,1:2:0:0:
334,263,142195,2,0,P|294:291|225:250,1,99.0000030212403,2|8,1:2|0:0,0:0:0:0:
16,149,142506,1,8,0:0:0:0:
16,149,142583,1,8,0:0:0:0:
16,149,142661,2,0,L|123:126,1,99.0000030212403,0|0,1:2|1:2,0:0:0:0:
367,59,142971,1,8,0:0:0:0:
294,0,143127,6,0,B|240:20|240:20|268:111,1,148.50000453186,6|0,1:2|0:0,0:0:0:0:
333,165,143438,2,0,L|308:281,1,99.0000030212403,0|8,1:0|0:0,0:0:0:0:
189,359,143749,1,2,0:0:0:0:
428,244,143905,1,2,1:2:0:0:
175,119,144060,1,2,1:2:0:0:
312,261,144215,1,10,0:0:0:0:
89,340,144371,1,2,0:0:0:0:
276,103,144526,5,2,1:2:0:0:
382,337,144682,2,0,L|500:361,1,99.0000030212403,2|8,1:2|0:0,0:0:0:0:
333,165,144992,1,8,0:0:0:0:
333,165,145070,1,8,0:0:0:0:
333,165,145147,1,0,1:2:0:0:
231,384,145304,2,0,P|249:339|230:295,1,99.0000030212403,0|8,1:2|0:0,0:0:0:0:
0,187,145614,6,0,P|96:163|193:131,1,198.000006042481,6|2,1:2|1:2,0:0:0:0:
243,78,146002,1,0,1:2:0:0:
243,78,146080,1,10,0:0:0:0:
55,1,146235,5,0,1:2:0:0:
190,132,146391,1,10,0:0:0:0:
118,168,146547,5,0,1:2:0:0:
0,317,146703,1,8,0:0:0:0:
236,384,146858,6,0,B|265:338|261:281|261:281|243:299|209:310,1,148.50000453186,6|0,1:2|0:0,0:0:0:0:
203,230,147169,1,0,1:2:0:0:
334,372,147324,1,10,0:0:0:0:
423,195,147480,5,0,1:2:0:0:
465,170,147557,1,0,1:2:0:0:
512,184,147635,1,10,0:0:0:0:
272,65,147790,5,0,1:2:0:0:
230,40,147867,1,0,1:2:0:0:
183,54,147945,1,8,0:0:0:0:
377,0,148101,6,0,P|367:68|354:153,1,148.50000453186,6|0,1:2|0:0,0:0:0:0:
387,220,148412,2,0,P|338:228|289:239,1,99.0000030212403,2|8,1:2|0:0,0:0:0:0:
0,371,148723,6,0,P|47:303|115:358,1,148.50000453186,6|0,1:2|0:0,0:0:0:0:
166,384,149034,2,0,L|183:286,1,99.0000030212403,2|8,1:2|0:0,0:0:0:0:
44,55,149345,6,0,P|53:103|61:152,1,99.0000030212403,6|0,1:2|0:0,0:0:0:0:
222,55,149655,5,8,0:0:0:0:
245,11,149734,1,8,0:0:0:0:
292,0,149810,1,8,0:0:0:0:
333,24,149888,1,8,0:0:0:0:
339,35,149966,2,0,L|317:112,1,49.5000015106202,8|8,0:0|0:0,0:0:0:0:
364,283,150122,5,6,1:2:0:0:
405,307,150199,1,8,0:0:0:0:
454,305,150277,1,8,0:0:0:0:
493,276,150355,1,8,0:0:0:0:
511,231,150432,1,8,0:0:0:0:
501,183,150510,1,8,0:0:0:0:
491,174,150588,6,0,L|333:207,1,148.50000453186,6|0,1:2|0:0,0:0:0:0:
299,136,150899,2,0,P|264:169|264:218,1,99.0000030212403,0|8,1:0|0:0,0:0:0:0:
105,296,151210,1,2,0:0:0:0:
345,204,151365,1,2,1:2:0:0:
76,124,151521,1,2,1:2:0:0:
208,384,151676,1,10,0:0:0:0:
348,128,151831,1,2,0:0:0:0:
171,241,151987,5,2,1:2:0:0:
376,356,152143,2,0,L|400:234,1,99.0000030212403,2|8,1:2|0:0,0:0:0:0:
259,27,152453,1,8,0:0:0:0:
259,27,152531,1,8,0:0:0:0:
259,27,152609,2,0,P|233:60|248:128,1,99.0000030212403,0|0,1:2|1:2,0:0:0:0:
115,263,152920,1,8,0:0:0:0:
253,328,153075,6,0,B|231:297|191:303|191:303|166:355|106:348,1,148.50000453186,6|0,1:2|0:0,0:0:0:0:
55,332,153386,2,0,P|23:298|31:246,1,99.0000030212403,0|8,1:0|0:0,0:0:0:0:
203,28,153697,1,2,0:0:0:0:
0,147,153852,1,2,1:2:0:0:
238,223,154008,1,2,1:2:0:0:
104,57,154163,1,10,0:0:0:0:
304,112,154318,1,2,0:0:0:0:
29,248,154474,5,2,1:2:0:0:
196,370,154630,2,0,L|298:385,1,99.0000030212403,2|8,1:2|0:0,0:0:0:0:
486,246,154940,1,8,0:0:0:0:
486,246,155018,1,8,0:0:0:0:
486,246,155096,1,0,1:2:0:0:
371,64,155252,2,0,P|341:102|348:149,1,99.0000030212403,0|8,1:2|0:0,0:0:0:0:
196,370,155562,6,0,L|170:154,1,198.000006042481,6|2,1:2|1:2,0:0:0:0:
116,114,155951,1,0,1:2:0:0:
116,114,156028,1,10,0:0:0:0:
298,294,156184,5,0,1:2:0:0:
339,302,156263,1,0,1:2:0:0:
378,310,156340,1,10,0:0:0:0:
494,68,156495,5,0,1:2:0:0:
455,76,156572,1,0,1:2:0:0:
414,84,156651,1,8,0:0:0:0:
152,301,156806,5,0,1:0:0:0:
152,301,156884,1,0,1:2:0:0:
152,301,156961,6,0,P|172:256|142:193,1,83.9999974365235,10|0,0:0|0:0,0:0:0:0:
110,164,157169,6,0,B|68:158|80:141|32:136,1,83.9999974365235,10|0,0:0|0:0,0:0:0:0:
128,0,157376,6,0,P|143:23|124:85,1,83.9999974365235,10|0,0:0|0:0,0:0:0:0:
232,149,157583,6,0,L|252:43,1,83.9999974365235,10|0,0:0|0:0,0:0:0:0:
352,0,157790,6,0,L|367:82,1,83.9999974365235,10|0,0:0|0:0,0:0:0:0:
512,316,158050,6,0,B|404:301|473:260|351:242,1,180,6|0,1:2|0:0,0:0:0:0:
204,384,158516,2,0,P|239:358|247:315,1,90,10|2,0:0|0:0,0:0:0:0:
150,220,158827,1,2,1:2:0:0:
87,266,158983,1,2,0:0:0:0:
0,138,159138,2,0,P|42:124|86:115,1,90,10|2,0:0|0:0,0:0:0:0:
255,0,159448,6,0,P|232:52|328:88,1,180,0|8,1:0|0:0,0:0:0:0:
512,196,159993,1,8,0:0:0:0:
501,205,160070,2,0,P|445:215|385:234,1,90,0|0,1:0|0:0,0:0:0:0:
231,384,160382,1,8,0:0:0:0:
380,308,160537,1,0,0:0:0:0:
222,188,160692,6,0,P|186:217|192:285,1,90,6|2,1:2|0:0,0:0:0:0:
336,132,161003,2,0,L|355:19,1,90,10|2,0:0|0:0,0:0:0:0:
512,225,161314,2,0,P|465:232|404:247,1,90,2|2,1:2|0:0,0:0:0:0:
222,188,161625,1,10,0:0:0:0:
276,384,161780,6,0,P|300:343|286:300,1,90,2|0,0:0|1:0,0:0:0:0:
112,144,162091,2,0,L|95:255,1,90,2|8,0:0|0:0,0:0:0:0:
278,81,162402,1,2,0:0:0:0:
278,81,162480,1,8,0:0:0:0:
278,81,162557,2,0,P|237:57|176:83,1,90,0|2,1:0|0:0,0:0:0:0:
339,206,162868,1,8,0:0:0:0:
447,65,163024,1,0,0:0:0:0:
512,246,163179,6,0,B|434:254|470:299|359:313,1,135,6|0,1:2|0:0,0:0:0:0:
335,360,163490,2,0,P|291:347|247:341,1,90,10|2,0:0|0:0,0:0:0:0:
77,246,163801,2,0,P|120:233|164:227,1,90,2|2,1:2|0:0,0:0:0:0:
258,88,164112,1,10,0:0:0:0:
133,0,164267,6,0,B|113:41|113:41|127:84,1,90,2|0,0:0|1:0,0:0:0:0:
262,175,164579,1,0,0:0:0:0:
172,331,164733,2,0,L|155:223,1,90,8|8,0:0|0:0,0:0:0:0:
94,185,164967,1,8,0:0:0:0:
87,176,165044,2,0,P|42:205|-14:179,1,90,0|0,1:0|0:0,0:0:0:0:
261,266,165355,2,0,P|319:276|375:292,1,90,8|2,0:0|0:0,0:0:0:0:
166,384,165667,5,6,1:2:0:0:
49,242,165822,1,2,0:0:0:0:
120,203,165978,1,10,0:0:0:0:
245,71,166133,1,2,0:0:0:0:
182,0,166288,2,0,P|151:38|169:94,1,90,2|2,1:2|0:0,0:0:0:0:
322,275,166599,1,10,0:0:0:0:
227,311,166754,6,0,L|240:221,1,90,2|0,0:0|1:0,0:0:0:0:
417,60,167065,2,0,P|363:81|318:47,1,90,2|8,0:0|0:0,0:0:0:0:
487,216,167377,1,2,0:0:0:0:
487,216,167454,1,8,0:0:0:0:
487,216,167531,5,0,1:0:0:0:
320,341,167687,1,8,0:3:0:0:
405,384,167842,1,8,0:3:0:0:
335,190,167998,1,8,0:3:0:0:
177,328,168153,6,0,B|140:353|90:325|90:325|16:331|40:409|107:391|90:324|90:324|90:296|60:254,1,323.999990112305,6|8,1:2|0:0,0:0:0:0:
65,239,168853,1,8,0:0:0:0:
68,223,168930,1,8,0:3:0:0:
72,207,169008,1,8,0:3:0:0:
76,191,169086,1,8,0:3:0:0:
80,176,169163,1,8,0:3:0:0:
84,160,169241,5,10,0:0:0:0:
317,59,169552,1,10,0:0:0:0:
