osu file format v14

[General]
AudioFilename: audio.mp3
AudioLeadIn: 0
PreviewTime: 67195
Countdown: 0
SampleSet: Soft
StackLeniency: 0.5
Mode: 0
LetterboxInBreaks: 0
WidescreenStoryboard: 1

[Editor]
Bookmarks: 15200,34941,52350,67272,84682,99759,119500,140640,158050
DistanceSpacing: 0.3
BeatDivisor: 4
GridSize: 32
TimelineZoom: 2

[Metadata]
Title:RIOT
TitleUnicode:RIOT
Artist:KNOCK OUT MONKEY
ArtistUnicode:KNOCK OUT MONKEY
Creator:NeKroMan4ik
Version:NYMPHJINN'S INSANE
Source:
Tags:japanese rock jrock male vocals Mr. Foundation NexusQI airincat reform kujinn nymphe kiyoshi guarden
BeatmapID:3110329
BeatmapSetID:1286119

[Difficulty]
HPDrainRate:5
CircleSize:4
OverallDifficulty:8
ApproachRate:8.8
SliderMultiplier:1.74
SliderTickRate:1

[Events]
//Background and Video events
0,0,"bg.jpg",0,0
//Break Periods
2,119700,122136
//Storyboard Layer 0 (Background)
//Storyboard Layer 1 (Fail)
//Storyboard Layer 2 (Pass)
//Storyboard Layer 3 (Foreground)
//Storyboard Layer 4 (Overlay)
//Storyboard Sound Samples

[TimingPoints]
278,310.880829015544,4,2,1,50,1,0
278,-125,4,2,1,50,0,0
5096,-100,4,2,1,60,0,0
6650,-100,4,2,1,50,0,0
6806,-100,4,2,1,60,0,0
6961,-100,4,2,1,50,0,0
7039,-100,4,2,1,60,0,0
7972,-100,4,2,1,50,0,0
8050,-100,4,2,1,60,0,0
9448,-100,4,2,1,50,0,0
9526,-100,4,2,1,60,0,0
13722,-100,4,2,1,50,0,0
13801,-100,4,2,1,60,0,0
14500,-100,4,2,1,50,0,0
14578,-100,4,2,1,60,0,0
15200,-125,4,2,1,50,0,0
25148,-111.111111111111,4,2,1,45,0,0
29733,-111.111111111111,4,2,1,50,0,0
29811,-111.111111111111,4,2,1,45,0,0
30122,-99.9999999999999,4,2,1,60,0,0
30355,-99.9999999999999,4,2,1,5,0,0
30433,-99.9999999999999,4,2,1,60,0,0
33930,-99.9999999999999,4,2,1,50,0,0
34086,-99.9999999999999,4,2,1,60,0,0
34163,-99.9999999999999,4,2,1,50,0,0
34319,-99.9999999999999,4,2,1,60,0,0
34396,-99.9999999999999,4,2,1,50,0,0
34941,-90.9090909090909,4,2,1,70,0,0
35174,-90.9090909090909,4,2,1,5,0,0
35252,-90.9090909090909,4,2,1,70,0,0
35640,-90.9090909090909,4,2,1,50,0,0
35718,-90.9090909090909,4,2,1,70,0,0
37661,-90.9090909090909,4,2,1,5,0,0
37739,-90.9090909090909,4,2,1,70,0,0
38127,-90.9090909090909,4,2,1,50,0,0
38205,-90.9090909090909,4,2,1,70,0,0
42635,-90.9090909090909,4,2,1,5,0,0
42713,-90.9090909090909,4,2,1,70,0,0
43257,-90.9090909090909,4,2,1,5,0,0
43335,-90.9090909090909,4,2,1,70,0,0
43878,-90.9090909090909,4,2,1,50,0,0
43956,-90.9090909090909,4,2,1,70,0,0
45122,-90.9090909090909,4,2,1,5,0,0
45200,-90.9090909090909,4,2,1,70,0,0
45588,-90.9090909090909,4,2,1,50,0,0
45666,-90.9090909090909,4,2,1,70,0,0
47609,-90.9090909090909,4,2,1,5,0,0
47687,-90.9090909090909,4,2,1,70,0,0
48075,-90.9090909090909,4,2,1,50,0,0
48153,-90.9090909090909,4,2,1,70,0,0
51365,-90.9090909090909,4,2,1,5,0,0
51469,-90.9090909090909,4,2,1,70,0,0
51572,-90.9090909090909,4,2,1,5,0,0
51676,-90.9090909090909,4,2,1,70,0,0
51779,-90.9090909090909,4,2,1,5,0,0
51883,-90.9090909090909,4,2,1,70,0,0
51986,-90.9090909090909,4,2,1,5,0,0
52091,-90.9090909090909,4,2,1,70,0,0
52350,-100,4,2,1,60,0,0
52971,-100,4,2,1,50,0,0
53127,-100,4,2,1,60,0,0
53360,-100,4,2,1,50,0,0
53438,-100,4,2,1,60,0,0
53982,-100,4,2,1,50,0,0
54060,-100,4,2,1,60,0,0
57480,-111.111111111111,4,2,1,55,0,0
60200,-111.111111111111,4,2,1,50,0,0
60277,-111.111111111111,4,2,1,55,0,0
62143,-166.666666666666,4,2,1,55,0,0
62376,-166.666666666666,4,2,1,5,0,0
62454,-111.111111111111,4,2,1,55,0,0
64396,-111.111111111111,4,2,1,50,0,0
64474,-111.111111111111,4,2,1,55,0,0
65329,-111.111111111111,4,2,1,50,0,0
65407,-111.111111111111,4,2,1,55,0,0
65795,-111.111111111111,4,2,1,50,0,0
65873,-111.111111111111,4,2,1,55,0,0
66262,-111.111111111111,4,2,1,50,0,0
66340,-111.111111111111,4,2,1,55,0,0
67272,-90.9090909090908,4,2,1,70,0,0
67505,-90.9090909090908,4,2,1,5,0,0
67583,-90.9090909090908,4,2,1,70,0,0
67972,-90.9090909090908,4,2,1,50,0,0
68050,-90.9090909090908,4,2,1,70,0,0
69992,-90.9090909090908,4,2,1,5,0,0
70070,-90.9090909090908,4,2,1,70,0,0
70459,-90.9090909090908,4,2,1,50,0,0
70537,-90.9090909090908,4,2,1,70,0,0
73879,-90.9090909090908,4,2,1,50,0,0
73956,-90.9090909090908,4,2,1,70,0,0
74500,-90.9090909090908,4,2,1,50,0,0
74578,-90.9090909090908,4,2,1,70,0,0
74966,-90.9090909090908,4,2,1,5,0,0
75044,-90.9090909090908,4,2,1,70,0,0
75588,-90.9090909090908,4,2,1,5,0,0
75666,-90.9090909090908,4,2,1,70,0,0
76210,-90.9090909090908,4,2,1,50,0,0
76288,-90.9090909090908,4,2,1,70,0,0
77454,-90.9090909090908,4,2,1,5,0,0
77531,-90.9090909090908,4,2,1,70,0,0
77920,-90.9090909090908,4,2,1,50,0,0
77998,-90.9090909090908,4,2,1,70,0,0
79941,-90.9090909090908,4,2,1,5,0,0
80018,-90.9090909090908,4,2,1,70,0,0
80407,-90.9090909090908,4,2,1,50,0,0
80485,-90.9090909090908,4,2,1,70,0,0
83516,-90.9090909090908,4,2,1,50,0,0
83594,-90.9090909090908,4,2,1,70,0,0
84137,-90.9090909090908,4,2,1,5,0,0
84371,-90.9090909090908,4,2,1,70,0,0
84448,-90.9090909090908,4,2,1,5,0,0
84682,-200,4,2,1,70,0,0
84759,-200,4,2,1,45,0,0
85459,-200,4,2,1,50,0,0
86081,-200,4,2,1,45,0,0
87169,-125,4,2,1,50,0,0
89656,-100,4,2,1,55,0,0
94785,-100,4,2,1,50,0,0
96029,-142.857142857143,4,2,1,50,0,0
98516,-125,4,2,1,50,0,0
99759,-111.111111111111,4,2,1,50,0,0
104733,-99.9999999999999,4,2,1,60,0,0
104967,-99.9999999999999,4,2,1,50,0,0
105044,-99.9999999999999,4,2,1,60,0,0
107065,-99.9999999999999,4,2,1,50,0,0
107221,-99.9999999999999,4,2,1,60,0,0
107454,-99.9999999999999,4,2,1,50,0,0
107531,-99.9999999999999,4,2,1,60,0,0
109474,-99.9999999999999,4,2,1,50,0,0
109552,-99.9999999999999,4,2,1,60,0,0
109708,-99.9999999999999,4,2,1,70,0,0
114682,-99.9999999999999,4,2,1,65,0,0
119500,-99.9999999999999,4,2,1,50,0,0
123231,-90.9090909090909,4,2,1,70,0,0
123464,-90.9090909090909,4,2,1,5,0,0
123542,-90.9090909090909,4,2,1,70,0,0
123930,-90.9090909090909,4,2,1,50,0,0
124008,-90.9090909090909,4,2,1,70,0,0
125951,-90.9090909090909,4,2,1,5,0,0
126029,-90.9090909090909,4,2,1,70,0,0
126417,-90.9090909090909,4,2,1,50,0,0
126495,-90.9090909090909,4,2,1,70,0,0
130458,-90.9090909090909,4,2,1,50,0,0
130536,-90.9090909090909,4,2,1,70,0,0
130925,-90.9090909090909,4,2,1,5,0,0
131003,-90.9090909090909,4,2,1,70,0,0
131547,-90.9090909090909,4,2,1,5,0,0
131625,-90.9090909090909,4,2,1,70,0,0
132169,-90.9090909090909,4,2,1,50,0,0
132246,-90.9090909090909,4,2,1,70,0,0
133412,-90.9090909090909,4,2,1,5,0,0
133490,-90.9090909090909,4,2,1,70,0,0
133879,-90.9090909090909,4,2,1,50,0,0
133956,-90.9090909090909,4,2,1,70,0,0
135899,-90.9090909090909,4,2,1,5,0,0
135977,-90.9090909090909,4,2,1,70,0,0
136366,-90.9090909090909,4,2,1,50,0,0
136443,-90.9090909090909,4,2,1,70,0,0
139655,-90.9090909090909,4,2,1,5,0,0
139759,-90.9090909090909,4,2,1,70,0,0
139862,-90.9090909090909,4,2,1,5,0,0
139967,-90.9090909090909,4,2,1,70,0,0
140070,-90.9090909090909,4,2,1,5,0,0
140174,-90.9090909090909,4,2,1,70,0,0
140277,-90.9090909090909,4,2,1,5,0,0
140381,-90.9090909090909,4,2,1,70,0,0
140640,-333.333333333333,4,2,1,60,0,0
141107,-90.9090909090909,4,2,1,70,0,0
143360,-90.9090909090909,4,2,1,5,0,0
143438,-90.9090909090909,4,2,1,70,0,0
143827,-90.9090909090909,4,2,1,50,0,0
143904,-90.9090909090909,4,2,1,70,0,0
148334,-90.9090909090909,4,2,1,5,0,0
148412,-90.9090909090909,4,2,1,70,0,0
148956,-90.9090909090909,4,2,1,5,0,0
149034,-90.9090909090909,4,2,1,70,0,0
150821,-90.9090909090909,4,2,1,5,0,0
150899,-90.9090909090909,4,2,1,70,0,0
151288,-90.9090909090909,4,2,1,50,0,0
151366,-90.9090909090909,4,2,1,70,0,0
153308,-90.9090909090909,4,2,1,5,0,0
153386,-90.9090909090909,4,2,1,70,0,0
157064,-90.9090909090909,4,2,1,5,0,0
157169,-90.9090909090909,4,2,1,70,0,0
157272,-90.9090909090909,4,2,1,5,0,0
157376,-90.9090909090909,4,2,1,70,0,0
157479,-90.9090909090909,4,2,1,5,0,0
157584,-90.9090909090909,4,2,1,70,0,0
157687,-90.9090909090909,4,2,1,5,0,0
157790,-90.9090909090909,4,2,1,70,0,0
158050,-100,4,2,1,60,0,0
159681,-100,4,2,1,50,0,0
159759,-100,4,2,1,60,0,0
160925,-100,4,2,1,50,0,0
161003,-100,4,2,1,60,0,0
162169,-100,4,2,1,50,0,0
162246,-100,4,2,1,60,0,0
163412,-100,4,2,1,5,0,0
163490,-100,4,2,1,60,0,0
164656,-100,4,2,1,50,0,0
164733,-100,4,2,1,60,0,0
165899,-100,4,2,1,50,0,0
165977,-100,4,2,1,60,0,0
167143,-100,4,2,1,50,0,0
167221,-100,4,2,1,60,0,0
168619,-100,4,2,1,50,0,0
168775,-100,4,2,1,60,0,0
169396,-100,4,2,1,50,0,0
169552,-100,4,2,1,60,0,0
169707,-100,4,2,1,50,0,0

[Colours]
Combo1 : 172,81,81
Combo2 : 240,0,0
Combo3 : 222,197,158
Combo4 : 97,112,124

[HitObjects]
73,263,278,6,0,P|68:224|38:201,2,69.6,6|0|0,1:2|0:0|3:0,0:0:0:0:
18,338,744,2,0,P|91:347|166:390,1,139.2
224,342,1210,2,0,P|229:301|239:259,1,69.6,0|0,3:0|0:0,0:0:0:0:
343,176,1521,5,0,0:0:0:0:
332,159,1676,2,0,B|291:134|256:163|274:182|232:210|192:180,1,139.2
128,143,2143,5,8,0:3:0:0:
124,124,2298,1,8,0:3:0:0:
53,71,2454,5,8,0:3:0:0:
57,52,2609,1,8,0:3:0:0:
129,6,2765,6,0,P|170:20|210:29,2,69.6,6|0|0,1:2|0:0|3:0,0:0:0:0:
223,104,3231,2,0,P|283:73|378:67,1,139.2
448,22,3697,2,0,P|441:69|438:104,1,69.6,0|0,3:0|0:0,0:0:0:0:
489,229,4008,5,8,0:0:0:0:
474,222,4086,1,8,0:3:0:0:
461,216,4164,1,8,0:3:0:0:
448,209,4241,1,8,0:3:0:0:
436,201,4319,2,0,L|448:152,3,34.8,8|8|8|8,0:3|0:3|0:3|0:3,0:0:0:0:
405,297,4630,5,8,0:0:0:0:
319,236,4785,1,2,1:2:0:0:
319,236,5096,6,0,B|266:197|221:236|247:262|199:302|152:264,1,174,6|2,1:2|0:0,0:0:0:0:
205,61,5562,2,0,P|214:118|222:165,1,87,10|0,0:0|0:0,0:0:0:0:
49,287,5873,2,0,P|56:244|62:201,1,87,2|0,1:2|0:0,0:0:0:0:
84,48,6184,1,10,0:0:0:0:
27,108,6340,1,2,0:0:0:0:
133,164,6495,6,0,P|180:151|237:146,1,87,0|0,1:0|0:0,0:0:0:0:
349,13,6806,2,0,P|324:50|346:109,1,87,8|0,0:0|0:0,0:0:0:0:
386,141,7039,1,8,0:0:0:0:
395,152,7117,2,0,P|420:189|398:248,1,87,2|0,1:2|0:0,0:0:0:0:
334,357,7428,2,0,P|380:352|430:347,1,87,8|2,0:0|0:0,0:0:0:0:
252,258,7739,6,0,P|185:261|110:289,1,130.5,2|0,1:2|0:0,0:0:0:0:
87,306,8050,2,0,P|61:265|77:224,1,87,10|0,0:0|0:0,0:0:0:0:
129,64,8360,2,0,P|85:54|22:46,1,87,2|0,1:2|0:0,0:0:0:0:
170,164,8671,1,10,0:0:0:0:
224,91,8827,1,2,0:0:0:0:
58,144,8982,6,0,P|66:198|73:254,1,87,0|2,1:2|0:0,0:0:0:0:
173,347,9293,2,0,P|216:320|265:336,1,87,10|0,0:0|0:0,0:0:0:0:
325,342,9526,1,8,0:0:0:0:
334,353,9604,2,0,P|377:380|426:364,1,87,0|0,1:2|0:0,0:0:0:0:
463,186,9915,2,0,P|453:235|445:283,1,87,8|0,0:0|0:0,0:0:0:0:
311,129,10226,6,0,P|351:61|435:86,1,174,6|10,1:2|0:0,0:0:0:0:
335,252,10692,1,0,0:0:0:0:
335,252,10847,2,0,P|279:242|218:229,1,87,2|2,1:2|0:0,0:0:0:0:
96,309,11158,1,10,0:0:0:0:
167,361,11314,1,2,0:0:0:0:
153,227,11469,6,0,P|161:179|166:135,1,87,0|0,1:0|0:0,0:0:0:0:
85,4,11780,2,0,P|123:34|182:26,1,87,8|0,0:0|0:0,0:0:0:0:
229,5,12013,1,8,0:0:0:0:
242,0,12091,2,0,P|285:9|340:18,1,87,2|0,1:2|0:0,0:0:0:0:
425,123,12402,2,0,P|382:132|327:141,1,87,8|2,0:0|0:0,0:0:0:0:
295,310,12713,5,6,1:2:0:0:
359,241,12868,1,0,0:0:0:0:
249,140,13024,2,0,P|232:183|252:225,1,87,10|0,0:0|0:0,0:0:0:0:
394,342,13334,2,0,P|345:329|298:324,1,87,2|2,1:2|0:0,0:0:0:0:
150,300,13645,2,0,P|151:273|171:254,1,43.5,10|0,0:0|0:0,0:0:0:0:
222,351,13801,6,0,B|176:306|121:343|141:367|92:397|48:354,1,174,2|2,0:0|0:0,0:0:0:0:
0,247,14267,2,0,P|24:194|26:123,1,130.5,10|0,0:0|0:0,0:0:0:0:
0,44,14578,5,8,0:0:0:0:
0,24,14656,2,0,B|47:30|47:30|45:33|45:33|83:37,1,87,8|8,0:0|0:0,0:0:0:0:
190,17,14889,1,8,0:0:0:0:
185,32,14967,1,8,0:0:0:0:
183,47,15045,1,8,0:0:0:0:
180,62,15122,1,8,0:0:0:0:
177,78,15200,5,6,1:2:0:0:
239,137,15355,1,2,1:2:0:0:
150,236,15511,5,8,0:0:0:0:
136,238,15822,5,8,0:0:0:0:
123,240,16132,5,8,0:0:0:0:
226,354,16443,5,2,1:2:0:0:
275,288,16599,1,0,1:2:0:0:
222,197,16754,5,8,0:0:0:0:
220,183,17065,5,8,0:0:0:0:
218,170,17375,5,8,0:0:0:0:
320,42,17687,6,0,P|346:70|390:70,1,69.6,14|10,0:0|0:0,0:0:0:0:
451,36,17920,1,8,0:0:0:0:
458,31,17998,2,0,L|467:81,3,34.8,8|8|8|8,0:3|0:3|0:3|0:3,0:0:0:0:
497,143,18309,2,0,L|487:190,3,34.8,8|8|8|8,0:0|0:0|0:0|0:0,0:0:0:0:
428,235,18619,5,8,0:0:0:0:
430,247,18697,1,8,0:0:0:0:
432,259,18775,1,8,0:0:0:0:
435,271,18853,1,8,0:0:0:0:
437,283,18930,5,6,1:2:0:0:
365,350,19086,1,2,1:2:0:0:
103,186,19863,5,4,0:3:0:0:
103,186,20174,6,0,P|93:140|82:93,1,69.6,6|2,1:2|1:2,0:0:0:0:
152,13,20485,2,0,P|177:51|243:49,1,104.4,10|8,0:0|0:0,0:0:0:0:
251,33,20796,2,0,P|286:18|328:32,1,69.6,2|2,1:2|1:2,0:0:0:0:
377,100,21107,2,0,P|367:143|357:193,1,69.6,10|2,0:0|0:0,0:0:0:0:
281,220,21417,5,2,1:2:0:0:
339,301,21573,2,0,P|379:313|430:329,1,69.6,2|8,1:2|0:0,0:0:0:0:
284,361,21884,2,0,P|257:311|267:269,1,69.6,2|2,0:0|1:2,0:0:0:0:
118,220,22195,2,0,P|174:221|206:251,1,69.6,2|8,1:2|0:0,0:0:0:0:
279,157,22505,1,2,0:0:0:0:
181,64,22661,5,2,1:2:0:0:
261,26,22816,1,2,1:2:0:0:
168,82,22972,2,0,P|121:71|48:56,1,104.4,8|8,0:0|0:0,0:0:0:0:
6,100,23283,2,0,L|18:152,3,34.8,8|8|8|8,0:3|0:3|0:3|0:3,0:0:0:0:
65,190,23594,2,0,L|53:242,3,34.8,8|8|8|8,0:0|0:0|0:0|0:0,0:0:0:0:
25,296,23904,5,2,1:2:0:0:
180,232,24060,1,2,1:2:0:0:
400,307,24371,5,2,0:0:0:0:
400,307,24448,1,0,0:0:0:0:
400,307,24526,2,0,P|423:275|418:237,1,69.6,2|2,0:0|0:0,0:0:0:0:
343,221,24837,2,0,P|320:253|325:291,1,69.6,2|2,0:0|0:0,0:0:0:0:
236,349,25148,6,0,P|192:360|145:378,1,78.2999976104737,4|0,1:2|1:2,0:0:0:0:
81,326,25459,2,0,P|71:276|56:224,1,78.2999976104737,2|2,1:2|1:2,0:0:0:0:
104,180,25770,1,10,0:0:0:0:
113,185,25925,1,2,1:2:0:0:
32,110,26081,1,2,0:0:0:0:
23,115,26236,1,2,1:2:0:0:
110,30,26391,5,2,0:0:0:0:
114,39,26547,2,0,P|140:71|191:70,1,78.2999976104737,8|0,0:0|1:2,0:0:0:0:
308,7,26858,2,0,P|267:13|242:58,1,78.2999976104737,2|8,1:2|0:0,0:0:0:0:
244,126,27169,1,2,1:2:0:0:
253,132,27324,2,0,P|242:178|229:236,1,78.2999976104737,2|0,1:2|0:0,0:0:0:0:
150,318,27635,6,0,P|200:331|243:349,1,78.2999976104737,6|8,1:2|0:0,0:0:0:0:
369,303,27946,2,0,P|319:290|276:272,1,78.2999976104737,2|2,1:2|1:2,0:0:0:0:
393,380,28257,2,0,P|406:333|424:282,2,78.2999976104737,10|2|2,0:0|0:0|1:2,0:0:0:0:
312,298,28723,1,2,1:2:0:0:
405,215,28879,5,2,0:0:0:0:
405,207,29034,2,0,P|449:194|498:185,1,78.2999976104737,8|0,0:0|1:2,0:0:0:0:
512,64,29345,2,0,P|468:77|419:86,1,78.2999976104737,2|8,1:2|0:0,0:0:0:0:
353,132,29656,1,2,1:2:0:0:
353,132,29733,1,0,0:0:0:0:
353,132,29811,2,0,P|340:86|321:35,1,78.2999976104737,10|0,0:0|1:0,0:0:0:0:
215,24,30044,1,0,1:0:0:0:
207,18,30122,6,0,P|163:10|117:98,1,130.5,12|0,0:0|0:0,0:0:0:0:
126,98,30433,2,0,P|83:106|36:125,1,87,8|8,0:0|0:0,0:0:0:0:
197,202,30744,2,0,P|237:217|280:225,1,87,8|8,0:0|0:0,0:0:0:0:
105,288,31055,1,8,0:0:0:0:
96,301,31210,1,8,0:0:0:0:
130,169,31366,5,8,0:0:0:0:
192,297,31522,1,8,0:0:0:0:
219,120,31676,2,0,P|258:102|300:88,1,87,8|8,0:0|0:0,0:0:0:0:
133,62,31987,5,8,0:0:0:0:
206,232,32143,1,8,0:0:0:0:
300,88,32298,2,0,P|282:33|269:-11,1,87,8|8,0:0|0:0,0:0:0:0:
219,120,32609,5,14,0:0:0:0:
320,239,32765,2,0,L|370:252,2,43.5,8|8|0,0:3|0:3|1:0,0:0:0:0:
195,208,33075,5,14,0:0:0:0:
294,321,33231,2,0,L|344:334,2,43.5,8|8|0,0:3|0:3|1:0,0:0:0:0:
173,293,33542,5,12,0:0:0:0:
95,371,33697,1,0,1:0:0:0:
95,371,33775,1,0,1:0:0:0:
95,371,33853,2,0,L|44:383,1,43.5,10|0,0:0|0:0,0:0:0:0:
105,236,34086,6,0,L|69:197,1,43.5,10|0,0:0|0:0,0:0:0:0:
212,162,34319,6,0,L|227:111,1,43.5,10|0,0:0|0:0,0:0:0:0:
290,261,34630,5,0,0:0:0:0:
290,261,34941,6,0,P|322:315|404:307,1,143.550004380798,6|0,1:2|0:0,0:0:0:0:
410,295,35252,2,0,P|446:285|498:332,1,95.7000029205323,0|8,1:0|0:0,0:0:0:0:
348,188,35562,1,2,0:0:0:0:
348,188,35640,1,0,0:0:0:0:
348,188,35718,2,0,P|361:136|386:65,1,95.7000029205323,2|2,1:2|1:2,0:0:0:0:
337,13,36029,1,10,0:0:0:0:
328,6,36184,1,2,0:0:0:0:
453,110,36340,5,2,1:2:0:0:
330,195,36495,2,0,P|294:205|237:160,1,95.7000029205323,2|8,1:2|0:0,0:0:0:0:
135,70,36806,1,8,0:0:0:0:
135,70,36884,1,8,0:0:0:0:
135,70,36961,2,0,P|161:96|151:168,1,95.7000029205323,0|0,1:2|1:2,0:0:0:0:
103,222,37272,1,8,0:0:0:0:
229,360,37428,6,0,P|187:313|117:338,1,143.550004380798,6|0,1:2|0:0,0:0:0:0:
112,352,37739,2,0,P|74:381|28:370,1,95.7000029205323,0|8,1:0|0:0,0:0:0:0:
190,211,38050,1,2,0:0:0:0:
190,211,38127,1,0,0:0:0:0:
190,211,38205,2,0,P|249:223|314:233,1,95.7000029205323,2|2,1:2|1:2,0:0:0:0:
117,27,38516,2,0,P|91:65|107:127,1,95.7000029205323,10|2,0:0|0:0,0:0:0:0:
190,94,38827,5,2,1:2:0:0:
71,233,38982,2,0,P|14:220|-32:215,1,95.7000029205323,2|8,1:2|0:0,0:0:0:0:
252,174,39293,1,8,0:0:0:0:
252,174,39371,1,8,0:0:0:0:
252,174,39448,2,0,P|238:232|223:300,1,95.7000029205323,0|0,1:2|1:2,0:0:0:0:
275,357,39759,1,8,0:0:0:0:
168,113,39915,6,0,B|215:85|266:120|233:147|298:187|352:138,1,191.400005841065,6|2,1:2|1:2,0:0:0:0:
413,65,40381,1,10,0:0:0:0:
399,56,40537,1,0,1:2:0:0:
455,228,40692,2,0,P|471:173|491:106,1,95.7000029205323,10|0,0:0|1:2,0:0:0:0:
361,189,41003,1,8,0:0:0:0:
484,345,41158,6,0,B|451:295|391:326|391:326|374:380|315:369,1,191.400005841065,6|0,1:2|1:2,0:0:0:0:
261,351,41547,1,0,1:0:0:0:
252,344,41625,2,0,P|239:296|270:251,1,95.7000029205323,10|0,0:0|1:2,0:0:0:0:
278,246,41858,1,0,1:2:0:0:
288,239,41936,1,10,0:0:0:0:
189,117,42091,2,0,P|158:107|116:100,2,47.8500014602662,0|0|8,1:2|1:2|0:0,0:0:0:0:
353,22,42402,6,0,P|362:88|381:187,1,143.550004380798,6|0,1:2|0:0,0:0:0:0:
395,188,42713,1,2,1:2:0:0:
345,255,42868,1,8,0:0:0:0:
460,322,43024,6,0,P|394:331|295:350,1,143.550004380798,6|0,1:2|0:0,0:0:0:0:
294,364,43335,1,2,1:2:0:0:
227,314,43490,1,8,0:0:0:0:
134,384,43645,6,0,P|125:318|106:219,1,143.550004380798,6|0,1:2|0:0,0:0:0:0:
92,218,43956,1,8,0:0:0:0:
92,218,44034,1,8,0:0:0:0:
92,218,44112,2,0,P|85:178|81:147,3,47.8500014602662,8|8|8|8,0:0|0:0|0:0|0:0,0:0:0:0:
141,119,44423,1,6,1:2:0:0:
32,45,44578,5,8,0:0:0:0:
46,41,44656,1,8,0:0:0:0:
59,38,44733,1,8,0:0:0:0:
73,35,44811,1,8,0:0:0:0:
87,32,44889,6,0,P|117:90|203:72,1,143.550004380798,6|0,1:2|0:0,0:0:0:0:
202,62,45200,2,0,P|241:53|287:109,1,95.7000029205323,0|8,1:0|0:0,0:0:0:0:
312,182,45511,1,2,0:0:0:0:
312,182,45588,1,0,0:0:0:0:
312,182,45666,2,0,P|303:237|290:310,1,95.7000029205323,2|2,1:2|1:2,0:0:0:0:
225,328,45977,1,10,0:0:0:0:
212,333,46132,1,2,0:0:0:0:
365,297,46288,5,2,1:2:0:0:
234,181,46443,2,0,P|221:137|249:91,1,95.7000029205323,2|8,1:2|0:0,0:0:0:0:
392,22,46754,1,8,0:0:0:0:
392,22,46832,1,8,0:0:0:0:
392,22,46910,2,0,P|360:55|306:54,1,95.7000029205323,0|0,1:2|1:2,0:0:0:0:
215,3,47221,1,8,0:0:0:0:
89,85,47376,6,0,B|101:156|101:156|109:166|109:166|121:245,1,143.550004380798,6|0,1:2|0:0,0:0:0:0:
113,247,47687,2,0,P|82:282|23:274,1,95.7000029205323,0|8,1:0|0:0,0:0:0:0:
195,169,47998,1,2,0:0:0:0:
195,169,48075,1,0,0:0:0:0:
195,169,48153,2,0,P|251:183|306:201,1,95.7000029205323,2|2,1:2|1:2,0:0:0:0:
342,270,48464,1,10,0:0:0:0:
349,287,48619,1,2,0:0:0:0:
397,150,48775,5,2,1:2:0:0:
272,211,48930,2,0,P|244:250|259:309,1,95.7000029205323,2|8,1:2|0:0,0:0:0:0:
397,375,49241,1,8,0:0:0:0:
397,375,49319,1,8,0:0:0:0:
397,375,49397,2,0,B|354:369|354:369|347:372|347:372|275:361,1,95.7000029205323,0|0,1:2|1:2,0:0:0:0:
425,256,49708,1,8,0:0:0:0:
264,69,49863,6,0,P|291:130|417:116,1,191.400005841065,6|2,1:2|1:2,0:0:0:0:
467,34,50329,1,10,0:0:0:0:
491,25,50485,1,0,1:2:0:0:
404,140,50640,2,0,P|358:130|286:114,1,95.7000029205323,10|0,0:0|1:2,0:0:0:0:
450,278,50951,1,8,0:0:0:0:
472,268,51107,1,0,1:0:0:0:
312,354,51262,6,0,L|325:287,1,63.8000019470215,10|0,0:0|0:0,0:0:0:0:
312,228,51469,2,0,L|324:290,1,63.8000019470215,10|0,0:0|0:0,0:0:0:0:
228,340,51676,6,0,L|241:273,1,63.8000019470215,10|0,0:0|0:0,0:0:0:0:
228,214,51883,2,0,L|240:276,1,63.8000019470215,10|0,0:0|0:0,0:0:0:0:
137,325,52091,5,10,0:0:0:0:
7,118,52350,6,0,B|31:77|84:104|84:104|101:158|160:147,1,174,6|2,1:2|0:0,0:0:0:0:
270,81,52816,2,0,P|278:30|237:1,1,87,10|0,0:0|0:0,0:0:0:0:
228,214,53127,2,0,P|282:196|376:181,1,130.5,2|0,1:2|0:0,0:0:0:0:
387,169,53438,2,0,P|411:202|400:243,1,87,10|2,0:0|0:0,0:0:0:0:
461,367,53749,6,0,B|411:362|411:362|409:364|409:364|333:355,1,130.5,0|0,1:2|0:0,0:0:0:0:
311,368,54060,1,10,0:0:0:0:
113,362,54293,1,8,0:0:0:0:
123,376,54371,2,0,P|115:319|110:280,1,87,2|0,1:2|0:0,0:0:0:0:
21,212,54682,2,0,P|15:255|9:298,1,87,10|0,0:0|0:0,0:0:0:0:
204,98,54993,6,0,B|137:76|137:76|62:105|98:168,1,174,0|10,1:2|0:0,0:0:0:0:
272,220,55459,1,0,0:0:0:0:
329,132,55614,2,0,P|321:81|316:40,1,87,2|2,1:2|0:0,0:0:0:0:
181,191,55925,2,0,P|175:234|168:277,1,87,10|2,0:0|0:0,0:0:0:0:
268,363,56236,5,8,0:0:0:0:
268,363,56314,1,8,0:3:0:0:
268,363,56391,2,0,L|325:350,3,43.5,8|8|0|0,0:0|0:3|1:0|1:0,0:0:0:0:
369,278,56702,2,0,L|411:287,1,43.5,8|8,0:0|0:3,0:0:0:0:
465,362,56858,2,0,L|507:352,3,43.5,8|8|0|0,0:0|0:3|1:0|1:0,0:0:0:0:
487,232,57169,2,0,L|507:137,1,87,10|0,0:0|1:0,0:0:0:0:
496,45,57402,1,0,1:0:0:0:
489,35,57480,6,0,P|446:30|403:26,1,78.2999976104737,12|0,0:0|0:0,0:0:0:0:
337,110,57790,2,0,P|298:113|259:118,1,78.2999976104737,10|2,0:0|0:0,0:0:0:0:
176,67,58101,1,10,0:0:0:0:
191,57,58257,1,2,1:2:0:0:
70,150,58412,1,10,0:0:0:0:
55,140,58568,1,2,1:2:0:0:
151,198,58723,5,8,0:0:0:0:
153,209,58801,1,8,0:3:0:0:
155,220,58879,1,8,0:3:0:0:
156,231,58956,1,8,0:3:0:0:
157,243,59034,2,0,L|103:253,3,39.1499988052369,8|8|8|8,0:3|0:3|0:3|0:3,0:0:0:0:
222,184,59345,2,0,L|260:191,3,39.1499988052369,8|8|8|8,0:0|0:3|0:3|0:3,0:0:0:0:
262,311,59656,2,0,L|308:300,1,39.1499988052369,8|8,0:3|0:3,0:0:0:0:
366,256,59811,2,0,L|404:265,1,39.1499988052369,0|0,1:0|1:3,0:0:0:0:
443,339,59967,6,0,P|435:270|428:209,1,117.449996415711,14|0,0:0|0:0,0:0:0:0:
434,186,60277,2,0,P|396:165|349:187,1,78.2999976104737,10|0,0:0|1:0,0:0:0:0:
261,221,60588,2,0,P|265:179|269:142,1,78.2999976104737,10|0,0:0|1:2,0:0:0:0:
309,43,60899,1,10,0:0:0:0:
326,52,61055,1,2,0:0:0:0:
194,113,61210,5,10,0:0:0:0:
73,174,61366,1,10,0:0:0:0:
73,174,62143,2,0,P|112:191|121:242,1,78.2999976104737,4|0,0:3|0:0,0:0:0:0:
118,267,62454,6,0,P|164:261|218:256,1,78.2999976104737,6|2,1:2|1:2,0:0:0:0:
230,337,62765,2,0,P|268:341|307:346,1,78.2999976104737,10|8,0:0|0:0,0:0:0:0:
334,364,62998,1,8,0:0:0:0:
334,364,63075,1,2,1:2:0:0:
382,282,63231,1,2,1:2:0:0:
456,354,63386,1,10,0:0:0:0:
476,363,63542,1,2,0:0:0:0:
469,221,63697,5,2,1:2:0:0:
466,236,63853,2,0,P|490:197|470:158,1,78.2999976104737,2|8,1:2|0:0,0:0:0:0:
360,101,64164,1,8,0:0:0:0:
360,101,64241,1,8,0:0:0:0:
360,101,64319,2,0,L|373:173,3,39.1499988052369,2|0|10|8,1:2|0:0|0:2|0:2,0:0:0:0:
254,72,64630,2,0,L|244:9,3,39.1499988052369,8|8|8|8,0:0|0:0|0:0|0:0,0:0:0:0:
183,171,64941,5,6,1:2:0:0:
183,171,65018,1,8,0:0:0:0:
183,171,65096,2,0,L|123:183,3,39.1499988052369,8|8|8|0,0:0|0:0|0:0|0:0,0:0:0:0:
292,227,65407,5,6,1:2:0:0:
292,227,65484,1,8,0:0:0:0:
292,227,65562,2,0,L|352:239,3,39.1499988052369,8|8|8|0,0:0|0:0|0:0|0:0,0:0:0:0:
177,284,65873,5,6,1:2:0:0:
177,284,65950,1,8,0:0:0:0:
177,284,66029,2,0,L|117:296,3,39.1499988052369,8|8|8|0,0:0|0:0|0:0|0:0,0:0:0:0:
264,340,66340,5,2,1:2:0:0:
17,105,67272,6,0,P|46:53|123:60,1,143.550004380798,6|0,1:2|0:0,0:0:0:0:
140,83,67583,2,0,P|173:116|225:108,1,95.7000029205323,0|8,1:0|0:0,0:0:0:0:
316,16,67894,1,2,0:0:0:0:
316,16,67972,1,0,0:0:0:0:
316,16,68050,2,0,P|321:71|328:133,1,95.7000029205323,2|2,1:2|1:2,0:0:0:0:
275,212,68360,1,10,0:0:0:0:
261,207,68516,1,2,0:0:0:0:
398,241,68671,5,2,1:2:0:0:
330,321,68827,2,0,P|289:345|233:328,1,95.7000029205323,2|8,1:2|0:0,0:0:0:0:
93,358,69138,1,8,0:0:0:0:
93,358,69215,1,8,0:0:0:0:
93,358,69293,2,0,P|103:303|111:252,1,95.7000029205323,0|0,1:2|1:2,0:0:0:0:
35,166,69604,1,8,0:0:0:0:
165,80,69759,6,0,B|206:54|243:87|226:103|250:132|301:115,1,143.550004380798,6|0,1:2|0:0,0:0:0:0:
310,136,70070,2,0,P|343:95|325:44,1,95.7000029205323,0|8,1:0|0:0,0:0:0:0:
272,241,70381,1,2,0:0:0:0:
272,241,70459,1,0,0:0:0:0:
272,241,70537,2,0,P|324:227|385:215,1,95.7000029205323,2|2,1:2|1:2,0:0:0:0:
450,147,70847,1,10,0:0:0:0:
456,132,71003,1,2,0:0:0:0:
473,279,71158,5,2,1:2:0:0:
367,384,71314,2,0,P|336:345|348:303,1,95.7000029205323,2|8,1:2|0:0,0:0:0:0:
315,156,71625,1,8,0:0:0:0:
315,156,71702,1,8,0:0:0:0:
315,156,71780,2,0,P|325:110|295:76,1,95.7000029205323,0|0,1:2|1:2,0:0:0:0:
223,21,72091,1,8,0:0:0:0:
50,171,72246,6,0,B|91:139|138:192|138:192|145:122|212:130,1,191.400005841065,6|2,1:2|1:2,0:0:0:0:
245,190,72635,1,0,1:2:0:0:
256,198,72713,2,0,P|247:250|237:309,1,95.7000029205323,10|0,0:0|1:2,0:0:0:0:
258,323,72946,1,0,1:2:0:0:
258,323,73024,1,10,0:0:0:0:
375,364,73179,2,0,P|350:382|313:381,2,47.8500014602662,0|0|8,1:2|1:2|0:0,0:0:0:0:
463,279,73490,6,0,B|501:234|464:183|436:213|384:164|421:106,1,191.400005841065,6|0,1:2|1:2,0:0:0:0:
468,57,73879,1,0,0:0:0:0:
478,47,73956,2,0,P|426:36|365:27,1,95.7000029205323,10|0,0:0|1:2,0:0:0:0:
358,17,74189,1,0,1:2:0:0:
358,17,74267,1,10,0:0:0:0:
327,176,74423,2,0,P|336:205|345:243,2,47.8500014602662,0|0|8,1:2|0:0|0:0,0:0:0:0:
193,26,74733,6,0,B|126:21|126:21|121:24|121:24|50:18,1,143.550004380798,6|0,1:2|0:0,0:0:0:0:
29,0,75044,1,2,1:2:0:0:
138,95,75200,1,8,0:0:0:0:
31,250,75355,6,0,P|-6:193|32:123,1,143.550004380798,6|0,1:2|0:0,0:0:0:0:
41,117,75666,1,2,1:2:0:0:
152,207,75822,1,8,0:0:0:0:
14,353,75977,6,0,P|83:338|184:321,1,143.550004380798,6|0,1:2|0:0,0:0:0:0:
236,356,76288,1,8,0:0:0:0:
236,356,76366,1,8,0:0:0:0:
236,356,76443,2,0,L|241:286,3,47.8500014602662,8|8|8|8,0:0|0:0|0:0|0:0,0:0:0:0:
227,235,76754,1,6,1:2:0:0:
361,323,76910,5,8,0:0:0:0:
379,322,76987,1,8,0:0:0:0:
397,315,77065,1,8,0:0:0:0:
410,305,77143,1,8,0:0:0:0:
421,296,77221,6,0,P|440:232|381:181,1,143.550004380798,6|0,1:2|0:0,0:0:0:0:
366,188,77531,2,0,P|329:146|342:104,1,95.7000029205323,0|8,1:0|0:0,0:0:0:0:
420,22,77842,1,2,0:0:0:0:
420,22,77920,1,0,0:0:0:0:
420,22,77998,2,0,P|358:13|298:0,1,95.7000029205323,2|2,1:2|1:2,0:0:0:0:
229,57,78309,1,10,0:0:0:0:
245,63,78464,1,2,0:0:0:0:
164,164,78619,5,2,1:2:0:0:
87,92,78774,2,0,P|71:45|97:-5,1,95.7000029205323,2|8,1:2|0:0,0:0:0:0:
258,146,79086,1,8,0:0:0:0:
258,146,79164,1,8,0:0:0:0:
258,146,79241,2,0,P|248:198|236:252,1,95.7000029205323,0|0,1:2|1:2,0:0:0:0:
180,302,79552,1,8,0:0:0:0:
295,378,79708,6,0,P|356:358|442:347,1,143.550004380798,6|0,1:2|0:0,0:0:0:0:
461,364,80018,2,0,P|493:325|477:277,1,95.7000029205323,0|8,1:0|0:0,0:0:0:0:
360,226,80329,1,2,0:0:0:0:
360,226,80407,1,0,0:0:0:0:
360,226,80485,2,0,P|365:170|373:119,1,95.7000029205323,2|2,1:2|1:2,0:0:0:0:
442,60,80796,1,10,0:0:0:0:
449,73,80951,1,2,0:0:0:0:
278,147,81107,5,2,1:2:0:0:
304,31,81262,2,0,P|345:5|409:27,1,95.7000029205323,2|8,1:2|0:0,0:0:0:0:
191,91,81573,1,8,0:0:0:0:
191,91,81651,1,8,0:0:0:0:
191,91,81728,2,0,P|133:80|85:75,1,95.7000029205323,0|0,1:2|1:2,0:0:0:0:
28,7,82039,1,8,0:0:0:0:
0,217,82195,6,0,B|33:167|93:198|93:198|110:252|169:241,1,191.400005841065,6|2,1:2|1:2,0:0:0:0:
249,189,82661,1,10,0:0:0:0:
229,176,82816,1,0,1:2:0:0:
306,348,82972,2,0,P|317:290|326:243,1,95.7000029205323,10|0,0:0|1:2,0:0:0:0:
470,143,83283,2,0,P|453:85|374:84,1,143.550004380798,10|0,0:0|0:0,0:0:0:0:
346,108,83594,6,0,P|357:137|362:166,3,47.8500014602662,6|8|8|8,1:2|0:0|0:0|0:0,0:0:0:0:
316,218,83904,1,8,0:0:0:0:
196,27,84060,6,0,L|266:42,1,47.8500014602662,6|0,1:2|0:0,0:0:0:0:
87,157,84371,6,0,L|17:172,1,47.8500014602662,6|0,1:2|0:0,0:0:0:0:
301,268,84682,6,0,B|355:238|398:287|398:287|395:332|426:363|477:361,1,217.5,6|0,1:2|0:0,0:0:0:0:
461,360,86081,5,2,0:0:0:0:
461,360,86702,5,8,0:0:0:0:
466,335,86858,1,8,0:0:0:0:
470,310,87013,1,8,0:3:0:0:
300,176,87169,6,0,P|250:191|170:239,1,139.2,6|2,1:2|0:0,0:0:0:0:
70,222,87635,2,0,P|40:191|45:139,1,69.6,2|2,1:2|0:0,0:0:0:0:
103,88,87946,2,0,P|133:119|128:171,1,69.6,10|2,0:0|0:0,0:0:0:0:
175,234,88257,1,2,0:0:0:0:
190,239,88412,1,2,1:2:0:0:
111,326,88568,5,2,0:0:0:0:
254,355,88723,2,0,P|217:368|182:384,1,69.6,10|0,0:0|1:2,0:0:0:0:
312,270,89034,2,0,P|343:283|376:295,1,69.6,2|8,1:2|0:0,0:0:0:0:
243,178,89345,1,10,0:0:0:0:
240,167,89423,1,8,0:0:0:0:
238,157,89500,2,0,L|248:110,1,34.8,8|8,0:0|0:0,0:0:0:0:
242,16,89656,6,0,P|242:68|129:86,1,174,6|2,1:2|1:2,0:0:0:0:
45,222,90122,2,0,P|89:199|154:181,1,87,10|2,0:0|0:0,0:0:0:0:
254,262,90433,1,2,1:2:0:0:
191,344,90588,1,2,1:2:0:0:
174,337,90744,1,10,0:0:0:0:
360,253,90899,6,0,P|346:303|333:356,1,87,2|0,0:0|1:2,0:0:0:0:
239,182,91210,1,2,1:2:0:0:
241,172,91366,2,0,P|286:184|330:153,1,87,10|2,0:0|0:0,0:0:0:0:
385,58,91676,1,2,1:2:0:0:
458,162,91832,1,2,1:2:0:0:
471,167,91987,1,10,0:0:0:0:
265,40,92143,6,0,B|205:59|205:59|186:104|186:104|109:133,1,174,6|2,1:2|1:2,0:0:0:0:
23,84,92609,2,0,B|3:44|3:44|43:76,1,87,10|0,0:0|1:2,0:0:0:0:
134,213,92920,1,10,0:0:0:0:
138,221,92998,1,8,0:0:0:0:
142,230,93075,2,0,L|130:281,3,43.5,8|8|0|0,0:0|0:0|1:0|1:0,0:0:0:0:
274,359,93386,5,8,0:0:0:0:
278,351,93464,1,8,0:0:0:0:
282,342,93541,2,0,L|270:291,3,43.5,8|8|0|0,0:0|0:0|1:0|1:0,0:0:0:0:
340,217,93853,1,12,0:0:0:0:
256,137,94008,1,0,1:2:0:0:
256,137,94086,1,0,1:2:0:0:
256,137,94164,2,0,P|190:123|136:110,1,87,8|8,0:2|0:0,0:0:0:0:
92,146,94397,1,8,0:0:0:0:
100,140,94474,2,0,L|88:97,3,43.5,8|8|8|8,0:3|0:3|0:3|0:3,0:0:0:0:
138,40,94785,5,4,1:2:0:0:
380,256,96029,6,0,B|317:222|317:222|304:145|369:137,2,182.699994424439,12|8|8,0:0|0:3|0:3,0:0:0:0:
380,256,97272,5,12,0:0:0:0:
89,38,98360,5,8,0:0:0:0:
89,38,98438,1,8,0:0:0:0:
89,38,98516,1,8,0:0:0:0:
58,112,98671,1,8,0:0:0:0:
172,46,98827,5,8,0:0:0:0:
126,159,98982,1,8,0:0:0:0:
259,55,99138,5,8,0:0:0:0:
191,220,99293,1,8,0:0:0:0:
357,70,99448,5,0,1:2:0:0:
357,70,99526,1,0,1:2:0:0:
357,70,99604,2,0,L|335:128,1,34.8,0|0,1:2|1:2,0:0:0:0:
266,273,99759,5,4,1:2:0:0:
286,267,99915,1,0,1:2:0:0:
306,261,100070,1,0,1:2:0:0:
326,255,100226,1,0,1:2:0:0:
416,293,100381,6,0,L|472:307,1,39.1499988052369,12|0,0:0|0:0,0:0:0:0:
453,302,101003,5,4,1:2:0:0:
315,375,101158,1,10,0:0:0:0:
306,364,101314,2,0,P|295:323|326:279,1,78.2999976104737,2|2,0:0|1:2,0:0:0:0:
364,175,101625,2,0,P|333:205|280:200,1,78.2999976104737,12|0,0:0|1:2,0:0:0:0:
170,223,101936,2,0,P|211:232|235:280,1,78.2999976104737,2|10,0:0|0:0,0:0:0:0:
26,302,102246,5,4,1:2:0:0:
32,279,102402,1,0,1:2:0:0:
38,256,102557,1,0,1:2:0:0:
44,233,102713,1,0,1:2:0:0:
10,163,102868,6,0,L|-4:115,1,39.1499988052369,12|0,0:0|0:0,0:0:0:0:
0,125,103490,5,4,1:2:0:0:
125,34,103645,1,10,0:0:0:0:
118,38,103801,2,0,P|165:53|211:67,1,78.2999976104737,2|2,0:0|1:2,0:0:0:0:
277,2,104112,2,0,P|240:35|205:68,1,78.2999976104737,12|0,0:0|1:2,0:0:0:0:
196,143,104423,1,8,0:0:0:0:
199,154,104500,1,8,0:0:0:0:
202,165,104578,1,8,0:0:0:0:
205,176,104656,1,8,0:0:0:0:
208,187,104733,6,0,P|252:191|280:251,1,87,2|0,1:3|1:2,0:0:0:0:
300,296,104967,1,0,0:0:0:0:
296,303,105044,2,0,P|323:335|366:338,1,87,10|2,0:0|0:0,0:0:0:0:
433,304,105277,1,8,0:0:0:0:
431,296,105355,2,0,P|447:243|467:186,1,87,2|0,1:3|1:2,0:0:0:0:
486,91,105666,1,10,0:0:0:0:
403,120,105822,1,2,0:0:0:0:
379,7,105977,5,2,1:3:0:0:
269,87,106132,1,0,1:2:0:0:
269,87,106288,2,0,P|213:72|171:61,1,87,8|8,0:0|0:0,0:0:0:0:
151,51,106521,1,8,0:0:0:0:
144,44,106599,2,0,P|101:55|59:66,1,87,0|0,1:2|1:2,0:0:0:0:
106,156,106910,1,8,0:0:0:0:
117,163,107065,1,0,0:0:0:0:
28,312,107221,6,0,P|47:271|112:272,1,87,2|0,1:3|1:2,0:0:0:0:
162,283,107454,1,0,0:0:0:0:
171,289,107531,2,0,P|197:325|163:381,1,87,10|2,0:0|0:0,0:0:0:0:
270,384,107765,1,8,0:0:0:0:
266,378,107842,2,0,L|370:347,1,87,2|0,1:3|1:2,0:0:0:0:
512,285,108153,2,0,L|408:254,1,87,10|2,0:0|0:0,0:0:0:0:
403,153,108464,5,2,1:3:0:0:
326,109,108619,1,2,1:2:0:0:
404,60,108775,1,8,0:0:0:0:
324,25,108930,1,8,0:0:0:0:
311,20,109008,1,8,0:0:0:0:
298,15,109086,1,8,0:0:0:0:
161,204,109241,1,0,1:2:0:0:
174,199,109319,1,0,1:0:0:0:
186,193,109397,2,0,L|170:120,3,43.5,8|0|0|0,0:0|0:0|1:0|1:0,0:0:0:0:
247,79,109708,5,14,0:0:0:0:
204,278,109863,2,0,L|180:166,1,87,0|0,1:2|1:2,0:0:0:0:
284,158,110174,5,10,0:0:0:0:
327,357,110329,2,0,L|351:245,1,87,0|0,1:2|1:2,0:0:0:0:
185,192,110640,5,14,0:0:0:0:
327,357,110796,2,0,L|410:333,1,87,0|0,1:0|1:0,0:0:0:0:
346,113,111107,5,8,0:0:0:0:
204,278,111263,2,0,L|120:254,1,87,2|2,1:2|1:2,0:0:0:0:
208,6,111573,6,0,P|246:34|247:92,1,87,14|2,0:0|1:2,0:0:0:0:
137,138,111884,2,0,P|142:91|191:61,1,87,14|2,0:0|1:2,0:0:0:0:
278,175,112195,5,14,0:0:0:0:
146,261,112350,2,0,L|53:231,1,87,2|2,1:2|1:2,0:0:0:0:
218,125,112661,5,10,0:0:0:0:
247,270,112816,2,0,L|174:335,1,87,2|2,1:2|1:2,0:0:0:0:
182,198,113127,5,14,0:0:0:0:
319,223,113282,2,0,L|339:318,1,87,2|0,1:2|1:2,0:0:0:0:
247,270,113594,5,10,0:0:0:0:
332,139,113749,2,0,L|425:168,1,87,2|0,1:2|1:2,0:0:0:0:
240,25,114060,6,0,L|157:51,1,87,10|2,0:0|1:2,0:0:0:0:
114,109,114293,1,0,1:2:0:0:
111,117,114371,2,0,L|12:89,1,87,10|2,0:0|1:2,0:0:0:0:
190,189,114682,6,0,L|80:219,1,87,10|10,0:0|0:0,0:0:0:0:
207,114,114993,1,2,1:2:0:0:
179,271,115148,1,10,0:0:0:0:
343,204,115303,6,0,L|233:234,1,87,2|10,1:2|0:0,0:0:0:0:
362,129,115614,1,2,1:2:0:0:
334,280,115769,1,10,0:0:0:0:
512,384,115925,5,2,1:2:0:0:
385,346,116081,1,10,0:0:0:0:
488,226,116236,2,0,L|467:324,1,87,2|10,1:2|0:0,0:0:0:0:
207,318,116547,5,2,1:2:0:0:
334,280,116703,1,10,0:0:0:0:
234,167,116858,2,0,L|255:265,1,87,2|10,1:2|0:0,0:0:0:0:
356,47,117169,6,0,P|400:79|449:63,1,87,6|8,1:2|0:0,0:0:0:0:
505,52,117402,1,8,0:0:0:0:
511,58,117480,2,0,L|499:110,3,43.5,8|8|8|8,0:0|0:0|0:0|0:0,0:0:0:0:
434,161,117790,6,0,L|454:275,1,87,6|8,1:2|0:0,0:0:0:0:
454,266,118024,1,8,0:0:0:0:
458,279,118101,1,2,1:2:0:0:
386,376,118257,1,8,0:0:0:0:
374,370,118334,1,8,0:0:0:0:
362,363,118412,2,0,L|309:378,3,43.5,6|10|10|10,1:2|0:0|0:0|0:0,0:0:0:0:
312,251,118723,2,0,L|298:304,3,43.5,10|10|8|8,0:0|0:0|0:0|0:0,0:0:0:0:
193,220,119034,2,0,L|232:258,3,43.5,8|8|8|8,0:3|0:3|0:3|0:3,0:0:0:0:
112,314,119345,2,0,L|165:299,1,43.5,8|8,0:3|0:3,0:0:0:0:
243,361,119500,5,6,1:2:0:0:
93,51,122765,5,8,0:0:0:0:
78,45,122842,1,8,0:0:0:0:
64,41,122920,1,8,0:0:0:0:
48,36,122998,1,8,0:0:0:0:
32,31,123075,1,8,0:0:0:0:
10,277,123231,6,0,P|72:290|113:223,1,143.550004380798,6|0,1:2|0:0,0:0:0:0:
119,202,123542,2,0,P|162:182|201:210,1,95.7000029205323,0|8,1:0|0:0,0:0:0:0:
289,366,123853,1,2,0:0:0:0:
289,366,123930,1,0,0:0:0:0:
289,366,124008,2,0,P|296:313|307:265,1,95.7000029205323,2|2,1:2|1:2,0:0:0:0:
383,187,124319,1,10,0:0:0:0:
391,204,124474,1,2,0:0:0:0:
277,97,124630,5,2,1:2:0:0:
354,22,124785,2,0,P|396:1|451:26,1,95.7000029205323,2|8,1:2|0:0,0:0:0:0:
294,185,125096,1,8,0:0:0:0:
294,185,125174,1,8,0:0:0:0:
294,185,125252,2,0,P|225:172|183:164,1,95.7000029205323,0|0,1:2|1:2,0:0:0:0:
127,206,125562,1,8,0:0:0:0:
4,25,125718,6,0,B|49:2|75:45|62:52|84:93|141:69,1,143.550004380798,6|0,1:2|0:0,0:0:0:0:
150,87,126029,2,0,P|187:44|178:6,1,95.7000029205323,0|8,1:0|0:0,0:0:0:0:
2,147,126340,1,2,0:0:0:0:
2,147,126417,1,0,0:0:0:0:
2,147,126495,2,0,P|15:197|20:244,1,95.7000029205323,2|2,1:2|1:2,0:0:0:0:
106,288,126806,1,10,0:0:0:0:
111,272,126961,1,2,0:0:0:0:
5,341,127117,5,2,1:2:0:0:
106,384,127273,2,0,P|157:376|205:366,1,95.7000029205323,2|8,1:2|0:0,0:0:0:0:
279,214,127583,1,8,0:0:0:0:
279,214,127661,1,8,0:0:0:0:
279,214,127739,2,0,P|253:256|262:300,1,95.7000029205323,0|0,1:2|1:2,0:0:0:0:
351,351,128050,1,8,0:0:0:0:
506,143,128205,6,0,B|454:111|413:161|413:161|403:95|341:98,1,191.400005841065,6|2,1:2|1:2,0:0:0:0:
344,90,128594,1,0,1:2:0:0:
344,90,128672,1,10,0:0:0:0:
245,155,128827,2,0,P|235:183|229:223,2,47.8500014602662,0|0|10,1:2|1:2|0:0,0:0:0:0:
182,48,129138,1,0,1:2:0:0:
182,48,129215,1,0,1:2:0:0:
182,48,129293,1,8,0:0:0:0:
26,95,129448,6,0,B|-24:128|7:188|7:188|61:205|50:264,1,191.400005841065,6|0,1:2|1:2,0:0:0:0:
5,353,129915,2,0,P|50:373|99:344,1,95.7000029205323,10|0,0:0|1:2,0:0:0:0:
117,334,130148,1,0,1:2:0:0:
117,334,130226,1,10,0:0:0:0:
181,217,130381,2,0,P|174:192|161:169,2,47.8500014602662,0|0|8,1:2|0:0|0:0,0:0:0:0:
249,358,130692,6,0,B|323:350|323:350|329:353|329:353|394:347,1,143.550004380798,6|0,1:2|0:0,0:0:0:0:
421,368,131003,1,2,1:2:0:0:
307,257,131158,1,8,0:0:0:0:
387,61,131314,6,0,B|438:91|438:91|402:186,1,143.550004380798,6|0,1:2|0:0,0:0:0:0:
382,186,131625,1,2,1:2:0:0:
504,133,131780,1,8,0:0:0:0:
306,18,131936,6,0,B|264:-2|233:28|241:37|217:70|170:54,1,143.550004380798,6|0,1:2|0:0,0:0:0:0:
111,17,132246,1,8,0:0:0:0:
111,17,132324,1,8,0:0:0:0:
111,17,132402,2,0,L|63:11,3,47.8500014602662,8|8|8|8,0:0|0:0|0:0|0:0,0:0:0:0:
5,73,132713,1,6,1:2:0:0:
101,151,132868,5,8,0:0:0:0:
115,163,132946,1,8,0:0:0:0:
125,181,133024,1,8,0:0:0:0:
126,202,133101,1,8,0:0:0:0:
115,225,133179,6,0,P|176:187|235:243,1,143.550004380798,6|0,1:2|0:0,0:0:0:0:
223,249,133490,2,0,P|266:282|312:252,1,95.7000029205323,0|8,1:0|0:0,0:0:0:0:
426,204,133801,1,2,0:0:0:0:
426,204,133879,1,0,0:0:0:0:
426,204,133956,2,0,P|411:255|410:314,1,95.7000029205323,2|2,1:2|1:2,0:0:0:0:
333,167,134267,1,10,0:0:0:0:
324,147,134423,1,2,0:0:0:0:
425,25,134578,5,2,1:2:0:0:
501,131,134733,2,0,P|448:117|396:100,1,95.7000029205323,2|8,1:2|0:0,0:0:0:0:
252,0,135044,1,8,0:0:0:0:
252,0,135122,1,8,0:0:0:0:
252,0,135200,2,0,P|258:53|264:100,1,95.7000029205323,0|0,1:2|1:2,0:0:0:0:
193,152,135511,1,8,0:0:0:0:
428,307,135666,6,0,B|396:276|358:293|358:293|340:331|300:326,1,143.550004380798,6|0,1:2|0:0,0:0:0:0:
283,351,135977,2,0,P|251:311|273:261,1,95.7000029205323,0|8,1:0|0:0,0:0:0:0:
392,109,136288,1,2,0:0:0:0:
392,109,136366,1,0,0:0:0:0:
392,109,136443,2,0,P|386:164|381:214,1,95.7000029205323,2|2,1:2|1:2,0:0:0:0:
486,240,136754,1,10,0:0:0:0:
482,224,136910,1,2,0:0:0:0:
340,318,137065,5,2,1:2:0:0:
420,379,137221,2,0,P|441:332|421:296,1,95.7000029205323,2|8,1:2|0:0,0:0:0:0:
230,189,137531,1,8,0:0:0:0:
230,189,137609,1,8,0:0:0:0:
230,189,137687,2,0,P|283:197|352:209,1,95.7000029205323,0|0,1:2|1:2,0:0:0:0:
416,152,137998,1,8,0:0:0:0:
224,26,138153,6,0,B|152:7|152:7|70:27|105:98,1,191.400005841065,6|2,1:2|1:2,0:0:0:0:
36,180,138619,1,10,0:0:0:0:
22,157,138775,1,0,1:2:0:0:
175,129,138930,2,0,P|165:183|162:230,1,95.7000029205323,10|0,0:0|1:2,0:0:0:0:
254,334,139241,1,8,0:0:0:0:
267,315,139397,1,0,1:0:0:0:
125,366,139552,6,0,L|45:351,1,63.8000019470215,10|0,0:0|0:0,0:0:0:0:
0,366,139759,2,0,L|80:351,1,63.8000019470215,10|0,0:0|0:0,0:0:0:0:
134,253,139967,6,0,L|54:268,1,63.8000019470215,10|0,0:0|0:0,0:0:0:0:
9,253,140174,2,0,L|89:268,1,63.8000019470215,10|0,0:0|0:0,0:0:0:0:
79,179,140381,5,10,0:0:0:0:
359,72,140640,6,2,P|364:103|371:147,1,65.2499980087281,2|0,0:0|0:0,0:1:0:0:
352,167,141107,6,0,P|397:184|449:152,1,95.7000029205323,12|2,0:0|0:0,0:0:0:0:
266,224,141417,2,0,P|279:284|286:347,1,95.7000029205323,2|2,1:2|1:2,0:0:0:0:
359,363,141728,1,10,0:0:0:0:
378,369,141884,1,2,0:0:0:0:
199,325,142039,5,2,1:2:0:0:
254,186,142195,2,0,P|199:188|135:206,1,95.7000029205323,2|8,1:2|0:0,0:0:0:0:
36,91,142505,1,8,0:0:0:0:
36,91,142583,1,8,0:0:0:0:
36,91,142661,2,0,P|26:38|62:-1,1,95.7000029205323,0|0,1:2|1:2,0:0:0:0:
143,69,142972,1,8,0:0:0:0:
0,186,143127,6,0,B|42:173|75:206|49:211|86:249|137:230,1,143.550004380798,6|0,1:2|0:0,0:0:0:0:
154,212,143438,2,0,P|192:205|236:266,1,95.7000029205323,0|8,1:0|0:0,0:0:0:0:
320,329,143749,1,2,0:0:0:0:
320,329,143827,1,0,0:0:0:0:
320,329,143904,2,0,P|267:337|203:360,1,95.7000029205323,2|2,1:2|1:2,0:0:0:0:
152,307,144215,1,10,0:0:0:0:
137,296,144371,1,2,0:0:0:0:
220,381,144526,5,2,1:2:0:0:
233,239,144682,2,0,P|248:190|271:134,1,95.7000029205323,2|8,1:2|0:0,0:0:0:0:
133,28,144993,1,8,0:0:0:0:
133,28,145070,1,8,0:0:0:0:
133,28,145148,2,0,P|161:75|215:68,1,95.7000029205323,0|0,1:2|1:2,0:0:0:0:
296,12,145459,1,8,0:0:0:0:
428,83,145614,6,0,B|453:126|412:183|386:136|344:195|377:249,1,191.400005841065,6|2,1:2|1:2,0:0:0:0:
420,342,146081,1,10,0:0:0:0:
443,353,146236,1,0,1:2:0:0:
274,294,146391,2,0,P|294:353|309:403,1,95.7000029205323,10|0,0:0|1:2,0:0:0:0:
374,244,146702,1,8,0:0:0:0:
184,313,146858,6,0,B|152:263|179:218|179:218|237:189|220:123,1,191.400005841065,6|0,1:2|1:2,0:0:0:0:
133,7,147324,1,10,0:0:0:0:
47,72,147480,2,0,P|24:79|0:84,2,47.8500014602662,0|0|10,1:2|1:2|0:0,0:0:0:0:
149,150,147790,1,0,1:2:0:0:
149,150,147868,1,0,1:2:0:0:
149,150,147946,1,8,0:0:0:0:
0,286,148101,6,0,P|34:248|126:281,1,143.550004380798,6|0,1:2|0:0,0:0:0:0:
110,287,148412,1,2,1:2:0:0:
203,367,148568,1,8,0:0:0:0:
376,200,148723,6,0,B|355:227|325:244|325:244|378:344,1,143.550004380798,6|0,1:2|0:0,0:0:0:0:
356,347,149034,1,2,1:2:0:0:
469,275,149189,1,8,0:0:0:0:
409,133,149345,6,0,B|373:104|302:126|341:156|285:196|228:147,1,191.400005841065,6|8,1:2|0:0,0:0:0:0:
183,111,149733,1,8,0:0:0:0:
176,105,149811,2,0,P|183:72|192:29,3,47.8500014602662,8|8|8|8,0:0|0:0|0:0|0:0,0:0:0:0:
114,13,150122,2,0,P|107:46|99:82,1,47.8500014602662,6|8,1:2|0:0,0:0:0:0:
38,129,150277,1,8,0:0:0:0:
41,143,150355,1,8,0:0:0:0:
44,157,150433,1,8,0:0:0:0:
46,171,150511,1,8,0:0:0:0:
49,181,150588,6,0,B|81:144|124:173|124:173|139:212|182:206,1,143.550004380798,6|0,1:2|0:0,0:0:0:0:
194,196,150899,2,0,P|181:253|171:323,1,95.7000029205323,0|8,1:0|0:0,0:0:0:0:
271,356,151210,1,2,0:0:0:0:
271,356,151288,1,0,0:0:0:0:
271,356,151366,2,0,P|219:368|176:386,1,95.7000029205323,2|2,1:2|1:2,0:0:0:0:
84,332,151676,1,10,0:0:0:0:
68,322,151832,1,2,0:0:0:0:
211,237,151987,5,2,1:2:0:0:
130,107,152143,2,0,P|89:131|81:203,1,95.7000029205323,2|8,1:2|0:0,0:0:0:0:
282,132,152454,1,8,0:0:0:0:
282,132,152531,1,8,0:0:0:0:
282,132,152609,2,0,P|274:68|272:13,1,95.7000029205323,0|0,1:2|1:2,0:0:0:0:
192,172,152920,1,8,0:0:0:0:
448,196,153075,6,0,P|400:183|346:262,1,143.550004380798,6|0,1:2|0:0,0:0:0:0:
355,264,153386,2,0,P|344:314|282:332,1,95.7000029205323,0|8,1:0|0:0,0:0:0:0:
152,246,153697,1,2,0:0:0:0:
206,369,153853,2,0,P|220:309|237:248,1,95.7000029205323,2|2,1:2|1:2,0:0:0:0:
185,170,154164,1,10,0:0:0:0:
173,159,154319,1,2,0:0:0:0:
326,247,154474,5,2,1:2:0:0:
184,338,154630,2,0,P|134:347|74:366,1,95.7000029205323,2|8,1:2|0:0,0:0:0:0:
56,195,154941,1,8,0:0:0:0:
56,195,155018,1,8,0:0:0:0:
56,195,155096,2,0,P|103:200|126:263,1,95.7000029205323,0|0,1:2|1:2,0:0:0:0:
42,289,155407,1,8,0:0:0:0:
220,177,155562,6,0,B|195:220|236:277|262:230|304:289|271:343,1,191.400005841065,6|2,1:2|1:2,0:0:0:0:
273,338,155951,1,0,1:2:0:0:
273,338,156029,1,10,0:0:0:0:
382,232,156184,2,0,P|409:221|456:216,2,47.8500014602662,0|0|10,1:2|1:2|0:0,0:0:0:0:
279,115,156495,1,0,1:2:0:0:
279,115,156573,1,0,1:2:0:0:
279,115,156651,2,0,P|260:52|242:-5,1,95.7000029205323,8|0,0:0|1:0,0:0:0:0:
144,145,156961,6,0,L|120:224,1,63.8000019470215,10|0,0:0|0:0,0:0:0:0:
186,274,157169,2,0,L|129:213,1,63.8000019470215,10|0,0:0|0:0,0:0:0:0:
4,329,157376,6,0,L|66:314,1,63.8000019470215,10|0,0:0|0:0,0:0:0:0:
137,358,157584,2,0,L|93:311,1,63.8000019470215,10|0,0:0|0:0,0:0:0:0:
30,230,157790,5,10,0:0:0:0:
206,20,158050,6,0,P|292:15|308:105,1,174,6|0,1:2|0:0,0:0:0:0:
279,228,158516,2,0,P|329:221|381:212,1,87,10|2,0:0|0:0,0:0:0:0:
477,99,158827,2,0,P|429:108|413:151,1,87,2|2,1:2|0:0,0:0:0:0:
471,278,159138,1,10,0:0:0:0:
479,260,159293,1,2,0:0:0:0:
345,355,159448,6,0,B|283:349|283:349|277:351|277:351|216:344,1,130.5,0|0,1:0|0:0,0:0:0:0:
193,349,159759,1,8,0:0:0:0:
18,184,159993,1,8,0:0:0:0:
21,165,160070,2,0,P|58:192|62:236,1,87,0|0,1:0|0:0,0:0:0:0:
2,343,160381,2,0,P|52:334|95:325,1,87,8|0,0:0|0:0,0:0:0:0:
303,191,160692,6,0,B|263:170|230:194|237:206|211:224|169:206,1,130.5,6|0,1:2|0:0,0:0:0:0:
156,215,161003,2,0,P|136:168|161:127,1,87,10|2,0:0|0:0,0:0:0:0:
293,286,161314,2,0,P|284:334|277:381,1,87,2|2,1:2|0:0,0:0:0:0:
391,257,161625,1,10,0:0:0:0:
386,237,161780,1,2,0:0:0:0:
299,89,161936,6,0,P|332:37|412:58,1,130.5,0|0,1:0|0:0,0:0:0:0:
410,59,162246,1,8,0:0:0:0:
224,167,162480,1,8,0:0:0:0:
215,180,162557,2,0,P|166:190|129:155,1,87,0|2,1:0|0:0,0:0:0:0:
64,1,162868,2,0,P|75:50|82:94,1,87,8|0,0:0|0:0,0:0:0:0:
5,311,163179,6,0,P|26:259|116:270,1,130.5,6|0,1:2|0:0,0:0:0:0:
114,272,163490,2,0,P|146:309|200:297,1,87,10|2,0:0|0:0,0:0:0:0:
324,181,163801,2,0,P|316:240|309:291,1,87,2|2,1:2|0:0,0:0:0:0:
181,138,164112,1,10,0:0:0:0:
175,117,164267,1,2,0:0:0:0:
310,8,164423,6,0,B|377:18|377:18|375:22|375:22|453:31,1,130.5,0|0,1:0|0:0,0:0:0:0:
453,15,164733,1,8,0:0:0:0:
354,243,164967,1,8,0:0:0:0:
348,254,165045,2,0,P|318:219|338:167,1,87,0|0,1:0|0:0,0:0:0:0:
512,138,165355,2,0,P|505:181|495:246,1,87,8|2,0:0|0:0,0:0:0:0:
404,360,165666,6,0,B|360:332|332:354|343:368|308:391|265:367,1,130.5,6|0,1:2|0:0,0:0:0:0:
262,380,165977,2,0,P|237:343|258:298,1,87,10|2,0:0|0:0,0:0:0:0:
116,134,166288,2,0,P|163:142|219:150,1,87,2|2,1:2|0:0,0:0:0:0:
82,284,166599,1,10,0:0:0:0:
66,295,166754,1,2,0:0:0:0:
33,73,166910,6,0,B|-9:106|-9:106|26:198,1,130.5,0|0,1:0|0:0,0:0:0:0:
16,202,167221,1,8,0:0:0:0:
169,32,167454,1,8,0:0:0:0:
178,20,167531,2,0,L|278:37,1,87,0|8,1:0|0:3,0:0:0:0:
473,147,167842,1,8,0:3:0:0:
374,8,167998,1,8,0:3:0:0:
258,142,168153,6,0,B|234:168|191:157|191:157|243:197|295:162|267:139|316:96|371:137,1,261,6|0,1:2|0:0,0:0:0:0:
477,247,168775,1,8,0:0:0:0:
477,247,168853,1,8,0:0:0:0:
477,247,168930,2,0,L|419:250,1,43.5,8|8,0:3|0:3,0:0:0:0:
419,332,169086,5,8,0:3:0:0:
419,332,169164,1,8,0:3:0:0:
419,332,169241,2,0,L|321:322,1,87,10|0,0:0|0:0,0:0:0:0:
218,250,169552,2,0,L|316:240,1,87,10|0,0:0|0:0,0:0:0:0:
