osu file format v14

[General]
AudioFilename: audio.mp3
AudioLeadIn: 0
PreviewTime: 67195
Countdown: 0
SampleSet: Soft
StackLeniency: 0.5
Mode: 0
LetterboxInBreaks: 0
WidescreenStoryboard: 1

[Editor]
DistanceSpacing: 0.9
BeatDivisor: 4
GridSize: 32
TimelineZoom: 1.8

[Metadata]
Title:RIOT
TitleUnicode:RIOT
Artist:KNOCK OUT MONKEY
ArtistUnicode:KNOCK OUT MONKEY
Creator:NeKroMan4ik
Version:NORMAL
Source:
Tags:japanese rock jrock male vocals Mr. Foundation NexusQI airincat reform kujinn nymphe kiyoshi guarden
BeatmapID:2670490
BeatmapSetID:1286119

[Difficulty]
HPDrainRate:3
CircleSize:3.2
OverallDifficulty:4
ApproachRate:5
SliderMultiplier:1.05
SliderTickRate:1

[Events]
//Background and Video events
0,0,"bg.jpg",0,0
//Break Periods
2,119700,121565
//Storyboard Layer 0 (Background)
//Storyboard Layer 1 (Fail)
//Storyboard Layer 2 (Pass)
//Storyboard Layer 3 (Foreground)
//Storyboard Layer 4 (Overlay)
//Storyboard Sound Samples

[TimingPoints]
278,310.880829015544,4,2,1,50,1,0
278,-111.111111111111,4,2,1,50,0,0
5096,-100,4,2,1,60,0,0
15200,-100,4,2,1,50,0,0
20174,-100,4,2,1,50,0,0
25148,-100,4,2,1,45,0,0
30122,-100,4,2,1,60,0,0
34941,-95.2380952380952,4,2,1,70,0,1
51366,-95.2380952380952,4,2,1,70,0,1
51469,-95.2380952380952,4,2,1,70,0,1
51573,-95.2380952380952,4,2,1,70,0,1
51676,-95.2380952380952,4,2,1,70,0,1
51780,-95.2380952380952,4,2,1,70,0,1
51884,-95.2380952380952,4,2,1,70,0,1
51987,-95.2380952380952,4,2,1,70,0,1
52091,-95.2380952380952,4,2,1,70,0,1
52195,-95.2380952380952,4,2,1,70,0,1
52350,-100,4,2,1,60,0,0
57480,-100,4,2,1,55,0,0
62454,-100,4,2,1,55,0,0
67272,-95.2380952380952,4,2,1,70,0,1
84682,-111.111111111111,4,2,1,70,0,0
84759,-111.111111111111,4,2,1,45,0,0
87169,-100,4,2,1,50,0,0
89656,-100,4,2,1,55,0,0
94785,-100,4,2,1,50,0,0
104733,-100,4,2,1,60,0,0
109708,-100,4,2,1,70,0,1
114682,-100,4,2,1,65,0,0
119500,-100,4,2,1,50,0,0
123231,-95.2380952380952,4,2,1,70,0,1
139656,-95.2380952380952,4,2,1,70,0,1
139759,-95.2380952380952,4,2,1,70,0,1
139863,-95.2380952380952,4,2,1,70,0,1
139967,-95.2380952380952,4,2,1,70,0,1
140070,-95.2380952380952,4,2,1,70,0,1
140174,-95.2380952380952,4,2,1,70,0,1
140277,-95.2380952380952,4,2,1,70,0,1
140381,-95.2380952380952,4,2,1,70,0,1
140485,-95.2380952380952,4,2,1,70,0,1
140640,-100,4,2,1,60,0,0
141107,-95.2380952380952,4,2,1,70,0,1
157065,-95.2380952380952,4,2,1,70,0,1
157169,-95.2380952380952,4,2,1,70,0,1
157272,-95.2380952380952,4,2,1,70,0,1
157376,-95.2380952380952,4,2,1,70,0,1
157480,-95.2380952380952,4,2,1,70,0,1
157583,-95.2380952380952,4,2,1,70,0,1
157687,-95.2380952380952,4,2,1,70,0,1
157790,-95.2380952380952,4,2,1,70,0,1
157894,-100,4,2,1,70,0,1
158050,-100,4,2,1,60,0,0
168153,-100,4,2,1,60,0,0

[Colours]
Combo1 : 172,81,81
Combo2 : 240,0,0
Combo3 : 222,197,158
Combo4 : 97,112,124

[HitObjects]
476,21,278,5,6,1:2:0:0:
416,80,588,2,0,B|294:104|294:104|273:137|286:169,2,188.999994232178,0|0|0,3:0|3:0|3:0,0:0:0:0:
471,145,2143,2,0,L|455:206,1,47.2499985580445,8|8,0:3|0:3,0:0:0:0:
483,225,2454,2,0,L|499:286,1,47.2499985580445,8|8,0:3|0:3,0:0:0:0:
474,308,2765,5,6,1:2:0:0:
436,384,3075,2,0,L|241:360,1,188.999994232178,0|0,3:0|3:0,0:0:0:0:
180,310,4008,2,0,P|225:251|153:169,1,188.999994232178,8|8,0:0|0:0,0:0:0:0:
139,135,4785,1,2,1:2:0:0:
224,93,5096,6,0,L|348:111,1,105,6|2,1:2|0:0,0:0:0:0:
370,87,5562,1,10,0:0:0:0:
446,30,5873,2,0,P|469:75|461:126,1,105,2|10,1:2|0:0,0:0:0:0:
433,166,6340,2,0,L|451:290,1,105,2|0,0:0|0:0,0:0:0:0:
446,317,6806,1,8,0:0:0:0:
377,381,7117,1,2,1:2:0:0:
309,323,7428,1,8,0:0:0:0:
309,323,7583,6,0,P|258:308|198:337,1,105,2|0,0:0|0:0,0:0:0:0:
172,353,8050,1,10,0:0:0:0:
78,367,8360,2,0,L|96:246,1,105,2|10,1:2|0:0,0:0:0:0:
147,185,8982,2,0,L|129:64,1,105,0|10,1:2|0:0,0:0:0:0:
161,44,9448,2,0,P|213:53|282:62,1,105,2|0,0:0|0:0,0:0:0:0:
307,81,9915,1,8,0:0:0:0:
270,168,10226,6,0,P|245:213|258:262,1,105,6|10,1:2|0:0,0:0:0:0:
326,327,10847,2,0,L|450:345,1,105,2|10,1:2|0:0,0:0:0:0:
473,323,11314,2,0,P|497:277|484:228,1,105,2|0,0:0|0:0,0:0:0:0:
454,190,11780,1,8,0:0:0:0:
506,111,12091,1,2,1:2:0:0:
450,34,12402,1,8,0:0:0:0:
360,64,12713,6,0,L|256:46,1,105,6|10,1:2|0:0,0:0:0:0:
175,93,13334,2,0,P|122:100|71:110,1,105,2|10,1:2|0:0,0:0:0:0:
39,145,13801,2,0,P|60:190|39:248,1,105,2|2,0:0|0:0,0:0:0:0:
19,280,14267,1,10,0:0:0:0:
81,351,14578,2,0,B|126:339|140:299|140:299|166:330|215:321,1,157.5,8|8,0:0|0:0,0:0:0:0:
253,305,15200,6,0,L|316:321,1,52.5,6|2,1:2|1:2,0:0:0:0:
344,342,15511,2,0,P|396:331|459:321,2,105,8|8|8,0:0|0:0|0:0,0:0:0:0:
350,247,16443,2,0,L|363:184,1,52.5,2|0,1:2|1:2,0:0:0:0:
392,160,16754,2,0,P|444:171|507:181,2,105,8|8|8,0:0|0:0|0:0,0:0:0:0:
330,88,17687,6,0,L|226:106,1,105,14|8,0:0|0:3,0:0:0:0:
157,170,18309,1,8,0:0:0:0:
62,170,18619,1,8,0:0:0:0:
27,258,18930,2,0,L|36:309,1,52.5,6|2,1:2|1:2,0:0:0:0:
262,380,19863,1,4,0:3:0:0:
335,320,20174,6,0,P|343:265|352:214,1,105,6|10,1:2|0:0,0:0:0:0:
390,187,20640,1,8,0:0:0:0:
390,187,20796,2,0,L|373:81,1,105,2|10,1:2|0:0,0:0:0:0:
299,23,21417,2,0,P|247:52|188:35,1,105,2|8,1:2|0:0,0:0:0:0:
168,22,21884,1,2,0:0:0:0:
168,22,22039,2,0,L|62:39,1,105,2|8,1:2|0:0,0:0:0:0:
0,108,22661,6,0,B|-8:162|-8:162|17:204,1,105,2|8,1:2|0:0,0:0:0:0:
94,260,23283,1,8,0:3:0:0:
187,243,23594,1,8,0:0:0:0:
270,199,23904,2,0,L|321:207,1,52.5,2|2,1:2|1:2,0:0:0:0:
321,207,25148,6,0,L|304:98,1,105,4|2,1:2|1:2,0:0:0:0:
364,29,25770,2,0,L|467:45,1,105,10|2,0:0|0:0,0:0:0:0:
509,130,26391,2,0,P|485:132|455:139,1,52.5,2|8,0:0|0:0,0:0:0:0:
392,207,26858,2,0,P|417:257|408:310,1,105,2|2,1:2|1:2,0:0:0:0:
380,340,27324,1,2,0:0:0:0:
286,350,27635,6,0,L|178:336,1,105,6|2,1:2|1:2,0:0:0:0:
99,383,28257,2,0,L|85:275,1,105,10|2,0:0|1:2,0:0:0:0:
51,190,28879,2,0,L|-4:182,2,52.5,2|8|0,0:0|0:0|1:2,0:0:0:0:
89,161,29345,2,0,P|116:119|97:61,1,105,2|2,1:2|1:2,0:0:0:0:
116,22,29811,1,10,0:0:0:0:
209,38,30122,6,0,L|225:159,1,105,12|8,0:0|0:0,0:0:0:0:
250,180,30588,2,0,L|371:196,1,105,8|8,0:0|0:0,0:0:0:0:
401,202,31055,1,8,0:0:0:0:
462,275,31366,1,8,0:0:0:0:
411,354,31676,1,8,0:0:0:0:
323,318,31987,2,0,P|271:310|218:304,1,105,8|8,0:0|0:0,0:0:0:0:
141,359,32609,6,0,B|118:255|118:255|93:249|66:265,2,157.5,14|14|12,0:0|0:0|0:0,0:0:0:0:
218,304,33853,2,0,L|311:290,2,78.75,10|10|10,0:0|0:0|0:0,0:0:0:0:
259,84,34941,6,0,L|374:102,1,110.249996635437,6|0,1:2|1:0,0:0:0:0:
406,141,35407,1,8,0:0:0:0:
475,212,35718,2,0,P|489:263|462:310,1,110.249996635437,2|10,1:2|0:0,0:0:0:0:
428,347,36184,1,2,0:0:0:0:
428,347,36340,2,0,L|319:329,1,110.249996635437,2|8,1:2|0:0,0:0:0:0:
234,278,36961,2,0,P|177:285|125:295,1,110.249996635437,0|8,1:2|0:0,0:0:0:0:
79,274,37428,6,0,P|49:233|71:173,1,110.249996635437,6|0,1:2|1:0,0:0:0:0:
74,130,37894,1,8,0:0:0:0:
134,51,38205,2,0,L|244:67,1,110.249996635437,2|10,1:2|0:0,0:0:0:0:
279,108,38671,1,2,0:0:0:0:
279,108,38827,2,0,P|335:97|389:92,1,110.249996635437,2|8,1:2|0:0,0:0:0:0:
479,54,39448,2,0,L|463:164,1,110.249996635437,0|8,1:2|0:0,0:0:0:0:
487,207,39915,6,0,P|433:193|379:222,1,110.249996635437,6|2,1:2|1:2,0:0:0:0:
355,254,40381,1,10,0:0:0:0:
274,312,40692,2,0,L|164:296,1,110.249996635437,10|8,0:0|0:0,0:0:0:0:
125,265,41158,2,0,P|107:214|136:170,1,110.249996635437,6|0,1:2|1:2,0:0:0:0:
170,133,41625,1,10,0:0:0:0:
249,73,41936,2,0,L|359:89,1,110.249996635437,10|8,0:0|0:0,0:0:0:0:
399,116,42402,6,0,P|423:163|405:213,1,110.249996635437,6|2,1:2|1:2,0:0:0:0:
306,222,43024,2,0,P|281:174|299:124,1,110.249996635437,6|2,1:2|1:2,0:0:0:0:
245,40,43645,6,0,L|135:56,1,110.249996635437,6|8,1:2|0:0,0:0:0:0:
93,81,44112,2,0,P|68:130|78:183,1,110.249996635437,8|6,0:0|1:2,0:0:0:0:
33,272,44733,1,8,0:0:0:0:
33,272,44889,6,0,L|148:290,1,110.249996635437,6|0,1:2|1:0,0:0:0:0:
179,321,45355,1,8,0:0:0:0:
241,244,45666,2,0,L|356:226,1,110.249996635437,2|10,1:2|0:0,0:0:0:0:
395,258,46132,1,2,0:0:0:0:
395,258,46288,2,0,P|447:264|503:275,1,110.249996635437,2|8,1:2|0:0,0:0:0:0:
511,175,46910,2,0,P|486:145|514:77,1,110.249996635437,0|8,1:2|0:0,0:0:0:0:
502,32,47376,6,0,L|386:45,1,110.249996635437,6|0,1:2|1:0,0:0:0:0:
358,80,47842,1,8,0:0:0:0:
284,13,48153,2,0,P|254:54|265:112,1,110.249996635437,2|10,1:2|0:0,0:0:0:0:
298,152,48619,1,2,0:0:0:0:
298,152,48775,2,0,L|278:275,1,110.249996635437,2|8,1:2|0:0,0:0:0:0:
189,302,49397,2,0,L|171:193,1,110.249996635437,0|8,1:2|0:0,0:0:0:0:
140,141,49863,6,0,P|93:116|32:154,1,110.249996635437,6|2,1:2|1:2,0:0:0:0:
16,178,50329,1,10,0:0:0:0:
48,271,50640,1,10,0:0:0:0:
143,243,50951,1,8,0:0:0:0:
184,333,51262,6,0,B|258:348|257:305|342:327,2,146.999995513916,10|10|10,0:0|0:0|0:0,0:0:0:0:
143,243,52350,6,0,B|129:139|129:139|187:98,1,157.5,6|10,1:2|0:0,0:0:0:0:
231,35,53127,2,0,L|348:57,1,105,2|10,1:2|0:0,0:0:0:0:
366,96,53594,1,2,0:0:0:0:
366,96,53749,2,0,P|421:83|483:74,1,105,0|10,1:2|0:0,0:0:0:0:
512,160,54371,2,0,L|492:276,1,105,2|10,1:2|0:0,0:0:0:0:
416,317,54993,5,0,1:2:0:0:
334,269,55303,1,10,0:0:0:0:
253,318,55614,2,0,L|179:332,1,52.5,2|2,1:2|0:0,0:0:0:0:
159,350,55925,2,0,L|85:336,1,52.5,10|2,0:0|0:0,0:0:0:0:
74,306,56236,2,0,P|55:227|22:133,2,157.5,8|8|10,0:0|0:0|0:0,0:0:0:0:
159,350,57480,5,12,0:0:0:0:
231,289,57790,2,0,L|352:272,2,105,10|10|10,0:0|0:0|0:0,0:0:0:0:
157,228,58723,2,0,P|127:154|-6:164,2,210,8|8|14,0:0|0:0|0:0,0:0:0:0:
231,289,60277,5,10,0:0:0:0:
317,250,60588,1,10,0:0:0:0:
396,300,60899,1,10,0:0:0:0:
470,241,61210,2,0,L|478:184,1,52.5,10|10,0:0|0:0,0:0:0:0:
320,12,62143,1,4,0:3:0:0:
250,75,62454,5,6,1:2:0:0:
176,16,62765,2,0,L|72:32,2,105,10|2|10,0:0|1:2|0:0,0:0:0:0:
250,75,63697,2,0,L|301:83,2,52.5,2|2|8,1:2|1:2|0:0,0:0:0:0:
189,148,64319,2,0,L|206:262,1,105,2|8,1:2|0:0,0:0:0:0:
275,314,64941,6,0,B|358:323|350:277|437:290,1,157.5,6|6,1:2|1:2,0:0:0:0:
512,174,65873,2,0,P|449:129|359:156,1,157.5,6|2,1:2|1:2,0:0:0:0:
111,3,67273,6,0,L|93:118,1,110.249996635437,6|0,1:2|1:0,0:0:0:0:
108,159,67739,1,8,0:0:0:0:
57,244,68050,2,0,P|110:250|172:262,1,110.249996635437,2|10,1:2|0:0,0:0:0:0:
204,299,68516,1,2,0:0:0:0:
204,299,68672,2,0,L|313:281,1,110.249996635437,2|8,1:2|0:0,0:0:0:0:
385,213,69293,2,0,P|368:156|412:102,1,110.249996635437,0|8,1:2|0:0,0:0:0:0:
412,69,69759,6,0,L|291:87,1,110.249996635437,6|0,1:2|1:0,0:0:0:0:
254,72,70226,1,8,0:0:0:0:
185,0,70537,2,0,P|150:53|167:108,1,110.249996635437,2|10,1:2|0:0,0:0:0:0:
194,137,71003,1,2,0:0:0:0:
194,137,71159,2,0,L|176:249,1,110.249996635437,2|8,1:2|0:0,0:0:0:0:
120,328,71780,2,0,P|62:352|13:316,1,110.249996635437,0|8,1:2|0:0,0:0:0:0:
1,286,72246,6,0,L|18:177,1,110.249996635437,6|2,1:2|1:2,0:0:0:0:
0,130,72713,1,10,0:0:0:0:
64,54,73024,2,0,L|175:38,1,110.249996635437,10|8,0:0|0:0,0:0:0:0:
211,6,73490,2,0,P|190:55|210:108,1,110.249996635437,6|0,1:2|1:2,0:0:0:0:
255,122,73957,1,10,0:0:0:0:
335,63,74267,2,0,P|396:70|446:79,1,110.249996635437,10|8,0:0|0:0,0:0:0:0:
478,117,74733,6,0,P|491:171|496:226,1,110.249996635437,6|2,1:2|1:2,0:0:0:0:
408,272,75355,2,0,P|395:325|390:380,1,110.249996635437,6|2,1:2|1:2,0:0:0:0:
294,352,75977,6,0,L|276:243,1,110.249996635437,6|8,1:2|0:0,0:0:0:0:
246,202,76443,2,0,P|193:194|125:188,1,110.249996635437,8|6,0:0|1:2,0:0:0:0:
64,128,77065,1,8,0:0:0:0:
64,128,77221,6,0,P|87:81|159:76,1,110.249996635437,6|0,1:2|1:0,0:0:0:0:
183,45,77687,1,8,0:0:0:0:
278,75,77998,2,0,L|393:93,1,110.249996635437,2|10,1:2|0:0,0:0:0:0:
425,122,78464,1,2,0:0:0:0:
425,122,78619,2,0,P|443:177|415:219,1,110.249996635437,2|8,1:2|0:0,0:0:0:0:
331,269,79241,2,0,L|313:387,1,110.249996635437,0|8,1:2|0:0,0:0:0:0:
265,384,79708,6,0,P|208:372|147:366,1,110.249996635437,6|0,1:2|1:0,0:0:0:0:
117,335,80174,1,8,0:0:0:0:
38,274,80485,2,0,P|62:233|40:168,1,110.249996635437,2|10,1:2|0:0,0:0:0:0:
27,134,80951,1,2,0:0:0:0:
27,134,81107,2,0,L|150:114,1,110.249996635437,2|8,1:2|0:0,0:0:0:0:
218,61,81728,2,0,L|341:81,1,110.249996635437,0|8,1:2|0:0,0:0:0:0:
369,105,82195,6,0,P|390:158|350:213,1,110.249996635437,6|2,1:2|1:2,0:0:0:0:
330,236,82661,1,10,0:0:0:0:
300,330,82972,2,0,L|423:350,1,110.249996635437,10|10,0:0|0:0,0:0:0:0:
485,283,83594,6,0,L|465:160,1,110.249996635437,6|8,1:2|0:0,0:0:0:0:
440,132,84060,1,6,1:2:0:0:
360,73,84371,1,6,1:2:0:0:
295,141,84682,1,6,1:2:0:0:
295,141,86547,5,8,0:0:0:0:
295,141,86702,2,0,L|306:85,2,47.2499985580445,8|8|8,0:0|0:0|0:3,0:0:0:0:
260,173,87169,6,0,P|203:161|142:153,1,105,6|2,1:2|0:0,0:0:0:0:
115,130,87635,1,2,1:2:0:0:
48,196,87946,2,0,L|66:313,1,105,10|2,0:0|0:0,0:0:0:0:
125,372,88568,2,0,P|176:385|225:352,1,105,2|0,0:0|1:2,0:0:0:0:
240,317,89034,1,2,1:2:0:0:
323,273,89345,1,10,0:0:0:0:
400,327,89656,6,0,L|420:206,1,105,6|2,1:2|1:2,0:0:0:0:
448,187,90122,1,10,0:0:0:0:
406,101,90433,2,0,L|474:91,2,52.5,2|2|10,1:2|1:2|0:0,0:0:0:0:
369,70,90899,2,0,P|323:39|262:58,1,105,2|2,0:0|1:2,0:0:0:0:
244,82,91366,1,10,0:0:0:0:
174,145,91676,2,0,L|66:159,1,105,2|10,1:2|0:0,0:0:0:0:
37,193,92143,6,0,P|69:241|52:290,1,105,6|2,1:2|1:2,0:0:0:0:
43,328,92609,1,10,0:0:0:0:
119,384,92920,2,0,L|284:359,2,157.5,10|8|12,0:0|0:0|0:0,0:0:0:0:
43,328,94164,1,8,0:2:0:0:
43,328,94319,2,0,B|29:273|29:273|55:226,1,105,8|8,0:0|0:3,0:0:0:0:
94,208,94785,5,4,1:2:0:0:
93,208,96029,2,0,P|78:134|6:112,2,157.5,12|8|8,0:0|0:3|0:3,0:0:0:0:
172,260,97272,1,12,0:0:0:0:
172,260,98360,1,8,0:0:0:0:
172,260,98516,6,0,B|292:240,1,105,8|8,0:0|0:0,0:0:0:0:
315,216,98982,1,8,0:0:0:0:
315,216,99138,2,0,B|435:236,1,105,8|0,0:0|1:2,0:0:0:0:
490,171,99759,5,4,1:2:0:0:
490,171,99915,2,0,P|495:145|501:120,2,52.5,0|0|0,1:2|1:2|1:2,0:0:0:0:
508,214,100381,1,12,0:0:0:0:
358,328,101003,1,4,1:2:0:0:
358,328,101159,2,0,L|369:378,2,52.5,10|2|2,0:0|0:0|1:2,0:0:0:0:
323,295,101625,2,0,L|201:277,1,105,12|2,0:0|0:0,0:0:0:0:
151,221,102246,5,4,1:2:0:0:
151,221,102402,2,0,P|125:226|100:232,2,52.5,0|0|0,1:2|1:2|1:2,0:0:0:0:
184,186,102868,1,12,0:0:0:0:
304,40,103490,1,4,1:2:0:0:
304,40,103645,2,0,P|330:45|355:51,2,52.5,10|2|2,0:0|0:0|1:2,0:0:0:0:
266,69,104112,2,0,L|279:183,1,105,12|8,0:0|0:0,0:0:0:0:
342,242,104733,6,0,L|456:262,1,105,2|10,1:3|0:0,0:0:0:0:
512,193,105355,2,0,L|493:89,1,105,2|10,1:3|0:0,0:0:0:0:
412,52,105977,1,2,1:3:0:0:
412,52,106132,2,0,P|419:24|421:0,2,52.5,0|8|8,1:2|0:0|0:0,0:0:0:0:
377,85,106599,2,0,P|308:93|253:102,1,105,0|8,1:2|0:0,0:0:0:0:
184,64,107221,6,0,L|70:44,1,105,2|10,1:3|0:0,0:0:0:0:
1,98,107843,2,0,P|-13:147|9:193,1,105,2|10,1:3|0:0,0:0:0:0:
74,262,108464,2,0,L|128:253,1,52.5,2|2,1:3|1:2,0:0:0:0:
166,228,108775,2,0,L|220:237,1,52.5,8|8,0:0|0:0,0:0:0:0:
257,262,109087,2,0,P|326:254|381:245,1,105,8|8,0:0|0:0,0:0:0:0:
364,154,109708,6,0,P|457:190|516:208,2,157.5,14|10|14,0:0|0:0|0:0,0:0:0:0:
235,95,111107,2,0,P|254:47|237:0,1,105,8|2,0:0|1:2,0:0:0:0:
190,0,111573,1,14,0:0:0:0:
115,58,111884,1,14,0:0:0:0:
119,152,112195,1,14,0:0:0:0:
138,292,112661,6,0,L|245:310,1,105,10|2,0:0|1:2,0:0:0:0:
273,274,113127,2,0,L|380:256,1,105,14|0,0:0|1:2,0:0:0:0:
422,282,113594,2,0,P|472:287|511:253,1,105,10|0,0:0|1:2,0:0:0:0:
501,207,114060,1,10,0:0:0:0:
468,118,114371,1,10,0:0:0:0:
397,55,114682,6,0,L|285:75,1,105,10|2,0:0|1:2,0:0:0:0:
217,129,115303,1,0,1:2:0:0:
125,106,115614,1,0,1:2:0:0:
42,152,115925,2,0,P|13:194|22:244,1,105,2|2,1:2|1:2,0:0:0:0:
82,317,116547,1,2,1:2:0:0:
174,337,116858,1,2,1:2:0:0:
256,291,117169,6,0,L|322:299,1,52.5,6|8,1:2|0:0,0:0:0:0:
346,325,117480,2,0,L|412:317,1,52.5,8|8,0:0|0:0,0:0:0:0:
433,287,117790,2,0,P|445:234|429:166,1,105,6|2,1:2|1:2,0:0:0:0:
405,156,118257,1,8,0:0:0:0:
405,156,118412,1,6,1:2:0:0:
329,99,118723,1,10,0:0:0:0:
252,155,119034,2,0,L|142:169,1,105,8|8,0:3|0:3,0:0:0:0:
108,143,119500,1,6,1:2:0:0:
270,288,122765,6,0,L|327:277,2,52.5,8|8|8,0:0|0:0|0:0,0:0:0:0:
233,255,123231,6,0,L|251:140,1,110.249996635437,6|0,1:2|1:0,0:0:0:0:
290,108,123697,1,8,0:0:0:0:
259,13,124008,2,0,P|310:-1|357:26,1,110.249996635437,2|10,1:2|0:0,0:0:0:0:
400,48,124474,1,2,0:0:0:0:
400,48,124630,2,0,L|418:157,1,110.249996635437,2|8,1:2|0:0,0:0:0:0:
511,193,125251,2,0,L|494:302,1,110.249996635437,0|8,1:2|0:0,0:0:0:0:
474,347,125718,6,0,P|428:376|373:355,1,110.249996635437,6|0,1:2|1:0,0:0:0:0:
351,317,126184,1,8,0:0:0:0:
283,243,126495,2,0,B|229:231|229:231|181:257,1,110.249996635437,2|10,1:2|0:0,0:0:0:0:
152,299,126961,1,2,0:0:0:0:
152,299,127117,2,0,P|96:288|39:280,1,110.249996635437,2|8,1:2|0:0,0:0:0:0:
0,191,127739,2,0,L|19:78,1,110.249996635437,0|8,1:2|0:0,0:0:0:0:
49,42,128205,6,0,P|110:56|159:15,1,110.249996635437,6|2,1:2|1:2,0:0:0:0:
189,4,128671,1,10,0:0:0:0:
254,78,128982,2,0,L|235:191,1,110.249996635437,10|8,0:0|0:0,0:0:0:0:
264,227,129448,2,0,P|325:213|374:254,1,110.249996635437,6|0,1:2|1:2,0:0:0:0:
393,275,129914,1,10,0:0:0:0:
483,233,130226,2,0,L|501:124,1,110.249996635437,10|8,0:0|0:0,0:0:0:0:
466,89,130692,6,0,L|357:107,1,110.249996635437,6|2,1:2|1:2,0:0:0:0:
265,67,131314,2,0,L|156:85,1,110.249996635437,6|2,1:2|1:2,0:0:0:0:
86,156,131936,6,0,B|119:200|119:200|106:262,1,110.249996635437,6|8,1:2|0:0,0:0:0:0:
126,300,132402,2,0,P|183:311|250:330,1,110.249996635437,8|6,0:0|1:2,0:0:0:0:
329,291,133023,1,8,0:0:0:0:
329,291,133179,6,0,L|352:175,1,110.249996635437,6|0,1:2|1:0,0:0:0:0:
376,140,133645,1,8,0:0:0:0:
316,60,133956,2,0,L|201:78,1,110.249996635437,2|10,1:2|0:0,0:0:0:0:
162,46,134422,1,2,0:0:0:0:
162,46,134578,2,0,P|110:40|54:29,1,110.249996635437,2|8,1:2|0:0,0:0:0:0:
0,113,135200,2,0,L|24:246,1,110.249996635437,0|8,1:2|0:0,0:0:0:0:
55,255,135666,6,0,P|108:252|147:309,1,110.249996635437,6|0,1:2|1:0,0:0:0:0:
162,337,136132,1,8,0:0:0:0:
252,378,136443,2,0,L|272:255,1,110.249996635437,2|10,1:2|0:0,0:0:0:0:
301,231,136909,1,2,0:0:0:0:
301,231,137065,2,0,L|281:108,1,110.249996635437,2|8,1:2|0:0,0:0:0:0:
336,37,137687,2,0,B|385:15|385:15|439:29,1,110.249996635437,0|8,1:2|0:0,0:0:0:0:
474,64,138153,6,0,P|465:114|456:172,1,110.249996635437,6|2,1:2|1:2,0:0:0:0:
446,221,138619,1,10,0:0:0:0:
361,273,138930,1,10,0:0:0:0:
273,226,139241,1,8,0:0:0:0:
185,273,139552,6,0,B|137:279|137:279|107:252|107:252|49:277,2,146.999995513916,10|10|10,0:0|0:0|0:0,0:0:0:0:
246,224,140640,2,2,B|263:120|263:120|209:84,1,157.5,2|12,0:0|0:0,0:1:0:0:
284,15,141418,6,0,L|408:-4,1,110.249996635437,2|10,1:2|0:0,0:0:0:0:
435,34,141884,1,2,0:0:0:0:
435,34,142040,2,0,L|417:143,1,110.249996635437,2|8,1:2|0:0,0:0:0:0:
455,234,142661,2,0,L|473:343,1,110.249996635437,0|8,1:2|0:0,0:0:0:0:
436,376,143127,6,0,P|385:366|315:358,1,110.249996635437,6|0,1:2|1:0,0:0:0:0:
287,327,143594,1,8,0:0:0:0:
203,380,143905,2,0,P|183:320|214:271,1,110.249996635437,2|10,1:2|0:0,0:0:0:0:
230,240,144371,1,2,0:0:0:0:
230,240,144527,2,0,L|212:128,1,110.249996635437,2|8,1:2|0:0,0:0:0:0:
148,55,145148,2,0,P|96:33|37:67,1,110.249996635437,0|8,1:2|0:0,0:0:0:0:
22,94,145614,6,0,L|39:203,1,110.249996635437,6|2,1:2|1:2,0:0:0:0:
23,250,146081,1,10,0:0:0:0:
96,316,146392,2,0,L|207:332,1,110.249996635437,10|8,0:0|0:0,0:0:0:0:
246,303,146858,2,0,L|357:287,1,110.249996635437,6|0,1:2|1:2,0:0:0:0:
395,258,147325,1,10,0:0:0:0:
467,190,147635,2,0,P|484:136|445:80,1,110.249996635437,10|8,0:0|0:0,0:0:0:0:
416,68,148101,6,0,P|362:81|307:86,1,110.249996635437,6|2,1:2|1:2,0:0:0:0:
270,178,148723,2,0,P|325:183|378:196,1,110.249996635437,6|2,1:2|1:2,0:0:0:0:
451,264,149345,6,0,P|466:323|426:371,1,110.249996635437,6|8,1:2|0:0,0:0:0:0:
392,372,149811,2,0,B|349:354|303:359|303:359|281:323|281:323|238:332|175:312,1,220.499993270874,8|8,0:0|0:0,0:0:0:0:
158,282,150588,6,0,L|140:163,1,110.249996635437,6|0,1:2|1:0,0:0:0:0:
107,136,151055,1,8,0:0:0:0:
117,37,151366,2,0,L|232:55,1,110.249996635437,2|10,1:2|0:0,0:0:0:0:
278,48,151832,1,2,0:0:0:0:
278,48,151987,2,0,P|294:108|262:145,1,110.249996635437,2|8,1:2|0:0,0:0:0:0:
204,220,152609,2,0,L|222:338,1,110.249996635437,0|8,1:2|0:0,0:0:0:0:
252,367,153076,6,0,P|305:352|376:342,1,110.249996635437,6|0,1:2|1:0,0:0:0:0:
406,360,153542,1,8,0:0:0:0:
506,384,153853,2,0,P|499:330|510:267,1,110.249996635437,2|10,1:2|0:0,0:0:0:0:
481,239,154319,1,2,0:0:0:0:
481,239,154474,2,0,L|467:124,1,110.249996635437,2|8,1:2|0:0,0:0:0:0:
390,66,155096,2,0,P|335:77|267:86,1,110.249996635437,0|8,1:2|0:0,0:0:0:0:
244,118,155563,6,0,P|223:171|263:226,1,110.249996635437,6|2,1:2|1:2,0:0:0:0:
277,254,156029,1,10,0:0:0:0:
215,331,156340,2,0,L|92:351,1,110.249996635437,10|8,0:0|0:0,0:0:0:0:
33,280,156961,2,0,P|19:213|-3:130,2,146.999995513916,10|10|10,0:0|0:0|0:0,0:0:0:0:
86,338,158050,6,0,L|208:318,1,105,6|0,1:2|0:0,0:0:0:0:
222,287,158516,1,10,0:0:0:0:
306,328,158827,2,0,P|322:282|301:225,1,105,2|10,1:2|0:0,0:0:0:0:
275,193,159294,2,0,L|295:70,1,105,2|0,0:0|0:0,0:0:0:0:
325,55,159760,1,8,0:0:0:0:
407,8,160071,1,0,1:0:0:0:
481,65,160382,1,8,0:0:0:0:
442,150,160692,6,0,L|425:254,1,105,6|10,1:2|0:0,0:0:0:0:
357,320,161314,2,0,L|253:337,1,105,2|10,1:2|0:0,0:0:0:0:
212,312,161780,2,0,P|160:301|108:295,1,105,2|2,0:0|0:0,0:0:0:0:
29,242,162402,2,0,P|12:195|42:154,1,105,2|2,0:0|0:0,0:0:0:0:
85,134,162869,1,8,0:0:0:0:
160,78,163179,6,0,L|267:96,1,105,6|10,1:2|0:0,0:0:0:0:
349,54,163801,2,0,B|365:103|365:103|341:150,1,105,2|10,1:2|0:0,0:0:0:0:
308,184,164267,2,0,P|298:236|292:288,1,105,2|0,0:0|0:0,0:0:0:0:
324,322,164734,1,8,0:0:0:0:
407,365,165045,1,0,1:0:0:0:
492,324,165356,1,8,0:0:0:0:
456,236,165666,6,0,L|474:132,1,105,6|10,1:2|0:0,0:0:0:0:
380,117,166288,2,0,L|363:13,1,105,2|10,1:2|0:0,0:0:0:0:
315,7,166755,2,0,P|270:28|212:7,1,105,2|2,0:0|0:0,0:0:0:0:
177,36,167221,1,8,0:0:0:0:
95,83,167531,2,0,B|142:120|142:120|119:225,1,157.5,0|8,1:0|0:3,0:0:0:0:
141,258,168153,5,6,1:2:0:0:
314,332,168775,2,0,P|320:362|328:392,2,52.5,8|8|8,0:0|0:3|0:3,0:0:0:0:
325,286,169241,1,10,0:0:0:0:
395,223,169552,1,10,0:0:0:0:
