osu file format v14

[General]
AudioFilename: audio.mp3
AudioLeadIn: 0
PreviewTime: 67195
Countdown: 0
SampleSet: Soft
StackLeniency: 0.4
Mode: 0
LetterboxInBreaks: 0
WidescreenStoryboard: 1

[Editor]
Bookmarks: 20174,119500
DistanceSpacing: 1.3
BeatDivisor: 4
GridSize: 32
TimelineZoom: 1.8

[Metadata]
Title:RIOT
TitleUnicode:RIOT
Artist:KNOCK OUT MONKEY
ArtistUnicode:KNOCK OUT MONKEY
Creator:NeKroMan4ik
Version:NEXUS' HARD
Source:
Tags:japanese rock jrock male vocals Mr. Foundation NexusQI airincat reform kujinn nymphe kiyoshi guarden
BeatmapID:3110328
BeatmapSetID:1286119

[Difficulty]
HPDrainRate:4
CircleSize:3.8
OverallDifficulty:6.5
ApproachRate:8
SliderMultiplier:1.4
SliderTickRate:1

[Events]
//Background and Video events
0,0,"bg.jpg",0,0
//Break Periods
//Storyboard Layer 0 (Background)
//Storyboard Layer 1 (Fail)
//Storyboard Layer 2 (Pass)
//Storyboard Layer 3 (Foreground)
//Storyboard Layer 4 (Overlay)
//Storyboard Sound Samples

[TimingPoints]
278,310.880829015544,4,2,1,50,1,0
278,-153.846153846153,4,2,1,50,0,0
5096,-100,4,2,1,60,0,0
6650,-100,4,2,1,50,0,0
6806,-100,4,2,1,60,0,0
9448,-100,4,2,1,50,0,0
9526,-100,4,2,1,60,0,0
15200,-125,4,2,1,50,0,0
20174,-111.111111111111,4,2,1,50,0,0
25148,-111.111111111111,4,2,1,45,0,0
30122,-111.111111111111,4,2,1,60,0,0
34941,-90.9090909090909,4,2,1,70,0,0
35174,-90.9090909090909,4,2,1,5,0,0
35252,-90.9090909090909,4,2,1,70,0,0
37661,-90.9090909090909,4,2,1,5,0,0
37739,-90.9090909090909,4,2,1,70,0,0
41391,-90.9090909090909,4,2,1,50,0,0
41469,-90.9090909090909,4,2,1,70,0,0
45122,-90.9090909090909,4,2,1,5,0,0
45200,-90.9090909090909,4,2,1,70,0,0
47610,-90.9090909090909,4,2,1,5,0,0
47688,-90.9090909090909,4,2,1,70,0,0
52350,-100,4,2,1,60,0,0
52971,-100,4,2,1,50,0,0
53127,-100,4,2,1,60,0,0
53904,-100,4,2,1,50,0,0
54060,-100,4,2,1,60,0,0
57480,-125,4,2,1,55,0,0
67272,-90.9090909090909,4,2,1,70,0,0
67505,-90.9090909090909,4,2,1,5,0,0
67583,-90.9090909090909,4,2,1,70,0,0
69992,-90.9090909090909,4,2,1,5,0,0
70070,-90.9090909090909,4,2,1,70,0,0
72479,-90.9090909090909,4,2,1,50,0,0
72557,-90.9090909090909,4,2,1,70,0,0
77453,-90.9090909090909,4,2,1,5,0,0
77531,-90.9090909090909,4,2,1,70,0,0
79941,-90.9090909090909,4,2,1,5,0,0
80019,-90.9090909090909,4,2,1,70,0,0
84682,-142.857142857143,4,2,1,70,0,0
84759,-142.857142857143,4,2,1,45,0,0
85303,-142.857142857143,4,2,1,50,0,0
86080,-142.857142857143,4,2,1,45,0,0
87169,-125,4,2,1,50,0,0
89656,-125,4,2,1,55,0,0
94785,-142.857142857143,4,2,1,50,0,0
98360,-125,4,2,1,50,0,0
99759,-111.111111111111,4,2,1,50,0,0
104733,-111.111111111111,4,2,1,60,0,0
107065,-111.111111111111,4,2,1,50,0,0
107221,-111.111111111111,4,2,1,60,0,0
109708,-105.263157894737,4,2,1,70,0,0
114682,-105.263157894737,4,2,1,65,0,0
119500,-105.263157894737,4,2,1,50,0,0
123231,-90.9090909090909,4,2,1,70,0,0
123464,-90.9090909090909,4,2,1,5,0,0
123542,-90.9090909090909,4,2,1,70,0,0
125951,-90.9090909090909,4,2,1,5,0,0
126029,-90.9090909090909,4,2,1,70,0,0
128438,-90.9090909090909,4,2,1,50,0,0
128516,-90.9090909090909,4,2,1,70,0,0
133412,-90.9090909090909,4,2,1,5,0,0
133490,-90.9090909090909,4,2,1,70,0,0
135900,-90.9090909090909,4,2,1,5,0,0
135978,-90.9090909090909,4,2,1,70,0,0
143360,-90.9090909090909,4,2,1,5,0,0
143438,-90.9090909090909,4,2,1,70,0,0
150821,-90.9090909090909,4,2,1,5,0,0
150899,-90.9090909090909,4,2,1,70,0,0
153309,-90.9090909090909,4,2,1,5,0,0
153387,-90.9090909090909,4,2,1,70,0,0
155795,-90.9090909090909,4,2,1,50,0,0
155873,-90.9090909090909,4,2,1,70,0,0
158050,-100,4,2,1,60,0,0
159603,-100,4,2,1,50,0,0
159759,-100,4,2,1,60,0,0

[Colours]
Combo1 : 172,81,81
Combo2 : 240,0,0
Combo3 : 222,197,158
Combo4 : 97,112,124

[HitObjects]
30,173,278,5,6,1:2:0:0:
40,167,588,2,0,B|66:50|-23:109|9:-6,2,181.999991668702,0|0|0,3:0|3:0|3:0,0:0:0:0:
161,272,2143,2,0,P|181:261|216:252,1,45.4999979171754,8|8,0:3|0:3,0:0:0:0:
233,187,2454,2,0,P|252:197|274:204,1,45.4999979171754,8|8,0:3|0:3,0:0:0:0:
349,256,2765,5,6,1:2:0:0:
360,266,3075,2,0,P|362:168|395:71,1,181.999991668702,0|0,3:0|3:0,0:0:0:0:
246,6,4008,2,0,P|251:23|252:42,3,22.7499989585877,8|8|8|8,0:0|0:3|0:3|0:3,0:0:0:0:
277,69,4319,2,0,P|272:86|271:105,3,22.7499989585877,8|8|8|8,0:3|0:3|0:3|0:3,0:0:0:0:
255,132,4630,5,8,0:0:0:0:
199,182,4785,1,2,1:2:0:0:
290,344,5096,6,0,P|345:300|418:325,1,140,6|2,1:2|0:0,0:0:0:0:
488,286,5562,2,0,P|468:254|464:212,1,70,10|0,0:0|0:0,0:0:0:0:
384,215,5873,2,0,P|392:178|419:145,1,70,2|0,1:2|0:0,0:0:0:0:
477,104,6184,1,10,0:0:0:0:
397,49,6340,6,0,B|309:41|358:96|260:96,1,140,2|0,0:0|0:0,0:0:0:0:
206,154,6806,2,0,P|200:123|118:110,1,105,8|8,0:0|0:0,0:0:0:0:
130,89,7117,2,0,P|94:104|76:153,1,70,2|0,1:2|0:0,0:0:0:0:
23,191,7428,1,8,0:0:0:0:
84,256,7583,6,0,B|135:264|135:264|153:297|153:297|212:306,1,140,2|0,0:0|0:0,0:0:0:0:
290,283,8050,2,0,P|283:313|277:351,1,70,10|0,0:0|0:0,0:0:0:0:
363,363,8360,2,0,P|368:326|376:280,1,70,2|0,1:2|0:0,0:0:0:0:
442,247,8671,1,10,0:0:0:0:
508,178,8827,6,0,P|511:109|444:78,1,140,2|2,0:0|0:0,0:0:0:0:
395,23,9293,1,10,0:0:0:0:
343,86,9448,1,0,0:0:0:0:
343,86,9526,1,8,0:0:0:0:
343,86,9604,2,0,P|306:111|265:110,1,70,0|0,1:2|0:0,0:0:0:0:
203,66,9915,1,8,0:0:0:0:
189,77,10226,6,0,P|201:156|207:221,1,140,6|10,1:2|0:0,0:0:0:0:
276,268,10692,1,0,0:0:0:0:
215,325,10847,2,0,P|184:312|137:304,1,70,2|2,1:2|0:0,0:0:0:0:
77,339,11158,1,10,0:0:0:0:
11,268,11314,6,0,P|-1:208|55:161,1,140,2|0,0:0|0:0,0:0:0:0:
32,84,11780,2,0,P|79:81|133:130,1,105,8|8,0:0|0:0,0:0:0:0:
133,127,12091,2,0,B|219:133|172:68|277:83,1,140,2|8,1:2|0:0,0:0:0:0:
322,34,12557,1,2,0:0:0:0:
385,98,12713,6,0,L|354:247,1,140,6|10,1:2|0:0,0:0:0:0:
438,261,13179,1,0,0:0:0:0:
462,336,13334,2,0,P|431:341|386:319,1,70,2|2,1:2|0:0,0:0:0:0:
323,371,13645,1,10,0:0:0:0:
249,309,13801,6,0,L|290:154,1,140,2|2,0:0|0:0,0:0:0:0:
241,102,14267,1,10,0:0:0:0:
187,44,14423,1,2,0:0:0:0:
119,81,14578,2,0,L|133:133,3,35,8|8|8|8,0:0|0:0|0:0|0:0,0:0:0:0:
143,131,14889,2,0,L|129:183,3,35,8|8|8|8,0:0|0:0|0:0|0:0,0:0:0:0:
102,192,15200,6,0,L|31:179,1,56,6|2,1:2|1:2,0:0:0:0:
4,251,15511,2,0,L|129:277,1,112,8|8,0:0|0:0,0:0:0:0:
204,379,16132,1,8,0:0:0:0:
328,296,16443,6,0,P|342:269|338:239,1,56,2|0,1:2|1:2,0:0:0:0:
275,202,16754,2,0,P|239:235|252:296,1,112,8|8,0:0|0:0,0:0:0:0:
399,384,17376,1,8,0:0:0:0:
512,272,17687,6,0,L|494:218,1,56,14|10,0:0|0:0,0:0:0:0:
473,202,17920,1,8,0:0:0:0:
473,202,17998,2,0,L|480:172,3,28,8|8|8|8,0:3|0:3|0:3|0:3,0:0:0:0:
506,144,18309,2,0,L|496:108,3,28,8|8|8|8,0:0|0:0|0:0|0:0,0:0:0:0:
471,87,18619,2,0,L|480:52,3,28,8|8|8|8,0:0|0:0|0:0|0:0,0:0:0:0:
471,29,18930,2,0,P|442:11|403:18,1,56,6|2,1:2|1:2,0:0:0:0:
240,99,19863,1,4,0:3:0:0:
236,113,20174,6,0,L|163:100,1,62.9999980773926,6|2,1:2|1:2,0:0:0:0:
127,38,20485,2,0,P|77:31|44:76,1,94.499997116089,10|8,0:0|0:0,0:0:0:0:
42,66,20796,2,0,P|53:106|62:137,1,62.9999980773926,2|2,1:2|1:2,0:0:0:0:
8,192,21107,1,10,0:0:0:0:
8,192,21262,1,2,0:0:0:0:
89,226,21417,6,0,P|97:267|71:298,1,62.9999980773926,2|2,1:2|1:2,0:0:0:0:
33,344,21728,1,8,0:0:0:0:
106,384,21884,2,0,L|241:349,1,125.999996154785,2|2,0:0|1:2,0:0:0:0:
276,287,22350,1,8,0:0:0:0:
347,324,22505,1,2,0:0:0:0:
421,271,22661,6,0,P|431:221|412:198,1,62.9999980773926,2|2,1:2|1:2,0:0:0:0:
398,119,22972,2,0,P|345:160|298:152,1,94.499997116089,8|8,0:0|0:0,0:0:0:0:
310,150,23283,2,0,L|326:59,1,62.9999980773926,8|8,0:3|0:3,0:0:0:0:
244,59,23594,2,0,L|238:92,3,31.4999990386963,8|8|8|8,0:0|0:0|0:0|0:0,0:0:0:0:
221,119,23904,2,0,L|142:106,1,62.9999980773926,2|2,1:2|1:2,0:0:0:0:
305,199,25148,6,0,L|432:235,1,125.999996154785,4|2,1:2|1:2,0:0:0:0:
512,230,25614,1,2,1:2:0:0:
512,230,25770,2,0,L|491:300,1,62.9999980773926,10|2,0:0|1:2,0:0:0:0:
499,379,26081,2,0,L|429:357,1,62.9999980773926,2|2,0:0|1:2,0:0:0:0:
337,347,26391,5,2,0:0:0:0:
261,372,26547,1,8,0:0:0:0:
206,319,26702,1,0,1:2:0:0:
278,292,26858,2,0,L|293:230,1,62.9999980773926,2|8,1:2|0:0,0:0:0:0:
375,233,27169,2,0,P|374:202|351:172,1,62.9999980773926,2|2,1:2|1:2,0:0:0:0:
326,88,27480,6,0,P|270:124|203:107,1,125.999996154785,0|8,0:0|0:0,0:0:0:0:
217,37,27946,2,0,P|177:42|150:67,1,62.9999980773926,2|2,1:2|1:2,0:0:0:0:
106,0,28257,2,0,P|81:31|79:68,1,62.9999980773926,10|2,0:0|0:0,0:0:0:0:
0,51,28568,2,0,P|5:90|30:118,1,62.9999980773926,2|2,1:2|1:2,0:0:0:0:
110,130,28879,5,2,0:0:0:0:
173,177,29034,2,0,L|158:253,1,62.9999980773926,8|0,0:0|1:2,0:0:0:0:
102,293,29345,1,2,1:2:0:0:
27,270,29500,2,0,P|5:295|3:337,1,62.9999980773926,8|2,0:0|1:2,0:0:0:0:
59,383,29811,2,0,L|142:365,1,62.9999980773926,10|0,0:0|1:0,0:0:0:0:
144,384,30044,5,0,1:0:0:0:
144,384,30122,2,0,P|194:335|270:344,1,125.999996154785,12|8,0:0|0:0,0:0:0:0:
335,320,30588,1,8,0:0:0:0:
335,320,30744,2,0,P|308:283|304:237,1,62.9999980773926,8|8,0:0|0:0,0:0:0:0:
234,225,31055,2,0,P|244:179|268:162,1,62.9999980773926,8|8,0:0|0:0,0:0:0:0:
255,65,31366,6,0,L|326:86,1,62.9999980773926,8|8,0:0|0:0,0:0:0:0:
329,2,31676,2,0,L|397:20,1,62.9999980773926,8|8,0:0|0:0,0:0:0:0:
482,0,31987,1,8,0:0:0:0:
482,0,32143,1,8,0:0:0:0:
504,83,32298,1,8,0:0:0:0:
504,83,32454,1,8,0:0:0:0:
415,108,32609,6,0,L|399:140,4,31.4999990386963,14|0|8|8|0,0:0|0:0|0:3|0:3|1:0,0:0:0:0:
463,196,33075,2,0,L|477:167,4,31.4999990386963,14|0|8|8|0,0:0|0:0|0:3|0:3|1:0,0:0:0:0:
459,284,33542,2,0,L|385:257,1,62.9999980773926,12|0,0:0|1:0,0:0:0:0:
371,231,33775,5,0,1:0:0:0:
371,231,33853,2,0,B|336:242|336:242|325:261|325:261|276:276,2,94.499997116089,10|10|10,0:0|0:0|0:0,0:0:0:0:
149,73,34941,6,0,L|265:111,1,115.50000352478,6|0,1:2|0:0,0:0:0:0:
271,114,35252,2,0,P|274:68|303:34,1,77.0000023498536,0|8,1:0|0:0,0:0:0:0:
367,12,35562,1,2,0:0:0:0:
412,78,35718,2,0,P|409:124|380:158,1,77.0000023498536,2|2,1:2|1:2,0:0:0:0:
436,224,36029,2,0,P|401:254|356:257,1,77.0000023498536,10|2,0:0|0:0,0:0:0:0:
315,334,36340,5,2,1:2:0:0:
315,334,36495,2,0,P|274:338|225:346,1,77.0000023498536,2|8,1:2|0:0,0:0:0:0:
139,384,36806,2,0,B|165:298|92:322|122:236,1,154.000004699707,8|0,0:0|1:2,0:0:0:0:
200,264,37272,1,8,0:0:0:0:
258,184,37428,6,0,P|275:117|240:87,1,115.50000352478,6|0,1:2|0:0,0:0:0:0:
236,67,37739,2,0,P|191:86|129:85,1,77.0000023498536,0|8,1:0|0:0,0:0:0:0:
111,24,38049,1,2,0:0:0:0:
49,78,38205,2,0,L|82:162,1,77.0000023498536,2|2,1:2|1:2,0:0:0:0:
0,178,38516,2,0,L|33:262,1,77.0000023498536,10|2,0:0|0:0,0:0:0:0:
89,335,38827,5,2,1:2:0:0:
89,335,38982,2,0,P|115:310|167:301,1,77.0000023498536,2|8,1:2|0:0,0:0:0:0:
221,246,39293,2,0,P|260:302|360:288,1,154.000004699707,8|0,0:0|1:2,0:0:0:0:
419,322,39759,1,8,0:0:0:0:
483,251,39915,6,0,B|439:217|454:165|454:165|490:157|504:109,1,154.000004699707,6|2,1:2|1:2,0:0:0:0:
464,47,40381,1,10,0:0:0:0:
386,14,40536,1,0,1:2:0:0:
314,53,40692,2,0,P|300:92|334:140,1,77.0000023498536,10|0,0:0|1:2,0:0:0:0:
368,187,41002,1,8,0:0:0:0:
301,260,41158,6,0,P|245:255|207:190,1,115.50000352478,6|0,1:2|0:0,0:0:0:0:
194,188,41469,2,0,P|196:162|213:142,2,38.5000011749268,0|0|10,1:2|1:0|0:0,0:0:0:0:
122,232,41780,2,0,P|105:212|102:186,2,38.5000011749268,0|0|10,1:2|1:2|0:0,0:0:0:0:
121,320,42091,2,0,P|94:317|75:300,2,38.5000011749268,0|0|8,1:2|1:2|0:0,0:0:0:0:
220,351,42402,6,0,P|295:332|378:316,1,154.000004699707,6|2,1:2|1:2,0:0:0:0:
433,256,42868,1,8,0:0:0:0:
351,225,43024,2,0,P|277:245|201:260,1,154.000004699707,6|2,1:2|1:2,0:0:0:0:
123,221,43490,1,8,0:0:0:0:
37,160,43645,6,0,P|24:85|94:38,1,154.000004699707,6|8,1:2|0:0,0:0:0:0:
96,50,44034,1,8,0:0:0:0:
96,50,44112,2,0,P|139:49|185:7,1,77.0000023498536,8|8,0:0|0:0,0:0:0:0:
184,15,44345,1,8,0:0:0:0:
184,15,44423,1,6,1:2:0:0:
248,80,44578,2,0,L|229:145,3,38.5000011749268,8|8|8|8,0:0|0:0|0:0|0:0,0:0:0:0:
244,131,44889,6,0,P|307:117|375:107,1,115.50000352478,6|0,1:2|0:0,0:0:0:0:
366,92,45200,2,0,P|413:84|455:77,1,77.0000023498536,0|8,1:0|0:0,0:0:0:0:
507,133,45511,1,2,0:0:0:0:
444,194,45667,2,0,L|460:290,1,77.0000023498536,2|2,1:2|1:2,0:0:0:0:
423,355,45977,2,0,P|389:341|334:333,1,77.0000023498536,10|2,0:0|0:0,0:0:0:0:
252,308,46289,5,2,1:2:0:0:
252,308,46444,2,0,P|249:256|282:226,1,77.0000023498536,2|8,1:2|0:0,0:0:0:0:
314,154,46754,2,0,P|371:204|462:177,1,154.000004699707,8|0,0:0|1:2,0:0:0:0:
508,139,47221,1,8,0:0:0:0:
466,45,47377,6,0,P|418:15|358:26,1,115.50000352478,6|0,1:2|0:0,0:0:0:0:
357,36,47688,2,0,P|314:60|259:56,1,77.0000023498536,0|8,1:0|0:0,0:0:0:0:
221,116,47998,1,2,0:0:0:0:
144,78,48154,2,0,L|174:-19,1,77.0000023498536,2|2,1:2|1:2,0:0:0:0:
76,0,48464,2,0,L|53:73,1,77.0000023498536,10|2,0:0|0:0,0:0:0:0:
79,170,48776,5,2,1:2:0:0:
79,170,48931,2,0,L|167:152,1,77.0000023498536,2|8,1:2|0:0,0:0:0:0:
133,244,49242,2,0,B|228:229|173:297|285:293,1,154.000004699707,8|0,0:0|1:2,0:0:0:0:
321,355,49708,1,8,0:0:0:0:
403,303,49863,6,0,P|434:268|380:169,1,154.000004699707,6|2,1:2|1:2,0:0:0:0:
323,212,50329,1,10,0:0:0:0:
254,155,50485,1,0,1:2:0:0:
335,124,50640,2,0,L|348:34,1,77.0000023498536,10|0,0:0|1:2,0:0:0:0:
279,0,50951,1,8,0:0:0:0:
212,51,51107,1,0,1:0:0:0:
112,27,51262,6,0,P|61:25|19:70,2,102.666669799805,10|10|10,0:0|0:0|0:0,0:0:0:0:
150,142,51884,6,0,P|112:175|61:174,1,102.666669799805,10|10,0:0|0:0,0:0:0:0:
192,278,52350,6,0,B|248:290|248:290|261:322|261:322|328:337,1,140,6|2,1:2|0:0,0:0:0:0:
375,293,52816,2,0,L|394:360,1,70,10|0,0:0|0:0,0:0:0:0:
478,344,53127,2,0,L|458:276,1,70,2|0,1:2|0:0,0:0:0:0:
512,215,53438,1,10,0:0:0:0:
442,151,53594,6,0,P|387:114|321:136,1,140,2|0,0:0|0:0,0:0:0:0:
273,68,54060,2,0,P|249:88|243:164,1,105,10|8,0:0|0:0,0:0:0:0:
250,169,54371,2,0,P|259:212|243:241,1,70,2|0,1:2|0:0,0:0:0:0:
288,309,54682,1,10,0:0:0:0:
216,366,54837,6,0,P|143:343|72:326,1,140,0|2,0:0|0:0,0:0:0:0:
43,256,55303,2,0,P|39:230|81:191,1,70,10|0,0:0|0:0,0:0:0:0:
0,143,55614,2,0,P|15:121|72:123,1,70,2|2,1:2|0:0,0:0:0:0:
121,48,55925,1,10,0:0:0:0:
121,48,56081,1,2,0:0:0:0:
189,117,56236,6,0,P|205:132|233:139,5,35,8|8|8|8|0|0,0:0|0:3|0:0|0:3|1:0|1:0,0:0:0:0:
236,156,56702,2,0,P|257:155|282:140,5,35,8|8|8|8|0|0,0:0|0:3|0:0|0:3|1:0|1:0,0:0:0:0:
301,123,57169,1,10,0:0:0:0:
367,195,57324,5,0,1:0:0:0:
367,195,57402,1,0,1:0:0:0:
367,195,57480,2,0,L|338:327,1,112,12|10,0:0|0:0,0:0:0:0:
410,369,57946,1,2,0:0:0:0:
410,369,58101,2,0,L|424:300,1,56,10|2,0:0|1:2,0:0:0:0:
496,312,58412,2,0,L|507:244,1,56,10|2,0:0|1:2,0:0:0:0:
457,187,58723,6,0,P|444:155|462:120,1,56,8|8,0:0|0:3,0:0:0:0:
467,120,58956,1,8,0:3:0:0:
467,120,59034,1,8,0:3:0:0:
410,48,59189,2,0,B|366:39|366:39|354:20|354:20|297:10,1,112,8|8,0:3|0:3,0:0:0:0:
295,35,59578,1,8,0:3:0:0:
295,35,59656,2,0,P|283:69|300:95,1,56,8|0,0:3|1:0,0:0:0:0:
314,113,59889,5,0,1:3:0:0:
314,113,59967,2,0,P|338:163|298:219,1,112,14|10,0:0|0:0,0:0:0:0:
373,268,60433,1,0,1:0:0:0:
373,268,60588,2,0,P|352:287|302:297,1,56,10|0,0:0|1:2,0:0:0:0:
277,361,60899,2,0,P|254:342|218:341,1,56,10|2,0:0|0:0,0:0:0:0:
140,377,61210,5,10,0:0:0:0:
85,309,61366,1,10,0:0:0:0:
169,130,62143,1,4,0:3:0:0:
180,137,62454,6,0,P|208:135|247:107,1,56,6|2,1:2|1:2,0:0:0:0:
290,175,62765,2,0,P|318:177|357:205,1,56,10|8,0:0|0:0,0:0:0:0:
355,214,62998,1,8,0:0:0:0:
355,214,63075,2,0,P|349:246|338:271,1,56,2|2,1:2|1:2,0:0:0:0:
420,290,63386,2,0,P|426:258|437:233,1,56,10|2,0:0|0:0,0:0:0:0:
500,163,63697,5,2,1:2:0:0:
500,163,63853,2,0,P|496:91|465:79,1,112,2|8,1:2|0:0,0:0:0:0:
397,27,64319,2,0,P|385:63|364:98,1,56,2|10,1:2|0:2,0:0:0:0:
355,95,64552,1,8,0:2:0:0:
355,95,64630,2,0,L|300:74,1,56,8|8,0:0|0:0,0:0:0:0:
236,150,64941,6,0,L|302:171,1,56,6|8,1:2|0:0,0:0:0:0:
309,193,65174,1,8,0:0:0:0:
309,193,65252,1,8,0:0:0:0:
250,260,65407,2,0,L|204:274,4,28,6|8|8|8|8,1:2|0:0|0:0|0:0|0:0,0:0:0:0:
270,344,65873,2,0,L|324:354,1,56,6|8,1:2|0:0,0:0:0:0:
362,337,66107,5,8,0:0:0:0:
362,337,66184,1,8,0:0:0:0:
442,384,66340,1,2,1:2:0:0:
512,150,67272,6,0,P|513:100|447:78,1,115.50000352478,6|0,1:2|0:0,0:0:0:0:
451,63,67583,2,0,P|413:69|391:107,1,77.0000023498536,0|8,1:0|0:0,0:0:0:0:
434,183,67893,1,2,0:0:0:0:
361,248,68049,2,0,B|267:241|323:187|215:194,1,154.000004699707,2|10,1:2|0:0,0:0:0:0:
234,280,68516,1,2,0:0:0:0:
169,346,68671,5,2,1:2:0:0:
169,346,68826,2,0,P|128:350|93:315,1,77.0000023498536,2|8,1:2|0:0,0:0:0:0:
11,276,69138,2,0,P|65:225|32:143,1,154.000004699707,8|0,0:0|1:2,0:0:0:0:
0,86,69603,1,8,0:0:0:0:
71,19,69759,6,0,P|121:46|193:60,1,115.50000352478,6|0,1:2|0:0,0:0:0:0:
199,52,70070,2,0,L|174:134,1,77.0000023498536,0|8,1:0|0:0,0:0:0:0:
215,205,70380,1,2,0:0:0:0:
287,158,70537,2,0,L|309:84,1,77.0000023498536,2|2,1:2|1:2,0:0:0:0:
377,23,70847,2,0,P|402:65|377:110,1,77.0000023498536,10|2,0:0|0:0,0:0:0:0:
470,164,71158,5,2,1:2:0:0:
470,164,71313,2,0,P|473:205|481:244,1,77.0000023498536,2|8,1:2|0:0,0:0:0:0:
502,352,71625,2,0,B|475:307|412:321|412:321|403:357|367:377,1,154.000004699707,8|0,0:0|1:2,0:0:0:0:
300,374,72090,1,8,0:0:0:0:
252,284,72246,6,0,P|271:210|281:161,1,115.50000352478,6|0,1:2|0:0,0:0:0:0:
264,142,72557,2,0,P|259:113|256:97,2,38.5000011749268,2|0|10,1:2|1:2|0:0,0:0:0:0:
177,117,72868,2,0,P|172:88|169:72,2,38.5000011749268,0|0|10,1:2|1:2|0:0,0:0:0:0:
90,89,73179,2,0,P|85:60|82:44,2,38.5000011749268,0|0|8,1:2|1:2|0:0,0:0:0:0:
19,150,73490,6,0,B|-9:193|24:228|39:207|75:244|38:313,1,154.000004699707,6|0,1:2|1:2,0:0:0:0:
123,345,73956,2,0,P|157:325|205:319,1,77.0000023498536,10|0,0:0|1:2,0:0:0:0:
216,298,74189,1,0,1:2:0:0:
216,298,74267,2,0,P|250:318|298:324,1,77.0000023498536,10|0,0:0|1:2,0:0:0:0:
351,380,74578,1,8,0:0:0:0:
436,343,74733,6,0,P|482:275|458:199,1,154.000004699707,6|2,1:2|1:2,0:0:0:0:
402,144,75199,1,8,0:0:0:0:
319,178,75355,2,0,P|273:246|297:322,1,154.000004699707,6|2,1:2|1:2,0:0:0:0:
228,384,75821,1,8,0:0:0:0:
148,320,75977,6,0,P|65:303|-20:274,1,154.000004699707,6|8,1:2|0:0,0:0:0:0:
0,269,76365,1,8,0:0:0:0:
0,269,76443,2,0,P|18:231|34:174,1,77.0000023498536,8|8,0:0|0:0,0:0:0:0:
0,118,76754,1,6,1:2:0:0:
80,85,76909,2,0,P|101:100|125:114,3,38.5000011749268,8|8|8|8,0:0|0:0|0:0|0:0,0:0:0:0:
127,124,77220,6,0,P|167:88|227:89,1,115.50000352478,6|0,1:2|0:0,0:0:0:0:
247,84,77531,2,0,P|236:129|229:164,1,77.0000023498536,0|8,1:0|0:0,0:0:0:0:
155,215,77842,1,2,0:0:0:0:
231,277,77998,2,0,P|267:277|309:245,1,77.0000023498536,2|2,1:2|1:2,0:0:0:0:
353,324,78309,2,0,P|378:298|385:246,1,77.0000023498536,10|2,0:0|0:0,0:0:0:0:
473,229,78620,5,2,1:2:0:0:
473,229,78775,2,0,P|457:183|452:138,1,77.0000023498536,2|8,1:2|0:0,0:0:0:0:
506,72,79086,2,0,B|415:77|464:13|349:26,1,154.000004699707,8|0,0:0|1:2,0:0:0:0:
287,0,79552,1,8,0:0:0:0:
223,72,79708,6,0,P|249:122|264:195,1,115.50000352478,6|0,1:2|0:0,0:0:0:0:
283,192,80019,2,0,P|269:228|265:282,1,77.0000023498536,0|8,1:0|0:0,0:0:0:0:
319,337,80329,1,2,0:0:0:0:
251,384,80485,2,0,L|165:362,1,77.0000023498536,2|2,1:2|1:2,0:0:0:0:
79,376,80795,2,0,L|100:301,1,77.0000023498536,10|2,0:0|0:0,0:0:0:0:
31,222,81107,5,2,1:2:0:0:
31,222,81262,2,0,P|13:169|31:140,1,77.0000023498536,2|8,1:2|0:0,0:0:0:0:
18,60,81573,2,0,B|78:74|78:74|95:106|95:106|150:119,1,154.000004699707,8|0,0:0|1:2,0:0:0:0:
200,186,82039,1,8,0:0:0:0:
261,99,82195,6,0,P|313:47|399:57,1,154.000004699707,6|2,1:2|1:2,0:0:0:0:
481,25,82661,2,0,P|471:58|464:101,1,77.0000023498536,10|0,0:0|1:2,0:0:0:0:
512,178,82972,1,10,0:0:0:0:
512,178,83127,1,0,1:2:0:0:
447,239,83283,2,0,L|367:219,1,77.0000023498536,10|0,0:0|0:0,0:0:0:0:
292,162,83594,6,0,L|317:61,1,77.0000023498536,6|8,1:2|0:0,0:0:0:0:
290,56,83827,1,8,0:0:0:0:
294,60,83904,1,8,0:0:0:0:
222,0,84060,1,6,1:2:0:0:
39,69,84371,1,6,1:2:0:0:
200,190,84682,6,0,P|235:280|166:357,1,195.999994018555,6|0,1:2|0:0,0:0:0:0:
97,346,85459,2,0,P|62:256|131:179,1,195.999994018555,0|2,0:0|0:0,0:0:0:0:
270,85,86547,1,8,0:0:0:0:
270,85,86702,2,0,P|295:98|314:105,1,48.9999985046387,8|8,0:0|0:0,0:0:0:0:
330,27,87013,1,8,0:3:0:0:
402,74,87169,6,0,P|436:116|416:173,1,112,6|2,1:2|0:0,0:0:0:0:
484,223,87635,2,0,P|465:255|465:293,1,56,2|2,1:2|0:0,0:0:0:0:
408,341,87946,2,0,P|361:297|302:320,1,112,10|2,0:0|0:0,0:0:0:0:
262,365,88412,1,2,1:2:0:0:
202,299,88568,5,2,0:0:0:0:
202,299,88723,2,0,P|207:263|215:237,1,56,10|0,0:0|1:2,0:0:0:0:
284,204,89034,2,0,L|268:128,1,56,2|8,1:2|0:0,0:0:0:0:
320,80,89345,2,0,L|312:39,3,28,10|8|8|8,0:0|0:0|0:0|0:0,0:0:0:0:
287,26,89656,6,0,P|237:17|197:74,1,112,6|2,1:2|1:2,0:0:0:0:
174,132,90122,2,0,P|146:129|108:108,1,56,10|2,0:0|0:0,0:0:0:0:
36,82,90433,2,0,L|46:147,1,56,2|2,1:2|1:2,0:0:0:0:
0,200,90744,1,10,0:0:0:0:
79,253,90899,6,0,B|125:262|125:262|136:284|136:284|175:293,1,112,2|2,0:0|1:2,0:0:0:0:
245,249,91366,2,0,L|229:182,1,56,10|2,0:0|0:0,0:0:0:0:
309,177,91676,2,0,L|322:231,1,56,2|2,1:2|1:2,0:0:0:0:
395,269,91987,1,10,0:0:0:0:
348,341,92143,6,0,L|238:362,1,112,6|2,1:2|1:2,0:0:0:0:
179,305,92609,1,10,0:0:0:0:
167,292,92920,2,0,L|189:240,1,56,10|8,0:0|0:0,0:0:0:0:
208,233,93153,1,8,0:0:0:0:
208,233,93231,1,0,1:0:0:0:
143,161,93386,5,8,0:0:0:0:
143,161,93464,1,8,0:0:0:0:
143,161,93542,2,0,L|133:114,3,28,8|8|0|0,0:0|0:0|1:0|1:0,0:0:0:0:
120,102,93853,2,0,P|118:60|136:48,1,56,12|0,0:0|1:2,0:0:0:0:
194,1,94164,2,0,L|269:29,1,56,8|8,0:2|0:0,0:0:0:0:
269,53,94397,1,8,0:0:0:0:
269,53,94474,2,0,P|266:71|249:93,3,28,8|8|8|8,0:3|0:3|0:3|0:3,0:0:0:0:
235,108,94785,5,4,1:2:0:0:
392,336,96029,2,0,P|460:342|510:276,2,146.999995513916,12|8|8,0:0|0:3|0:3,0:0:0:0:
299,232,97272,1,12,0:0:0:0:
116,380,98360,5,8,0:0:0:0:
116,380,98438,1,8,0:0:0:0:
116,380,98516,2,0,P|77:376|56:360,1,56,8|8,0:0|0:0,0:0:0:0:
106,299,98827,2,0,P|81:268|77:242,1,56,8|8,0:0|0:0,0:0:0:0:
154,236,99138,2,0,P|157:197|174:176,1,56,8|8,0:0|0:0,0:0:0:0:
96,148,99448,2,0,L|82:112,3,28,0|0|0|0,1:2|1:2|1:2|1:2,0:0:0:0:
95,92,99759,6,0,L|73:23,1,62.9999980773926,4|0,1:2|1:2,0:0:0:0:
154,1,100070,2,0,L|178:80,1,62.9999980773926,0|0,1:2|1:2,0:0:0:0:
253,75,100381,1,12,0:0:0:0:
430,179,101003,5,4,1:2:0:0:
430,179,101158,2,0,L|413:254,2,62.9999980773926,10|2|2,0:0|0:0|1:2,0:0:0:0:
352,160,101625,2,0,L|336:221,1,62.9999980773926,12|0,0:0|1:2,0:0:0:0:
263,259,101936,2,0,P|245:287|274:328,1,62.9999980773926,2|10,0:0|0:0,0:0:0:0:
186,384,102246,6,0,L|115:370,1,62.9999980773926,4|0,1:2|1:2,0:0:0:0:
52,331,102557,2,0,P|60:309|68:254,1,62.9999980773926,0|0,1:2|1:2,0:0:0:0:
13,211,102868,1,12,0:0:0:0:
146,38,103490,5,4,1:2:0:0:
146,38,103645,2,0,L|205:60,2,62.9999980773926,10|2|2,0:0|0:0|1:2,0:0:0:0:
73,81,104112,2,0,P|57:107|88:150,1,62.9999980773926,12|0,0:0|1:2,0:0:0:0:
76,222,104423,2,0,L|131:207,3,31.4999990386963,8|8|8|8,0:0|0:0|0:0|0:0,0:0:0:0:
138,232,104733,6,0,P|195:229|239:291,1,125.999996154785,2|10,1:3|0:0,0:0:0:0:
330,373,105277,1,8,0:0:0:0:
337,364,105355,2,0,L|407:348,1,62.9999980773926,2|0,1:3|1:2,0:0:0:0:
462,299,105666,2,0,P|478:268|423:189,1,125.999996154785,10|2,0:0|1:3,0:0:0:0:
378,132,106132,6,0,L|396:60,2,62.9999980773926,0|8|8,1:2|0:0|0:0,0:0:0:0:
350,148,106521,1,8,0:0:0:0:
350,148,106599,2,0,L|329:219,1,62.9999980773926,0|0,1:2|1:2,0:0:0:0:
276,271,106910,2,0,P|244:268|213:242,1,62.9999980773926,8|0,0:0|0:0,0:0:0:0:
135,300,107221,6,0,P|110:243|150:181,1,125.999996154785,2|10,1:3|0:0,0:0:0:0:
226,101,107765,1,8,0:0:0:0:
216,93,107842,2,0,L|195:17,1,62.9999980773926,2|0,1:3|1:2,0:0:0:0:
122,0,108153,2,0,B|76:16|76:16|68:46|68:46|17:65,1,125.999996154785,10|2,0:0|1:3,0:0:0:0:
36,144,108619,6,0,L|105:119,2,62.9999980773926,2|8|8,1:2|0:0|0:0,0:0:0:0:
17,175,109008,1,8,0:0:0:0:
17,175,109086,2,0,P|39:207|46:246,1,62.9999980773926,8|0,0:0|1:2,0:0:0:0:
124,254,109397,2,0,P|102:286|95:325,1,62.9999980773926,8|0,0:0|1:0,0:0:0:0:
160,384,109708,6,0,L|301:362,1,132.999996448517,14|0,0:0|1:2,0:0:0:0:
366,318,110174,2,0,P|373:276|350:244,1,66.4999982242585,10|0,0:0|1:2,0:0:0:0:
416,188,110485,1,0,1:2:0:0:
342,131,110640,6,0,B|307:117|274:136|293:149|253:182|213:158,1,132.999996448517,14|0,0:0|1:0,0:0:0:0:
211,237,111107,2,0,P|174:229|149:196,1,66.4999982242585,8|2,0:0|1:2,0:0:0:0:
84,162,111417,1,2,1:2:0:0:
146,96,111573,6,0,L|162:17,1,66.4999982242585,14|2,0:0|1:2,0:0:0:0:
246,12,111884,2,0,L|232:77,1,66.4999982242585,14|2,0:0|1:2,0:0:0:0:
331,60,112195,6,0,P|395:70|433:142,1,132.999996448517,14|2,0:0|1:2,0:0:0:0:
495,173,112661,2,0,P|474:208|470:258,1,66.4999982242585,10|2,0:0|1:2,0:0:0:0:
512,301,112972,1,2,1:2:0:0:
429,356,113127,6,0,L|294:320,1,132.999996448517,14|0,0:0|1:2,0:0:0:0:
212,332,113594,2,0,L|235:264,1,66.4999982242585,10|2,0:0|1:2,0:0:0:0:
192,200,113904,1,0,1:2:0:0:
281,170,114060,6,0,P|279:122|256:104,1,66.4999982242585,10|2,0:0|1:2,0:0:0:0:
332,66,114371,2,0,P|296:33|267:37,1,66.4999982242585,10|2,0:0|1:2,0:0:0:0:
262,12,114604,5,0,1:2:0:0:
262,12,114682,2,0,P|209:46|137:60,1,132.999996448517,10|2,0:0|1:2,0:0:0:0:
55,47,115148,1,10,0:0:0:0:
55,47,115303,2,0,L|77:117,1,66.4999982242585,2|10,1:2|0:0,0:0:0:0:
0,143,115614,2,0,L|25:223,1,66.4999982242585,2|10,1:2|0:0,0:0:0:0:
87,272,115925,6,0,P|121:226|196:228,1,132.999996448517,2|2,1:2|1:2,0:0:0:0:
240,298,116391,1,10,0:0:0:0:
303,242,116546,2,0,L|280:162,1,66.4999982242585,2|10,1:2|0:0,0:0:0:0:
363,152,116857,2,0,L|388:232,1,66.4999982242585,2|10,1:2|0:0,0:0:0:0:
459,276,117169,5,6,1:2:0:0:
398,335,117324,2,0,P|382:333|345:312,5,33.2499991121292,8|8|8|8|8|8,0:0|0:0|0:0|0:0|0:0|0:0,0:0:0:0:
342,306,117790,2,0,P|309:314|278:337,1,66.4999982242585,6|8,1:2|0:0,0:0:0:0:
269,358,118024,1,8,0:0:0:0:
269,358,118101,1,2,1:2:0:0:
201,300,118257,6,0,L|212:264,5,33.2499991121292,8|8|6|10|10|10,0:0|0:0|1:2|0:0|0:0|0:0,0:0:0:0:
233,254,118723,1,10,0:0:0:0:
176,198,118879,1,8,0:0:0:0:
237,138,119034,2,0,L|306:164,1,66.4999982242585,8|8,0:3|0:3,0:0:0:0:
333,157,119267,1,8,0:3:0:0:
333,157,119345,1,8,0:3:0:0:
408,107,119500,5,6,1:2:0:0:
170,384,122765,6,0,L|201:374,4,33.2499991121292,8|8|8|8|8,0:0|0:0|0:0|0:0|0:0,0:0:0:0:
74,380,123231,2,0,P|92:318|48:281,1,115.50000352478,6|0,1:2|0:0,0:0:0:0:
40,284,123542,2,0,P|46:239|50:202,1,77.0000023498536,0|8,1:0|0:0,0:0:0:0:
0,139,123852,1,2,0:0:0:0:
76,85,124008,2,0,P|114:96|159:108,1,77.0000023498536,2|2,1:2|1:2,0:0:0:0:
163,198,124319,2,0,P|200:187|237:177,1,77.0000023498536,10|2,0:0|0:0,0:0:0:0:
309,113,124630,5,2,1:2:0:0:
309,113,124785,2,0,P|305:58|278:30,1,77.0000023498536,2|8,1:2|0:0,0:0:0:0:
377,0,125096,2,0,P|446:6|469:91,1,154.000004699707,8|0,0:0|1:2,0:0:0:0:
506,161,125562,1,8,0:0:0:0:
439,225,125718,6,0,P|381:236|310:248,1,115.50000352478,6|0,1:2|0:0,0:0:0:0:
320,263,126029,2,0,P|283:285|236:275,1,77.0000023498536,0|8,1:0|0:0,0:0:0:0:
172,247,126339,1,2,0:0:0:0:
221,174,126495,2,0,P|258:152|305:162,1,77.0000023498536,2|2,1:2|1:2,0:0:0:0:
376,156,126806,2,0,P|365:119|355:76,1,77.0000023498536,10|2,0:0|0:0,0:0:0:0:
293,10,127117,5,2,1:2:0:0:
293,10,127272,2,0,P|257:33|208:38,1,77.0000023498536,2|8,1:2|0:0,0:0:0:0:
162,95,127583,2,0,B|128:53|69:74|69:74|62:103|41:119,1,154.000004699707,8|0,0:0|1:2,0:0:0:0:
9,194,128049,1,8,0:0:0:0:
96,246,128205,6,0,L|229:210,1,115.50000352478,6|0,1:2|0:0,0:0:0:0:
227,199,128516,2,0,P|229:173|246:153,2,38.5000011749268,2|0|10,1:2|1:2|0:0,0:0:0:0:
313,203,128827,2,0,P|334:217|343:242,2,38.5000011749268,0|0|10,1:2|1:2|0:0,0:0:0:0:
269,282,129138,2,0,P|245:293|219:288,2,38.5000011749268,0|0|8,1:2|1:2|0:0,0:0:0:0:
329,357,129448,6,0,B|390:346|390:346|404:313|404:313|478:298,1,154.000004699707,6|0,1:2|1:2,0:0:0:0:
512,231,129915,2,0,L|490:152,1,77.0000023498536,10|0,0:0|1:2,0:0:0:0:
506,137,130148,1,0,1:2:0:0:
506,137,130226,2,0,L|486:58,1,77.0000023498536,10|0,0:0|1:2,0:0:0:0:
414,5,130537,1,8,0:0:0:0:
339,71,130692,6,0,B|250:70|299:128|200:133,1,154.000004699707,6|2,1:2|1:2,0:0:0:0:
124,179,131158,1,8,0:0:0:0:
207,222,131314,2,0,B|296:221|247:279|346:284,1,154.000004699707,6|2,1:2|1:2,0:0:0:0:
425,315,131780,1,8,0:0:0:0:
512,253,131935,6,0,P|511:166|446:137,1,154.000004699707,6|8,1:2|0:0,0:0:0:0:
445,129,132324,1,8,0:0:0:0:
445,129,132402,2,0,P|397:136|379:168,1,77.0000023498536,8|8,0:0|0:0,0:0:0:0:
374,185,132635,1,8,0:0:0:0:
374,185,132713,1,6,1:2:0:0:
306,123,132868,2,0,L|316:86,3,38.5000011749268,8|8|8|8,0:0|0:0|0:0|0:0,0:0:0:0:
309,63,133179,6,0,P|252:45|195:84,1,115.50000352478,6|0,1:2|0:0,0:0:0:0:
192,65,133490,2,0,P|164:99|179:147,1,77.0000023498536,0|8,1:0|0:0,0:0:0:0:
231,195,133801,1,2,0:0:0:0:
150,251,133957,2,0,L|52:228,1,77.0000023498536,2|2,1:2|1:2,0:0:0:0:
51,318,134267,2,0,L|125:335,1,77.0000023498536,10|2,0:0|0:0,0:0:0:0:
218,384,134579,5,2,1:2:0:0:
218,384,134734,2,0,P|253:366|303:360,1,77.0000023498536,2|8,1:2|0:0,0:0:0:0:
380,384,135044,2,0,B|390:282|324:330|357:207,1,154.000004699707,8|0,0:0|1:2,0:0:0:0:
431,257,135511,1,8,0:0:0:0:
509,181,135667,6,0,P|506:134|439:110,1,115.50000352478,6|0,1:2|0:0,0:0:0:0:
435,99,135978,2,0,P|392:123|337:119,1,77.0000023498536,0|8,1:0|0:0,0:0:0:0:
317,45,136288,1,2,0:0:0:0:
253,113,136444,2,0,P|270:150|277:203,1,77.0000023498536,2|2,1:2|1:2,0:0:0:0:
352,227,136754,2,0,P|335:264|328:317,1,77.0000023498536,10|2,0:0|0:0,0:0:0:0:
242,368,137066,5,2,1:2:0:0:
242,368,137221,2,0,L|154:350,1,77.0000023498536,2|8,1:2|0:0,0:0:0:0:
77,304,137531,2,0,P|130:254|101:179,1,154.000004699707,8|0,0:0|1:2,0:0:0:0:
28,153,137998,1,8,0:0:0:0:
109,75,138153,6,0,B|149:35|202:61|202:61|205:97|238:111,1,154.000004699707,6|2,1:2|1:2,0:0:0:0:
307,80,138619,1,10,0:0:0:0:
365,139,138775,1,0,1:2:0:0:
314,219,138930,2,0,P|272:207|223:200,1,77.0000023498536,10|0,0:0|1:2,0:0:0:0:
154,240,139241,1,8,0:0:0:0:
205,313,139397,1,0,1:0:0:0:
272,384,139552,6,0,L|394:352,2,102.666669799805,10|10|10,0:0|0:0|0:0,0:0:0:0:
194,308,140174,6,0,L|94:334,1,102.666669799805,10|10,0:0|0:0,0:0:0:0:
336,75,141107,6,0,P|410:79|434:154,1,154.000004699707,12|2,0:0|1:2,0:0:0:0:
512,163,141573,1,2,1:2:0:0:
487,244,141728,2,0,P|468:284|459:320,1,77.0000023498536,10|2,0:0|0:0,0:0:0:0:
371,370,142039,5,2,1:2:0:0:
371,370,142194,2,0,P|331:337|290:338,1,77.0000023498536,2|8,1:2|0:0,0:0:0:0:
247,273,142505,2,0,P|212:324|117:326,1,154.000004699707,8|0,0:0|1:2,0:0:0:0:
57,382,142971,1,8,0:0:0:0:
0,293,143127,6,0,P|21:220|24:159,1,115.50000352478,6|0,1:2|0:0,0:0:0:0:
30,164,143438,2,0,P|69:159|106:186,1,77.0000023498536,0|8,1:0|0:0,0:0:0:0:
166,235,143748,1,2,0:0:0:0:
221,158,143904,2,0,P|211:117|202:76,1,77.0000023498536,2|2,1:2|1:2,0:0:0:0:
285,61,144215,2,0,P|293:98|302:135,1,77.0000023498536,10|2,0:0|0:0,0:0:0:0:
369,211,144526,5,2,1:2:0:0:
369,211,144681,2,0,L|355:295,1,77.0000023498536,2|8,1:2|0:0,0:0:0:0:
436,312,144992,2,0,L|465:136,1,154.000004699707,8|0,0:0|1:2,0:0:0:0:
512,89,145458,1,8,0:0:0:0:
433,30,145614,6,0,B|391:7|349:36|369:50|337:95|275:65,1,154.000004699707,6|2,1:2|1:2,0:0:0:0:
226,14,146080,1,10,0:0:0:0:
139,39,146235,1,0,1:2:0:0:
56,61,146391,2,0,P|35:95|66:144,1,77.0000023498536,10|0,0:0|1:2,0:0:0:0:
0,197,146701,1,8,0:0:0:0:
86,242,146858,6,0,P|143:222|244:201,1,154.000004699707,6|0,1:2|1:2,0:0:0:0:
317,249,147324,2,0,P|324:203|326:150,1,77.0000023498536,10|0,0:0|1:2,0:0:0:0:
353,157,147557,1,0,1:2:0:0:
353,157,147635,2,0,P|360:111|362:58,1,77.0000023498536,10|0,0:0|1:2,0:0:0:0:
298,11,147946,1,8,0:0:0:0:
229,89,148101,6,0,P|160:75|52:63,1,154.000004699707,6|2,1:2|1:2,0:0:0:0:
0,99,148567,1,8,0:0:0:0:
64,152,148723,2,0,P|140:161|215:176,1,154.000004699707,6|2,1:2|1:2,0:0:0:0:
264,241,149189,1,8,0:0:0:0:
332,315,149345,6,0,P|381:287|366:191,1,154.000004699707,6|8,1:2|0:0,0:0:0:0:
358,193,149733,1,8,0:0:0:0:
358,193,149811,2,0,P|330:152|353:108,1,77.0000023498536,8|8,0:0|0:0,0:0:0:0:
322,109,150044,1,8,0:0:0:0:
322,109,150122,1,6,1:2:0:0:
367,32,150277,2,0,P|390:44|427:49,3,38.5000011749268,8|8|8|8,0:0|0:0|0:0|0:0,0:0:0:0:
409,74,150588,6,0,P|452:43|516:66,1,115.50000352478,6|0,1:2|0:0,0:0:0:0:
512,74,150899,2,0,P|494:115|496:166,1,77.0000023498536,0|8,1:0|0:0,0:0:0:0:
512,234,151210,1,2,0:0:0:0:
446,295,151366,2,0,P|410:298|370:267,1,77.0000023498536,2|2,1:2|1:2,0:0:0:0:
286,259,151676,2,0,P|309:219|308:160,1,77.0000023498536,10|2,0:0|0:0,0:0:0:0:
251,109,151988,5,2,1:2:0:0:
251,109,152143,2,0,L|157:131,1,77.0000023498536,2|8,1:2|0:0,0:0:0:0:
117,65,152454,2,0,P|64:78|63:178,1,154.000004699707,8|0,0:0|1:2,0:0:0:0:
0,233,152920,1,8,0:0:0:0:
69,295,153076,6,0,P|133:279|213:262,1,115.50000352478,6|0,1:2|0:0,0:0:0:0:
195,280,153387,2,0,L|270:264,1,77.0000023498536,0|8,1:0|0:0,0:0:0:0:
320,191,153697,1,2,0:0:0:0:
246,140,153853,2,0,L|170:155,1,77.0000023498536,2|2,1:2|1:2,0:0:0:0:
147,73,154163,2,0,L|240:56,1,77.0000023498536,10|2,0:0|0:0,0:0:0:0:
312,0,154475,5,2,1:2:0:0:
312,0,154630,2,0,P|342:18|398:24,1,77.0000023498536,2|8,1:2|0:0,0:0:0:0:
461,69,154941,2,0,P|411:121|429:216,1,154.000004699707,8|0,0:0|1:2,0:0:0:0:
488,258,155407,1,8,0:0:0:0:
416,325,155562,6,0,P|352:313|287:296,1,115.50000352478,6|0,1:2|0:0,0:0:0:0:
286,279,155873,2,0,L|301:233,2,38.5000011749268,2|0|10,1:2|1:2|0:0,0:0:0:0:
216,328,156184,2,0,L|231:374,2,38.5000011749268,0|0|10,1:2|1:2|0:0,0:0:0:0:
155,270,156495,2,0,L|166:233,2,38.5000011749268,0|0|8,1:2|1:2|0:0,0:0:0:0:
99,182,156806,5,0,1:0:0:0:
99,182,156884,1,0,1:2:0:0:
99,182,156961,2,0,P|69:127|101:75,2,102.666669799805,10|10|10,0:0|0:0|0:0,0:0:0:0:
210,161,157583,6,0,P|220:112|191:71,1,102.666669799805,10|10,0:0|0:0,0:0:0:0:
296,0,158050,6,0,B|349:10|349:10|365:39|365:39|417:48,1,140,6|0,1:2|0:0,0:0:0:0:
504,25,158516,2,0,L|488:106,1,70,10|2,0:0|0:0,0:0:0:0:
416,149,158827,2,0,L|400:230,1,70,2|2,1:2|0:0,0:0:0:0:
465,281,159138,1,10,0:0:0:0:
376,336,159293,6,0,B|348:299|293:313|293:313|286:344|263:357,1,140,2|0,0:0|0:0,0:0:0:0:
196,304,159759,2,0,P|210:240|216:195,1,105,8|8,0:0|0:0,0:0:0:0:
231,194,160070,2,0,P|216:102|181:94,1,140,0|8,1:0|0:0,0:0:0:0:
110,128,160537,1,0,0:0:0:0:
8,160,160692,6,0,L|34:308,1,140,6|10,1:2|0:0,0:0:0:0:
57,381,161158,1,2,0:0:0:0:
131,336,161314,2,0,P|160:313|211:318,1,70,2|2,1:2|0:0,0:0:0:0:
269,368,161625,1,10,0:0:0:0:
349,313,161781,6,0,B|375:228|306:256|335:168,1,140,2|2,0:0|0:0,0:0:0:0:
371,101,162247,1,8,0:0:0:0:
448,158,162402,1,2,0:0:0:0:
448,158,162480,1,8,0:0:0:0:
448,158,162558,2,0,P|463:193|443:238,1,70,0|2,1:0|0:0,0:0:0:0:
499,297,162869,1,8,0:0:0:0:
493,313,163180,6,0,L|344:324,1,140,6|10,1:2|0:0,0:0:0:0:
285,379,163646,1,2,0:0:0:0:
216,331,163801,2,0,P|209:292|233:257,1,70,2|2,1:2|0:0,0:0:0:0:
294,221,164112,1,10,0:0:0:0:
202,165,164268,6,0,P|193:101|174:15,1,140,2|0,0:0|0:0,0:0:0:0:
99,49,164733,2,0,P|113:108|122:156,1,105,8|8,0:0|0:0,0:0:0:0:
105,163,165044,2,0,P|61:214|89:301,1,140,0|8,1:0|0:0,0:0:0:0:
27,355,165511,1,2,0:0:0:0:
125,384,165667,6,0,P|201:363|274:353,1,140,6|10,1:2|0:0,0:0:0:0:
315,285,166133,1,2,0:0:0:0:
239,250,166288,2,0,P|233:207|222:175,1,70,2|2,1:2|0:0,0:0:0:0:
257,99,166599,1,10,0:0:0:0:
328,156,166755,6,0,B|423:156|362:103|469:113,1,140,2|2,0:0|0:0,0:0:0:0:
453,197,167221,1,8,0:0:0:0:
512,273,167376,1,2,0:0:0:0:
512,273,167454,1,8,0:0:0:0:
512,273,167531,2,0,P|520:313|487:346,1,70,0|8,1:0|0:3,0:0:0:0:
430,376,167842,1,8,0:3:0:0:
430,376,167998,1,8,0:3:0:0:
361,312,168153,1,6,1:2:0:0:
80,121,168775,5,8,0:0:0:0:
80,121,168852,1,8,0:0:0:0:
80,121,168930,2,0,L|95:78,3,35,8|8|8|8,0:3|0:3|0:3|0:3,0:0:0:0:
114,66,169241,5,10,0:0:0:0:
256,192,169552,1,10,0:0:0:0:
