osu file format v14

[General]
AudioFilename: audio.mp3
AudioLeadIn: 0
PreviewTime: 67195
Countdown: 0
SampleSet: Soft
StackLeniency: 0.4
Mode: 0
LetterboxInBreaks: 0
WidescreenStoryboard: 1

[Editor]
Bookmarks: 119504
DistanceSpacing: 1.3
BeatDivisor: 6
GridSize: 32
TimelineZoom: 1.8

[Metadata]
Title:RIOT
TitleUnicode:RIOT
Artist:KNOCK OUT MONKEY
ArtistUnicode:KNOCK OUT MONKEY
Creator:NeKroMan4ik
Version:AIRIN'S EXPERT
Source:
Tags:japanese rock jrock male vocals Mr. Foundation NexusQI airincat reform kujinn nymphe kiyoshi guarden
BeatmapID:2780589
BeatmapSetID:1286119

[Difficulty]
HPDrainRate:5.6
CircleSize:4
OverallDifficulty:8.8
ApproachRate:9.2
SliderMultiplier:1.4
SliderTickRate:1

[Events]
//Background and Video events
0,0,"bg.jpg",0,0
//Break Periods
2,119700,122149
//Storyboard Layer 0 (Background)
//Storyboard Layer 1 (Fail)
//Storyboard Layer 2 (Pass)
//Storyboard Layer 3 (Foreground)
//Storyboard Layer 4 (Overlay)
//Storyboard Sound Samples

[TimingPoints]
278,310.880829015544,4,2,3,50,1,0
278,-111.111111111111,4,2,3,50,0,0
4630,-111.111111111111,4,2,3,60,0,0
5096,-71.4285714285714,4,2,3,70,0,0
15200,-100,4,2,3,60,0,0
18309,-76.9230769230769,4,2,3,50,0,0
20174,-83.3333333333333,4,2,3,60,0,0
24371,-83.3333333333333,4,2,2,40,0,0
25148,-83.3333333333333,4,2,3,60,0,0
30122,-71.4285714285714,4,2,3,64,0,0
30433,-71.4285714285714,4,2,3,58,0,0
30744,-71.4285714285714,4,2,3,62,0,0
31055,-71.4285714285714,4,2,3,66,0,0
31366,-71.4285714285714,4,2,3,70,0,0
32609,-58.8235294117647,4,2,3,72,0,0
33853,-52.6315789473684,4,2,3,76,0,0
34941,-58.8235294117647,4,2,3,76,0,1
50951,-58.8235294117647,4,2,3,76,0,0
51262,-58.8235294117647,4,2,3,70,0,1
51366,-58.8235294117647,4,2,3,5,0,1
51469,-58.8235294117647,4,2,3,70,0,1
51573,-58.8235294117647,4,2,3,5,0,1
51676,-58.8235294117647,4,2,3,70,0,1
51780,-58.8235294117647,4,2,3,5,0,1
51884,-58.8235294117647,4,2,3,70,0,1
51987,-58.8235294117647,4,2,3,5,0,1
52091,-58.8235294117647,4,2,3,70,0,1
52195,-58.8235294117647,4,2,3,5,0,1
52350,-71.4285714285714,4,2,3,76,0,0
57480,-90.9090909090909,4,2,3,54,0,0
66340,-125,4,2,3,50,0,0
66651,-125,4,2,3,10,0,0
66806,-125,4,2,3,30,0,0
67272,-58.8235294117647,4,2,3,76,0,1
83594,-66.6666666666667,4,2,3,70,0,0
84138,-66.6666666666667,4,2,3,5,0,0
84371,-66.6666666666667,4,2,3,70,0,0
84448,-66.6666666666667,4,2,3,5,0,0
84682,-111.111111111111,4,2,3,60,0,0
89656,-83.3333333333333,4,2,3,66,0,0
93853,-71.4285714285714,4,2,3,70,0,0
94785,-142.857142857143,4,2,3,70,0,0
98360,-142.857142857143,4,2,3,60,0,0
99759,-100,4,2,3,50,0,0
101158,-100,4,2,3,50,0,0
104733,-71.4285714285714,4,2,3,64,0,0
109708,-62.5,4,2,3,70,0,0
117169,-62.5,4,2,3,74,0,0
122765,-62.5,4,2,3,50,0,0
123231,-58.8235294117647,4,2,3,76,0,1
139656,-58.8235294117647,4,2,3,5,0,1
139759,-58.8235294117647,4,2,3,76,0,1
139863,-58.8235294117647,4,2,3,5,0,1
139967,-58.8235294117647,4,2,3,76,0,1
140070,-58.8235294117647,4,2,3,5,0,1
140174,-58.8235294117647,4,2,3,76,0,1
140277,-58.8235294117647,4,2,3,5,0,1
140381,-58.8235294117647,4,2,3,76,0,1
140485,-58.8235294117647,4,2,3,5,0,1
140640,-142.857142857143,4,2,3,76,0,0
141107,-58.8235294117647,4,2,3,76,0,1
156651,-58.8235294117647,4,2,3,76,0,0
156961,-58.8235294117647,4,2,3,76,0,1
157065,-58.8235294117647,4,2,3,5,0,1
157169,-58.8235294117647,4,2,3,76,0,1
157272,-58.8235294117647,4,2,3,5,0,1
157376,-58.8235294117647,4,2,3,76,0,1
157480,-58.8235294117647,4,2,3,5,0,1
157583,-58.8235294117647,4,2,3,76,0,1
157687,-58.8235294117647,4,2,3,5,0,1
157790,-58.8235294117647,4,2,3,76,0,1
157894,-66.6666666666667,4,2,3,5,0,0
158050,-66.6666666666667,4,2,3,76,0,0
168153,-125,4,2,3,76,0,0

[Colours]
Combo1 : 237,88,125
Combo2 : 248,139,120
Combo3 : 224,86,131
Combo4 : 224,71,174
Combo5 : 192,106,200

[HitObjects]
12,270,278,6,0,P|4:235|-3:193,2,62.9999980773926,6|2|2,1:2|0:0|0:0,0:0:0:0:
85,316,744,2,0,B|125:317|149:289|127:283|148:254|186:254,1,125.999996154785,2|0,0:0|0:0,0:0:0:0:
263,298,1210,2,0,P|259:330|253:369,2,62.9999980773926,2|2|2,0:0|0:0|0:0,0:0:0:0:
341,265,1676,2,0,B|381:264|405:292|383:298|404:327|442:326,1,125.999996154785,2|0,0:0|0:0,0:0:0:0:
510,266,2143,1,8,0:3:0:0:
482,175,2298,1,8,0:3:0:0:
387,164,2454,1,8,0:3:0:0:
335,243,2609,1,8,0:3:0:0:
248,83,2765,6,0,L|258:20,2,62.9999980773926,6|2|2,1:2|0:0|0:0,0:0:0:0:
187,141,3231,2,0,B|141:145|120:120|142:105|113:85|67:90,1,125.999996154785,2|0,0:0|0:0,0:0:0:0:
5,129,3697,2,0,L|15:191,1,62.9999980773926,2|0,0:0|0:0,0:0:0:0:
162,347,4008,5,10,0:0:0:0:
164,331,4086,1,8,0:3:0:0:
164,315,4164,1,4,0:3:0:0:
164,299,4241,1,4,0:3:0:0:
166,283,4319,1,8,0:3:0:0:
166,267,4397,1,8,0:3:0:0:
167,251,4474,1,4,0:3:0:0:
167,235,4552,1,4,0:3:0:0:
168,219,4630,5,8,0:0:0:0:
371,64,4785,1,2,1:3:0:0:
370,80,5096,6,0,B|294:70|294:70|254:22|254:22|197:46,1,195.999994018555,4|2,1:0|0:0,0:0:0:0:
46,163,5562,2,0,B|10:127|10:127|25:79,1,97.9999970092774,8|0,0:0|0:0,0:0:0:0:
276,186,5873,1,2,1:2:0:0:
140,236,6029,1,2,0:0:0:0:
201,44,6184,1,10,0:0:0:0:
413,197,6340,6,0,B|466:219|466:219|517:200|537:146|504:89,1,195.999994018555,2|0,0:0|0:0,0:0:0:0:
370,11,6806,2,0,P|329:35|318:82,1,97.9999970092774,8|0,0:0|0:0,0:0:0:0:
264,169,7039,1,8,0:0:0:0:
277,185,7117,2,0,B|257:90|162:118|162:118|134:161,1,195.999994018555,2|8,1:2|0:0,0:0:0:0:
0,315,7583,5,2,0:0:0:0:
35,142,7739,2,0,P|52:195|67:238,1,97.9999970092774,0|2,1:2|0:0,0:0:0:0:
274,355,8050,2,0,B|298:256,1,97.9999970092774,8|0,0:0|0:0,0:0:0:0:
140,151,8360,1,2,1:2:0:0:
179,295,8516,1,2,0:0:0:0:
333,154,8671,1,10,0:0:0:0:
95,348,8827,6,0,B|56:336|56:336|43:339|43:339|-19:322,1,97.9999970092774,2|0,0:0|1:0,0:0:0:0:
274,355,9138,2,0,B|313:343|313:343|326:346|326:346|388:329,1,97.9999970092774,2|8,0:0|0:0,0:0:0:0:
184,244,9448,1,2,1:2:0:0:
184,244,9526,1,8,0:0:0:0:
184,244,9604,2,0,B|115:193|115:193|172:98,1,195.999994018555,0|8,1:0|0:0,0:0:0:0:
241,18,10070,1,2,0:0:0:0:
467,249,10226,6,0,B|518:223|518:223|498:132,1,146.999995513916,6|0,1:2|0:0,0:0:0:0:
450,63,10537,2,0,B|466:17|466:17|507:52,1,97.9999970092774,10|0,0:0|0:0,0:0:0:0:
365,241,10847,1,2,1:2:0:0:
279,101,11003,1,2,0:0:0:0:
498,135,11158,1,10,0:0:0:0:
362,333,11314,6,0,B|302:337|280:296|280:296|273:269|273:269|243:246|189:262,1,195.999994018555,2|0,0:2|0:0,0:0:0:0:
47,355,11780,2,0,P|7:327|0:278,1,97.9999970092774,10|0,0:0|0:0,0:0:0:0:
95,157,12013,1,8,0:0:0:0:
117,149,12091,2,0,L|96:255,1,97.9999970092774,0|0,1:0|0:0,0:0:0:0:
222,354,12402,2,0,L|201:248,1,97.9999970092774,8|0,0:0|0:0,0:0:0:0:
327,74,12713,5,2,1:2:0:0:
459,202,12868,1,2,0:0:0:0:
512,41,13024,2,0,B|469:17|469:17|431:47,1,97.9999970092774,10|0,0:0|0:0,0:0:0:0:
314,210,13334,1,2,1:2:0:0:
246,40,13490,1,2,0:0:0:0:
482,122,13645,1,10,0:0:0:0:
203,157,13801,6,0,B|157:163|157:163|141:170|141:170|98:174,1,97.9999970092774,2|0,0:0|1:0,0:0:0:0:
355,284,14112,2,0,B|401:290|401:290|416:297|416:297|460:301,1,97.9999970092774,2|8,0:0|0:0,0:0:0:0:
235,384,14423,1,2,0:0:0:0:
104,274,14578,1,8,1:2:0:0:
95,245,14656,1,8,0:0:0:0:
104,217,14733,1,8,0:0:0:0:
123,195,14811,1,8,0:0:0:0:
151,186,14889,1,8,1:2:0:0:
180,186,14967,1,8,0:0:0:0:
205,200,15044,1,8,0:0:0:0:
217,226,15122,1,8,0:0:0:0:
220,246,15200,5,6,1:2:0:0:
157,27,15355,1,2,1:2:0:0:
302,42,15511,1,8,0:0:0:0:
322,62,15822,1,8,0:0:0:0:
302,82,16132,1,8,0:0:0:0:
279,58,16443,5,2,1:2:0:0:
512,141,16599,1,2,1:2:0:0:
404,235,16754,1,8,0:0:0:0:
379,221,17065,1,8,0:0:0:0:
392,192,17376,1,8,0:0:0:0:
424,211,17687,5,2,1:2:0:0:
274,357,17842,1,2,1:2:0:0:
272,342,17920,1,8,0:3:0:0:
268,328,17998,1,4,0:3:0:0:
266,314,18075,1,4,0:3:0:0:
264,300,18153,1,8,0:0:0:0:
261,285,18231,1,8,0:0:0:0:
257,271,18309,6,0,L|207:279,1,45.4999979171754,0|8,1:0|0:0,0:0:0:0:
130,298,18464,2,0,L|81:309,1,45.4999979171754,8|8,0:0|0:0,0:0:0:0:
65,225,18619,2,0,L|115:216,1,45.4999979171754,8|8,1:2|0:0,0:0:0:0:
197,193,18775,2,0,L|247:186,1,45.4999979171754,8|8,0:0|0:0,0:0:0:0:
329,212,18930,5,4,1:2:0:0:
7,286,19086,1,4,1:2:0:0:
7,286,19863,5,8,0:3:0:0:
18,309,20174,5,4,1:2:0:0:
178,124,20329,1,2,1:2:0:0:
214,221,20485,2,0,L|81:192,1,125.999996154785,10|8,0:0|0:0,0:0:0:0:
71,190,20796,2,0,B|47:155|47:155|60:114,1,83.9999974365235,2|2,1:2|1:2,0:0:0:0:
105,25,21107,2,0,P|150:32|194:40,1,83.9999974365235,10|0,0:0|0:0,0:0:0:0:
374,214,21417,5,4,1:3:0:0:
501,72,21573,1,4,1:3:0:0:
411,37,21728,2,0,B|391:74|391:74|412:109,1,83.9999974365235,10|2,0:0|0:0,0:0:0:0:
469,250,22039,1,0,1:0:0:0:
469,250,22117,1,0,1:0:0:0:
469,250,22195,2,0,B|489:213|489:213|467:177,2,83.9999974365235,2|8|2,1:2|0:0|0:0,0:0:0:0:
274,384,22661,5,4,1:3:0:0:
171,208,22816,1,4,1:3:0:0:
138,333,22972,2,0,P|177:319|266:296,1,125.999996154785,10|8,0:0|0:0,0:0:0:0:
259,298,23283,2,0,L|251:254,1,41.9999987182618,2|0,1:2|1:0,0:0:0:0:
346,268,23438,2,0,L|338:217,1,41.9999987182618,2|0,1:2|1:0,0:0:0:0:
424,175,23594,1,10,0:0:0:0:
440,178,23671,1,8,0:0:0:0:
456,181,23749,1,8,0:0:0:0:
472,184,23827,1,8,0:0:0:0:
488,186,23904,5,4,1:2:0:0:
293,0,24060,1,2,1:2:0:0:
303,13,24371,6,0,L|350:-2,2,41.9999987182618,2|2|2,0:0|0:0|0:0,0:0:0:0:
271,85,24682,1,2,0:0:0:0:
280,114,24837,1,2,0:0:0:0:
287,140,24993,1,2,0:0:0:0:
115,165,25148,6,0,L|31:177,1,83.9999974365235,4|0,1:2|1:0,0:0:0:0:
191,253,25459,1,2,0:0:0:0:
117,329,25614,1,0,1:0:0:0:
208,262,25770,1,10,0:0:0:0:
134,341,25925,1,0,1:0:0:0:
224,269,26081,2,0,L|210:174,1,83.9999974365235,2|0,0:0|1:0,0:0:0:0:
135,83,26391,5,2,0:0:0:0:
51,115,26547,1,8,0:0:0:0:
119,176,26702,1,0,1:0:0:0:
150,88,26858,2,0,B|177:54|177:54|216:63,1,83.9999974365235,2|8,1:2|0:0,0:0:0:0:
324,203,27169,1,0,1:0:0:0:
232,188,27324,1,2,0:0:0:0:
297,112,27480,1,2,0:0:0:0:
413,224,27635,6,0,B|453:215|453:215|496:207,1,83.9999974365235,2|8,1:3|0:0,0:0:0:0:
512,299,27946,2,0,B|469:307|469:307|429:316,1,83.9999974365235,2|0,1:2|1:0,0:0:0:0:
336,280,28257,1,10,0:0:0:0:
290,360,28412,1,2,0:0:0:0:
199,331,28568,2,0,B|169:300|169:300|181:261,1,83.9999974365235,2|0,1:2|1:0,0:0:0:0:
316,163,28879,5,2,0:0:0:0:
409,214,29034,1,8,0:0:0:0:
399,109,29189,1,2,1:2:0:0:
301,182,29345,1,2,1:2:0:0:
208,118,29500,1,8,0:0:0:0:
130,186,29656,1,2,1:2:0:0:
43,127,29811,1,10,0:0:0:0:
10,359,29967,5,0,1:0:0:0:
10,359,30044,1,0,1:0:0:0:
10,359,30122,2,0,B|64:377|121:324|59:312|106:253|156:267,1,195.999994018555,14|8,0:0|0:0,0:0:0:0:
291,328,30588,2,0,B|323:286|323:286|298:235,2,97.9999970092774,10|8|8,0:0|0:0|0:0,0:0:0:0:
156,267,31055,1,10,0:0:0:0:
267,146,31210,1,8,0:0:0:0:
303,245,31366,5,8,0:0:0:0:
382,129,31521,1,8,0:0:0:0:
249,46,31676,1,8,0:0:0:0:
165,165,31832,1,8,0:0:0:0:
459,283,31987,5,10,0:0:0:0:
267,146,32143,1,8,0:0:0:0:
473,293,32298,1,10,0:0:0:0:
283,157,32454,1,8,0:0:0:0:
488,304,32609,6,0,B|491:238,1,59.5000011348725,14|0,0:0|0:0,0:0:0:0:
316,333,32765,1,8,0:3:0:0:
316,333,32842,1,8,0:3:0:0:
316,333,32920,1,4,0:3:0:0:
316,333,32998,1,4,0:3:0:0:
316,333,33075,2,0,B|380:362,1,59.5000011348725,10|0,0:0|0:0,0:0:0:0:
370,174,33231,1,8,0:3:0:0:
370,174,33309,1,8,0:3:0:0:
370,174,33387,1,4,0:3:0:0:
370,174,33465,1,4,0:3:0:0:
370,174,33542,2,0,B|279:203,1,59.5000011348725,10|0,0:0|0:0,0:0:0:0:
198,322,33697,5,0,1:0:0:0:
198,322,33775,1,0,1:0:0:0:
198,322,33853,2,0,B|242:266|242:266|205:207,1,132.999996448517,10|0,0:1|0:0,0:0:0:0:
63,192,34086,6,0,B|19:248|19:248|56:307,1,132.999996448517,10|0,0:1|0:0,0:0:0:0:
131,255,34319,5,10,0:1:0:0:
136,261,34630,1,0,0:2:0:0:
141,269,34941,6,0,B|193:275|211:224|211:224|244:185|302:221,1,178.500003404617,4|0,1:0|0:0,0:0:0:0:
345,302,35252,2,0,P|394:278|388:205,1,119.000002269745,2|8,1:2|0:0,0:0:0:0:
300,92,35562,1,2,0:0:0:0:
135,191,35718,1,2,1:2:0:0:
57,37,35873,1,2,1:2:0:0:
175,105,36029,1,10,0:0:0:0:
32,199,36184,1,2,0:0:0:0:
269,288,36340,5,2,1:2:0:0:
155,369,36495,2,0,B|117:320|117:320|142:265,1,119.000002269745,2|8,1:2|0:0,0:0:0:0:
306,83,36806,1,2,1:2:0:0:
308,75,36884,1,8,0:0:0:0:
310,69,36961,2,0,B|348:118|348:118|323:173,1,119.000002269745,0|2,1:0|1:2,0:0:0:0:
137,165,37272,1,8,0:0:0:0:
302,328,37428,6,0,B|363:307|363:307|379:251|379:251|448:230,1,178.500003404617,6|0,1:2|0:0,0:0:0:0:
512,272,37739,2,0,B|538:217|538:217|497:175,1,119.000002269745,2|8,1:2|0:0,0:0:0:0:
386,78,38050,1,2,0:0:0:0:
300,243,38205,1,2,1:2:0:0:
432,234,38360,1,2,1:2:0:0:
283,112,38516,1,10,0:0:0:0:
173,233,38671,1,2,0:0:0:0:
129,6,38827,5,2,1:2:0:0:
18,148,38982,2,0,B|-16:100|-16:100|16:49,1,119.000002269745,2|8,1:2|0:0,0:0:0:0:
194,137,39293,1,2,1:2:0:0:
194,137,39371,1,8,0:0:0:0:
194,137,39448,1,0,1:2:0:0:
141,305,39604,1,2,1:2:0:0:
324,234,39759,1,8,0:0:0:0:
141,305,39915,6,0,P|78:240|130:173,1,178.500003404617,6|0,1:2|0:0,0:0:0:0:
194,137,40226,1,2,1:2:0:0:
411,290,40381,2,0,B|445:240|445:240|410:181,1,119.000002269745,10|0,0:0|1:0,0:0:0:0:
205,246,40692,2,0,L|327:233,1,119.000002269745,10|0,0:0|1:0,0:0:0:0:
411,375,41003,1,8,0:0:0:0:
463,118,41158,6,0,P|421:36|343:79,1,178.500003404617,6|0,1:2|0:0,0:0:0:0:
281,118,41469,1,2,1:2:0:0:
281,118,41547,1,0,1:0:0:0:
281,118,41625,1,10,0:0:0:0:
360,290,41780,1,0,1:0:0:0:
360,290,41858,1,0,1:0:0:0:
360,290,41936,2,0,L|230:272,1,119.000002269745,10|0,0:0|1:0,0:0:0:0:
148,383,42246,1,8,0:0:0:0:
82,58,42402,6,0,B|157:11|157:11|170:106,1,178.500003404617,4|0,1:0|0:0,0:0:0:0:
113,165,42713,2,0,B|73:209|73:209|66:149,1,119.000002269745,2|8,1:2|0:0,0:0:0:0:
254,161,43024,6,0,B|341:173|341:173|290:254,1,178.500003404617,4|0,1:0|0:0,0:0:0:0:
210,263,43334,2,0,B|151:270|151:270|183:221,1,119.000002269745,2|8,1:2|0:0,0:0:0:0:
443,356,43645,6,0,L|421:234,1,119.000002269745,6|0,1:2|0:0,0:0:0:0:
425,37,43956,1,10,0:0:0:0:
460,37,44034,1,8,0:0:0:0:
486,65,44112,1,10,0:0:0:0:
486,100,44189,1,8,0:0:0:0:
463,127,44267,2,0,L|399:121,1,59.5000011348725,10|8,0:0|0:0,0:0:0:0:
245,98,44423,1,6,1:2:0:0:
252,281,44578,1,10,0:0:0:0:
299,286,44656,1,8,0:0:0:0:
335,256,44733,1,8,0:0:0:0:
337,208,44811,1,8,0:0:0:0:
294,181,44889,6,0,B|243:192|243:192|204:188|204:188|194:198|194:198|123:212,1,178.500003404617,4|0,1:0|0:0,0:0:0:0:
61,271,45200,2,0,B|17:224|17:224|48:161,1,119.000002269745,2|8,1:2|0:0,0:0:0:0:
145,80,45511,1,2,0:0:0:0:
204,280,45666,1,2,1:2:0:0:
339,123,45822,1,2,1:2:0:0:
122,212,45977,1,10,0:0:0:0:
313,261,46132,1,2,0:0:0:0:
360,29,46288,5,2,1:2:0:0:
473,176,46443,2,0,B|502:122|502:122|469:74,1,119.000002269745,2|8,1:2|0:0,0:0:0:0:
264,89,46754,1,2,1:2:0:0:
264,89,46832,1,8,0:0:0:0:
264,89,46910,2,0,B|235:143|235:143|267:190,1,119.000002269745,0|2,1:0|1:2,0:0:0:0:
453,271,47221,1,8,0:0:0:0:
248,359,47376,6,0,B|196:365|154:322|205:296|148:257|112:270,1,178.500003404617,6|0,1:2|0:0,0:0:0:0:
36,217,47687,2,0,P|12:265|46:328,1,119.000002269745,2|8,1:2|0:0,0:0:0:0:
251,273,47998,1,2,0:0:0:0:
81,137,48153,1,2,1:2:0:0:
285,155,48309,1,2,1:2:0:0:
114,270,48464,1,10,0:0:0:0:
192,76,48619,1,2,0:0:0:0:
363,251,48775,5,2,1:2:0:0:
461,127,48930,2,0,B|466:172|466:172|479:192|479:192|484:241,1,119.000002269745,2|8,1:2|0:0,0:0:0:0:
247,373,49241,1,2,1:2:0:0:
247,373,49319,1,8,0:0:0:0:
247,373,49397,2,0,B|252:327|252:327|265:308|265:308|270:258,1,119.000002269745,0|0,1:0|1:0,0:0:0:0:
151,131,49708,1,8,0:0:0:0:
3,305,49863,6,0,P|99:270|79:190,1,178.500003404617,6|0,1:2|0:0,0:0:0:0:
54,141,50174,1,2,1:2:0:0:
253,0,50329,2,0,P|242:57|232:127,1,119.000002269745,10|0,0:0|1:0,0:0:0:0:
441,297,50640,2,0,B|460:239|460:239|416:201,1,119.000002269745,10|0,0:0|1:0,0:0:0:0:
222,351,50951,1,10,0:0:0:0:
222,351,51029,1,0,1:0:0:0:
222,351,51107,1,0,1:0:0:0:
340,105,51262,6,0,B|364:76|364:76|369:117,1,79.3333348464966,10|0,0:1|0:0,0:0:0:0:
199,256,51469,2,0,B|161:262|161:262|183:227,1,79.3333348464966,10|0,0:1|0:0,0:0:0:0:
417,202,51676,2,0,B|449:221|449:221|410:233,1,79.3333348464966,10|0,0:1|0:0,0:0:0:0:
212,141,51884,2,0,B|193:107|193:107|233:117,1,79.3333348464966,10|0,0:1|0:0,0:0:0:0:
327,296,52091,2,0,B|319:333|319:333|295:300,1,79.3333348464966,10|0,0:1|0:0,0:0:0:0:
294,299,52350,6,0,P|208:311|88:333,1,195.999994018555,4|0,1:0|0:0,0:0:0:0:
0,242,52816,2,0,B|-23:198|-23:198|3:151,1,97.9999970092774,10|0,0:0|0:0,0:0:0:0:
141,58,53127,2,0,P|88:46|38:35,1,97.9999970092774,2|0,1:2|0:0,0:0:0:0:
149,198,53438,1,10,0:0:0:0:
257,86,53594,1,2,0:0:0:0:
337,251,53749,6,0,P|389:171|351:130,1,146.999995513916,0|0,1:0|0:0,0:0:0:0:
299,181,54060,1,8,0:0:0:0:
496,30,54293,1,8,0:0:0:0:
511,19,54371,2,0,L|492:136,1,97.9999970092774,0|0,1:0|0:0,0:0:0:0:
460,264,54682,1,10,0:0:0:0:
367,139,54837,1,2,0:0:0:0:
143,333,54993,6,0,B|196:320|196:320|216:284|216:284|286:267,1,146.999995513916,2|0,1:2|0:0,0:0:0:0:
347,283,55303,2,0,B|373:239|373:239|327:215,1,97.9999970092774,10|0,0:0|0:0,0:0:0:0:
116,228,55614,1,2,1:2:0:0:
212,140,55770,1,2,0:0:0:0:
265,271,55925,1,10,0:0:0:0:
55,299,56081,1,2,0:0:0:0:
23,91,56236,6,0,L|19:147,1,48.9999985046387,8|8,0:0|0:3,0:0:0:0:
116,228,56391,2,0,L|112:172,1,48.9999985046387,10|8,0:0|0:3,0:0:0:0:
216,92,56547,1,4,0:3:0:0:
216,92,56625,1,4,0:3:0:0:
216,92,56702,2,0,L|212:148,1,48.9999985046387,10|8,0:0|0:3,0:0:0:0:
315,233,56858,2,0,L|311:177,1,48.9999985046387,10|8,0:0|0:3,0:0:0:0:
412,99,57013,1,4,0:3:0:0:
412,99,57091,1,4,0:3:0:0:
412,99,57168,2,0,L|408:155,1,48.9999985046387,14|0,0:0|0:0,0:0:0:0:
512,246,57324,5,2,1:2:0:0:
512,246,57402,1,0,1:0:0:0:
512,246,57480,2,0,L|514:155,1,77.0000023498536,12|0,0:0|0:0,0:0:0:0:
411,244,57790,2,0,L|409:335,1,77.0000023498536,10|0,0:0|0:0,0:0:0:0:
331,384,58101,1,10,0:0:0:0:
276,294,58257,1,0,1:0:0:0:
158,363,58412,1,10,0:0:0:0:
249,370,58568,1,0,1:0:0:0:
171,271,58723,5,10,0:0:0:0:
167,255,58801,1,8,0:3:0:0:
161,240,58879,1,4,0:3:0:0:
156,225,58956,1,4,0:3:0:0:
153,209,59034,2,0,L|97:223,1,38.5000011749268,8|8,0:3|0:3,0:0:0:0:
12,274,59189,5,4,0:3:0:0:
16,290,59267,1,4,0:3:0:0:
22,305,59345,1,8,0:0:0:0:
27,320,59422,1,8,0:3:0:0:
30,336,59500,2,0,L|86:322,1,38.5000011749268,4|4,0:3|0:3,0:0:0:0:
136,372,59656,2,0,L|192:358,1,38.5000011749268,8|8,0:3|0:3,0:0:0:0:
208,287,59811,2,0,L|264:273,1,38.5000011749268,0|0,1:0|1:0,0:0:0:0:
340,296,59967,6,0,L|319:214,1,77.0000023498536,14|0,0:0|1:0,0:0:0:0:
395,111,60277,2,0,L|419:197,1,77.0000023498536,10|0,0:0|1:0,0:0:0:0:
506,257,60588,1,8,0:0:0:0:
504,172,60744,1,0,1:0:0:0:
419,278,60899,1,8,0:0:0:0:
486,335,61055,1,0,1:0:0:0:
312,98,61210,5,14,0:0:0:0:
256,355,61366,1,10,0:0:0:0:
245,337,62143,5,8,0:3:0:0:
235,321,62454,6,0,L|331:303,1,77.0000023498536,4|0,1:2|1:0,0:0:0:0:
199,226,62765,1,8,0:0:0:0:
122,311,62920,1,2,0:0:0:0:
183,213,63075,1,0,1:0:0:0:
104,307,63231,1,2,0:0:0:0:
163,198,63386,2,0,L|154:121,1,77.0000023498536,8|2,0:0|0:0,0:0:0:0:
73,0,63697,5,2,1:2:0:0:
13,64,63853,1,2,1:2:0:0:
67,138,64008,1,10,0:0:0:0:
166,35,64164,1,2,1:2:0:0:
166,35,64241,1,8,0:0:0:0:
166,35,64319,2,0,L|269:27,1,77.0000023498536,2|8,1:2|0:0,0:0:0:0:
298,103,64552,1,8,0:0:0:0:
283,124,64630,1,10,0:0:0:0:
270,148,64708,1,8,0:0:0:0:
254,169,64785,2,0,L|262:220,1,38.5000011749268,10|8,0:0|0:0,0:0:0:0:
340,280,64941,5,14,1:2:0:0:
362,294,65019,1,8,0:0:0:0:
388,297,65097,1,8,0:0:0:0:
414,292,65175,1,8,0:0:0:0:
436,276,65252,1,8,0:0:0:0:
388,154,65407,5,10,1:2:0:0:
388,154,65485,1,8,0:0:0:0:
388,154,65562,2,0,L|382:204,2,38.5000011749268,8|8|8,0:0|0:0|0:0,0:0:0:0:
207,271,65873,5,10,1:2:0:0:
181,287,65950,1,8,0:0:0:0:
153,293,66028,1,8,0:0:0:0:
123,287,66106,1,8,0:0:0:0:
99,272,66184,1,8,0:0:0:0:
141,92,66340,6,0,P|147:151|153:213,1,112,6|0,1:2|0:0,0:0:0:0:
153,204,66806,1,2,0:0:0:0:
233,71,66961,1,2,0:0:0:0:
233,71,67272,6,0,B|286:37|286:37|331:60|331:60|401:67,1,178.500003404617,4|0,1:0|0:0,0:0:0:0:
464,119,67583,2,0,B|505:73|505:73|469:27,1,119.000002269745,2|8,1:2|0:0,0:0:0:0:
301,149,67894,1,2,0:0:0:0:
432,275,68050,1,2,1:2:0:0:
227,345,68205,1,2,1:2:0:0:
335,239,68360,1,10,0:0:0:0:
437,360,68516,1,2,0:0:0:0:
189,166,68671,5,2,1:2:0:0:
95,293,68827,2,0,B|83:243|83:243|86:231|86:231|70:176,1,119.000002269745,2|8,1:2|0:0,0:0:0:0:
305,19,69138,1,2,1:2:0:0:
305,19,69215,1,8,0:0:0:0:
305,19,69293,2,0,B|293:68|293:68|296:80|296:80|280:136,1,119.000002269745,0|2,1:2|1:2,0:0:0:0:
415,222,69604,1,8,0:0:0:0:
246,384,69759,6,0,B|180:368|180:368|162:318|162:318|83:299,1,178.500003404617,6|0,1:2|0:0,0:0:0:0:
55,234,70070,2,0,B|9:265|9:265|24:327,1,119.000002269745,2|8,1:2|0:0,0:0:0:0:
246,278,70381,1,2,0:0:0:0:
115,88,70537,1,2,1:2:0:0:
107,304,70692,1,2,1:2:0:0:
236,150,70847,1,10,0:0:0:0:
41,198,71003,1,2,0:0:0:0:
289,39,71158,5,2,1:2:0:0:
415,188,71314,2,0,B|451:140|451:140|424:80,1,119.000002269745,2|8,1:2|0:0,0:0:0:0:
230,272,71625,1,2,1:2:0:0:
230,272,71702,1,8,0:0:0:0:
230,272,71780,1,0,1:0:0:0:
324,132,71936,1,2,1:2:0:0:
412,279,72091,1,8,0:0:0:0:
324,132,72246,6,0,B|267:117|267:117|215:157|215:157|152:140,1,178.500003404617,6|0,1:2|0:0,0:0:0:0:
81,104,72557,1,2,1:2:0:0:
81,104,72635,1,0,1:0:0:0:
81,104,72713,1,10,0:0:0:0:
116,304,72868,1,0,1:0:0:0:
116,304,72946,1,0,1:0:0:0:
116,304,73024,2,0,B|112:212|112:212|21:242,1,178.500003404617,10|0,0:0|1:0,0:0:0:0:
31,323,73334,1,8,0:0:0:0:
280,204,73490,6,0,B|318:201|318:201|351:187|351:187|395:224|395:224|452:217,1,178.500003404617,4|0,1:2|0:0,0:0:0:0:
509,171,73801,1,2,1:2:0:0:
316,284,73956,1,10,0:0:0:0:
358,93,74112,1,0,1:0:0:0:
357,85,74189,1,0,1:0:0:0:
357,79,74267,2,0,B|428:134|428:134|452:39,1,178.500003404617,10|0,0:0|1:0,0:0:0:0:
383,0,74578,1,8,0:0:0:0:
227,132,74733,6,0,B|173:147|173:147|154:205|154:205|92:192,1,178.500003404617,4|0,1:0|0:0,0:0:0:0:
96,105,75044,2,0,B|52:63|52:63|44:121,1,119.000002269745,2|8,1:2|0:0,0:0:0:0:
255,220,75355,6,0,B|308:235|308:235|327:293|327:293|390:280,1,178.500003404617,4|0,1:0|0:0,0:0:0:0:
386,193,75666,2,0,B|429:151|429:151|437:209,1,119.000002269745,2|8,1:2|0:0,0:0:0:0:
101,384,75977,6,0,B|59:341|59:341|82:287,1,119.000002269745,6|0,1:2|0:0,0:0:0:0:
255,121,76288,1,10,0:0:0:0:
279,150,76366,1,8,0:0:0:0:
274,190,76443,1,10,0:0:0:0:
255,220,76521,1,8,0:0:0:0:
221,227,76599,2,0,L|160:206,1,59.5000011348725,10|8,0:0|0:0,0:0:0:0:
13,138,76754,1,6,1:2:0:0:
217,50,76910,1,10,0:0:0:0:
253,39,76987,1,8,0:0:0:0:
289,28,77065,1,8,0:0:0:0:
326,19,77143,1,8,0:0:0:0:
366,8,77221,6,0,B|384:75|384:75|361:108|361:108|382:186,1,178.500003404617,4|0,1:0|0:0,0:0:0:0:
354,257,77531,2,0,B|406:280|406:280|444:232,1,119.000002269745,2|8,1:2|0:0,0:0:0:0:
279,150,77842,1,2,0:0:0:0:
177,328,77998,1,2,1:2:0:0:
323,343,78153,1,2,1:2:0:0:
176,209,78309,1,10,0:0:0:0:
75,353,78464,1,2,0:0:0:0:
137,112,78619,5,2,1:2:0:0:
33,262,78775,2,0,B|4:207|4:207|36:160,1,119.000002269745,2|8,1:2|0:0,0:0:0:0:
252,263,79086,1,2,1:2:0:0:
252,263,79164,1,8,0:0:0:0:
252,263,79241,2,0,B|284:216|284:216|255:161,1,119.000002269745,0|2,1:0|1:2,0:0:0:0:
75,353,79552,1,8,0:0:0:0:
294,364,79708,6,0,B|356:345|356:345|381:291|381:291|436:276,1,178.500003404617,6|0,1:2|0:0,0:0:0:0:
487,213,80018,2,0,B|533:251|533:251|510:306,1,119.000002269745,2|8,1:2|0:0,0:0:0:0:
296,281,80329,1,2,0:0:0:0:
447,141,80485,1,2,1:2:0:0:
264,171,80640,1,2,1:2:0:0:
433,276,80796,1,10,0:0:0:0:
354,94,80951,1,2,0:0:0:0:
185,256,81107,5,2,1:2:0:0:
108,125,81262,2,0,B|99:168|99:168|85:189|85:189|78:243,1,119.000002269745,2|8,1:2|0:0,0:0:0:0:
320,380,81573,1,2,1:2:0:0:
320,380,81651,1,8,0:0:0:0:
320,380,81728,2,0,B|311:337|311:337|297:316|297:316|290:262,1,119.000002269745,0|2,1:0|1:2,0:0:0:0:
444,154,82039,1,8,0:0:0:0:
232,21,82195,6,0,B|174:25|152:75|189:75|157:139|99:123,1,178.500003404617,6|0,1:2|0:0,0:0:0:0:
26,104,82505,1,2,1:2:0:0:
236,206,82661,2,0,P|278:159|263:111,1,119.000002269745,10|0,0:0|0:0,0:0:0:0:
21,207,82972,2,0,B|30:253|30:253|26:266|26:266|43:342,1,119.000002269745,2|0,1:2|1:0,0:0:0:0:
285,382,83283,1,10,0:0:0:0:
285,382,83594,6,0,B|294:336|294:336|290:323|290:323|307:247,1,105.000004005432,6|8,1:2|0:0,0:0:0:0:
389,220,83827,1,8,0:0:0:0:
399,217,83904,1,8,0:0:0:0:
407,214,83982,1,8,0:0:0:0:
415,212,84060,2,0,L|402:281,1,52.5000020027161,2|0,1:3|0:0,0:0:0:0:
143,144,84371,2,0,L|156:207,1,52.5000020027161,2|0,1:3|0:0,0:0:0:0:
478,96,84682,6,0,P|376:94|366:19,1,188.999994232178,6|0,1:2|0:0,0:0:0:0:
381,15,85459,1,2,0:3:0:0:
395,26,86081,1,2,0:3:0:0:
396,48,86547,1,8,0:0:0:0:
294,167,86702,1,8,0:0:0:0:
176,61,86858,1,8,0:0:0:0:
285,67,87013,1,8,0:3:0:0:
81,231,87169,6,0,L|56:107,1,125.999996154785,6|0,1:2|0:0,0:0:0:0:
192,0,87635,2,0,L|173:77,1,62.9999980773926,0|0,1:0|0:0,0:0:0:0:
294,167,87946,2,0,P|357:147|430:124,1,125.999996154785,8|0,0:0|0:0,0:0:0:0:
512,207,88412,1,0,1:0:0:0:
394,310,88568,1,2,0:0:0:0:
394,310,88723,2,0,L|483:324,1,62.9999980773926,8|0,0:0|0:0,0:0:0:0:
242,364,89034,2,0,L|304:372,1,62.9999980773926,2|8,1:2|0:0,0:0:0:0:
138,300,89345,5,10,0:0:0:0:
134,308,89423,1,8,0:0:0:0:
131,317,89500,1,8,0:0:0:0:
128,326,89578,1,8,0:0:0:0:
124,335,89656,6,0,P|66:321|62:227,1,167.999994873047,6|2,1:2|1:2,0:0:0:0:
193,106,90122,2,0,L|211:200,1,83.9999974365235,10|0,0:0|0:0,0:0:0:0:
255,327,90433,1,2,1:2:0:0:
361,222,90588,1,2,1:2:0:0:
268,340,90744,1,10,0:0:0:0:
375,239,90899,6,0,L|481:259,1,83.9999974365235,2|0,0:0|1:0,0:0:0:0:
406,93,91210,1,2,1:2:0:0:
496,39,91366,2,0,B|521:74|521:74|507:123,1,83.9999974365235,10|0,0:0|0:0,0:0:0:0:
322,173,91676,5,2,1:2:0:0:
224,85,91832,1,2,1:2:0:0:
321,1,91987,1,10,0:0:0:0:
228,176,92143,6,0,B|166:161|166:161|143:115|143:115|88:106,1,167.999994873047,6|2,1:2|1:2,0:0:0:0:
0,247,92609,2,0,L|91:231,1,83.9999974365235,10|0,0:0|1:0,0:0:0:0:
234,274,92920,1,10,0:0:0:0:
232,290,92998,1,8,0:0:0:0:
229,306,93075,1,8,0:0:0:0:
226,322,93153,1,8,0:0:0:0:
223,338,93231,2,0,L|171:331,1,41.9999987182618,0|0,1:0|1:0,0:0:0:0:
191,196,93386,5,10,0:0:0:0:
228,176,93464,1,8,0:0:0:0:
270,176,93542,1,8,0:0:0:0:
303,200,93619,1,8,0:0:0:0:
320,238,93697,2,0,L|312:286,1,41.9999987182618,0|0,1:0|1:0,0:0:0:0:
393,341,93853,6,0,B|433:371|433:371|479:351,1,97.9999970092774,12|0,0:0|1:2,0:0:0:0:
485,270,94086,1,0,1:0:0:0:
488,261,94164,2,0,B|443:232|443:232|399:255,1,97.9999970092774,8|8,0:0|0:0,0:0:0:0:
313,279,94397,1,8,0:0:0:0:
307,287,94474,2,0,L|256:282,1,48.9999985046387,8|8,0:3|0:3,0:0:0:0:
207,350,94630,2,0,L|138:344,1,48.9999985046387,8|8,0:3|0:3,0:0:0:0:
60,342,94785,6,0,B|54:296|96:266|96:266|62:237|61:200|61:200|98:165|107:129|107:129|83:116|65:80|65:80|40:102|44:130,1,367.49998878479,4|0,1:2|0:0,0:0:0:0:
43,123,96029,2,0,P|96:112|160:102,1,97.9999970092774,8|0,0:0|0:0,0:0:0:0:
230,89,96495,1,8,0:3:0:0:
243,63,96961,1,12,0:3:0:0:
253,40,97272,2,0,B|252:67|252:67|246:87|252:107|252:107|250:131|240:151|240:151|239:168|245:189|245:189|241:215|240:243,1,195.999994018555,4|0,1:2|0:0,0:0:0:0:
252,244,98360,5,8,0:0:0:0:
252,244,98438,1,8,0:0:0:0:
252,244,98516,1,8,0:0:0:0:
355,309,98671,1,8,0:0:0:0:
456,238,98827,1,8,0:0:0:0:
418,119,98982,1,8,0:0:0:0:
292,120,99138,1,8,0:0:0:0:
252,244,99293,1,8,0:0:0:0:
125,176,99448,5,0,1:0:0:0:
127,161,99526,1,0,1:0:0:0:
130,146,99604,1,0,1:0:0:0:
132,131,99682,1,0,1:0:0:0:
134,119,99759,6,0,B|63:111,3,70,4|0|0|0,1:2|1:0|1:0|1:0,0:0:0:0:
83,270,100381,1,10,0:0:0:0:
88,253,101003,1,0,1:0:0:0:
152,347,101158,5,8,0:0:0:0:
219,288,101314,2,0,L|205:206,1,70,2|0,0:0|1:0,0:0:0:0:
270,159,101625,1,10,0:0:0:0:
291,166,101780,1,0,1:0:0:0:
314,174,101936,1,2,0:0:0:0:
392,102,102091,1,8,0:0:0:0:
491,262,102246,6,0,B|506:189,3,70,6|0|0|0,1:2|1:0|1:0|1:0,0:0:0:0:
334,182,102868,1,10,0:0:0:0:
352,189,103490,1,0,1:0:0:0:
250,263,103645,5,8,0:0:0:0:
196,195,103801,2,0,L|207:120,1,70,2|0,0:0|1:0,0:0:0:0:
157,46,104112,1,10,0:0:0:0:
61,46,104267,1,0,1:0:0:0:
2,122,104423,1,10,0:0:0:0:
7,156,104500,1,8,0:0:0:0:
13,190,104578,1,8,0:0:0:0:
19,224,104656,1,8,0:0:0:0:
28,259,104733,6,0,P|77:250|125:241,1,97.9999970092774,6|0,1:2|1:0,0:0:0:0:
309,361,105044,2,0,P|262:346|214:334,1,97.9999970092774,10|0,0:0|0:0,0:0:0:0:
221,342,105277,1,8,0:0:0:0:
221,342,105355,2,0,L|243:245,1,97.9999970092774,2|0,1:2|1:0,0:0:0:0:
118,119,105666,2,0,L|139:214,1,97.9999970092774,10|0,0:0|0:0,0:0:0:0:
385,66,105977,5,2,1:2:0:0:
251,0,106132,1,2,1:2:0:0:
385,86,106288,2,0,L|506:64,1,97.9999970092774,8|0,0:0|0:0,0:0:0:0:
488,75,106521,1,8,0:0:0:0:
488,75,106599,1,2,1:2:0:0:
422,201,106754,1,2,1:2:0:0:
291,126,106910,2,0,B|294:180|314:216|322:300,1,146.999995513916,10|0,0:0|0:0,0:0:0:0:
319,271,107221,6,0,P|275:276|213:289,1,97.9999970092774,2|0,1:2|1:0,0:0:0:0:
47,132,107531,2,0,P|95:141|143:147,1,97.9999970092774,10|0,0:0|0:0,0:0:0:0:
152,152,107765,1,8,0:0:0:0:
152,152,107842,2,0,L|136:248,1,97.9999970092774,2|0,1:2|1:0,0:0:0:0:
16,378,108153,2,0,L|0:281,1,97.9999970092774,10|0,0:0|0:0,0:0:0:0:
319,271,108464,5,2,1:2:0:0:
206,368,108619,1,2,1:2:0:0:
317,252,108775,2,0,L|427:272,1,97.9999970092774,8|0,0:0|1:0,0:0:0:0:
489,321,109008,1,0,1:0:0:0:
493,333,109086,2,0,B|525:293|525:293|508:249,1,97.9999970092774,10|0,0:0|1:0,0:0:0:0:
440,193,109319,1,0,1:0:0:0:
429,186,109397,2,0,B|396:225|396:225|413:269,1,97.9999970092774,10|0,0:0|1:0,0:0:0:0:
494,126,109630,5,0,1:0:0:0:
504,122,109708,2,0,B|460:85|460:85|405:101|405:101|361:70|361:70|296:102,1,224,14|0,0:2|1:0,0:0:0:0:
145,223,110174,6,0,B|122:265|122:265|68:202|68:202|112:117,1,224,10|0,0:0|1:0,0:0:0:0:
335,312,110640,5,10,0:0:0:0:
411,363,110796,2,0,B|442:317|442:317|412:268,1,112,0|0,1:0|1:0,0:0:0:0:
159,358,111107,5,10,0:0:0:0:
159,358,111184,1,2,0:0:0:0:
159,358,111262,2,0,L|225:366,1,56,2|2,1:2|0:0,0:0:0:0:
109,255,111417,2,0,L|175:263,1,56,2|2,1:2|0:0,0:0:0:0:
31,309,111573,6,0,B|19:255|19:255|20:243|20:243|10:191,1,112,6|0,0:2|1:0,0:0:0:0:
170,13,111884,2,0,B|161:56|161:56|162:68|162:68|150:122,1,112,10|0,0:0|1:0,0:0:0:0:
276,274,112195,5,10,0:0:0:0:
289,283,112272,1,2,0:0:0:0:
305,286,112350,1,2,1:2:0:0:
320,279,112428,1,2,0:0:0:0:
327,264,112505,2,0,L|313:203,1,56,2|2,1:2|0:0,0:0:0:0:
387,90,112661,1,10,0:0:0:0:
400,81,112738,1,2,0:0:0:0:
416,78,112816,1,2,1:2:0:0:
431,85,112894,1,2,0:0:0:0:
438,100,112972,2,0,L|424:161,1,56,2|2,1:2|0:0,0:0:0:0:
494,321,113127,6,0,B|533:281|533:281|499:220,1,112,12|0,0:0|1:0,0:0:0:0:
309,118,113438,5,2,1:2:0:0:
231,298,113594,1,10,0:0:0:0:
198,204,113749,1,0,1:0:0:0:
327,264,113904,1,0,1:0:0:0:
163,356,114060,6,0,P|111:345|48:329,1,112,14|0,0:0|1:0,0:0:0:0:
59,339,114293,1,0,1:0:0:0:
59,339,114371,2,0,L|74:270,1,56,10|0,0:0|0:0,0:0:0:0:
6,230,114526,2,0,L|21:161,1,56,2|0,1:2|1:0,0:0:0:0:
83,61,114682,5,10,0:0:0:0:
107,47,114759,1,2,0:0:0:0:
134,48,114837,1,2,1:2:0:0:
158,61,114915,1,2,0:0:0:0:
172,82,114993,2,0,L|160:140,3,56,10|2|2|2,0:2|0:0|0:0|0:0,0:0:0:0:
203,231,115303,1,10,0:0:0:0:
43,187,115459,1,2,1:2:0:0:
203,231,115614,1,10,0:0:0:0:
43,187,115770,1,2,1:2:0:0:
236,306,115925,5,10,0:0:0:0:
267,295,116003,1,2,0:0:0:0:
289,269,116081,1,2,1:2:0:0:
294,236,116158,1,2,0:0:0:0:
283,204,116236,2,0,L|351:211,3,56,10|2|2|2,0:0|0:0|0:0|0:0,0:0:0:0:
392,287,116547,6,0,L|460:294,1,56,10|0,0:0|0:0,0:0:0:0:
512,214,116702,2,0,L|444:207,1,56,2|0,1:2|0:0,0:0:0:0:
369,126,116858,2,0,L|425:132,1,56,10|0,0:0|0:0,0:0:0:0:
505,60,117013,2,0,L|449:54,1,56,2|0,1:2|0:0,0:0:0:0:
293,59,117169,6,0,B|258:101|258:101|278:155,1,112,14|10,0:0|0:0,0:0:0:0:
235,227,117402,1,10,0:0:0:0:
203,237,117480,1,12,0:3:0:0:
170,232,117557,1,12,0:3:0:0:
143,211,117635,1,10,0:0:0:0:
129,180,117713,1,10,0:0:0:0:
130,145,117790,2,0,L|115:255,1,112,2|10,1:2|0:0,0:0:0:0:
9,317,118024,1,10,0:0:0:0:
1,329,118101,2,0,L|8:273,3,56,2|2|10|10,1:2|0:0|0:2|0:0,0:0:0:0:
115,256,118412,5,2,1:2:0:0:
154,251,118490,1,10,0:0:0:0:
191,264,118568,1,10,0:0:0:0:
214,295,118645,1,10,0:0:0:0:
231,330,118723,1,10,1:2:0:0:
262,353,118801,1,10,0:0:0:0:
300,361,118879,1,10,0:0:0:0:
336,347,118956,1,10,0:0:0:0:
351,310,119034,6,0,L|338:238,1,56,8|8,1:3|0:3,0:0:0:0:
422,251,119189,2,0,L|431:306,1,56,8|8,0:3|0:3,0:0:0:0:
512,317,119345,2,0,L|499:245,1,56,8|8,0:3|0:3,0:0:0:0:
485,171,119500,5,6,1:2:0:0:
0,284,122765,5,8,0:0:0:0:
1,300,122842,1,8,0:0:0:0:
3,317,122920,1,8,0:0:0:0:
4,335,122998,1,8,0:0:0:0:
6,352,123075,1,8,0:0:0:0:
155,160,123231,6,0,B|192:124|192:124|251:156|251:156|332:147,1,178.500003404617,4|0,1:0|0:0,0:0:0:0:
403,177,123542,2,0,B|441:127|441:127|392:99,1,119.000002269745,2|8,1:2|0:0,0:0:0:0:
266,57,123853,1,2,0:0:0:0:
190,241,124008,1,2,1:2:0:0:
43,188,124164,1,2,1:2:0:0:
155,349,124319,1,10,0:0:0:0:
284,243,124474,1,2,0:0:0:0:
0,260,124630,5,2,1:2:0:0:
105,70,124785,2,0,B|116:123|116:123|113:136|113:136|125:187,1,119.000002269745,2|8,1:2|0:0,0:0:0:0:
254,352,125096,1,2,0:0:0:0:
254,352,125174,1,8,0:0:0:0:
254,352,125252,1,0,1:2:0:0:
341,167,125407,2,0,P|288:143|235:168,1,119.000002269745,2|8,1:2|0:0,0:0:0:0:
436,373,125718,6,0,B|447:297|447:297|446:282|446:282|462:184,1,178.500003404617,6|0,1:2|0:0,0:0:0:0:
422,115,126029,2,0,B|472:80|472:80|511:122,1,119.000002269745,2|8,1:2|0:0,0:0:0:0:
358,272,126340,1,2,0:0:0:0:
300,75,126495,1,2,1:2:0:0:
191,218,126651,1,2,1:2:0:0:
42,107,126806,1,10,0:0:0:0:
188,71,126961,1,2,0:0:0:0:
0,274,127117,5,2,1:2:0:0:
123,383,127272,2,0,P|113:323|102:260,1,119.000002269745,2|8,1:2|0:0,0:0:0:0:
248,140,127583,1,2,0:0:0:0:
248,140,127661,1,8,0:0:0:0:
248,140,127739,1,0,1:2:0:0:
233,304,127894,1,2,1:2:0:0:
85,185,128050,1,8,0:0:0:0:
363,210,128205,6,0,B|419:189|419:189|432:133|432:133|504:105,1,178.500003404617,6|0,1:2|0:0,0:0:0:0:
512,201,128516,1,2,1:2:0:0:
512,201,128594,1,0,1:0:0:0:
512,201,128671,1,10,0:0:0:0:
341,113,128827,1,0,1:0:0:0:
337,120,128904,1,0,1:0:0:0:
334,126,128982,2,0,B|293:81|293:81|320:18,1,119.000002269745,10|0,0:0|1:0,0:0:0:0:
326,32,129215,1,0,1:0:0:0:
334,37,129293,1,8,0:0:0:0:
148,134,129448,6,0,B|87:117|87:117|64:69|64:69|-4:51,1,178.500003404617,6|0,1:2|0:0,0:0:0:0:
7,133,129759,1,2,1:2:0:0:
158,39,129915,1,10,0:0:0:0:
252,222,130070,1,0,1:0:0:0:
252,222,130148,1,0,1:0:0:0:
252,222,130226,2,0,B|295:180|295:180|274:115,1,119.000002269745,10|0,0:0|1:0,0:0:0:0:
83,201,130537,1,8,0:0:0:0:
374,297,130692,6,0,B|502:278|502:278|454:233,1,178.500003404617,4|0,1:0|0:0,0:0:0:0:
403,179,131003,2,0,B|360:143|360:143|351:211,1,119.000002269745,2|0,1:2|0:0,0:0:0:0:
112,319,131314,6,0,B|-17:300|-17:300|32:255,1,178.500003404617,4|0,1:0|0:0,0:0:0:0:
83,201,131625,2,0,B|126:165|126:165|135:233,1,119.000002269745,2|0,1:2|0:0,0:0:0:0:
378,377,131936,6,0,L|499:362,1,119.000002269745,6|0,1:2|0:0,0:0:0:0:
347,167,132246,1,8,0:0:0:0:
320,142,132324,1,8,0:0:0:0:
284,137,132402,1,8,0:0:0:0:
253,156,132480,1,8,0:0:0:0:
235,188,132557,2,0,L|243:255,1,59.5000011348725,8|8,0:0|0:0,0:0:0:0:
263,384,132713,1,6,1:2:0:0:
448,245,132868,1,8,0:0:0:0:
443,202,132946,1,8,0:0:0:0:
439,159,133024,1,8,0:0:0:0:
435,118,133101,1,8,0:0:0:0:
429,76,133179,6,0,B|332:90|332:90|311:49|265:51,1,178.500003404617,4|0,1:0|0:0,0:0:0:0:
205,123,133490,2,0,P|173:70|196:14,1,119.000002269745,2|8,1:2|0:0,0:0:0:0:
311,186,133801,1,2,0:0:0:0:
118,246,133956,1,2,1:2:0:0:
93,110,134112,1,2,1:2:0:0:
227,269,134267,1,10,0:0:0:0:
70,345,134423,1,2,0:0:0:0:
335,375,134578,5,2,1:2:0:0:
434,203,134733,2,0,B|478:246|478:246|458:300,1,119.000002269745,2|8,1:2|0:0,0:0:0:0:
285,191,135044,1,2,0:0:0:0:
285,191,135122,1,8,0:0:0:0:
285,191,135200,1,0,1:0:0:0:
177,341,135355,2,0,B|133:298|133:298|152:243,1,119.000002269745,2|8,1:2|0:0,0:0:0:0:
443,26,135666,6,0,B|448:83|448:83|432:119|432:119|440:157|440:157|433:215,1,178.500003404617,6|0,1:2|0:0,0:0:0:0:
381,284,135977,2,0,B|431:314|431:314|482:281,1,119.000002269745,2|8,1:2|0:0,0:0:0:0:
343,160,136288,1,2,0:0:0:0:
291,344,136443,1,2,1:2:0:0:
167,194,136599,1,2,1:2:0:0:
62,351,136754,1,10,0:0:0:0:
185,338,136910,1,2,0:0:0:0:
0,130,137065,5,2,1:2:0:0:
126,14,137221,2,0,L|96:147,1,119.000002269745,2|8,1:2|0:0,0:0:0:0:
282,264,137531,1,2,0:0:0:0:
282,264,137609,1,8,0:0:0:0:
282,264,137687,1,0,1:0:0:0:
216,112,137842,1,2,1:2:0:0:
110,246,137998,1,8,0:0:0:0:
399,286,138153,6,0,B|415:223|415:223|391:180|391:180|404:117,1,178.500003404617,6|0,1:2|0:0,0:0:0:0:
429,34,138464,1,2,1:2:0:0:
216,112,138619,2,0,B|182:61|182:61|210:10,1,119.000002269745,10|0,0:0|1:0,0:0:0:0:
419,115,138930,2,0,L|394:233,1,119.000002269745,10|0,0:0|1:0,0:0:0:0:
347,376,139241,1,10,0:0:0:0:
347,376,139397,1,2,1:2:0:0:
114,242,139552,6,0,B|91:206|91:206|115:179,1,79.3333348464966,8|0,0:1|0:0,0:0:0:0:
270,281,139759,2,0,B|250:318|250:318|214:310,1,79.3333348464966,8|0,0:1|0:0,0:0:0:0:
219,131,139967,2,0,B|261:129|261:129|272:164,1,79.3333348464966,8|0,0:1|0:0,0:0:0:0:
92,244,140174,2,0,B|69:208|69:208|93:181,1,79.3333348464966,8|0,0:1|0:0,0:0:0:0:
234,116,140381,2,0,B|276:114|276:114|287:149,1,79.3333348464966,8|0,0:1|0:0,0:0:0:0:
287,149,140640,6,0,B|330:140|330:140|349:131|349:131|373:132|373:132|424:116,1,122.499996261597,2|0,0:0|0:0,0:0:0:0:
410,101,141107,6,0,L|433:217,1,119.000002269745,14|0,0:0|0:0,0:0:0:0:
265,378,141417,1,2,1:2:0:0:
136,295,141573,1,2,1:2:0:0:
327,228,141728,1,10,0:0:0:0:
375,384,141884,1,2,0:0:0:0:
164,202,142039,5,2,1:2:0:0:
46,343,142195,2,0,P|34:289|20:223,1,119.000002269745,2|8,1:2|0:0,0:0:0:0:
203,121,142505,1,2,0:0:0:0:
203,121,142583,1,8,0:0:0:0:
203,121,142661,1,0,1:0:0:0:
72,6,142816,2,0,P|29:45|29:103,1,119.000002269745,2|8,1:2|0:0,0:0:0:0:
277,256,143127,6,0,B|281:186|281:186|314:147|314:147|300:78,1,178.500003404617,6|0,1:2|0:0,0:0:0:0:
251,25,143438,2,0,B|296:-16|296:-16|341:19,1,119.000002269745,2|8,1:2|0:0,0:0:0:0:
398,173,143749,1,2,0:0:0:0:
203,121,143904,1,2,1:2:0:0:
422,80,144060,1,2,1:2:0:0:
376,262,144215,1,10,0:0:0:0:
280,171,144371,1,2,0:0:0:0:
131,362,144526,5,2,1:2:0:0:
42,197,144682,2,0,B|0:243|0:243|21:296,1,119.000002269745,2|8,1:2|0:0,0:0:0:0:
208,235,144993,1,2,0:0:0:0:
208,235,145070,1,8,0:0:0:0:
208,235,145148,1,0,1:0:0:0:
102,115,145303,1,2,1:2:0:0:
302,90,145459,1,8,0:0:0:0:
36,196,145614,6,0,B|-5:110|-5:110|5:47|51:48,1,178.500003404617,4|0,1:2|0:0,0:0:0:0:
119,20,145925,1,2,1:2:0:0:
306,209,146081,2,0,L|420:176,1,119.000002269745,10|0,0:0|1:0,0:0:0:0:
251,6,146391,2,0,B|205:46|205:46|215:103,1,119.000002269745,10|0,0:0|1:0,0:0:0:0:
266,285,146702,1,8,0:0:0:0:
480,97,146858,6,0,B|513:186|513:186|497:248|452:245,1,178.500003404617,6|0,1:2|0:0,0:0:0:0:
420,175,147169,1,2,1:2:0:0:
321,364,147324,1,10,0:0:0:0:
211,224,147480,1,0,1:0:0:0:
206,219,147557,1,0,1:0:0:0:
201,215,147635,2,0,B|243:172|243:172|298:192,1,119.000002269745,10|0,0:0|1:0,0:0:0:0:
297,201,147868,1,0,1:0:0:0:
295,209,147946,1,8,0:0:0:0:
42,372,148101,6,0,L|15:191,1,178.500003404617,4|0,1:0|0:0,0:0:0:0:
0,116,148412,1,2,1:2:0:0:
0,116,148568,1,8,0:0:0:0:
227,38,148723,6,0,L|200:219,1,178.500003404617,4|0,1:0|0:0,0:0:0:0:
184,301,149034,1,2,1:2:0:0:
184,301,149189,1,8,0:0:0:0:
463,336,149345,6,0,B|498:279|498:279|467:221|467:221|417:235,1,178.500003404617,6|0,1:2|0:0,0:0:0:0:
332,230,149656,1,10,0:0:0:0:
309,203,149733,1,8,0:0:0:0:
305,167,149811,1,10,0:0:0:0:
322,135,149889,1,8,0:0:0:0:
352,116,149967,2,0,L|419:135,1,59.5000011348725,10|8,0:0|0:0,0:0:0:0:
351,338,150122,5,8,1:3:0:0:
332,331,150200,1,8,0:3:0:0:
315,326,150277,1,8,0:3:0:0:
296,320,150355,1,8,0:3:0:0:
278,313,150433,1,8,0:3:0:0:
261,306,150511,1,8,0:3:0:0:
225,314,150588,6,0,P|141:300|136:211,1,178.500003404617,4|0,1:0|0:0,0:0:0:0:
129,122,150899,2,0,B|188:104|188:104|204:171,1,119.000002269745,2|8,1:2|0:0,0:0:0:0:
15,195,151210,1,2,0:0:0:0:
79,29,151366,1,0,1:2:0:0:
202,160,151521,1,2,1:2:0:0:
338,46,151676,1,10,0:0:0:0:
209,15,151832,1,2,0:0:0:0:
393,257,151987,5,2,1:2:0:0:
490,107,152143,2,0,B|500:153|500:153|499:168|499:168|516:240,1,119.000002269745,0|8,1:2|0:0,0:0:0:0:
320,358,152454,1,2,0:0:0:0:
320,358,152531,1,8,0:0:0:0:
320,358,152609,1,0,1:0:0:0:
239,201,152765,2,0,P|284:165|344:181,1,119.000002269745,2|8,1:2|0:0,0:0:0:0:
77,377,153075,6,0,B|59:310|59:310|76:277|76:277|58:199,1,178.500003404617,6|0,1:2|0:0,0:0:0:0:
91,130,153386,2,0,B|35:102|35:102|-7:156,1,119.000002269745,2|8,1:2|0:0,0:0:0:0:
166,258,153697,1,2,0:0:0:0:
222,78,153853,1,2,1:2:0:0:
101,40,154008,1,2,1:2:0:0:
223,193,154164,1,10,0:0:0:0:
325,33,154319,1,2,0:0:0:0:
498,221,154474,5,2,1:2:0:0:
400,379,154630,2,0,B|390:330|390:330|390:311|390:311|379:262,1,119.000002269745,2|8,1:2|0:0,0:0:0:0:
469,76,154941,1,2,0:0:0:0:
469,76,155018,1,8,0:0:0:0:
469,76,155096,1,0,1:0:0:0:
298,146,155252,1,2,1:2:0:0:
498,221,155407,1,8,0:0:0:0:
268,321,155562,6,0,B|204:305|204:305|180:259|180:259|120:246,1,178.500003404617,6|0,1:2|0:0,0:0:0:0:
119,338,155873,1,2,1:2:0:0:
119,338,155951,1,0,1:0:0:0:
119,338,156029,1,10,0:0:0:0:
53,172,156184,1,0,1:0:0:0:
45,165,156262,1,0,1:0:0:0:
37,159,156340,2,0,B|-11:194|-11:194|0:253,1,119.000002269745,10|0,0:0|1:0,0:0:0:0:
11,254,156573,1,0,1:0:0:0:
20,255,156651,1,10,0:0:0:0:
123,105,156806,5,0,1:0:0:0:
118,98,156884,1,0,1:0:0:0:
114,92,156961,2,0,B|141:61|141:61|160:94,1,79.3333348464966,10|0,0:1|0:0,0:0:0:0:
224,247,157169,2,0,B|197:278|197:278|177:244,1,79.3333348464966,10|0,0:1|0:0,0:0:0:0:
251,91,157376,2,0,B|278:60|278:60|297:93,1,79.3333348464966,10|0,0:1|0:0,0:0:0:0:
375,254,157583,2,0,B|348:285|348:285|328:251,1,79.3333348464966,10|0,0:1|0:0,0:0:0:0:
392,98,157790,2,0,B|419:67|419:67|438:100,1,79.3333348464966,10|0,0:1|0:0,0:0:0:0:
438,100,158050,6,0,P|339:76|228:61,1,210.000008010865,4|0,1:0|0:0,0:0:0:0:
73,123,158516,2,0,B|41:79|41:79|75:35,1,105.000004005432,10|0,0:0|0:0,0:0:0:0:
227,163,158827,2,0,L|196:277,1,105.000004005432,2|0,1:2|0:0,0:0:0:0:
50,366,159138,1,10,0:0:0:0:
5,207,159293,1,2,0:0:0:0:
183,363,159448,6,0,P|227:372|279:280,1,157.500006008148,0|0,1:2|0:0,0:0:0:0:
199,264,159759,1,8,0:0:0:0:
353,70,159993,1,8,0:0:0:0:
367,60,160070,2,0,L|378:181,1,105.000004005432,0|0,1:0|0:0,0:0:0:0:
499,290,160381,2,0,L|514:164,1,105.000004005432,8|0,0:0|0:0,0:0:0:0:
253,216,160692,6,0,B|207:211|195:163|195:163|146:142|102:174,1,157.500006008148,2|0,1:2|0:0,0:0:0:0:
54,222,161003,2,0,B|10:192|10:192|38:140,1,105.000004005432,10|0,0:0|0:0,0:0:0:0:
272,122,161314,1,2,1:2:0:0:
149,266,161469,1,2,0:2:0:0:
86,80,161625,1,10,0:0:0:0:
295,218,161780,6,0,B|339:206|339:206|356:207|356:207|398:199,1,105.000004005432,2|0,0:0|1:0,0:0:0:0:
148,357,162091,2,0,B|103:346|103:346|87:346|87:346|44:338,1,105.000004005432,2|8,0:0|0:0,0:0:0:0:
165,170,162402,1,2,0:0:0:0:
165,170,162480,1,8,0:0:0:0:
165,170,162557,1,0,1:0:0:0:
297,326,162713,1,2,0:0:0:0:
297,326,162868,2,0,P|325:283|313:229,1,105.000004005432,8|0,0:0|0:0,0:0:0:0:
214,62,163179,6,0,P|272:111|344:85,1,157.500006008148,6|0,1:2|0:0,0:0:0:0:
418,37,163490,2,0,B|411:-15|411:-15|361:1,1,105.000004005432,10|0,0:0|0:0,0:0:0:0:
350,232,163801,1,2,1:2:0:0:
512,85,163956,1,2,0:0:0:0:
342,87,164112,1,10,0:0:0:0:
501,234,164267,1,2,0:0:0:0:
339,347,164423,6,0,P|266:332|173:314,1,157.500006008148,0|0,1:0|0:0,0:0:0:0:
82,299,164733,1,8,0:0:0:0:
121,55,164967,1,8,0:0:0:0:
136,48,165044,2,0,P|39:47|27:143,1,210.000008010865,0|8,1:0|0:0,0:0:0:0:
147,187,165511,1,2,0:0:0:0:
273,16,165666,6,0,B|329:27|329:27|353:67|353:67|411:83,1,157.500006008148,6|0,1:2|0:0,0:0:0:0:
466,134,165977,2,0,B|513:105|513:105|479:54,1,105.000004005432,10|0,0:0|0:0,0:0:0:0:
311,148,166288,1,2,1:2:0:0:
463,241,166443,1,2,0:0:0:0:
320,343,166599,1,10,0:0:0:0:
199,162,166754,6,0,B|203:116|203:116|210:102|210:102|215:47,1,105.000004005432,2|0,0:0|1:0,0:0:0:0:
8,263,167065,2,0,B|12:308|12:308|19:323|19:323|24:378,1,105.000004005432,2|8,0:0|0:0,0:0:0:0:
237,295,167376,1,2,0:0:0:0:
237,295,167454,1,8,0:0:0:0:
237,295,167531,1,0,1:0:0:0:
113,244,167687,1,8,0:3:0:0:
105,123,167842,1,4,0:3:0:0:
213,58,167998,1,4,0:3:0:0:
492,88,168153,6,0,P|402:103|322:122,1,168,4|0,1:2|0:0,0:0:0:0:
276,231,168775,1,8,0:0:0:0:
283,255,168853,1,8,0:0:0:0:
291,278,168930,1,4,0:3:0:0:
296,302,169008,1,4,0:3:0:0:
304,325,169086,2,0,L|315:360,1,28,0|0,1:0|1:0,0:0:0:0:
419,263,169241,5,8,1:1:0:0:
411,246,169552,1,8,1:1:0:0:
