osu file format v14

[General]
AudioFilename: audio.mp3
AudioLeadIn: 0
PreviewTime: 34920
Countdown: 0
SampleSet: Soft
StackLeniency: 0.5
Mode: 0
LetterboxInBreaks: 0
WidescreenStoryboard: 0

[Editor]
DistanceSpacing: 0.3
BeatDivisor: 4
GridSize: 32
TimelineZoom: 1.3

[Metadata]
Title:RIOT (Cut Ver.)
TitleUnicode:RIOT (Cut Ver.)
Artist:KNOCK OUT MONKEY
ArtistUnicode:KNOCK OUT MONKEY
Creator:Stario
Version:RAMPAGE
Source:
Tags:Japanese JRock Rock Mr. Foundation Male Vocals KOM J-Rock
BeatmapID:3218861
BeatmapSetID:1576607

[Difficulty]
HPDrainRate:5.5
CircleSize:4
OverallDifficulty:9
ApproachRate:9.3
SliderMultiplier:1.6
SliderTickRate:1

[Events]
//Background and Video events
0,0,"bg.jpg",0,0
//Break Periods
//Storyboard Layer 0 (Background)
//Storyboard Layer 1 (Fail)
//Storyboard Layer 2 (Pass)
//Storyboard Layer 3 (Foreground)
//Storyboard Layer 4 (Overlay)
//Storyboard Sound Samples

[TimingPoints]
335,310.880829015544,4,2,1,82,1,0
645,-181.818181818182,4,2,1,82,0,0
2200,-100,4,2,1,82,0,0
3132,-181.818181818182,4,2,1,82,0,0
5153,-84.0336134453781,4,2,1,82,0,0
15568,-153.846153846154,4,2,1,64,0,0
18055,-84.0336134453781,4,2,1,64,0,0
19920,-166.666666666667,4,2,1,64,0,0
20153,-166.666666666667,4,2,1,5,0,0
20231,-100,4,2,1,64,0,0
25205,-113.636363636364,4,2,1,57,0,0
30179,-92.5925925925926,4,2,1,70,0,0
33910,-70.4225352112676,4,2,1,70,0,0
34065,-70.4225352112676,4,2,1,5,0,0
34143,-70.4225352112676,4,2,1,70,0,0
34298,-70.4225352112676,4,2,1,5,0,0
34376,-70.4225352112676,4,2,1,70,0,0
34531,-70.4225352112676,4,2,1,5,0,0
34998,-78.125,4,2,1,82,0,1
42692,-78.125,4,2,1,5,0,1
42770,-133.333333333333,4,2,1,82,0,1
43081,-78.125,4,2,1,82,0,1
43314,-78.125,4,2,1,5,0,1
43391,-133.333333333333,4,2,1,82,0,1
43702,-78.125,4,2,1,82,0,1
43936,-78.125,4,2,1,5,0,1
44013,-78.125,4,2,1,82,0,1
51267,-78.125,4,2,1,82,0,0
51319,-70.4225352112676,4,2,1,82,0,1
51474,-70.4225352112676,4,2,1,5,0,0
51526,-70.4225352112676,4,2,1,82,0,1
51682,-70.4225352112676,4,2,1,5,0,0
51733,-70.4225352112676,4,2,1,82,0,1
51889,-70.4225352112676,4,2,1,5,0,0
51941,-70.4225352112676,4,2,1,82,0,1
52096,-70.4225352112676,4,2,1,5,0,0
52148,-70.4225352112676,4,2,1,82,0,1
52303,-70.4225352112676,4,2,1,5,0,0
52407,-84.0336134453781,4,2,1,82,0,1
52485,-84.0336134453781,4,2,1,82,0,0
62511,-111.111111111111,4,2,1,82,0,0
63055,-111.111111111111,4,2,1,5,0,0
63132,-111.111111111111,4,2,1,70,0,0

[Colours]
Combo1 : 128,128,192
Combo2 : 255,91,91
Combo3 : 105,103,118
Combo4 : 255,225,196

[HitObjects]
155,54,335,6,0,B|137:91|137:91|156:126,1,80,4|0,3:2|0:0,0:0:0:0:
256,209,645,6,0,P|272:125|289:34,2,176.000005371094,2|2|2,0:2|0:2|0:2,0:0:0:0:
172,341,2200,5,0,3:0:0:0:
266,352,2355,1,0,3:0:0:0:
335,285,2511,1,0,3:0:0:0:
429,268,2666,1,0,3:0:0:0:
288,36,2822,6,0,P|294:76|301:121,1,80,4|0,3:2|0:0,0:0:0:0:
371,194,3132,6,0,P|283:201|238:272,1,176.000005371094,2|2,0:2|0:2,0:0:0:0:
54,333,4065,5,8,3:2:0:0:
50,311,4143,1,0,3:0:0:0:
46,289,4221,1,0,3:0:0:0:
41,267,4298,1,0,3:0:0:0:
65,241,4376,5,0,3:0:0:0:
71,208,4454,1,0,3:0:0:0:
77,175,4531,1,0,3:0:0:0:
83,142,4609,1,0,3:0:0:0:
90,109,4687,5,8,3:2:0:0:
228,348,4842,1,2,3:2:0:0:
228,348,5153,6,0,B|299:331|299:331|324:374|324:374|394:384,1,190.399996223145,6|2,3:2|0:2,0:0:0:0:
498,294,5619,2,0,P|520:249|507:205,1,95.1999981115723,8|2,3:2|0:2,0:0:0:0:
348,100,5930,1,0,3:0:0:0:
508,207,6086,1,2,0:2:0:0:
328,281,6241,1,8,3:2:0:0:
489,47,6397,6,0,P|399:31|297:13,1,190.399996223145,2|2,0:2|0:2,0:0:0:0:
190,158,6863,2,0,P|242:152|276:115,1,95.1999981115723,8|2,3:2|3:2,0:0:0:0:
189,53,7096,1,0,3:0:0:0:
189,53,7174,2,0,B|143:40|143:40|108:71,1,95.1999981115723,0|2,3:0|0:2,0:0:0:0:
28,176,7485,1,8,3:2:0:0:
206,261,7640,1,2,0:2:0:0:
24,368,7796,6,0,P|36:321|49:274,1,95.1999981115723,0|2,3:0|0:2,0:0:0:0:
233,165,8107,2,0,P|187:155|139:145,1,95.1999981115723,8|2,3:2|0:2,0:0:0:0:
178,362,8417,2,0,P|224:352|272:342,1,95.1999981115723,0|2,3:0|0:2,0:0:0:0:
406,233,8728,1,8,3:2:0:0:
219,80,8884,6,0,B|205:126|205:126|236:169,1,95.1999981115723,2|0,0:2|3:0,0:0:0:0:
432,28,9195,2,0,P|386:18|338:8,1,95.1999981115723,2|8,0:2|3:2,0:0:0:0:
488,211,9505,1,2,3:2:0:0:
488,211,9583,1,0,3:0:0:0:
488,211,9661,2,0,P|390:201|319:274,1,190.399996223145,0|8,3:0|3:2,0:0:0:0:
227,376,10127,1,2,0:2:0:0:
138,180,10283,6,0,B|188:172|234:163,1,95.1999981115723,4|2,3:2|0:2,0:0:0:0:
62,350,10594,2,0,B|34:311|34:311|48:265,1,95.1999981115723,8|2,3:2|0:2,0:0:0:0:
231,163,10904,1,0,3:0:0:0:
23,98,11060,1,2,0:2:0:0:
161,293,11215,1,8,3:2:0:0:
289,71,11371,6,0,P|208:46|132:115,1,190.399996223145,2|2,0:2|0:2,0:0:0:0:
245,253,11837,2,0,P|297:260|337:232,1,95.1999981115723,8|2,3:2|3:2,0:0:0:0:
424,170,12070,1,0,3:0:0:0:
424,170,12148,2,0,B|379:158|327:145,1,95.1999981115723,0|2,3:0|0:2,0:0:0:0:
404,371,12459,2,0,B|449:359|501:346,1,95.1999981115723,8|2,3:2|0:2,0:0:0:0:
245,253,12770,6,0,B|220:297|220:297|242:339,1,95.1999981115723,4|2,3:2|0:2,0:0:0:0:
331,146,13081,2,0,B|351:106|351:106|326:62,1,95.1999981115723,8|2,3:2|0:2,0:0:0:0:
107,108,13391,2,0,P|154:118|202:129,1,95.1999981115723,0|2,3:0|0:2,0:0:0:0:
0,0,13702,1,8,3:2:0:0:
15,234,13858,6,0,P|61:223|107:213,1,95.1999981115723,2|0,0:2|3:0,0:0:0:0:
221,35,14169,2,0,P|210:81|199:127,1,95.1999981115723,2|8,0:2|3:2,0:0:0:0:
284,306,14480,1,2,0:2:0:0:
375,104,14635,5,8,3:2:0:0:
422,98,14713,1,0,3:0:0:0:
466,114,14790,1,2,3:2:0:0:
495,151,14868,1,0,3:0:0:0:
499,198,14946,5,8,3:2:0:0:
478,240,15024,1,0,3:0:0:0:
470,286,15101,1,2,3:2:0:0:
474,333,15179,1,0,3:0:0:0:
489,378,15257,5,4,3:2:0:0:
215,224,15412,1,4,3:2:0:0:
296,173,15568,6,0,B|321:219|321:219|293:274,2,103.999995239258,10|2|2,3:2|3:2|3:2,0:0:0:0:
231,103,16500,5,10,3:2:0:0:
465,38,16656,1,2,3:2:0:0:
410,106,16811,6,0,P|458:123|508:113,2,103.999995239258,0|0|0,3:0|3:0|3:0,0:0:0:0:
345,47,17744,5,12,3:2:0:0:
444,304,17899,1,0,3:0:0:0:
444,304,17977,1,0,3:0:0:0:
444,304,18055,2,0,P|470:297|495:291,3,47.5999990557862,10|0|0|0,3:2|3:0|3:0|3:0,0:0:0:0:
337,369,18366,5,10,3:2:0:0:
314,362,18443,1,0,3:0:0:0:
290,355,18521,1,0,3:0:0:0:
266,348,18599,1,0,3:0:0:0:
252,328,18676,5,10,3:2:0:0:
213,330,18754,1,0,3:0:0:0:
174,333,18832,1,0,3:0:0:0:
135,336,18910,1,0,3:0:0:0:
97,339,18987,5,6,3:2:0:0:
458,255,19143,1,6,3:2:0:0:
458,255,19920,6,0,P|422:251|384:272,1,71.9999978027344,4|0,3:3|0:0,0:0:0:0:
292,352,20231,6,0,B|250:356|250:356|206:330,1,80,4|0,3:2|3:0,0:0:0:0:
112,369,20542,2,0,P|122:326|131:289,1,80,10|0,3:2|3:0,0:0:0:0:
28,221,20775,1,8,3:2:0:0:
28,221,20853,2,0,P|17:259|32:294,1,80,2|2,3:2|3:2,0:0:0:0:
119,187,21164,2,0,P|158:195|198:204,1,80,10|2,3:2|2:0,0:0:0:0:
389,267,21474,6,0,B|400:228|400:228|388:190,1,80,2|2,3:2|3:2,0:0:0:0:
301,120,21785,1,8,3:2:0:0:
301,120,21941,2,0,P|263:112|222:103,1,80,2|0,3:2|3:0,0:0:0:0:
335,13,22252,2,0,P|372:7|417:2,1,80,2|8,3:2|3:2,0:0:0:0:
512,0,22562,1,2,3:2:0:0:
441,204,22718,6,0,B|429:165|429:165|441:127,1,80,0|0,3:0|3:0,0:0:0:0:
481,284,23029,2,0,P|439:291|395:277,1,80,10|0,3:2|3:0,0:0:0:0:
305,202,23340,5,10,3:2:0:0:
285,205,23417,1,0,3:0:0:0:
265,210,23495,1,2,3:2:0:0:
245,215,23573,1,0,3:0:0:0:
223,241,23651,5,10,3:2:0:0:
187,234,23728,1,0,3:0:0:0:
152,224,23806,1,2,3:2:0:0:
116,215,23884,1,0,3:0:0:0:
81,206,23961,5,6,3:2:0:0:
327,357,24117,1,6,3:2:0:0:
327,357,25205,6,0,B|339:324|339:324|326:287,1,70.4000021484376,4|0,3:2|3:0,0:0:0:0:
238,318,25516,2,0,P|199:308|164:300,1,70.4000021484376,2|2,3:2|3:2,0:0:0:0:
257,219,25827,2,0,P|290:210|325:202,1,70.4000021484376,10|2,3:2|3:2,0:0:0:0:
211,131,26138,2,0,P|177:122|142:114,1,70.4000021484376,2|2,3:2|3:2,0:0:0:0:
53,38,26448,1,2,3:2:0:0:
53,38,26604,2,0,P|62:75|53:109,1,70.4000021484376,10|2,3:2|3:2,0:0:0:0:
1,212,26915,2,0,P|77:203|127:248,1,140.800004296875,2|2,3:2|3:2,0:0:0:0:
42,309,27381,1,2,3:2:0:0:
148,362,27537,1,2,3:2:0:0:
148,362,27692,6,0,P|183:353|224:344,1,70.4000021484376,0|10,3:0|3:2,0:0:0:0:
299,264,28003,2,0,P|264:255|223:246,1,70.4000021484376,2|2,3:2|3:2,0:0:0:0:
145,194,28314,2,0,B|126:162|126:162|142:128,1,70.4000021484376,10|2,3:2|3:2,0:0:0:0:
253,90,28625,2,0,B|267:120|267:120|248:152,1,70.4000021484376,2|2,3:2|3:2,0:0:0:0:
169,47,28936,1,2,3:2:0:0:
169,47,29091,2,0,P|132:41|92:35,1,70.4000021484376,10|2,3:2|3:2,0:0:0:0:
253,90,29402,2,0,B|318:84|399:80,1,140.800004296875,2|2,3:2|3:2,0:0:0:0:
475,29,29868,2,0,P|493:61|490:110,1,70.4000021484376,2|0,3:2|3:0,0:0:0:0:
435,182,30101,1,0,3:0:0:0:
435,182,30179,6,0,P|394:176|346:170,1,86.4000021093751,14|0,3:2|0:0,0:0:0:0:
181,289,30490,5,8,3:2:0:0:
252,111,30645,1,2,3:2:0:0:
260,357,30801,5,8,3:2:0:0:
161,171,30956,1,0,3:0:0:0:
74,373,31112,5,10,3:2:0:0:
303,260,31267,1,0,3:0:0:0:
18,196,31423,5,8,3:2:0:0:
253,90,31578,1,0,3:0:0:0:
151,368,31733,5,8,3:2:0:0:
61,100,31889,1,0,3:0:0:0:
303,260,32044,6,0,P|345:249|398:237,1,86.4000021093751,10|0,3:2|3:0,0:0:0:0:
234,384,32355,2,0,P|192:373|139:361,1,86.4000021093751,10|0,3:2|3:0,0:0:0:0:
249,135,32666,6,0,P|291:124|344:112,1,86.4000021093751,14|0,3:2|3:0,0:0:0:0:
413,50,32899,1,0,3:0:0:0:
413,50,32977,1,0,3:0:0:0:
236,228,33132,6,0,P|194:217|141:205,1,86.4000021093751,14|0,3:2|3:0,0:0:0:0:
72,143,33365,1,0,3:0:0:0:
72,143,33443,1,0,3:0:0:0:
269,317,33599,6,0,P|311:306|364:294,1,86.4000021093751,14|0,3:2|3:0,0:0:0:0:
433,232,33832,1,0,3:0:0:0:
433,232,33910,6,0,P|446:169|429:121,1,113.599994279785,10|0,3:2|0:0,0:0:0:0:
292,37,34143,6,0,B|269:87|269:87|289:143,1,113.599994279785,10|0,3:2|0:0,0:0:0:0:
147,199,34376,6,0,P|92:189|32:178,1,113.599994279785,14|0,3:2|0:0,0:0:0:0:
160,220,34998,6,0,B|214:232|214:232|262:208,1,102.4,6|0,3:2|0:0,0:0:0:0:
413,85,35309,1,2,3:2:0:0:
180,25,35464,2,0,B|191:79|201:128,1,102.4,8|2,3:2|3:2,0:0:0:0:
368,271,35775,1,2,3:2:0:0:
290,57,35930,1,2,3:2:0:0:
171,309,36086,2,0,P|222:315|273:321,1,102.4,10|2,3:2|3:2,0:0:0:0:
468,179,36397,5,2,3:2:0:0:
244,251,36552,1,2,3:2:0:0:
464,368,36708,1,8,3:2:0:0:
328,137,36863,1,2,3:2:0:0:
328,137,36941,1,8,3:2:0:0:
328,137,37018,1,0,3:0:0:0:
198,372,37174,2,0,P|258:363|288:325,1,102.4,2|8,3:2|3:2,0:0:0:0:
195,124,37485,6,0,B|72:105|72:105|27:132|41:172,1,204.8,6|2,3:2|3:2,0:0:0:0:
257,24,37951,2,0,P|311:33|365:42,1,102.4,8|2,3:2|3:2,0:0:0:0:
228,245,38262,1,2,3:2:0:0:
138,24,38417,1,2,3:2:0:0:
351,156,38573,2,0,P|360:210|367:257,1,102.4,10|2,3:2|3:2,0:0:0:0:
482,384,38884,5,2,3:2:0:0:
246,245,39039,1,2,3:2:0:0:
488,179,39195,1,8,3:2:0:0:
311,358,39350,2,0,P|261:361|210:338,1,102.4,2|0,3:2|3:0,0:0:0:0:
37,215,39661,1,2,3:2:0:0:
265,158,39816,1,8,3:2:0:0:
32,21,39972,6,0,B|73:42|117:24|117:24|133:45|133:45|172:25|221:43,1,204.8,6|2,3:2|3:2,0:0:0:0:
393,212,40438,1,10,3:2:0:0:
310,26,40594,1,0,3:0:0:0:
217,272,40749,1,10,3:2:0:0:
420,131,40904,1,0,3:0:0:0:
349,384,41060,1,8,3:2:0:0:
84,316,41215,6,0,B|50:221|50:221|94:127,1,204.8,6|2,3:2|3:2,0:0:0:0:
182,21,41604,1,0,3:0:0:0:
182,21,41682,2,0,P|232:12|288:2,1,102.4,10|0,3:2|3:0,0:0:0:0:
358,175,41915,1,0,3:0:0:0:
358,175,41993,2,0,P|303:163|257:154,1,102.4,10|0,3:2|3:0,0:0:0:0:
431,26,42303,1,8,3:2:0:0:
329,282,42459,6,0,P|401:283|452:225,1,153.6,6|0,3:2|0:0,0:0:0:0:
345,116,42770,6,0,P|352:148|359:180,1,60.0000022888184,2|8,3:2|3:2,0:0:0:0:
227,356,43081,6,0,P|155:357|104:299,1,153.6,6|0,3:2|0:0,0:0:0:0:
0,161,43392,6,0,P|7:193|14:225,1,60.0000022888184,2|8,3:2|3:2,0:0:0:0:
203,63,43702,6,0,B|237:44|275:59|275:59|291:99|271:135,1,153.6,6|0,3:2|0:0,0:0:0:0:
226,217,44013,5,10,3:2:0:0:
235,235,44091,1,8,3:2:0:0:
239,254,44169,1,10,3:2:0:0:
239,274,44246,1,0,3:0:0:0:
234,293,44324,1,2,3:2:0:0:
223,310,44402,1,0,3:0:0:0:
212,327,44480,6,0,P|191:323|157:319,1,51.2,6|0,3:2|0:0,0:0:0:0:
340,375,44635,1,10,3:2:0:0:
391,377,44713,1,8,3:2:0:0:
440,364,44790,1,8,3:2:0:0:
480,332,44868,1,8,3:2:0:0:
512,292,44946,6,0,B|491:136|491:136|482:193,1,204.8,6|2,3:2|3:2,0:0:0:0:
282,49,45412,2,0,B|339:33|339:33|375:68,1,102.4,8|2,3:2|3:2,0:0:0:0:
162,220,45723,1,2,3:2:0:0:
282,49,45879,1,2,3:2:0:0:
370,303,46034,2,0,P|319:315|266:327,1,102.4,10|2,3:2|3:2,0:0:0:0:
173,99,46345,5,2,3:2:0:0:
102,339,46500,1,2,3:2:0:0:
308,182,46656,1,8,3:2:0:0:
51,104,46811,1,2,3:2:0:0:
51,104,46889,1,8,3:2:0:0:
51,104,46967,1,0,3:0:0:0:
250,315,47122,2,0,P|301:303|354:291,1,102.4,2|8,3:2|3:2,0:0:0:0:
454,38,47433,6,0,B|422:-2|368:-4|368:-4|327:36|333:90,1,204.8,6|2,3:2|3:2,0:0:0:0:
480,257,47899,2,0,B|508:214|508:214|482:169,1,102.4,8|2,3:2|3:2,0:0:0:0:
263,235,48210,1,2,3:2:0:0:
456,366,48366,1,2,3:2:0:0:
371,153,48521,2,0,P|323:142|270:131,1,102.4,10|2,3:2|3:2,0:0:0:0:
52,234,48832,5,2,3:2:0:0:
186,33,48987,1,2,3:2:0:0:
271,261,49143,1,8,3:2:0:0:
53,99,49298,2,0,P|44:55|31:0,1,102.4,2|0,3:2|3:0,0:0:0:0:
270,131,49609,1,2,3:2:0:0:
52,234,49765,1,8,3:2:0:0:
296,347,49920,6,0,B|370:329|370:329|397:374|397:374|470:384,1,204.8,6|2,3:2|3:2,0:0:0:0:
368,130,50386,1,10,3:2:0:0:
198,348,50542,1,0,3:0:0:0:
275,68,50697,1,10,3:2:0:0:
388,314,50853,1,0,3:0:0:0:
164,145,51008,2,0,P|107:124|59:130,1,102.4,10|0,3:2|3:0,0:0:0:0:
463,55,51319,6,0,P|449:113|434:177,1,113.599994279785,10|0,3:2|0:0,0:0:0:0:
490,297,51526,6,0,B|440:274|440:274|385:293,1,113.599994279785,10|0,3:2|0:0,0:0:0:0:
279,356,51733,6,0,P|256:301|272:248,1,113.599994279785,10|0,3:2|0:0,0:0:0:0:
164,145,51941,6,0,P|177:199|154:249,1,113.599994279785,10|0,3:2|0:0,0:0:0:0:
68,351,52148,6,0,P|54:295|41:240,1,113.599994279785,10|0,3:2|0:0,0:0:0:0:
0,96,52407,6,0,B|50:70|101:96|101:96|113:124|134:142|165:146,1,190.399996223145,6|2,3:2|0:2,0:0:0:0:
332,24,52873,2,0,P|284:13|238:2,1,95.1999981115723,8|2,3:2|0:2,0:0:0:0:
311,252,53184,1,0,3:0:0:0:
180,62,53340,1,2,0:2:0:0:
389,115,53495,1,8,3:2:0:0:
181,214,53651,6,0,B|111:197|111:197|85:239|85:239|16:248,1,190.399996223145,2|2,0:2|0:2,0:0:0:0:
177,381,54117,2,0,P|213:349|223:302,1,95.1999981115723,8|2,3:2|3:2,0:0:0:0:
303,249,54350,1,0,3:0:0:0:
303,249,54428,2,0,B|350:232|350:232|392:261,1,95.1999981115723,0|2,3:0|0:2,0:0:0:0:
508,380,54739,1,8,3:2:0:0:
308,334,54894,1,2,0:2:0:0:
469,162,55050,6,0,P|493:202|494:253,1,95.1999981115723,0|2,3:0|0:2,0:0:0:0:
264,79,55360,2,0,P|309:66|355:53,1,95.1999981115723,8|2,3:2|0:2,0:0:0:0:
214,234,55671,2,0,P|168:221|122:208,1,95.1999981115723,0|2,3:0|0:2,0:0:0:0:
365,139,55982,1,8,3:2:0:0:
256,340,56138,6,0,P|210:353|164:366,1,95.1999981115723,2|0,0:2|3:0,0:0:0:0:
432,231,56448,2,0,B|393:259|393:259|345:251,1,95.1999981115723,2|8,0:2|3:2,0:0:0:0:
302,44,56759,1,2,3:2:0:0:
302,44,56837,1,0,3:0:0:0:
302,44,56915,2,0,P|391:27|463:88,1,190.399996223145,0|8,3:0|3:2,0:0:0:0:
268,212,57381,1,2,0:2:0:0:
477,338,57537,6,0,P|486:291|497:238,1,95.1999981115723,4|2,3:2|0:2,0:0:0:0:
268,212,57847,2,0,P|277:258|286:305,1,95.1999981115723,8|2,3:2|0:2,0:0:0:0:
382,132,58158,1,0,3:0:0:0:
151,187,58314,1,2,0:2:0:0:
389,247,58469,1,8,3:2:0:0:
236,66,58625,6,0,B|199:84|157:68|157:68|142:87|142:87|106:69|60:85,1,190.399996223145,2|2,0:2|0:2,0:0:0:0:
209,190,59091,2,0,P|258:197|298:177,1,95.1999981115723,8|2,3:2|3:2,0:0:0:0:
402,109,59324,1,0,3:0:0:0:
402,109,59402,2,0,P|391:156|381:204,1,95.1999981115723,0|2,3:0|0:2,0:0:0:0:
484,357,59713,2,0,B|457:321|457:321|407:328,1,95.1999981115723,8|2,3:2|0:2,0:0:0:0:
189,377,60024,6,0,P|179:330|168:284,1,95.1999981115723,4|2,3:2|0:2,0:0:0:0:
318,84,60334,2,0,P|307:130|297:176,1,95.1999981115723,8|2,3:2|0:2,0:0:0:0:
67,141,60645,2,0,B|104:109|104:109|151:116,1,95.1999981115723,0|2,3:0|0:2,0:0:0:0:
293,284,60956,1,8,3:2:0:0:
419,116,61112,6,0,P|407:70|396:21,1,95.1999981115723,2|0,0:2|3:0,0:0:0:0:
206,244,61423,2,0,P|214:197|223:146,1,95.1999981115723,2|8,0:2|3:2,0:0:0:0:
398,290,61733,1,2,3:2:0:0:
398,290,61811,1,8,3:2:0:0:
398,290,61889,1,0,3:0:0:0:
283,370,62044,1,0,3:0:0:0:
343,214,62200,1,0,3:0:0:0:
404,383,62355,1,0,3:0:0:0:
234,133,62511,6,0,B|206:70|138:60|138:60|85:108|100:172,1,251.999992309571,6|0,3:2|0:0,0:0:0:0:
127,201,63132,5,8,3:2:0:0:
131,210,63210,1,8,3:2:0:0:
135,219,63288,1,0,3:0:0:0:
138,229,63366,1,0,3:0:0:0:
141,239,63443,1,0,3:0:0:0:
142,249,63521,1,0,3:0:0:0:
143,259,63599,5,8,3:2:0:0:
321,21,63910,1,8,3:2:0:0:
