osu file format v14

[General]
AudioFilename: audio.mp3
AudioLeadIn: 0
PreviewTime: 34920
Countdown: 0
SampleSet: Soft
StackLeniency: 0.7
Mode: 0
LetterboxInBreaks: 0
WidescreenStoryboard: 1

[Editor]
DistanceSpacing: 1
BeatDivisor: 4
GridSize: 32
TimelineZoom: 1.4

[Metadata]
Title:RIOT (Cut Ver.)
TitleUnicode:RIOT (Cut Ver.)
Artist:KNOCK OUT MONKEY
ArtistUnicode:KNOCK OUT MONKEY
Creator:Stario
Version:NORMAL
Source:
Tags:Japanese JRock Rock Mr. Foundation Male Vocals KOM J-Rock
BeatmapID:3348363
BeatmapSetID:1576607

[Difficulty]
HPDrainRate:3
CircleSize:3
OverallDifficulty:5
ApproachRate:6
SliderMultiplier:1.1
SliderTickRate:1

[Events]
//Background and Video events
0,0,"bg.jpg",0,0
//Break Periods
//Storyboard Layer 0 (Background)
//Storyboard Layer 1 (Fail)
//Storyboard Layer 2 (Pass)
//Storyboard Layer 3 (Foreground)
//Storyboard Layer 4 (Overlay)
//Storyboard Sound Samples

[TimingPoints]
335,310.880829015544,4,2,1,82,1,0
645,-156.25,4,2,1,82,0,0
2200,-111.111111111111,4,2,1,82,0,0
3132,-156.25,4,2,1,82,0,0
4065,-111.111111111111,4,2,1,82,0,0
5153,-100,4,2,1,82,0,0
15568,-111.111111111111,4,2,1,64,0,0
20231,-111.111111111111,4,2,1,64,0,0
25205,-113.636363636364,4,2,1,57,0,0
30179,-111.111111111111,4,2,1,70,0,0
32666,-100,4,2,1,70,0,0
34998,-95.2380952380952,4,2,1,82,0,1
52407,-100,4,2,1,82,0,0
62511,-111.111111111111,4,2,1,82,0,0
63132,-111.111111111111,4,2,1,70,0,0

[Colours]
Combo1 : 128,128,192
Combo2 : 255,91,91
Combo3 : 105,103,118
Combo4 : 255,225,196

[HitObjects]
466,32,335,5,4,3:2:0:0:
376,87,645,2,0,B|326:106|326:106|297:87|297:87|244:76,2,140.8,2|2|2,0:2|0:2|0:2,0:0:0:0:
474,136,2200,6,0,P|460:183|444:244,2,98.9999969787599,0|0|4,3:0|3:0|3:2,0:0:0:0:
376,87,3132,2,0,B|326:106|326:106|297:87|297:87|244:76,1,140.8,2|2,0:2|0:2,0:0:0:0:
139,52,4065,6,0,B|155:186|155:186|118:204|101:246,1,197.99999395752,8|8,3:2|3:2,0:0:0:0:
92,275,4842,1,2,3:2:0:0:
156,357,5153,6,0,P|205:349|269:340,1,110,6|2,3:2|0:2,0:0:0:0:
316,360,5619,2,0,P|365:355|391:303,1,110,8|0,3:2|3:0,0:0:0:0:
443,207,6241,1,8,3:2:0:0:
443,207,6397,2,0,P|435:152|425:95,1,110,2|2,0:2|0:2,0:0:0:0:
449,48,6863,1,8,3:2:0:0:
344,14,7174,2,0,P|334:68|326:122,1,110,0|8,3:0|3:2,0:0:0:0:
262,212,7796,6,0,P|209:225|159:201,1,110,0|8,3:0|3:2,0:0:0:0:
69,140,8417,2,0,P|62:166|56:193,1,55,0|2,3:0|0:2,0:0:0:0:
18,233,8728,1,8,3:2:0:0:
18,233,8884,2,0,P|30:288|41:344,1,110,2|2,0:2|0:2,0:0:0:0:
148,380,9505,1,2,3:2:0:0:
148,380,9661,2,0,P|160:325|171:269,1,110,0|8,3:0|3:2,0:0:0:0:
262,212,10283,6,0,B|314:194|314:194|367:210,1,110,4|8,3:2|3:2,0:0:0:0:
466,256,10904,2,0,P|477:224|475:199,1,55,0|2,3:0|0:2,0:0:0:0:
450,154,11215,1,8,3:2:0:0:
450,154,11371,2,0,P|434:97|437:46,1,110,2|2,0:2|0:2,0:0:0:0:
467,0,11837,1,8,3:2:0:0:
358,16,12148,2,0,P|302:9|244:4,1,110,0|8,3:0|3:2,0:0:0:0:
179,90,12770,6,0,P|124:94|69:101,1,110,4|8,3:2|3:2,0:0:0:0:
27,203,13391,2,0,B|54:197|54:197|81:204,1,55,0|2,3:0|0:2,0:0:0:0:
123,239,13702,1,8,3:2:0:0:
123,239,13858,2,0,B|174:253|174:253|231:236,1,110,2|2,0:2|0:2,0:0:0:0:
306,158,14480,1,2,0:2:0:0:
306,158,14635,6,0,B|367:187|382:235|382:235|340:276|325:328,1,220,8|4,3:2|3:2,0:0:0:0:
279,356,15412,1,4,3:2:0:0:
279,356,15568,6,0,P|232:345|181:340,2,98.9999969787599,10|2|2,3:2|3:2|3:2,0:0:0:0:
250,261,16500,2,0,P|220:255|189:252,1,49.4999984893799,10|2,3:2|3:2,0:0:0:0:
151,257,16811,6,0,P|104:246|53:241,2,98.9999969787599,0|0|0,3:0|3:0|3:0,0:0:0:0:
136,158,17744,2,0,P|106:152|75:149,1,49.4999984893799,12|0,3:2|3:0,0:0:0:0:
47,119,18055,5,10,3:2:0:0:
121,53,18366,2,0,L|107:3,2,49.4999984893799,10|0|10,3:2|3:0|3:2,0:0:0:0:
217,92,18987,1,6,3:2:0:0:
217,92,19143,1,6,3:2:0:0:
421,48,20231,6,0,P|428:75|435:104,1,49.4999984893799,4|0,3:2|3:0,0:0:0:0:
411,140,20542,2,0,P|398:193|420:251,1,98.9999969787599,10|2,3:2|3:2,0:0:0:0:
461,319,21164,1,10,3:2:0:0:
376,369,21474,2,0,P|353:363|329:357,1,49.4999984893799,2|2,3:2|3:2,0:0:0:0:
290,324,21785,2,0,P|241:335|183:353,1,98.9999969787599,8|0,3:2|3:0,0:0:0:0:
152,333,22252,1,2,3:2:0:0:
152,333,22407,1,8,3:2:0:0:
172,236,22718,6,0,P|181:207|174:168,1,49.4999984893799,0|0,3:0|3:0,0:0:0:0:
150,148,23029,2,0,P|93:137|52:131,2,98.9999969787599,10|10|10,3:2|3:2|3:2,0:0:0:0:
224,84,23961,1,6,3:2:0:0:
224,84,24117,1,6,3:2:0:0:
426,46,25205,6,0,B|443:92|443:92|428:139,1,96.8000029541017,4|2,3:2|3:2,0:0:0:0:
376,219,25827,2,0,B|359:265|359:265|374:312,1,96.8000029541017,10|2,3:2|3:2,0:0:0:0:
299,372,26448,1,2,3:2:0:0:
299,372,26604,2,0,P|271:368|246:365,1,48.4000014770508,10|2,3:2|3:2,0:0:0:0:
216,331,26915,2,0,P|166:338|118:345,1,96.8000029541017,2|2,3:2|3:2,0:0:0:0:
78,369,27381,1,2,3:2:0:0:
24,288,27692,6,0,P|6:241|20:192,1,96.8000029541017,0|2,3:0|3:2,0:0:0:0:
79,123,28314,2,0,P|97:76|83:27,1,96.8000029541017,10|2,3:2|3:2,0:0:0:0:
187,32,28936,1,2,3:2:0:0:
187,32,29091,2,0,P|213:26|243:28,1,48.4000014770508,10|2,3:2|3:2,0:0:0:0:
278,48,29402,2,0,P|327:58|373:36,1,96.8000029541017,2|2,3:2|3:2,0:0:0:0:
410,16,29868,1,2,3:2:0:0:
473,92,30179,6,0,P|458:148|451:192,1,98.9999969787599,14|8,3:2|3:2,0:0:0:0:
418,225,30645,1,2,3:2:0:0:
418,225,30801,2,0,P|433:281|440:325,1,98.9999969787599,8|10,3:2|3:2,0:0:0:0:
409,361,31267,1,0,3:0:0:0:
409,361,31423,2,0,P|360:361|324:329,1,98.9999969787599,8|8,3:2|3:2,0:0:0:0:
252,260,32044,2,0,B|204:245|204:245|159:262,1,98.9999969787599,10|10,3:2|3:2,0:0:0:0:
62,208,32666,5,14,3:2:0:0:
62,207,32822,2,0,P|86:194|111:183,1,55,0|0,3:0|3:0,0:0:0:0:
140,138,33132,1,14,3:2:0:0:
140,138,33288,2,0,P|167:135|194:135,1,55,0|0,3:0|3:0,0:0:0:0:
237,101,33599,1,14,3:2:0:0:
290,205,33910,6,0,P|297:248|305:292,2,82.5,10|10|14,3:2|3:2|3:2,0:0:0:0:
468,127,34998,6,0,B|418:119|418:119|395:123|395:123|351:116,1,115.49999647522,6|2,3:2|3:2,0:0:0:0:
325,67,35464,2,0,P|277:58|240:107,1,115.49999647522,8|2,3:2|3:2,0:0:0:0:
195,143,35930,1,2,3:2:0:0:
195,143,36086,1,10,3:2:0:0:
83,112,36397,1,2,3:2:0:0:
83,112,36552,2,0,P|72:145|64:172,1,57.7499982376099,2|8,3:2|3:2,0:0:0:0:
17,198,36863,2,0,P|30:247|46:314,1,115.49999647522,2|2,3:2|3:2,0:0:0:0:
142,373,37485,6,0,B|192:349|192:349|251:360,1,115.49999647522,6|2,3:2|3:2,0:0:0:0:
302,332,37951,2,0,P|363:345|417:357,1,115.49999647522,8|2,3:2|3:2,0:0:0:0:
467,331,38417,1,2,3:2:0:0:
467,331,38573,1,10,3:2:0:0:
401,236,38884,1,2,3:2:0:0:
401,236,39039,2,0,P|394:206|401:177,1,57.7499982376099,2|8,3:2|3:2,0:0:0:0:
436,135,39350,2,0,P|455:78|448:25,1,115.49999647522,2|2,3:2|3:2,0:0:0:0:
338,63,39972,6,0,B|272:55|289:84|223:77,1,115.49999647522,6|2,3:2|3:2,0:0:0:0:
172,102,40438,1,10,3:2:0:0:
58,80,40749,2,0,B|68:138|77:194,1,115.49999647522,10|8,3:2|3:2,0:0:0:0:
42,240,41215,2,0,P|24:293|49:343,1,115.49999647522,6|2,3:2|3:2,0:0:0:0:
92,383,41682,1,10,3:2:0:0:
185,314,41993,2,0,P|245:320|308:329,1,115.49999647522,10|8,3:2|3:2,0:0:0:0:
354,347,42459,6,0,P|411:340|418:274,1,115.49999647522,6|2,3:2|3:2,0:0:0:0:
493,196,43081,2,0,P|458:150|397:177,1,115.49999647522,6|2,3:2|3:2,0:0:0:0:
294,139,43702,2,0,P|283:193|274:255,1,115.49999647522,6|10,3:2|3:2,0:0:0:0:
296,306,44169,1,10,3:2:0:0:
204,375,44480,1,6,3:2:0:0:
204,375,44635,2,0,P|170:369|127:363,1,57.7499982376099,10|8,3:2|3:2,0:0:0:0:
89,370,44946,6,0,B|60:344|60:344|75:269,1,115.49999647522,6|2,3:2|3:2,0:0:0:0:
125,240,45412,2,0,P|116:181|105:123,1,115.49999647522,8|2,3:2|3:2,0:0:0:0:
68,81,45879,1,2,3:2:0:0:
68,81,46034,1,10,3:2:0:0:
162,14,46345,1,2,3:2:0:0:
162,14,46500,2,0,P|191:10|220:16,1,57.7499982376099,2|8,3:2|3:2,0:0:0:0:
257,58,46811,2,0,P|319:43|382:29,1,115.49999647522,2|2,3:2|3:2,0:0:0:0:
474,81,47433,6,0,P|421:104|412:161,1,115.49999647522,6|2,3:2|3:2,0:0:0:0:
448,200,47899,2,0,B|470:253|470:253|448:306,1,115.49999647522,8|2,3:2|3:2,0:0:0:0:
421,360,48366,1,2,3:2:0:0:
421,360,48521,1,10,3:2:0:0:
320,302,48832,1,2,3:2:0:0:
320,302,48987,2,0,P|291:313|272:335,1,57.7499982376099,2|8,3:2|3:2,0:0:0:0:
227,367,49298,2,0,P|175:369|130:326,1,115.49999647522,2|2,3:2|3:2,0:0:0:0:
38,257,49920,6,0,B|59:200|59:200|37:143,1,115.49999647522,6|2,3:2|3:2,0:0:0:0:
2,104,50386,1,10,3:2:0:0:
90,29,50697,2,0,P|149:41|222:57,1,115.49999647522,10|10,3:2|3:2,0:0:0:0:
306,105,51319,6,0,P|386:98|460:88,2,153.999995300293,10|10|10,3:2|3:2|3:2,0:0:0:0:
240,175,52407,6,0,P|224:236|239:282,1,110,6|2,3:2|0:2,0:0:0:0:
282,311,52873,2,0,P|341:309|385:344,1,110,8|0,3:2|3:0,0:0:0:0:
480,289,53495,1,8,3:2:0:0:
480,289,53651,2,0,P|470:232|461:178,1,110,2|2,0:2|0:2,0:0:0:0:
478,127,54117,1,8,3:2:0:0:
383,69,54428,2,0,B|331:84|331:84|276:66,1,110,0|8,3:0|3:2,0:0:0:0:
173,31,55050,6,0,P|187:87|195:146,1,110,0|8,3:0|3:2,0:0:0:0:
131,228,55671,2,0,P|122:254|118:282,1,55,0|2,3:0|0:2,0:0:0:0:
142,330,55982,1,8,3:2:0:0:
142,330,56138,2,0,P|197:347|252:366,1,110,2|2,0:2|0:2,0:0:0:0:
330,292,56759,1,2,3:2:0:0:
330,292,56915,2,0,P|277:274|225:257,1,110,0|8,3:0|3:2,0:0:0:0:
119,225,57537,6,0,P|115:166|75:127,1,110,4|8,3:2|3:2,0:0:0:0:
27,34,58158,2,0,P|57:27|92:20,1,55,0|2,3:0|0:2,0:0:0:0:
137,43,58469,1,8,3:2:0:0:
137,43,58625,2,0,P|202:59|249:72,1,110,2|2,0:2|0:2,0:0:0:0:
292,45,59091,1,8,3:2:0:0:
377,114,59402,2,0,P|392:167|373:219,1,110,0|8,3:0|3:2,0:0:0:0:
422,316,60024,6,0,P|362:313|324:349,1,110,4|8,3:2|3:2,0:0:0:0:
221,377,60645,2,0,B|228:351|228:351|221:323,1,55,0|2,3:0|0:2,0:0:0:0:
187,287,60956,1,8,3:2:0:0:
187,287,61112,2,0,B|156:268|156:268|71:283,1,110,2|2,0:2|0:2,0:0:0:0:
34,305,61578,1,8,3:2:0:0:
10,197,61889,6,0,P|1:168|-1:140,1,55,0|0,3:0|3:0,0:0:0:0:
22,93,62200,2,0,P|31:64|33:36,1,55,0|0,3:0|3:0,0:0:0:0:
64,1,62511,6,0,B|131:16|131:16|189:6|189:6|257:21,1,197.99999395752,6|8,3:2|3:2,0:0:0:0:
402,56,63599,6,0,P|377:124|368:162,1,98.9999969787599,8|8,3:2|3:2,0:0:0:0:
