osu file format v14

[General]
AudioFilename: audio.mp3
AudioLeadIn: 0
PreviewTime: 34920
Countdown: 0
SampleSet: Soft
StackLeniency: 0.7
Mode: 0
LetterboxInBreaks: 0
WidescreenStoryboard: 1

[Editor]
DistanceSpacing: 0.5
BeatDivisor: 4
GridSize: 32
TimelineZoom: 1.3

[Metadata]
Title:RIOT (Cut Ver.)
TitleUnicode:RIOT (Cut Ver.)
Artist:KNOCK OUT MONKEY
ArtistUnicode:KNOCK OUT MONKEY
Creator:Stario
Version:INSANE
Source:
Tags:Japanese JRock Rock Mr. Foundation Male Vocals KOM J-Rock
BeatmapID:3273548
BeatmapSetID:1576607

[Difficulty]
HPDrainRate:4.5
CircleSize:3.6
OverallDifficulty:7
ApproachRate:9
SliderMultiplier:1.4
SliderTickRate:1

[Events]
//Background and Video events
0,0,"bg.jpg",0,0
//Break Periods
//Storyboard Layer 0 (Background)
//Storyboard Layer 1 (Fail)
//Storyboard Layer 2 (Pass)
//Storyboard Layer 3 (Foreground)
//Storyboard Layer 4 (Overlay)
//Storyboard Sound Samples

[TimingPoints]
335,310.880829015544,4,2,1,82,1,0
645,-181.818181818182,4,2,1,82,0,0
2200,-100,4,2,1,82,0,0
3132,-181.818181818182,4,2,1,82,0,0
4065,-69.4444444444444,4,2,1,82,0,0
5153,-80.6451612903226,4,2,1,82,0,0
15568,-153.846153846154,4,2,1,64,0,0
18055,-69.4444444444444,4,2,1,64,0,0
19920,-166.666666666667,4,2,1,64,0,0
20153,-166.666666666667,4,2,1,5,0,0
20231,-90.9090909090909,4,2,1,64,0,0
25205,-106.382978723404,4,2,1,57,0,0
30179,-75.7575757575758,4,2,1,70,0,0
33910,-70.4225352112676,4,2,1,70,0,0
34065,-70.4225352112676,4,2,1,5,0,0
34143,-70.4225352112676,4,2,1,70,0,0
34298,-70.4225352112676,4,2,1,5,0,0
34376,-70.4225352112676,4,2,1,70,0,0
34531,-70.4225352112676,4,2,1,5,0,0
34998,-76.9230769230769,4,2,1,82,0,1
42692,-78.125,4,2,1,5,0,1
42770,-133.333333333333,4,2,1,82,0,1
43081,-78.125,4,2,1,82,0,1
43314,-78.125,4,2,1,5,0,1
43391,-133.333333333333,4,2,1,82,0,1
43702,-78.125,4,2,1,82,0,1
43936,-78.125,4,2,1,5,0,1
44013,-78.125,4,2,1,82,0,1
51267,-78.125,4,2,1,82,0,0
51319,-75.7575757575758,4,2,1,82,0,1
51423,-75.7575757575758,4,2,1,5,0,0
51526,-75.7575757575758,4,2,1,82,0,1
51630,-75.7575757575758,4,2,1,5,0,0
51733,-75.7575757575758,4,2,1,82,0,1
51837,-75.7575757575758,4,2,1,5,0,0
51941,-75.7575757575758,4,2,1,82,0,1
52044,-75.7575757575758,4,2,1,5,0,0
52148,-75.7575757575758,4,2,1,82,0,1
52303,-75.7575757575758,4,2,1,5,0,0
52407,-84.0336134453781,4,2,1,82,0,1
52485,-84.0336134453781,4,2,1,82,0,0
62511,-121.951219512195,4,2,1,82,0,0
63055,-111.111111111111,4,2,1,5,0,0
63132,-78.125,4,2,1,70,0,0

[Colours]
Combo1 : 128,128,192
Combo2 : 255,91,91
Combo3 : 105,103,118
Combo4 : 255,225,196

[HitObjects]
503,93,335,6,0,P|467:93|436:105,1,70,4|0,3:2|0:0,0:0:0:0:
335,168,645,6,0,P|346:96|347:15,2,154.000004699707,2|2|2,0:2|0:2|0:2,0:0:0:0:
382,262,2200,6,0,P|419:256|455:251,1,70,0|0,3:0|3:0,0:0:0:0:
302,335,2511,2,0,P|265:329|229:324,1,70,0|0,3:0|3:0,0:0:0:0:
111,376,2822,6,0,P|111:340|98:309,1,70,4|0,3:2|0:0,0:0:0:0:
1,226,3132,6,0,P|77:214|154:202,1,154.000004699707,2|2,0:2|0:2,0:0:0:0:
255,103,4065,6,0,P|228:97|205:92,3,50.4000012304688,8|0|0|0,3:2|3:0|3:0|3:0,0:0:0:0:
277,216,4376,6,0,P|303:210|327:205,3,50.4000012304688,0|0|0|0,3:0|3:0|3:0|3:0,0:0:0:0:
428,118,4687,5,8,3:2:0:0:
392,330,4842,1,2,3:2:0:0:
392,330,5153,6,0,B|347:351|303:330|325:318|270:296|226:318,1,173.599993112793,6|2,3:2|0:2,0:0:0:0:
83,378,5619,2,0,P|108:344|113:298,1,86.7999965563966,8|2,3:2|0:2,0:0:0:0:
35,224,5930,2,0,P|9:258|4:301,1,86.7999965563966,0|2,3:0|0:2,0:0:0:0:
185,221,6241,1,8,3:2:0:0:
185,221,6397,6,0,B|202:185|185:149|185:149|202:131|202:131|185:95|202:59,1,173.599993112793,2|2,0:2|0:2,0:0:0:0:
310,97,6863,2,0,P|353:87|394:78,1,86.7999965563966,8|2,3:2|3:2,0:0:0:0:
471,130,7096,1,0,3:0:0:0:
471,130,7174,2,0,P|482:171|470:214,1,86.7999965563966,0|2,3:0|0:2,0:0:0:0:
495,328,7485,2,0,P|452:318|411:309,1,86.7999965563966,8|2,3:2|0:2,0:0:0:0:
272,375,7796,6,0,B|288:334|288:334|271:294,1,86.7999965563966,0|2,3:0|0:2,0:0:0:0:
143,248,8107,2,0,B|126:288|126:288|142:329,1,86.7999965563966,8|2,3:2|0:2,0:0:0:0:
235,184,8417,2,0,P|278:174|319:165,1,86.7999965563966,0|2,3:0|0:2,0:0:0:0:
176,92,8728,1,8,3:2:0:0:
176,92,8884,6,0,P|133:82|92:73,1,86.7999965563966,2|0,0:2|3:0,0:0:0:0:
235,184,9195,2,0,P|278:174|319:165,1,86.7999965563966,2|8,0:2|3:2,0:0:0:0:
441,105,9505,1,2,3:2:0:0:
441,105,9583,1,0,3:0:0:0:
441,105,9661,2,0,B|401:147|401:147|441:263,1,173.599993112793,0|8,3:0|3:2,0:0:0:0:
500,382,10127,1,2,0:2:0:0:
361,315,10283,6,0,P|305:305|276:313,1,86.7999965563966,4|2,3:2|0:2,0:0:0:0:
158,372,10594,2,0,P|167:330|177:285,1,86.7999965563966,8|2,3:2|0:2,0:0:0:0:
20,238,10904,2,0,P|29:280|38:322,1,86.7999965563966,0|2,3:0|0:2,0:0:0:0:
126,151,11215,1,8,3:2:0:0:
126,151,11371,6,0,B|195:134|195:134|221:168|221:168|282:177,1,173.599993112793,2|2,0:2|0:2,0:0:0:0:
383,137,11837,2,0,P|396:179|386:220,1,86.7999965563966,8|2,3:2|3:2,0:0:0:0:
413,319,12070,1,0,3:0:0:0:
413,319,12148,2,0,P|367:310|327:303,1,86.7999965563966,0|2,3:0|0:2,0:0:0:0:
208,365,12459,2,0,P|190:325|195:283,1,86.7999965563966,8|2,3:2|0:2,0:0:0:0:
72,196,12770,6,0,P|76:238|58:277,1,86.7999965563966,4|2,3:2|0:2,0:0:0:0:
176,175,13081,2,0,P|220:169|264:164,1,86.7999965563966,8|2,3:2|0:2,0:0:0:0:
96,89,13391,2,0,P|52:83|8:78,1,86.7999965563966,0|2,3:0|0:2,0:0:0:0:
175,13,13702,1,8,3:2:0:0:
175,13,13858,6,0,P|219:7|263:2,1,86.7999965563966,2|0,0:2|3:0,0:0:0:0:
369,65,14169,2,0,B|351:105|351:105|366:145,1,86.7999965563966,2|8,0:2|3:2,0:0:0:0:
454,226,14480,1,2,0:2:0:0:
348,295,14635,5,8,3:2:0:0:
326,289,14713,1,0,3:0:0:0:
305,284,14790,1,2,3:2:0:0:
283,278,14868,1,0,3:0:0:0:
261,272,14946,6,0,P|265:297|270:326,3,43.3999982781983,8|0|2|0,3:2|3:0|3:2|3:0,0:0:0:0:
326,383,15257,5,4,3:2:0:0:
121,329,15412,1,4,3:2:0:0:
121,329,15568,6,0,P|73:337|26:345,2,90.9999958343508,10|2|2,3:2|3:2|3:2,0:0:0:0:
305,284,16500,5,10,3:2:0:0:
100,230,16655,1,2,3:2:0:0:
100,230,16811,6,0,P|52:238|5:246,2,90.9999958343508,0|0|0,3:0|3:0|3:0,0:0:0:0:
287,187,17744,5,12,3:2:0:0:
81,121,17899,1,0,3:0:0:0:
81,121,17977,1,0,3:0:0:0:
81,121,18055,2,0,P|53:125|30:129,3,50.4000012304688,10|0|0|0,3:2|3:0|3:0|3:0,0:0:0:0:
183,122,18366,2,0,P|207:118|232:114,3,50.4000012304688,10|0|0|0,3:2|3:0|3:0|3:0,0:0:0:0:
144,219,18676,1,10,3:2:0:0:
118,222,18754,1,0,3:0:0:0:
92,224,18832,1,0,3:0:0:0:
66,226,18910,1,0,3:0:0:0:
41,229,18987,5,6,3:2:0:0:
137,17,19143,1,6,3:2:0:0:
137,17,19920,6,0,P|182:16|206:39,1,62.9999980773926,4|0,3:3|0:0,0:0:0:0:
259,127,20231,6,0,P|301:118|335:111,1,77.0000023498536,4|0,3:2|3:0,0:0:0:0:
430,91,20542,2,0,P|431:131|414:166,1,77.0000023498536,10|0,3:2|3:0,0:0:0:0:
444,260,20775,1,8,3:2:0:0:
444,260,20853,2,0,P|402:251|368:244,1,77.0000023498536,2|2,3:2|3:2,0:0:0:0:
286,279,21164,2,0,P|279:318|290:354,1,77.0000023498536,10|2,3:2|2:0,0:0:0:0:
162,295,21474,5,2,3:2:0:0:
162,295,21630,2,0,P|172:258|165:220,1,77.0000023498536,2|8,3:2|3:2,0:0:0:0:
98,151,21941,2,0,P|58:145|21:141,1,77.0000023498536,2|0,3:2|3:0,0:0:0:0:
152,71,22252,2,0,P|192:65|229:61,1,77.0000023498536,2|8,3:2|3:2,0:0:0:0:
324,3,22562,1,2,3:2:0:0:
379,110,22718,6,0,B|392:147|392:147|381:185,1,77.0000023498536,0|0,3:0|3:0,0:0:0:0:
406,281,23029,2,0,P|368:284|329:269,1,77.0000023498536,10|0,3:2|3:0,0:0:0:0:
242,223,23340,5,10,3:2:0:0:
237,241,23417,1,0,3:0:0:0:
233,259,23495,1,2,3:2:0:0:
229,277,23573,1,0,3:0:0:0:
224,295,23651,6,0,P|229:316|234:338,3,38.5000011749268,10|0|2|0,3:2|3:0|3:2|3:0,0:0:0:0:
326,372,23961,5,6,3:2:0:0:
105,338,24117,1,6,3:2:0:0:
105,338,25205,6,0,B|101:304|95:255,1,65.7999989959717,4|0,3:2|3:0,0:0:0:0:
65,190,25516,2,0,P|32:183|0:188,1,65.7999989959717,2|2,3:2|3:2,0:0:0:0:
133,256,25827,2,0,P|166:263|198:258,1,65.7999989959717,10|2,3:2|3:2,0:0:0:0:
258,190,26138,2,0,P|265:157|272:125,1,65.7999989959717,2|2,3:2|3:2,0:0:0:0:
367,67,26448,1,2,3:2:0:0:
367,67,26604,2,0,P|375:99|381:131,1,65.7999989959717,10|2,3:2|3:2,0:0:0:0:
463,210,26915,2,0,P|396:224|370:283,1,131.599997991943,2|2,3:2|3:2,0:0:0:0:
428,368,27381,1,2,3:2:0:0:
287,333,27537,1,2,3:2:0:0:
287,333,27692,6,0,P|252:338|219:343,1,65.7999989959717,0|10,3:0|3:2,0:0:0:0:
134,382,28003,2,0,P|123:347|129:317,1,65.7999989959717,2|2,3:2|3:2,0:0:0:0:
83,242,28314,2,0,P|50:237|17:232,1,65.7999989959717,10|2,3:2|3:2,0:0:0:0:
151,175,28625,2,0,P|183:170|216:165,1,65.7999989959717,2|2,3:2|3:2,0:0:0:0:
289,104,28936,1,2,3:2:0:0:
289,104,29091,2,0,P|296:69|290:40,1,65.7999989959717,10|2,3:2|3:2,0:0:0:0:
196,56,29402,2,0,B|116:47|66:42,1,131.599997991943,2|2,3:2|3:2,0:0:0:0:
0,154,29868,2,0,P|32:149|65:144,1,65.7999989959717,2|0,3:2|3:0,0:0:0:0:
157,182,30101,1,0,3:0:0:0:
157,182,30179,6,0,P|165:224|154:273,1,92.3999997180176,14|0,3:2|0:0,0:0:0:0:
89,384,30490,1,8,3:2:0:0:
237,304,30645,6,0,P|279:296|327:308,1,92.3999997180176,2|8,3:2|3:2,0:0:0:0:
456,384,30956,1,0,3:0:0:0:
369,234,31112,6,0,P|378:188|387:144,1,92.3999997180176,10|0,3:2|3:0,0:0:0:0:
505,23,31423,1,8,3:2:0:0:
283,71,31578,1,0,3:0:0:0:
465,197,31733,5,8,3:2:0:0:
377,0,31889,1,0,3:0:0:0:
268,183,32044,2,0,P|225:192|180:178,1,92.3999997180176,10|0,3:2|3:0,0:0:0:0:
65,35,32355,2,0,P|94:65|106:113,1,92.3999997180176,10|0,3:2|3:0,0:0:0:0:
6,238,32666,6,0,P|49:230|96:222,1,92.3999997180176,14|0,3:2|3:0,0:0:0:0:
161,273,32899,1,0,3:0:0:0:
161,273,32977,1,0,3:0:0:0:
3,336,33132,6,0,P|46:328|93:319,1,92.3999997180176,14|0,3:2|3:0,0:0:0:0:
158,371,33365,1,0,3:0:0:0:
158,371,33443,1,0,3:0:0:0:
253,287,33599,6,0,P|262:245|247:200,1,92.3999997180176,14|0,3:2|3:0,0:0:0:0:
192,129,33832,1,0,3:0:0:0:
192,129,33910,6,0,P|241:122|290:115,1,99.3999949948123,10|0,3:2|0:0,0:0:0:0:
366,66,34143,6,0,P|379:116|366:163,1,99.3999949948123,10|0,3:2|0:0,0:0:0:0:
404,238,34376,6,0,B|451:254|451:254|498:238,1,99.3999949948123,14|0,3:2|0:0,0:0:0:0:
422,365,34998,6,0,B|338:346|338:346|336:352|336:352|248:332,1,181.999991668702,6|2,3:2|3:2,0:0:0:0:
108,384,35464,2,0,P|100:336|93:293,1,90.9999958343508,8|2,3:2|3:2,0:0:0:0:
72,149,35775,1,2,3:2:0:0:
72,149,35930,1,2,3:2:0:0:
225,243,36086,2,0,P|232:194|239:151,1,90.9999958343508,10|2,3:2|3:2,0:0:0:0:
260,4,36397,5,2,3:2:0:0:
260,4,36552,1,2,3:2:0:0:
326,196,36708,1,8,3:2:0:0:
155,93,36863,1,2,3:2:0:0:
155,93,36941,1,8,3:2:0:0:
155,93,37018,1,0,3:0:0:0:
346,39,37174,2,0,P|391:38|431:63,1,90.9999958343508,2|8,3:2|3:2,0:0:0:0:
499,224,37485,6,0,B|397:245|431:176|323:196,1,181.999991668702,6|2,3:2|3:2,0:0:0:0:
220,329,37951,2,0,P|265:307|287:273,1,90.9999958343508,8|2,3:2|3:2,0:0:0:0:
178,150,38262,1,2,3:2:0:0:
178,150,38417,1,2,3:2:0:0:
41,276,38573,2,0,P|86:267|131:260,1,90.9999958343508,10|2,3:2|3:2,0:0:0:0:
55,97,38884,5,2,3:2:0:0:
55,97,39039,1,2,3:2:0:0:
219,29,39195,1,8,3:2:0:0:
282,197,39350,2,0,P|328:210|369:198,1,90.9999958343508,2|0,3:2|3:0,0:0:0:0:
477,67,39661,1,2,3:2:0:0:
326,118,39816,1,8,3:2:0:0:
491,287,39972,6,0,P|481:193|470:93,1,181.999991668702,6|2,3:2|3:2,0:0:0:0:
316,27,40438,2,0,P|320:72|325:117,1,90.9999958343508,10|0,3:2|3:0,0:0:0:0:
261,214,40749,2,0,B|218:231|218:231|177:212,1,90.9999958343508,10|0,3:2|3:0,0:0:0:0:
66,111,41060,1,8,3:2:0:0:
0,302,41215,6,0,B|43:295|80:314|80:314|100:300|100:300|131:318|174:313,1,181.999991668702,6|2,3:2|3:2,0:0:0:0:
247,372,41604,1,0,3:0:0:0:
247,372,41682,2,0,B|288:353|288:353|331:370,1,90.9999958343508,10|0,3:2|3:0,0:0:0:0:
404,323,41915,1,0,3:0:0:0:
404,323,41993,2,0,P|420:277|407:237,1,90.9999958343508,10|0,3:2|3:0,0:0:0:0:
470,122,42303,1,8,3:2:0:0:
291,242,42459,6,0,B|185:224|185:224|215:213,1,136.499993751526,6|0,3:2|0:0,0:0:0:0:
302,157,42770,6,0,B|325:144|325:144|335:168,1,52.5000020027161,2|8,3:2|3:2,0:0:0:0:
188,37,43081,6,0,B|82:55|82:55|112:66,1,134.4,6|0,3:2|0:0,0:0:0:0:
199,122,43392,6,0,B|222:134|222:134|232:110,1,52.5000020027161,2|8,3:2|3:2,0:0:0:0:
43,191,43702,6,0,P|11:248|29:311,1,134.4,6|0,3:2|0:0,0:0:0:0:
107,362,44013,5,10,3:2:0:0:
107,362,44091,1,8,3:2:0:0:
107,362,44169,2,0,P|128:358|153:353,3,44.8,10|0|2|0,3:2|3:0|3:2|3:0,0:0:0:0:
238,278,44480,5,6,3:2:0:0:
331,359,44635,1,10,3:2:0:0:
331,359,44713,1,8,3:2:0:0:
331,359,44790,2,0,P|352:354|375:350,1,44.8,8|8,3:2|3:2,0:0:0:0:
430,265,44946,6,0,B|412:196|412:196|428:160|428:160|412:93,1,179.2,6|2,3:2|3:2,0:0:0:0:
260,147,45412,2,0,P|213:157|172:143,1,89.6,8|2,3:2|3:2,0:0:0:0:
74,24,45723,1,2,3:2:0:0:
74,24,45879,1,2,3:2:0:0:
148,168,46034,2,0,P|139:216|132:257,1,89.6,10|2,3:2|3:2,0:0:0:0:
30,384,46345,5,2,3:2:0:0:
21,191,46500,1,2,3:2:0:0:
151,341,46656,1,8,3:2:0:0:
240,183,46811,1,2,3:2:0:0:
240,183,46889,1,8,3:2:0:0:
240,183,46967,1,0,3:0:0:0:
282,369,47122,2,0,P|249:347|232:299,1,89.6,2|8,3:2|3:2,0:0:0:0:
417,201,47433,6,0,P|409:282|325:287,1,179.2,6|2,3:2|3:2,0:0:0:0:
240,183,47899,2,0,P|250:136|260:94,1,89.6,8|2,3:2|3:2,0:0:0:0:
138,1,48210,1,2,3:2:0:0:
138,1,48366,1,2,3:2:0:0:
60,150,48521,2,0,P|70:193|79:237,1,89.6,10|2,3:2|3:2,0:0:0:0:
227,354,48832,5,2,3:2:0:0:
154,174,48987,1,2,3:2:0:0:
43,336,49143,1,8,3:2:0:0:
154,174,49298,2,0,P|203:168|244:186,1,89.6,2|0,3:2|3:0,0:0:0:0:
358,299,49609,1,2,3:2:0:0:
410,141,49765,1,8,3:2:0:0:
501,363,49920,6,0,B|399:384|433:315|325:335,1,179.2,6|2,3:2|3:2,0:0:0:0:
188,380,50386,2,0,P|197:333|207:291,1,89.6,10|0,3:2|3:0,0:0:0:0:
48,214,50697,2,0,P|59:256|71:305,1,89.6,10|0,3:2|3:0,0:0:0:0:
247,180,51008,2,0,P|200:172|157:164,1,89.6,10|0,3:2|3:0,0:0:0:0:
83,37,51319,6,0,P|129:30|170:26,1,61.5999998120117,10|0,3:2|0:0,0:0:0:0:
216,31,51526,6,0,P|170:36|126:44,1,61.5999998120117,10|0,3:2|0:0,0:0:0:0:
53,126,51733,6,0,P|38:176|51:219,1,61.5999998120117,10|0,3:2|0:0,0:0:0:0:
69,241,51941,6,0,P|60:198|71:151,1,61.5999998120117,10|0,3:2|0:0,0:0:0:0:
158,164,52148,5,10,3:2:0:0:
158,164,52407,6,0,B|223:181|223:181|248:148|248:148|306:140,1,166.599996695252,6|2,3:2|0:2,0:0:0:0:
456,183,52873,2,0,P|449:141|443:100,1,83.2999983476258,8|2,3:2|0:2,0:0:0:0:
349,241,53184,2,0,P|342:282|336:323,1,83.2999983476258,0|2,3:0|0:2,0:0:0:0:
223,381,53495,1,8,3:2:0:0:
223,381,53651,6,0,P|146:368|130:291,1,166.599996695252,2|2,0:2|0:2,0:0:0:0:
197,189,54117,2,0,P|155:179|113:170,1,83.2999983476258,8|2,3:2|3:2,0:0:0:0:
52,118,54350,1,0,3:0:0:0:
52,118,54428,2,0,B|35:78|35:78|50:40,1,83.2999983476258,0|2,3:0|0:2,0:0:0:0:
193,8,54739,2,0,B|207:45|207:45|190:85,1,83.2999983476258,8|2,3:2|0:2,0:0:0:0:
293,143,55050,6,0,P|335:152|374:137,1,83.2999983476258,0|2,3:0|0:2,0:0:0:0:
489,62,55360,2,0,P|480:104|495:143,1,83.2999983476258,8|2,3:2|0:2,0:0:0:0:
508,265,55671,2,0,P|468:257|420:248,1,83.2999983476258,0|2,3:0|0:2,0:0:0:0:
314,341,55982,1,8,3:2:0:0:
314,341,56138,6,0,P|300:302|309:262,1,83.2999983476258,2|0,0:2|3:0,0:0:0:0:
207,159,56448,2,0,P|216:199|202:237,1,83.2999983476258,2|8,0:2|3:2,0:0:0:0:
93,331,56759,1,2,3:2:0:0:
93,331,56837,1,0,3:0:0:0:
93,331,56915,2,0,P|80:246|67:161,1,166.599996695252,0|8,3:0|3:2,0:0:0:0:
33,25,57381,1,2,0:2:0:0:
219,77,57537,6,0,B|261:89|261:89|296:72,1,83.2999983476258,4|2,3:2|0:2,0:0:0:0:
423,8,57847,2,0,P|413:48|402:90,1,83.2999983476258,8|2,3:2|0:2,0:0:0:0:
497,231,58158,2,0,P|486:190|476:150,1,83.2999983476258,0|2,3:0|0:2,0:0:0:0:
357,240,58469,1,8,3:2:0:0:
357,240,58625,6,0,B|263:220|294:284|194:265,1,166.599996695252,2|2,0:2|0:2,0:0:0:0:
99,211,59091,2,0,P|87:169|96:130,1,83.2999983476258,8|2,3:2|3:2,0:0:0:0:
157,44,59324,1,0,3:0:0:0:
157,44,59402,2,0,P|116:35|72:27,1,83.2999983476258,0|2,3:0|0:2,0:0:0:0:
224,125,59713,2,0,P|265:116|309:108,1,83.2999983476258,8|2,3:2|0:2,0:0:0:0:
430,166,60024,6,0,B|449:207|449:207|432:242,1,83.2999983476258,4|2,3:2|0:2,0:0:0:0:
316,338,60334,2,0,P|306:297|296:258,1,83.2999983476258,8|2,3:2|0:2,0:0:0:0:
224,125,60645,2,0,P|213:165|203:205,1,83.2999983476258,0|2,3:0|0:2,0:0:0:0:
157,339,60956,1,8,3:2:0:0:
88,173,61112,6,0,P|46:166|3:181,1,83.2999983476258,2|0,0:2|3:0,0:0:0:0:
202,205,61423,2,0,P|244:212|287:197,1,83.2999983476258,2|8,0:2|3:2,0:0:0:0:
364,73,61733,1,2,3:2:0:0:
364,73,61811,1,8,3:2:0:0:
364,73,61889,2,0,P|320:66|278:60,1,83.2999983476258,0|0,3:0|3:0,0:0:0:0:
417,166,62200,2,0,P|461:159|503:153,1,83.2999983476258,0|0,3:0|3:0,0:0:0:0:
454,338,62511,6,0,P|355:312|250:306,1,200.900003065491,6|0,3:2|0:0,0:0:0:0:
181,254,63132,5,8,3:2:0:0:
181,254,63210,1,8,3:2:0:0:
181,254,63288,2,0,P|177:231|173:209,3,44.8,0|0|0|0,3:0|3:0|3:0|3:0,0:0:0:0:
135,333,63599,5,8,3:2:0:0:
192,65,63910,1,8,3:2:0:0:
