osu file format v14

[General]
AudioFilename: audio.mp3
AudioLeadIn: 0
PreviewTime: 34920
Countdown: 0
SampleSet: Soft
StackLeniency: 0.7
Mode: 0
LetterboxInBreaks: 0
WidescreenStoryboard: 1

[Editor]
DistanceSpacing: 1.3
BeatDivisor: 4
GridSize: 32
TimelineZoom: 1.3

[Metadata]
Title:RIOT (Cut Ver.)
TitleUnicode:RIOT (Cut Ver.)
Artist:KNOCK OUT MONKEY
ArtistUnicode:KNOCK OUT MONKEY
Creator:Stario
Version:HARD
Source:
Tags:Japanese JRock Rock Mr. Foundation Male Vocals KOM J-Rock
BeatmapID:3323510
BeatmapSetID:1576607

[Difficulty]
HPDrainRate:4
CircleSize:3.4
OverallDifficulty:6
ApproachRate:8
SliderMultiplier:1.3
SliderTickRate:1

[Events]
//Background and Video events
0,0,"bg.jpg",0,0
//Break Periods
//Storyboard Layer 0 (Background)
//Storyboard Layer 1 (Fail)
//Storyboard Layer 2 (Pass)
//Storyboard Layer 3 (Foreground)
//Storyboard Layer 4 (Overlay)
//Storyboard Sound Samples

[TimingPoints]
335,310.880829015544,4,2,1,82,1,0
645,-181.818181818182,4,2,1,82,0,0
2200,-100,4,2,1,82,0,0
3132,-181.818181818182,4,2,1,82,0,0
4065,-100,4,2,1,82,0,0
5153,-88.4955752212389,4,2,1,82,0,0
14635,-100,4,2,1,82,0,0
15568,-153.846153846154,4,2,1,64,0,0
16500,-100,4,2,1,64,0,0
16811,-153.846153846154,4,2,1,64,0,0
17744,-100,4,2,1,64,0,0
19920,-166.666666666667,4,2,1,64,0,0
20153,-166.666666666667,4,2,1,5,0,0
20231,-100,4,2,1,64,0,0
25205,-106.382978723404,4,2,1,57,0,0
30179,-88.4955752212389,4,2,1,70,0,0
34998,-84.0336134453781,4,2,1,82,0,1
51319,-80.6451612903226,4,2,1,82,0,1
52407,-88.4955752212389,4,2,1,82,0,0
62511,-121.951219512195,4,2,1,82,0,0
62977,-111.111111111111,4,2,1,5,0,0
63132,-88.4955752212389,4,2,1,70,0,0

[Colours]
Combo1 : 128,128,192
Combo2 : 255,91,91
Combo3 : 105,103,118
Combo4 : 255,225,196

[HitObjects]
51,39,335,6,0,P|80:45|115:53,1,65,4|0,3:2|0:0,0:0:0:0:
164,122,645,6,0,P|224:96|300:88,2,143.000004364014,2|2|2,0:2|0:2|0:2,0:0:0:0:
67,276,2200,6,0,P|37:269|1:262,1,65,0|0,3:0|3:0,0:0:0:0:
141,335,2511,2,0,P|171:328|204:323,1,65,0|0,3:0|3:0,0:0:0:0:
284,278,2822,6,0,P|297:307|301:344,1,65,4|0,3:2|0:0,0:0:0:0:
381,378,3132,6,0,P|440:354|452:275,1,143.000004364014,2|2,0:2|0:2,0:0:0:0:
397,108,4065,6,0,P|400:124|403:139,3,32.5,8|0|0|0,3:2|3:0|3:0|3:0,0:0:0:0:
375,176,4376,2,0,P|372:192|369:207,3,32.5,0|0|0|0,3:0|3:0|3:0|3:0,0:0:0:0:
387,249,4687,5,8,3:2:0:0:
387,249,4842,1,2,3:2:0:0:
292,82,5153,6,0,P|220:66|146:61,1,146.900000448303,6|2,3:2|0:2,0:0:0:0:
51,73,5619,2,0,P|65:109|76:143,1,73.4500002241516,8|2,3:2|0:2,0:0:0:0:
169,161,5930,2,0,P|155:197|144:231,1,73.4500002241516,0|2,3:0|0:2,0:0:0:0:
115,323,6241,1,8,3:2:0:0:
115,323,6397,6,0,B|212:300|212:300|253:327,1,146.900000448303,2|2,0:2|0:2,0:0:0:0:
330,379,6863,2,0,P|385:368|410:322,1,110.175000336227,8|0,3:2|3:0,0:0:0:0:
442,293,7174,2,0,P|435:254|419:144,1,146.900000448303,0|8,3:0|3:2,0:0:0:0:
242,282,7796,6,0,P|203:285|171:272,1,73.4500002241516,0|2,3:0|0:2,0:0:0:0:
108,344,8107,2,0,P|80:316|70:283,1,73.4500002241516,8|2,3:2|0:2,0:0:0:0:
6,213,8417,2,0,P|9:173|28:144,1,73.4500002241516,0|2,3:0|0:2,0:0:0:0:
101,85,8728,1,8,3:2:0:0:
101,85,8884,6,0,P|93:48|84:12,1,73.4500002241516,2|0,0:2|3:0,0:0:0:0:
202,73,9195,2,0,P|193:108|185:144,1,73.4500002241516,2|8,0:2|3:2,0:0:0:0:
244,219,9505,1,2,3:2:0:0:
244,219,9583,1,0,3:0:0:0:
244,219,9661,2,0,P|317:226|366:177,1,146.900000448303,0|8,3:0|3:2,0:0:0:0:
500,314,10283,6,0,P|465:323|429:331,1,73.4500002241516,4|2,3:2|0:2,0:0:0:0:
346,380,10594,2,0,P|313:372|274:365,1,73.4500002241516,8|2,3:2|0:2,0:0:0:0:
197,308,10904,2,0,P|161:315|125:325,1,73.4500002241516,0|2,3:0|0:2,0:0:0:0:
44,373,11215,1,8,3:2:0:0:
44,373,11371,6,0,B|10:332|10:332|52:247,1,146.900000448303,2|2,0:2|0:2,0:0:0:0:
143,220,11837,2,0,P|162:169|147:117,1,110.175000336227,8|0,3:2|3:0,0:0:0:0:
126,74,12148,2,0,P|199:62|275:53,1,146.900000448303,0|8,3:0|3:2,0:0:0:0:
462,34,12770,6,0,B|472:66|472:66|461:104,1,73.4500002241516,4|2,3:2|0:2,0:0:0:0:
400,177,13081,2,0,B|389:209|389:209|401:247,1,73.4500002241516,8|2,3:2|0:2,0:0:0:0:
461,320,13391,2,0,P|430:340|391:343,1,73.4500002241516,0|2,3:0|0:2,0:0:0:0:
307,379,13702,1,8,3:2:0:0:
307,379,13858,6,0,P|297:299|288:222,1,146.900000448303,2|2,0:2|0:2,0:0:0:0:
336,51,14480,1,2,0:2:0:0:
255,75,14635,6,0,P|235:71|214:69,3,32.5,8|0|2|0,3:2|3:0|3:2|3:0,0:0:0:0:
185,49,14946,2,0,P|164:54|142:60,3,32.5,8|0|2|0,3:2|3:0|3:2|3:0,0:0:0:0:
114,74,15257,6,0,P|125:109|125:144,1,65,4|4,3:2|3:2,0:0:0:0:
82,210,15568,6,0,P|35:200|-4:192,2,84.4999961318971,10|2|2,3:2|3:2|3:2,0:0:0:0:
151,325,16500,6,0,P|182:316|209:299,1,65,10|2,3:2|3:2,0:0:0:0:
277,248,16811,6,0,P|324:258|363:266,2,84.4999961318971,0|0|0,3:0|3:0|3:0,0:0:0:0:
119,185,17744,6,0,P|151:181|181:169,1,65,12|0,3:2|3:0,0:0:0:0:
238,106,18055,2,0,P|258:110|277:115,3,32.5,10|0|0|0,3:2|3:0|3:0|3:0,0:0:0:0:
308,130,18366,2,0,P|325:125|344:122,3,32.5,10|0|0|0,3:2|3:0|3:0|3:0,0:0:0:0:
378,106,18676,2,0,P|396:109|412:113,3,32.5,10|0|0|0,3:2|3:0|3:0|3:0,0:0:0:0:
448,140,18987,5,6,3:2:0:0:
448,140,19143,1,6,3:2:0:0:
498,261,19920,6,0,P|469:267|439:273,1,58.4999982147217,4|0,3:3|0:0,0:0:0:0:
412,310,20231,6,0,P|376:301|349:295,1,65,4|0,3:2|3:0,0:0:0:0:
279,343,20542,2,0,P|226:349|183:355,1,97.5,10|8,3:2|3:2,0:0:0:0:
150,327,20853,2,0,P|123:269|140:198,1,130,2|10,3:2|3:2,0:0:0:0:
20,89,21474,5,2,3:2:0:0:
20,89,21630,2,0,P|51:84|88:79,1,65,2|8,3:2|3:2,0:0:0:0:
155,32,21941,2,0,P|221:13|278:41,1,130,2|2,3:2|3:2,0:0:0:0:
333,97,22407,1,8,3:2:0:0:
498,63,22718,6,0,P|508:101|506:128,1,65,0|0,3:0|3:0,0:0:0:0:
454,193,23029,2,0,P|440:249|439:291,1,97.5,10|0,3:2|0:0,0:0:0:0:
455,327,23340,2,0,P|439:330|423:335,3,32.5,10|0|2|0,3:2|3:0|3:2|3:0,0:0:0:0:
388,358,23651,2,0,P|372:353|356:349,3,32.5,10|0|2|0,3:2|3:0|3:2|3:0,0:0:0:0:
321,369,23961,5,6,3:2:0:0:
321,369,24117,1,6,3:2:0:0:
248,289,25205,6,0,P|215:279|173:271,1,61.099999067688,4|0,3:2|3:0,0:0:0:0:
113,298,25516,2,0,P|105:327|98:357,1,61.099999067688,2|2,3:2|3:2,0:0:0:0:
19,342,25827,2,0,P|26:314|34:283,1,61.099999067688,10|2,3:2|3:2,0:0:0:0:
55,206,26138,2,0,P|62:178|70:147,1,61.099999067688,2|2,3:2|3:2,0:0:0:0:
133,97,26448,1,2,3:2:0:0:
133,97,26604,2,0,P|165:87|195:87,1,61.099999067688,10|2,3:2|3:2,0:0:0:0:
266,116,26915,2,0,P|322:118|374:77,1,122.199998135376,2|2,3:2|3:2,0:0:0:0:
430,24,27381,1,2,3:2:0:0:
445,199,27692,6,0,P|454:226|463:257,1,61.099999067688,0|10,3:0|3:2,0:0:0:0:
430,336,28003,2,0,P|400:345|371:354,1,61.099999067688,2|2,3:2|3:2,0:0:0:0:
321,284,28314,2,0,P|349:274|379:265,1,61.099999067688,10|2,3:2|3:2,0:0:0:0:
351,190,28625,2,0,P|321:199|292:208,1,61.099999067688,2|2,3:2|3:2,0:0:0:0:
235,265,28936,1,2,3:2:0:0:
235,265,29091,2,0,P|240:295|245:327,1,61.099999067688,10|2,3:2|3:2,0:0:0:0:
167,345,29402,2,0,P|158:294|147:223,1,122.199998135376,2|2,3:2|3:2,0:0:0:0:
133,145,29868,1,2,3:2:0:0:
28,256,30179,6,0,P|16:184|5:111,1,146.900000448303,14|8,3:2|3:2,0:0:0:0:
23,16,30645,2,0,P|87:60|152:52,1,146.900000448303,2|0,3:2|3:0,0:0:0:0:
239,11,31112,2,0,P|234:48|243:83,1,73.4500002241516,10|0,3:2|3:0,0:0:0:0:
312,148,31423,6,0,B|370:145|370:145|401:161|401:161|455:159,1,146.900000448303,8|8,3:2|3:2,0:0:0:0:
504,240,31889,1,0,3:0:0:0:
504,240,32044,2,0,B|512:275|512:275|502:311,1,73.4500002241516,10|0,3:2|3:0,0:0:0:0:
415,352,32355,2,0,B|405:316|405:316|413:281,1,73.4500002241516,10|0,3:2|3:0,0:0:0:0:
326,239,32666,6,0,P|241:238|204:292,1,146.900000448303,14|0,3:2|3:0,0:0:0:0:
185,328,33055,1,0,3:0:0:0:
185,328,33132,6,0,P|114:335|65:284,1,146.900000448303,14|0,3:2|3:0,0:0:0:0:
32,255,33521,1,0,3:0:0:0:
32,255,33599,6,0,P|38:219|45:173,1,73.4500002241516,14|0,3:2|3:0,0:0:0:0:
103,107,33910,6,0,P|91:49|83:-3,2,110.175000336227,10|10|14,3:2|3:2|3:2,0:0:0:0:
121,96,34998,6,0,B|214:82|180:135|268:122,1,154.699996931305,6|2,3:2|3:2,0:0:0:0:
358,75,35464,2,0,P|370:111|366:151,1,77.3499984656525,8|2,3:2|3:2,0:0:0:0:
336,248,35775,1,2,3:2:0:0:
336,248,35930,1,2,3:2:0:0:
435,231,36086,2,0,P|423:265|427:306,1,77.3499984656525,10|2,3:2|3:2,0:0:0:0:
354,375,36397,5,2,3:2:0:0:
354,375,36552,2,0,P|316:369|277:363,1,77.3499984656525,2|8,3:2|3:2,0:0:0:0:
217,295,36863,1,2,3:2:0:0:
217,295,36941,1,8,3:2:0:0:
217,295,37018,2,0,P|180:300|141:307,1,77.3499984656525,0|2,3:0|3:2,0:0:0:0:
55,359,37329,1,8,3:2:0:0:
55,359,37485,6,0,B|14:329|14:329|42:229,1,154.699996931305,6|2,3:2|3:2,0:0:0:0:
116,161,37951,2,0,P|126:127|121:86,1,77.3499984656525,8|2,3:2|3:2,0:0:0:0:
183,18,38262,1,2,3:2:0:0:
183,18,38417,1,2,3:2:0:0:
253,90,38573,2,0,P|247:126|258:164,1,77.3499984656525,10|2,3:2|3:2,0:0:0:0:
343,232,38884,5,2,3:2:0:0:
343,232,39039,2,0,P|381:226|420:221,1,77.3499984656525,2|8,3:2|3:2,0:0:0:0:
473,309,39350,2,0,P|434:314|397:320,1,77.3499984656525,2|0,3:2|3:0,0:0:0:0:
312,384,39661,1,2,3:2:0:0:
312,384,39816,1,8,3:2:0:0:
221,327,39972,6,0,B|232:271|232:271|223:229|223:229|235:176,1,154.699996931305,6|2,3:2|3:2,0:0:0:0:
277,83,40438,2,0,B|242:65|242:65|205:73,1,77.3499984656525,10|0,3:2|3:0,0:0:0:0:
111,35,40749,2,0,P|99:74|89:110,1,77.3499984656525,10|0,3:2|3:0,0:0:0:0:
33,194,41060,1,8,3:2:0:0:
33,194,41215,6,0,P|106:207|122:281,1,154.699996931305,6|2,3:2|3:2,0:0:0:0:
153,318,41604,1,0,3:0:0:0:
153,318,41682,2,0,P|191:311|232:305,1,77.3499984656525,10|0,3:2|3:0,0:0:0:0:
273,281,41915,1,0,3:0:0:0:
273,281,41993,2,0,P|311:289|349:298,1,77.3499984656525,10|0,3:2|3:0,0:0:0:0:
433,351,42303,1,8,3:2:0:0:
433,351,42459,6,0,P|465:288|427:217,1,154.699996931305,6|2,3:2|3:2,0:0:0:0:
325,45,43081,6,0,P|289:110|321:177,1,154.699996931305,6|2,3:2|3:2,0:0:0:0:
433,351,43702,6,0,B|328:326|328:326|292:362,1,154.699996931305,6|10,3:2|3:2,0:0:0:0:
244,367,44091,1,8,3:2:0:0:
244,367,44169,2,0,P|225:361|194:359,3,38.6749992328263,10|0|2|0,3:2|3:0|3:2|3:0,0:0:0:0:
169,324,44480,5,6,3:2:0:0:
86,355,44635,2,0,L|31:343,3,38.6749992328263,10|8|8|8,3:2|3:2|3:2|3:2,0:0:0:0:
7,316,44946,6,0,P|26:244|27:164,1,154.699996931305,6|2,3:2|3:2,0:0:0:0:
6,65,45412,2,0,P|49:71|83:77,1,77.3499984656525,8|2,3:2|3:2,0:0:0:0:
157,151,45723,1,2,3:2:0:0:
157,151,45879,1,2,3:2:0:0:
214,69,46034,2,0,P|252:62|290:57,1,77.3499984656525,10|2,3:2|3:2,0:0:0:0:
388,33,46345,5,2,3:2:0:0:
388,33,46500,2,0,P|378:71|389:107,1,77.3499984656525,2|8,3:2|3:2,0:0:0:0:
445,189,46811,1,2,3:2:0:0:
445,189,46889,1,8,3:2:0:0:
445,189,46967,2,0,P|455:227|444:263,1,77.3499984656525,0|2,3:0|3:2,0:0:0:0:
484,360,47278,1,8,3:2:0:0:
484,360,47433,6,0,P|424:307|357:327,1,154.699996931305,6|2,3:2|3:2,0:0:0:0:
271,376,47899,2,0,P|233:365|195:355,1,77.3499984656525,8|2,3:2|3:2,0:0:0:0:
96,368,48210,1,2,3:2:0:0:
96,368,48366,1,2,3:2:0:0:
131,274,48521,2,0,P|169:263|207:253,1,77.3499984656525,10|2,3:2|3:2,0:0:0:0:
308,278,48832,5,2,3:2:0:0:
308,278,48987,2,0,B|321:241|321:241|303:207,1,77.3499984656525,2|8,3:2|3:2,0:0:0:0:
218,151,49298,2,0,B|205:114|205:114|223:80,1,77.3499984656525,2|0,3:2|3:0,0:0:0:0:
298,13,49609,1,2,3:2:0:0:
298,13,49765,1,8,3:2:0:0:
371,81,49920,6,0,B|490:69|490:69|459:96,1,154.699996931305,6|2,3:2|3:2,0:0:0:0:
410,177,50386,2,0,P|400:221|408:256,1,77.3499984656525,10|0,3:2|3:0,0:0:0:0:
460,337,50697,2,0,P|421:349|378:365,1,77.3499984656525,10|0,3:2|3:0,0:0:0:0:
316,289,51008,2,0,P|279:275|242:264,1,77.3499984656525,10|0,3:2|3:0,0:0:0:0:
151,199,51319,6,0,P|144:169|141:91,2,107.466662403158,10|10|10,3:2|3:2|3:2,0:0:0:0:
242,264,51941,6,0,P|241:317|231:370,1,107.466662403158,10|10,3:2|3:2,0:0:0:0:
356,323,52407,6,0,B|345:272|345:272|356:234|356:234|343:179,1,146.900000448303,6|2,3:2|0:2,0:0:0:0:
395,99,52873,2,0,P|359:85|318:85,1,73.4500002241516,8|2,3:2|0:2,0:0:0:0:
241,128,53184,2,0,P|202:127|167:113,1,73.4500002241516,0|2,3:0|0:2,0:0:0:0:
92,70,53495,1,8,3:2:0:0:
92,70,53651,6,0,P|75:144|59:214,1,146.900000448303,2|2,0:2|0:2,0:0:0:0:
41,307,54117,2,0,P|97:294|143:319,1,110.175000336227,8|0,3:2|3:0,0:0:0:0:
183,340,54428,2,0,P|251:339|302:283,1,146.900000448303,0|8,3:0|3:2,0:0:0:0:
371,121,55050,6,0,B|408:126|408:126|448:109,1,73.4500002241516,0|2,3:0|0:2,0:0:0:0:
392,30,55360,2,0,B|355:25|355:25|315:42,1,73.4500002241516,8|2,3:2|0:2,0:0:0:0:
254,107,55671,2,0,B|217:112|217:112|177:95,1,73.4500002241516,0|2,3:0|0:2,0:0:0:0:
95,60,55982,1,8,3:2:0:0:
95,60,56138,6,0,P|91:100|75:132,1,73.4500002241516,2|0,0:2|3:0,0:0:0:0:
26,210,56448,2,0,P|30:250|46:282,1,73.4500002241516,2|8,0:2|3:2,0:0:0:0:
102,368,56759,1,2,3:2:0:0:
102,368,56837,1,0,3:0:0:0:
102,368,56915,2,0,P|174:348|246:338,1,146.900000448303,0|8,3:0|3:2,0:0:0:0:
402,381,57537,6,0,P|411:341|406:309,1,73.4500002241516,4|2,3:2|0:2,0:0:0:0:
388,215,57847,2,0,P|349:208|310:201,1,73.4500002241516,8|2,3:2|0:2,0:0:0:0:
229,243,58158,2,0,P|220:203|225:171,1,73.4500002241516,0|2,3:0|0:2,0:0:0:0:
256,83,58469,1,8,3:2:0:0:
256,83,58625,6,0,P|180:95|110:107,1,146.900000448303,2|2,0:2|0:2,0:0:0:0:
48,179,59091,2,0,B|31:230|31:230|63:283,1,110.175000336227,8|0,3:2|3:0,0:0:0:0:
102,300,59402,2,0,P|143:297|211:368,1,146.900000448303,0|8,3:0|3:2,0:0:0:0:
409,363,60024,6,0,P|415:324|422:290,1,73.4500002241516,4|2,3:2|0:2,0:0:0:0:
330,263,60334,2,0,P|324:224|317:190,1,73.4500002241516,8|2,3:2|0:2,0:0:0:0:
410,168,60645,2,0,P|416:129|423:95,1,73.4500002241516,0|2,3:0|0:2,0:0:0:0:
364,19,60956,1,8,3:2:0:0:
364,19,61112,6,0,P|326:20|294:38,1,73.4500002241516,2|0,0:2|3:0,0:0:0:0:
241,115,61423,2,0,P|204:114|172:97,1,73.4500002241516,2|8,0:2|3:2,0:0:0:0:
100,52,61733,1,2,3:2:0:0:
100,52,61811,1,8,3:2:0:0:
100,52,61889,2,0,P|89:88|81:127,1,73.4500002241516,0|0,3:0|3:0,0:0:0:0:
2,176,62200,2,0,P|12:211|20:247,1,73.4500002241516,0|0,3:0|3:0,0:0:0:0:
48,339,62511,6,0,P|134:302|207:332,1,159.90000243988,6|0,3:2|0:0,0:0:0:0:
285,372,63132,1,8,3:2:0:0:
285,372,63210,1,8,3:2:0:0:
285,372,63288,2,0,P|305:369|326:363,3,36.7250001120758,0|0|0|0,3:0|3:0|3:0|3:0,0:0:0:0:
357,333,63599,6,0,P|366:256|378:186,1,146.900000448303,8|8,3:2|3:2,0:0:0:0:
