osu file format v14

[General]
AudioFilename: Witch Activity.mp3
AudioLeadIn: 0
PreviewTime: 3897
Countdown: 0
SampleSet: None
StackLeniency: 0.7
Mode: 1
LetterboxInBreaks: 0
WidescreenStoryboard: 0

[Editor]
DistanceSpacing: 0.8
BeatDivisor: 4
GridSize: 4
TimelineZoom: 1

[Metadata]
Title:Witch*Activity
TitleUnicode:ウィッチ☆アクティビティ
Artist:KMM Dan
ArtistUnicode:KMM団
Creator:agu
Version:Oni
Source:Witch Craft Works
Tags:
BeatmapID:1883305
BeatmapSetID:902024

[Difficulty]
HPDrainRate:5
CircleSize:5
OverallDifficulty:6
ApproachRate:5
SliderMultiplier:1.4
SliderTickRate:1

[Events]
//Background and Video events
0,0,"maxresdefault.jpg",0,0
//Break Periods
//Storyboard Layer 0 (Background)
//Storyboard Layer 1 (Fail)
//Storyboard Layer 2 (Pass)
//Storyboard Layer 3 (Foreground)
//Storyboard Sound Samples

[TimingPoints]
1027,370.37037037037,4,1,0,80,1,0
22138,370.37037037037,4,1,0,80,1,8
66582,-100,4,1,0,80,0,1
83619,-100,4,1,0,80,0,0
127323,-100,4,1,0,80,0,1
144360,-100,4,1,0,80,0,0
183619,-100,4,1,0,80,0,1
200656,-100,4,1,0,80,0,0

[HitObjects]
260,248,3619,5,8,0:0:0:0:
260,248,3990,1,0,0:0:0:0:
260,248,4175,1,0,0:0:0:0:
260,248,4268,1,0,0:0:0:0:
260,248,4360,1,8,0:0:0:0:
260,248,4545,1,0,0:0:0:0:
260,248,4638,1,0,0:0:0:0:
260,248,4731,1,0,0:0:0:0:
260,248,4916,1,0,0:0:0:0:
260,248,5101,1,8,0:0:0:0:
260,248,5286,1,0,0:0:0:0:
260,248,5657,1,0,0:0:0:0:
260,248,5842,1,8,0:0:0:0:
260,248,6027,1,0,0:0:0:0:
260,248,6119,1,0,0:0:0:0:
260,248,6212,1,0,0:0:0:0:
260,248,6397,1,0,0:0:0:0:
260,248,6582,1,8,0:0:0:0:
260,248,6768,1,0,0:0:0:0:
260,248,6953,1,8,0:0:0:0:
260,248,7138,1,0,0:0:0:0:
260,248,7231,1,0,0:0:0:0:
260,248,7323,1,8,0:0:0:0:
260,248,7508,1,0,0:0:0:0:
260,248,7694,1,0,0:0:0:0:
260,248,7879,1,0,0:0:0:0:
260,248,7971,1,0,0:0:0:0:
260,248,8064,1,8,0:0:0:0:
260,248,8249,1,0,0:0:0:0:
260,248,8434,1,8,0:0:0:0:
260,248,8620,1,0,0:0:0:0:
260,248,8805,1,8,0:0:0:0:
260,248,8990,1,0,0:0:0:0:
260,248,9052,1,0,0:0:0:0:
260,248,9113,1,0,0:0:0:0:
260,248,9175,1,0,0:0:0:0:
260,248,9360,1,0,0:0:0:0:
260,248,9422,1,0,0:0:0:0:
260,248,9484,1,0,0:0:0:0:
260,248,9545,1,8,0:0:0:0:
260,248,9731,1,8,0:0:0:0:
260,248,9823,1,8,0:0:0:0:
260,248,9916,1,0,0:0:0:0:
260,248,10101,1,0,0:0:0:0:
260,248,10286,1,8,0:0:0:0:
260,248,10471,1,0,0:0:0:0:
260,248,10657,1,8,0:0:0:0:
260,248,10842,1,0,0:0:0:0:
260,248,11027,1,8,0:0:0:0:
260,248,11212,1,0,0:0:0:0:
260,248,11397,1,0,0:0:0:0:
260,248,11490,1,0,0:0:0:0:
260,248,11582,1,0,0:0:0:0:
260,248,11768,1,8,0:0:0:0:
260,248,11953,1,0,0:0:0:0:
260,248,12138,1,0,0:0:0:0:
260,248,12323,1,0,0:0:0:0:
260,248,12416,1,0,0:0:0:0:
260,248,12508,1,8,0:0:0:0:
260,248,12694,1,0,0:0:0:0:
260,248,12879,1,0,0:0:0:0:
260,248,13064,1,0,0:0:0:0:
260,248,13157,1,0,0:0:0:0:
260,248,13249,1,8,0:0:0:0:
260,248,13434,1,0,0:0:0:0:
260,248,13620,1,0,0:0:0:0:
260,248,13712,1,0,0:0:0:0:
260,248,13805,1,0,0:0:0:0:
260,248,13990,1,8,0:0:0:0:
260,248,14175,1,0,0:0:0:0:
260,248,14268,1,0,0:0:0:0:
260,248,14360,1,0,0:0:0:0:
260,248,14545,1,0,0:0:0:0:
260,248,14638,1,0,0:0:0:0:
260,248,14731,1,8,0:0:0:0:
260,248,14916,1,0,0:0:0:0:
260,248,14978,1,0,0:0:0:0:
260,248,15039,1,0,0:0:0:0:
272,264,15101,1,0,0:0:0:0:
284,268,15194,1,0,0:0:0:0:
284,268,15286,1,0,0:0:0:0:
296,256,15348,1,0,0:0:0:0:
296,256,15410,1,0,0:0:0:0:
284,268,15471,1,8,0:0:0:0:
328,292,15657,1,0,0:0:0:0:
328,292,15842,1,8,0:0:0:0:
328,292,16027,1,8,0:0:0:0:
328,292,16120,1,8,0:0:0:0:
328,292,16212,1,8,0:0:0:0:
328,292,16397,1,0,0:0:0:0:
328,292,16490,1,0,0:0:0:0:
328,292,16582,1,8,0:0:0:0:
328,292,16768,1,0,0:0:0:0:
328,292,16953,1,8,0:0:0:0:
328,292,17138,1,0,0:0:0:0:
328,292,17323,1,8,0:0:0:0:
328,292,17416,1,8,0:0:0:0:
328,292,17508,1,0,0:0:0:0:
328,292,17694,1,8,0:0:0:0:
328,292,17879,1,0,0:0:0:0:
328,292,17971,1,0,0:0:0:0:
328,292,18064,1,8,0:0:0:0:
328,292,18249,1,0,0:0:0:0:
328,292,18434,1,8,0:0:0:0:
328,292,18620,1,0,0:0:0:0:
328,292,18712,1,0,0:0:0:0:
328,292,18805,1,0,0:0:0:0:
328,292,18990,1,0,0:0:0:0:
328,292,19175,1,8,0:0:0:0:
328,292,19360,1,0,0:0:0:0:
328,292,19453,1,0,0:0:0:0:
328,292,19545,1,0,0:0:0:0:
328,292,19731,1,0,0:0:0:0:
328,292,19916,1,8,0:0:0:0:
328,292,20101,1,0,0:0:0:0:
328,276,20163,1,0,0:0:0:0:
328,276,20224,1,0,0:0:0:0:
328,276,20286,1,0,0:0:0:0:
312,292,20379,1,0,0:0:0:0:
328,276,20471,1,0,0:0:0:0:
312,292,20533,1,0,0:0:0:0:
312,292,20595,1,0,0:0:0:0:
312,292,20657,1,8,0:0:0:0:
312,292,20842,1,0,0:0:0:0:
328,292,20934,1,0,0:0:0:0:
328,292,21027,1,8,0:0:0:0:
328,292,21397,1,8,0:0:0:0:
328,292,21768,1,8,0:0:0:0:
312,292,21953,1,0,0:0:0:0:
312,292,22045,1,0,0:0:0:0:
312,292,22138,1,8,0:0:0:0:
312,292,22323,1,0,0:0:0:0:
312,292,22508,1,8,0:0:0:0:
312,292,22694,1,0,0:0:0:0:
328,292,22786,1,0,0:0:0:0:
328,292,22879,1,0,0:0:0:0:
328,292,23064,1,0,0:0:0:0:
328,292,23249,1,8,0:0:0:0:
328,292,23434,1,0,0:0:0:0:
328,292,23527,1,8,0:0:0:0:
328,292,23620,1,8,0:0:0:0:
312,292,23805,1,0,0:0:0:0:
312,292,23990,1,8,0:0:0:0:
312,292,24082,1,8,0:0:0:0:
312,292,24175,1,0,0:0:0:0:
312,292,24360,1,0,0:0:0:0:
328,292,24545,1,0,0:0:0:0:
328,292,24638,1,0,0:0:0:0:
328,292,24731,1,8,0:0:0:0:
328,292,24916,1,8,0:0:0:0:
328,292,25008,1,8,0:0:0:0:
328,292,25101,1,0,0:0:0:0:
328,292,25194,1,0,0:0:0:0:
328,292,25286,1,0,0:0:0:0:
312,292,25471,1,8,0:0:0:0:
312,292,25657,1,0,0:0:0:0:
312,292,25749,1,0,0:0:0:0:
312,292,25842,1,0,0:0:0:0:
312,292,26027,1,0,0:0:0:0:
312,292,26212,1,8,0:0:0:0:
328,292,26397,1,0,0:0:0:0:
328,292,26490,1,0,0:0:0:0:
328,292,26582,1,0,0:0:0:0:
328,292,26768,1,0,0:0:0:0:
328,292,26953,1,8,0:0:0:0:
328,292,27138,1,8,0:0:0:0:
288,256,27323,1,0,0:0:0:0:
328,292,27508,1,8,0:0:0:0:
312,276,27601,1,8,0:0:0:0:
312,276,27694,1,8,0:0:0:0:
312,276,27786,1,0,0:0:0:0:
312,276,27879,1,0,0:0:0:0:
312,276,27971,1,0,0:0:0:0:
312,276,28064,1,8,0:0:0:0:
312,276,28249,1,8,0:0:0:0:
312,276,28434,1,0,0:0:0:0:
312,276,28620,1,0,0:0:0:0:
312,276,28990,1,0,0:0:0:0:
312,276,29082,1,0,0:0:0:0:
312,276,29175,1,0,0:0:0:0:
312,276,29360,1,0,0:0:0:0:
312,276,29545,1,8,0:0:0:0:
312,276,29731,1,0,0:0:0:0:
312,276,29823,1,0,0:0:0:0:
312,276,29916,1,8,0:0:0:0:
312,276,30101,1,0,0:0:0:0:
284,290,30194,1,8,0:0:0:0:
312,276,30286,1,0,0:0:0:0:
312,276,30471,1,8,0:0:0:0:
312,276,30564,1,8,0:0:0:0:
312,276,30657,1,0,0:0:0:0:
312,276,30749,1,0,0:0:0:0:
312,272,30842,1,8,0:0:0:0:
312,276,31027,1,0,0:0:0:0:
312,276,31212,1,0,0:0:0:0:
312,276,31397,1,8,0:0:0:0:
312,276,31490,1,0,0:0:0:0:
312,276,31582,1,0,0:0:0:0:
312,276,31768,1,8,0:0:0:0:
312,276,31860,1,0,0:0:0:0:
312,276,31953,1,8,0:0:0:0:
312,276,32045,1,8,0:0:0:0:
312,276,32138,1,0,0:0:0:0:
312,276,32231,1,0,0:0:0:0:
312,276,32323,1,8,0:0:0:0:
312,276,32416,1,8,0:0:0:0:
312,276,32508,1,0,0:0:0:0:
312,276,32694,1,8,0:0:0:0:
312,276,32879,1,8,0:0:0:0:
312,276,32971,1,0,0:0:0:0:
312,276,33064,1,8,0:0:0:0:
312,276,33157,1,8,0:0:0:0:
312,276,33249,1,0,0:0:0:0:
312,276,33434,1,8,0:0:0:0:
312,276,33620,1,0,0:0:0:0:
312,276,33712,1,0,0:0:0:0:
312,276,33805,1,0,0:0:0:0:
312,276,33897,1,8,0:0:0:0:
312,276,33990,1,0,0:0:0:0:
312,276,34175,1,8,0:0:0:0:
312,276,34360,1,8,0:0:0:0:
312,276,34453,1,0,0:0:0:0:
312,276,34545,1,0,0:0:0:0:
312,276,34638,1,0,0:0:0:0:
312,276,34731,1,8,0:0:0:0:
312,276,34916,1,8,0:0:0:0:
312,276,35008,1,8,0:0:0:0:
312,276,35101,1,0,0:0:0:0:
312,276,35194,1,0,0:0:0:0:
312,276,35286,1,8,0:0:0:0:
312,276,35471,1,0,0:0:0:0:
312,276,35657,1,0,0:0:0:0:
312,276,35842,1,8,0:0:0:0:
312,276,35934,1,0,0:0:0:0:
312,276,36027,1,0,0:0:0:0:
312,276,36120,1,8,0:0:0:0:
312,276,36212,1,0,0:0:0:0:
312,276,36397,1,8,0:0:0:0:
312,276,36582,1,0,0:0:0:0:
312,276,36675,1,0,0:0:0:0:
312,276,36768,1,8,0:0:0:0:
312,276,36953,1,8,0:0:0:0:
312,276,37138,1,0,0:0:0:0:
312,276,37323,1,8,0:0:0:0:
312,276,37416,1,0,0:0:0:0:
312,276,37508,1,0,0:0:0:0:
312,276,37601,1,8,0:0:0:0:
312,276,37694,1,0,0:0:0:0:
312,276,37879,1,8,0:0:0:0:
312,276,38064,1,0,0:0:0:0:
312,276,38157,1,0,0:0:0:0:
312,276,38249,1,0,0:0:0:0:
312,276,38434,1,8,0:0:0:0:
312,276,38527,1,8,0:0:0:0:
312,276,38620,1,0,0:0:0:0:
312,276,38805,1,8,0:0:0:0:
312,276,38990,1,0,0:0:0:0:
312,276,39175,1,0,0:0:0:0:
312,276,39360,1,8,0:0:0:0:
312,276,39545,1,0,0:0:0:0:
312,276,39638,1,0,0:0:0:0:
312,276,39731,1,0,0:0:0:0:
312,276,39916,1,8,0:0:0:0:
312,276,40101,1,0,0:0:0:0:
312,276,40286,1,8,0:0:0:0:
312,276,40471,1,8,0:0:0:0:
312,276,40657,1,0,0:0:0:0:
312,276,40749,1,8,0:0:0:0:
312,276,40842,1,0,0:0:0:0:
312,276,40934,1,8,0:0:0:0:
312,276,41027,1,0,0:0:0:0:
312,276,41119,1,0,0:0:0:0:
312,276,41212,1,8,0:0:0:0:
312,276,41305,1,8,0:0:0:0:
312,276,41397,1,0,0:0:0:0:
326,233,41582,1,0,0:0:0:0:
300,252,41675,1,0,0:0:0:0:
299,270,41768,1,8,0:0:0:0:
299,270,41860,1,8,0:0:0:0:
299,270,41953,1,0,0:0:0:0:
299,270,42045,1,0,0:0:0:0:
299,270,42138,1,0,0:0:0:0:
299,270,42323,1,0,0:0:0:0:
299,270,42508,1,0,0:0:0:0:
299,270,42601,1,0,0:0:0:0:
299,270,42694,1,0,0:0:0:0:
299,270,42879,1,8,0:0:0:0:
299,270,42971,1,8,0:0:0:0:
299,270,43064,1,0,0:0:0:0:
299,270,43157,1,0,0:0:0:0:
299,270,43249,1,8,0:0:0:0:
299,270,43434,1,0,0:0:0:0:
299,270,43619,1,8,0:0:0:0:
299,270,43712,1,0,0:0:0:0:
299,270,43805,1,0,0:0:0:0:
299,270,43897,1,0,0:0:0:0:
299,270,43990,1,8,0:0:0:0:
299,270,44175,1,8,0:0:0:0:
299,270,44360,1,0,0:0:0:0:
316,332,44545,1,0,0:0:0:0:
318,308,44638,1,0,0:0:0:0:
299,269,44731,1,8,0:0:0:0:
310,279,44823,1,0,0:0:0:0:
324,307,44916,1,8,0:0:0:0:
324,307,45101,1,0,0:0:0:0:
316,332,45163,1,0,0:0:0:0:
316,332,45224,1,0,0:0:0:0:
316,332,45286,1,0,0:0:0:0:
316,332,45471,1,0,0:0:0:0:
316,332,45564,1,0,0:0:0:0:
316,332,45657,1,0,0:0:0:0:
310,279,45842,1,8,0:0:0:0:
310,279,45934,1,0,0:0:0:0:
310,279,46027,1,0,0:0:0:0:
310,279,46119,1,0,0:0:0:0:
310,279,46212,1,8,0:0:0:0:
310,279,46305,1,0,0:0:0:0:
310,279,46397,1,0,0:0:0:0:
310,279,46582,1,8,0:0:0:0:
320,295,46675,1,8,0:0:0:0:
310,279,46768,1,0,0:0:0:0:
310,279,46860,1,0,0:0:0:0:
310,279,46953,1,8,0:0:0:0:
320,295,47045,1,8,0:0:0:0:
310,279,47323,1,0,0:0:0:0:
310,279,47508,1,0,0:0:0:0:
310,279,47601,1,0,0:0:0:0:
310,279,47694,1,8,0:0:0:0:
310,279,47786,1,0,0:0:0:0:
310,279,47879,1,0,0:0:0:0:
310,279,47971,1,8,0:0:0:0:
310,279,48064,1,0,0:0:0:0:
310,279,48249,1,8,0:0:0:0:
310,279,48342,1,8,0:0:0:0:
310,279,48434,1,0,0:0:0:0:
310,279,48527,1,0,0:0:0:0:
310,279,48619,1,0,0:0:0:0:
310,279,48805,1,8,0:0:0:0:
310,279,48897,1,0,0:0:0:0:
310,279,48990,1,0,0:0:0:0:
310,279,49082,1,0,0:0:0:0:
310,279,49175,1,8,0:0:0:0:
310,279,49268,1,0,0:0:0:0:
310,279,49360,1,8,0:0:0:0:
310,279,49453,1,8,0:0:0:0:
307,305,49545,1,0,0:0:0:0:
307,305,49731,1,8,0:0:0:0:
307,305,49916,1,0,0:0:0:0:
307,305,50008,1,0,0:0:0:0:
307,305,50101,1,8,0:0:0:0:
307,305,50286,1,0,0:0:0:0:
307,305,50379,1,8,0:0:0:0:
307,305,50471,1,8,0:0:0:0:
307,305,50564,1,0,0:0:0:0:
307,305,50657,1,8,0:0:0:0:
307,305,50749,1,8,0:0:0:0:
307,305,50842,1,0,0:0:0:0:
307,305,50934,1,8,0:0:0:0:
307,305,51027,1,0,0:0:0:0:
307,305,51212,1,0,0:0:0:0:
307,305,51305,1,0,0:0:0:0:
307,305,51397,1,8,0:0:0:0:
312,321,51490,1,0,0:0:0:0:
307,305,51582,1,8,0:0:0:0:
312,321,51768,1,0,0:0:0:0:
312,321,51953,1,0,0:0:0:0:
312,321,52138,1,8,0:0:0:0:
323,362,52323,1,0,0:0:0:0:
323,362,52385,1,0,0:0:0:0:
323,362,52447,1,0,0:0:0:0:
332,366,52508,1,0,0:0:0:0:
323,310,52694,1,8,0:0:0:0:
323,310,52879,1,0,0:0:0:0:
348,319,52971,1,0,0:0:0:0:
375,327,53064,1,0,0:0:0:0:
375,327,53157,1,0,0:0:0:0:
375,327,53249,1,8,0:0:0:0:
335,283,53434,1,0,0:0:0:0:
335,283,53619,1,8,0:0:0:0:
335,283,53805,1,8,0:0:0:0:
335,283,53990,1,0,0:0:0:0:
335,283,54175,1,0,0:0:0:0:
335,283,54360,1,8,0:0:0:0:
335,283,54545,1,0,0:0:0:0:
335,283,54731,1,0,0:0:0:0:
335,283,55101,1,8,0:0:0:0:
335,283,55286,1,0,0:0:0:0:
335,283,55379,1,0,0:0:0:0:
335,283,55471,1,8,0:0:0:0:
335,283,55657,1,0,0:0:0:0:
335,283,55842,1,8,0:0:0:0:
335,283,55934,1,0,0:0:0:0:
335,283,56027,1,8,0:0:0:0:
335,283,56119,1,8,0:0:0:0:
335,283,56212,1,0,0:0:0:0:
335,283,56397,1,0,0:0:0:0:
335,283,56582,1,8,0:0:0:0:
335,283,56768,1,0,0:0:0:0:
335,283,56953,1,0,0:0:0:0:
335,283,57138,1,0,0:0:0:0:
335,283,57323,1,8,0:0:0:0:
335,283,57508,1,0,0:0:0:0:
335,283,57694,1,8,0:0:0:0:
335,283,57786,1,0,0:0:0:0:
335,283,57879,1,0,0:0:0:0:
335,283,57971,1,0,0:0:0:0:
335,283,58064,1,8,0:0:0:0:
335,283,58249,1,8,0:0:0:0:
335,283,58434,1,0,0:0:0:0:
335,283,58619,1,0,0:0:0:0:
335,283,58805,1,8,0:0:0:0:
335,283,58990,1,0,0:0:0:0:
335,283,59082,1,0,0:0:0:0:
335,283,59175,1,8,0:0:0:0:
335,283,59360,1,0,0:0:0:0:
335,283,59545,1,8,0:0:0:0:
335,283,59638,1,8,0:0:0:0:
335,283,59731,1,0,0:0:0:0:
335,283,59823,1,0,0:0:0:0:
335,283,59916,1,8,0:0:0:0:
335,283,60101,1,0,0:0:0:0:
335,283,60286,1,8,0:0:0:0:
335,283,60471,1,8,0:0:0:0:
335,283,60657,1,0,0:0:0:0:
335,283,60842,1,0,0:0:0:0:
335,283,61027,1,8,0:0:0:0:
335,283,61212,1,0,0:0:0:0:
335,283,61397,1,8,0:0:0:0:
335,283,61582,1,0,0:0:0:0:
335,283,61675,1,0,0:0:0:0:
335,283,61768,1,8,0:0:0:0:
335,283,61860,1,8,0:0:0:0:
335,283,61953,1,0,0:0:0:0:
335,283,62045,1,0,0:0:0:0:
335,283,62138,1,8,0:0:0:0:
335,283,62323,1,0,0:0:0:0:
335,283,62508,1,8,0:0:0:0:
335,283,62694,1,8,0:0:0:0:
335,283,62879,1,0,0:0:0:0:
335,283,63064,1,0,0:0:0:0:
335,283,63249,1,8,0:0:0:0:
335,283,63434,1,8,0:0:0:0:
335,283,63619,1,0,0:0:0:0:
333,303,63681,1,0,0:0:0:0:
333,303,63743,1,0,0:0:0:0:
335,283,63805,1,8,0:0:0:0:
333,303,63990,1,8,0:0:0:0:
333,303,64082,1,0,0:0:0:0:
333,303,64175,1,0,0:0:0:0:
333,303,64268,1,8,0:0:0:0:
333,303,64360,1,0,0:0:0:0:
333,303,64545,1,0,0:0:0:0:
333,303,64731,1,8,0:0:0:0:
333,303,64916,1,0,0:0:0:0:
333,303,65101,1,8,0:0:0:0:
333,303,65286,1,0,0:0:0:0:
333,303,65471,1,8,0:0:0:0:
333,303,65657,1,0,0:0:0:0:
333,303,65749,1,0,0:0:0:0:
333,303,65842,1,8,0:0:0:0:
333,303,65934,1,0,0:0:0:0:
333,303,66027,1,8,0:0:0:0:
333,303,66119,1,0,0:0:0:0:
333,303,66212,1,8,0:0:0:0:
260,248,66582,1,0,0:0:0:0:
260,248,66767,1,0,0:0:0:0:
260,248,66860,1,0,0:0:0:0:
260,248,66952,1,8,0:0:0:0:
260,248,67137,1,0,0:0:0:0:
260,248,67230,1,0,0:0:0:0:
260,248,67323,1,0,0:0:0:0:
260,248,67508,1,0,0:0:0:0:
260,248,67693,1,8,0:0:0:0:
260,248,67878,1,0,0:0:0:0:
260,248,68249,1,0,0:0:0:0:
260,248,68434,1,8,0:0:0:0:
260,248,68619,1,0,0:0:0:0:
260,248,68711,1,0,0:0:0:0:
260,248,68804,1,0,0:0:0:0:
260,248,68989,1,0,0:0:0:0:
260,248,69174,1,8,0:0:0:0:
260,248,69360,1,0,0:0:0:0:
260,248,69545,1,8,0:0:0:0:
260,248,69730,1,0,0:0:0:0:
260,248,69823,1,0,0:0:0:0:
260,248,69915,1,8,0:0:0:0:
260,248,70100,1,0,0:0:0:0:
260,248,70286,1,0,0:0:0:0:
260,248,70471,1,0,0:0:0:0:
260,248,70563,1,0,0:0:0:0:
260,248,70656,1,8,0:0:0:0:
260,248,70841,1,0,0:0:0:0:
260,248,71026,1,8,0:0:0:0:
260,248,71212,1,0,0:0:0:0:
260,248,71397,1,8,0:0:0:0:
260,248,71582,1,0,0:0:0:0:
260,248,71644,1,0,0:0:0:0:
260,248,71705,1,0,0:0:0:0:
260,248,71767,1,0,0:0:0:0:
260,248,71952,1,0,0:0:0:0:
260,248,72014,1,0,0:0:0:0:
260,248,72076,1,0,0:0:0:0:
260,248,72137,1,8,0:0:0:0:
260,248,72323,1,8,0:0:0:0:
260,248,72415,1,8,0:0:0:0:
260,248,72508,1,0,0:0:0:0:
260,248,72693,1,0,0:0:0:0:
260,248,72878,1,8,0:0:0:0:
260,248,73063,1,0,0:0:0:0:
260,248,73249,1,8,0:0:0:0:
260,248,73434,1,0,0:0:0:0:
260,248,73619,1,8,0:0:0:0:
260,248,73804,1,0,0:0:0:0:
260,248,73989,1,0,0:0:0:0:
260,248,74082,1,0,0:0:0:0:
260,248,74174,1,0,0:0:0:0:
260,248,74360,1,8,0:0:0:0:
260,248,74545,1,0,0:0:0:0:
260,248,74730,1,0,0:0:0:0:
260,248,74915,1,0,0:0:0:0:
260,248,75008,1,0,0:0:0:0:
260,248,75100,1,8,0:0:0:0:
260,248,75286,1,0,0:0:0:0:
260,248,75471,1,0,0:0:0:0:
260,248,75656,1,0,0:0:0:0:
260,248,75749,1,0,0:0:0:0:
260,248,75841,1,8,0:0:0:0:
260,248,76026,1,0,0:0:0:0:
260,248,76212,1,0,0:0:0:0:
260,248,76304,1,0,0:0:0:0:
260,248,76397,1,0,0:0:0:0:
260,248,76582,1,8,0:0:0:0:
260,248,76767,1,0,0:0:0:0:
260,248,76860,1,0,0:0:0:0:
260,248,76952,1,0,0:0:0:0:
260,248,77137,1,0,0:0:0:0:
260,248,77230,1,0,0:0:0:0:
260,248,77323,1,8,0:0:0:0:
260,248,77508,1,0,0:0:0:0:
260,248,77570,1,0,0:0:0:0:
260,248,77631,1,0,0:0:0:0:
272,264,77693,1,0,0:0:0:0:
284,268,77786,1,0,0:0:0:0:
284,268,77878,1,0,0:0:0:0:
296,256,77940,1,0,0:0:0:0:
296,256,78002,1,0,0:0:0:0:
284,268,78063,1,8,0:0:0:0:
328,292,78249,1,0,0:0:0:0:
328,292,78434,1,8,0:0:0:0:
328,292,78619,1,8,0:0:0:0:
328,292,78712,1,8,0:0:0:0:
328,292,78804,1,8,0:0:0:0:
328,292,78989,1,0,0:0:0:0:
328,292,79082,1,0,0:0:0:0:
328,292,79174,1,8,0:0:0:0:
328,292,79360,1,0,0:0:0:0:
328,292,79453,1,8,0:0:0:0:
328,292,79545,1,8,0:0:0:0:
328,292,79730,1,0,0:0:0:0:
328,292,79915,1,8,0:0:0:0:
328,292,80008,1,8,0:0:0:0:
328,292,80100,1,0,0:0:0:0:
328,292,80194,1,0,0:0:0:0:
328,292,80286,1,8,0:0:0:0:
328,292,80471,1,0,0:0:0:0:
328,292,80563,1,0,0:0:0:0:
328,292,80656,1,8,0:0:0:0:
328,292,80841,1,0,0:0:0:0:
328,292,81026,1,8,0:0:0:0:
328,292,81212,1,0,0:0:0:0:
328,292,81304,1,0,0:0:0:0:
328,292,81397,1,0,0:0:0:0:
328,292,81582,1,0,0:0:0:0:
328,292,81767,1,8,0:0:0:0:
328,292,81952,1,0,0:0:0:0:
328,292,82045,1,0,0:0:0:0:
328,292,82137,1,0,0:0:0:0:
328,292,82323,1,0,0:0:0:0:
328,292,82508,1,8,0:0:0:0:
328,292,82693,1,0,0:0:0:0:
328,276,82755,1,0,0:0:0:0:
328,276,82816,1,0,0:0:0:0:
328,276,82878,1,0,0:0:0:0:
312,292,82971,1,0,0:0:0:0:
328,276,83063,1,0,0:0:0:0:
312,292,83125,1,0,0:0:0:0:
312,292,83187,1,0,0:0:0:0:
312,292,83249,1,8,0:0:0:0:
312,292,83434,1,0,0:0:0:0:
328,292,83526,1,0,0:0:0:0:
328,292,83619,1,8,0:0:0:0:
312,292,83805,1,0,0:0:0:0:
312,292,83990,1,8,0:0:0:0:
312,292,84175,1,0,0:0:0:0:
312,292,84360,1,0,0:0:0:0:
312,292,84453,1,0,0:0:0:0:
312,292,84545,1,8,0:0:0:0:
312,292,84638,1,0,0:0:0:0:
312,292,84731,1,8,0:0:0:0:
312,292,84916,1,0,0:0:0:0:
312,292,85286,1,0,0:0:0:0:
312,292,85379,1,0,0:0:0:0:
312,292,85471,1,8,0:0:0:0:
312,292,85657,1,0,0:0:0:0:
351,316,85842,1,0,0:0:0:0:
314,286,86027,1,8,0:0:0:0:
331,300,86119,1,0,0:0:0:0:
260,261,86212,1,8,0:0:0:0:
299,284,86397,1,0,0:0:0:0:
345,276,86582,1,8,0:0:0:0:
390,335,86768,1,0,0:0:0:0:
314,286,86860,1,0,0:0:0:0:
314,286,86953,1,8,0:0:0:0:
314,286,87138,1,0,0:0:0:0:
343,324,87323,1,8,0:0:0:0:
343,324,87508,1,8,0:0:0:0:
343,219,87879,1,8,0:0:0:0:
340,271,88064,1,0,0:0:0:0:
294,309,88249,1,8,0:0:0:0:
348,214,88619,1,0,0:0:0:0:
335,235,88712,1,0,0:0:0:0:
325,252,88805,1,0,0:0:0:0:
287,292,88990,1,8,0:0:0:0:
330,252,89175,1,0,0:0:0:0:
287,292,89360,1,8,0:0:0:0:
287,292,89731,1,0,0:0:0:0:
290,261,89823,1,0,0:0:0:0:
290,261,89916,1,8,0:0:0:0:
290,261,90286,1,0,0:0:0:0:
340,254,90471,1,0,0:0:0:0:
291,268,90657,1,8,0:0:0:0:
290,261,90749,1,0,0:0:0:0:
240,284,90842,1,0,0:0:0:0:
290,261,91027,1,0,0:0:0:0:
290,261,91212,1,0,0:0:0:0:
291,268,91397,1,0,0:0:0:0:
291,268,91490,1,0,0:0:0:0:
291,268,91675,1,8,0:0:0:0:
291,268,91768,1,0,0:0:0:0:
290,261,91953,1,0,0:0:0:0:
290,261,92138,1,8,0:0:0:0:
291,268,92323,1,0,0:0:0:0:
291,268,92416,1,8,0:0:0:0:
291,268,92508,1,0,0:0:0:0:
291,268,92694,1,0,0:0:0:0:
291,268,92786,1,0,0:0:0:0:
290,261,92879,1,8,0:0:0:0:
290,261,92971,1,8,0:0:0:0:
290,261,93157,1,8,0:0:0:0:
291,268,93249,1,0,0:0:0:0:
291,268,93434,1,0,0:0:0:0:
291,268,93619,1,8,0:0:0:0:
291,268,93805,1,0,0:0:0:0:
290,261,93897,1,0,0:0:0:0:
290,261,93990,1,0,0:0:0:0:
290,261,94175,1,0,0:0:0:0:
291,268,94268,1,8,0:0:0:0:
291,268,94360,1,0,0:0:0:0:
291,268,94453,1,0,0:0:0:0:
291,268,94638,1,8,0:0:0:0:
291,268,94731,1,0,0:0:0:0:
290,261,94916,1,0,0:0:0:0:
290,261,95101,1,8,0:0:0:0:
291,268,95286,1,0,0:0:0:0:
291,268,95379,1,0,0:0:0:0:
291,268,95471,1,0,0:0:0:0:
272,311,95657,1,0,0:0:0:0:
290,270,95842,1,8,0:0:0:0:
290,268,95934,1,0,0:0:0:0:
281,290,96027,1,0,0:0:0:0:
281,290,96212,1,0,0:0:0:0:
281,290,96397,1,0,0:0:0:0:
281,290,96582,1,8,0:0:0:0:
298,305,96675,1,8,0:0:0:0:
298,305,96768,1,0,0:0:0:0:
298,305,96953,1,0,0:0:0:0:
298,305,97138,1,8,0:0:0:0:
298,305,97323,1,0,0:0:0:0:
298,305,97416,1,0,0:0:0:0:
298,305,97508,1,8,0:0:0:0:
298,305,97694,1,0,0:0:0:0:
298,305,97879,1,8,0:0:0:0:
298,305,97971,1,0,0:0:0:0:
298,305,98064,1,8,0:0:0:0:
298,305,98249,1,8,0:0:0:0:
298,305,98342,1,8,0:0:0:0:
298,305,98434,1,0,0:0:0:0:
298,305,98619,1,0,0:0:0:0:
298,305,98712,1,0,0:0:0:0:
298,305,98805,1,8,0:0:0:0:
298,305,98897,1,8,0:0:0:0:
298,305,98990,1,0,0:0:0:0:
247,317,99175,1,8,0:0:0:0:
298,305,99360,1,0,0:0:0:0:
298,305,99545,1,8,0:0:0:0:
298,305,99731,1,8,0:0:0:0:
298,305,99916,1,0,0:0:0:0:
298,305,100101,1,0,0:0:0:0:
298,305,100286,1,8,0:0:0:0:
298,305,100379,1,0,0:0:0:0:
298,305,100471,1,0,0:0:0:0:
298,305,100657,1,0,0:0:0:0:
298,305,100842,1,0,0:0:0:0:
298,305,101027,1,8,0:0:0:0:
298,305,101212,1,0,0:0:0:0:
298,305,101274,1,0,0:0:0:0:
298,305,101336,1,0,0:0:0:0:
298,305,101397,1,8,0:0:0:0:
298,305,101582,1,8,0:0:0:0:
298,305,101768,1,0,0:0:0:0:
298,305,101953,1,0,0:0:0:0:
298,305,102138,1,8,0:0:0:0:
298,305,102323,1,0,0:0:0:0:
298,305,102508,1,8,0:0:0:0:
298,305,102694,1,8,0:0:0:0:
298,305,103064,1,8,0:0:0:0:
298,305,103249,1,0,0:0:0:0:
298,305,103434,1,0,0:0:0:0:
298,305,103619,1,8,0:0:0:0:
298,305,103805,1,0,0:0:0:0:
298,305,104175,1,0,0:0:0:0:
298,305,104360,1,8,0:0:0:0:
298,305,104545,1,8,0:0:0:0:
298,305,104731,1,0,0:0:0:0:
298,305,104916,1,0,0:0:0:0:
298,305,105101,1,8,0:0:0:0:
298,305,105286,1,0,0:0:0:0:
298,305,105657,1,0,0:0:0:0:
298,305,105842,1,8,0:0:0:0:
298,305,105903,1,8,0:0:0:0:
298,305,105965,1,8,0:0:0:0:
298,305,106027,1,8,0:0:0:0:
298,305,106212,1,0,0:0:0:0:
298,305,106397,1,8,0:0:0:0:
298,305,106768,1,8,0:0:0:0:
298,305,106953,1,0,0:0:0:0:
298,305,107138,1,0,0:0:0:0:
298,305,107323,1,8,0:0:0:0:
345,321,107508,1,8,0:0:0:0:
296,308,107694,1,0,0:0:0:0:
314,311,107786,1,0,0:0:0:0:
314,311,107971,1,8,0:0:0:0:
314,311,108064,1,0,0:0:0:0:
314,311,108249,1,0,0:0:0:0:
314,311,108342,1,0,0:0:0:0:
314,311,108434,1,8,0:0:0:0:
314,311,108619,1,0,0:0:0:0:
314,311,108712,1,0,0:0:0:0:
314,311,108805,1,0,0:0:0:0:
314,311,108990,1,0,0:0:0:0:
307,292,109082,1,8,0:0:0:0:
307,292,109175,1,0,0:0:0:0:
283,293,109268,1,8,0:0:0:0:
283,293,109360,1,0,0:0:0:0:
283,293,109453,1,0,0:0:0:0:
283,293,109545,1,8,0:0:0:0:
309,237,109731,1,0,0:0:0:0:
307,292,109916,1,8,0:0:0:0:
307,292,110008,1,8,0:0:0:0:
307,292,110101,1,0,0:0:0:0:
307,292,110194,1,0,0:0:0:0:
307,292,110286,1,8,0:0:0:0:
307,292,110471,1,0,0:0:0:0:
307,292,110657,1,8,0:0:0:0:
307,292,110749,1,0,0:0:0:0:
307,292,110842,1,8,0:0:0:0:
307,292,111027,1,0,0:0:0:0:
307,292,111119,1,0,0:0:0:0:
307,292,111212,1,8,0:0:0:0:
307,292,111305,1,0,0:0:0:0:
307,292,111397,1,8,0:0:0:0:
307,292,111490,1,0,0:0:0:0:
307,292,111582,1,8,0:0:0:0:
307,292,111675,1,8,0:0:0:0:
307,292,111768,1,0,0:0:0:0:
307,292,111953,1,0,0:0:0:0:
307,292,112045,1,8,0:0:0:0:
307,292,112138,1,0,0:0:0:0:
318,278,112231,1,0,0:0:0:0:
318,278,112323,1,8,0:0:0:0:
307,292,112508,1,0,0:0:0:0:
307,292,112570,1,0,0:0:0:0:
299,305,112632,1,0,0:0:0:0:
307,292,112694,1,0,0:0:0:0:
307,292,112879,1,8,0:0:0:0:
318,278,113064,1,8,0:0:0:0:
318,278,113249,1,0,0:0:0:0:
318,278,113434,1,0,0:0:0:0:
318,278,113619,1,8,0:0:0:0:
318,278,113712,1,0,0:0:0:0:
318,278,113805,1,0,0:0:0:0:
318,278,113990,1,8,0:0:0:0:
281,314,114175,1,0,0:0:0:0:
281,314,114360,1,8,0:0:0:0:
281,314,114453,1,8,0:0:0:0:
281,314,114545,1,0,0:0:0:0:
281,314,114638,1,0,0:0:0:0:
281,314,114731,1,8,0:0:0:0:
281,314,114916,1,0,0:0:0:0:
325,288,115101,1,8,0:0:0:0:
280,315,115286,1,8,0:0:0:0:
322,290,115471,1,0,0:0:0:0:
278,316,115657,1,0,0:0:0:0:
322,290,115842,1,8,0:0:0:0:
282,314,116027,1,0,0:0:0:0:
293,306,116119,1,0,0:0:0:0:
322,290,116212,1,8,0:0:0:0:
293,306,116397,1,0,0:0:0:0:
293,306,116582,1,8,0:0:0:0:
293,306,116675,1,0,0:0:0:0:
293,306,116768,1,8,0:0:0:0:
293,306,116860,1,8,0:0:0:0:
293,306,116953,1,0,0:0:0:0:
293,306,117138,1,0,0:0:0:0:
345,298,117323,1,8,0:0:0:0:
322,290,117508,1,0,0:0:0:0:
322,290,117601,1,0,0:0:0:0:
322,290,117694,1,8,0:0:0:0:
322,290,117879,1,0,0:0:0:0:
322,290,118064,1,8,0:0:0:0:
322,290,118157,1,8,0:0:0:0:
322,290,118249,1,0,0:0:0:0:
322,290,118342,1,0,0:0:0:0:
322,290,118434,1,8,0:0:0:0:
322,290,118619,1,0,0:0:0:0:
322,290,118805,1,8,0:0:0:0:
322,290,118990,1,8,0:0:0:0:
322,290,119175,1,0,0:0:0:0:
322,290,119360,1,0,0:0:0:0:
322,290,119453,1,0,0:0:0:0:
322,290,119545,1,8,0:0:0:0:
322,290,119731,1,8,0:0:0:0:
322,290,119823,1,8,0:0:0:0:
322,290,119916,1,0,0:0:0:0:
322,290,120101,1,0,0:0:0:0:
322,290,120286,1,8,0:0:0:0:
322,290,120471,1,0,0:0:0:0:
322,290,120657,1,8,0:0:0:0:
322,290,120749,1,8,0:0:0:0:
322,290,120842,1,0,0:0:0:0:
322,290,120934,1,0,0:0:0:0:
322,290,121027,1,8,0:0:0:0:
322,290,121212,1,0,0:0:0:0:
322,290,121397,1,8,0:0:0:0:
322,290,121582,1,0,0:0:0:0:
322,290,121768,1,8,0:0:0:0:
322,290,121860,1,0,0:0:0:0:
322,290,121953,1,0,0:0:0:0:
322,290,122045,1,0,0:0:0:0:
322,290,122138,1,8,0:0:0:0:
322,290,122323,1,0,0:0:0:0:
322,290,122508,1,8,0:0:0:0:
322,290,122601,1,0,0:0:0:0:
322,290,122694,1,0,0:0:0:0:
322,290,122786,1,8,0:0:0:0:
322,290,122879,1,0,0:0:0:0:
322,290,123064,1,0,0:0:0:0:
322,290,123249,1,8,0:0:0:0:
322,290,123434,1,0,0:0:0:0:
322,290,123527,1,0,0:0:0:0:
322,290,123619,1,0,0:0:0:0:
322,290,123805,1,0,0:0:0:0:
322,290,123990,1,8,0:0:0:0:
322,290,124175,1,0,0:0:0:0:
322,290,124268,1,8,0:0:0:0:
322,290,124360,1,0,0:0:0:0:
334,294,124422,1,0,0:0:0:0:
353,301,124484,1,0,0:0:0:0:
334,294,124545,1,0,0:0:0:0:
334,294,124731,1,8,0:0:0:0:
334,294,124792,1,0,0:0:0:0:
334,294,124854,1,0,0:0:0:0:
334,294,124916,1,8,0:0:0:0:
322,290,125101,1,0,0:0:0:0:
322,290,125286,1,0,0:0:0:0:
334,294,125471,1,8,0:0:0:0:
334,294,125657,1,0,0:0:0:0:
334,294,125842,1,8,0:0:0:0:
322,290,126027,1,8,0:0:0:0:
322,290,126397,1,0,0:0:0:0:
334,294,126582,1,8,0:0:0:0:
334,294,126675,1,8,0:0:0:0:
334,294,126768,1,0,0:0:0:0:
334,294,126860,1,0,0:0:0:0:
322,290,126953,1,8,0:0:0:0:
260,248,127323,1,0,0:0:0:0:
260,248,127508,1,0,0:0:0:0:
260,248,127601,1,0,0:0:0:0:
260,248,127693,1,8,0:0:0:0:
260,248,127878,1,0,0:0:0:0:
260,248,127971,1,0,0:0:0:0:
260,248,128064,1,0,0:0:0:0:
260,248,128249,1,0,0:0:0:0:
260,248,128434,1,8,0:0:0:0:
260,248,128619,1,0,0:0:0:0:
260,248,128990,1,0,0:0:0:0:
260,248,129175,1,8,0:0:0:0:
260,248,129360,1,0,0:0:0:0:
260,248,129452,1,0,0:0:0:0:
260,248,129545,1,0,0:0:0:0:
260,248,129730,1,0,0:0:0:0:
260,248,129915,1,8,0:0:0:0:
260,248,130101,1,0,0:0:0:0:
260,248,130286,1,8,0:0:0:0:
260,248,130471,1,0,0:0:0:0:
260,248,130564,1,0,0:0:0:0:
260,248,130656,1,8,0:0:0:0:
260,248,130841,1,0,0:0:0:0:
260,248,131027,1,0,0:0:0:0:
260,248,131212,1,0,0:0:0:0:
260,248,131304,1,0,0:0:0:0:
260,248,131397,1,8,0:0:0:0:
260,248,131582,1,0,0:0:0:0:
260,248,131767,1,8,0:0:0:0:
260,248,131953,1,0,0:0:0:0:
260,248,132138,1,8,0:0:0:0:
260,248,132323,1,0,0:0:0:0:
260,248,132385,1,0,0:0:0:0:
260,248,132446,1,0,0:0:0:0:
260,248,132508,1,0,0:0:0:0:
260,248,132693,1,0,0:0:0:0:
260,248,132755,1,0,0:0:0:0:
260,248,132817,1,0,0:0:0:0:
260,248,132878,1,8,0:0:0:0:
260,248,133064,1,8,0:0:0:0:
260,248,133156,1,8,0:0:0:0:
260,248,133249,1,0,0:0:0:0:
260,248,133434,1,0,0:0:0:0:
260,248,133619,1,8,0:0:0:0:
260,248,133804,1,0,0:0:0:0:
260,248,133990,1,8,0:0:0:0:
260,248,134175,1,0,0:0:0:0:
260,248,134360,1,8,0:0:0:0:
260,248,134545,1,0,0:0:0:0:
260,248,134730,1,0,0:0:0:0:
260,248,134823,1,0,0:0:0:0:
260,248,134915,1,0,0:0:0:0:
260,248,135101,1,8,0:0:0:0:
260,248,135286,1,0,0:0:0:0:
260,248,135471,1,0,0:0:0:0:
260,248,135656,1,0,0:0:0:0:
260,248,135749,1,0,0:0:0:0:
260,248,135841,1,8,0:0:0:0:
260,248,136027,1,0,0:0:0:0:
260,248,136212,1,0,0:0:0:0:
260,248,136397,1,0,0:0:0:0:
260,248,136490,1,0,0:0:0:0:
260,248,136582,1,8,0:0:0:0:
260,248,136767,1,0,0:0:0:0:
260,248,136953,1,0,0:0:0:0:
260,248,137045,1,0,0:0:0:0:
260,248,137138,1,0,0:0:0:0:
260,248,137323,1,8,0:0:0:0:
260,248,137508,1,0,0:0:0:0:
260,248,137601,1,0,0:0:0:0:
260,248,137693,1,0,0:0:0:0:
260,248,137878,1,0,0:0:0:0:
260,248,137971,1,0,0:0:0:0:
260,248,138064,1,8,0:0:0:0:
260,248,138249,1,0,0:0:0:0:
260,248,138311,1,0,0:0:0:0:
260,248,138372,1,0,0:0:0:0:
272,264,138434,1,0,0:0:0:0:
284,268,138527,1,0,0:0:0:0:
284,268,138619,1,0,0:0:0:0:
296,256,138681,1,0,0:0:0:0:
296,256,138743,1,0,0:0:0:0:
284,268,138804,1,8,0:0:0:0:
328,292,138990,1,0,0:0:0:0:
328,292,139175,1,8,0:0:0:0:
328,292,139360,1,8,0:0:0:0:
328,292,139453,1,8,0:0:0:0:
328,292,139545,1,8,0:0:0:0:
328,292,139730,1,0,0:0:0:0:
328,292,139823,1,0,0:0:0:0:
328,292,139915,1,8,0:0:0:0:
328,292,140101,1,0,0:0:0:0:
328,292,140194,1,8,0:0:0:0:
328,292,140286,1,8,0:0:0:0:
328,292,140471,1,0,0:0:0:0:
328,292,140656,1,8,0:0:0:0:
328,292,140749,1,8,0:0:0:0:
328,292,140841,1,0,0:0:0:0:
328,292,140935,1,0,0:0:0:0:
328,292,141027,1,8,0:0:0:0:
328,292,141212,1,0,0:0:0:0:
328,292,141304,1,0,0:0:0:0:
328,292,141397,1,8,0:0:0:0:
328,292,141582,1,0,0:0:0:0:
328,292,141767,1,8,0:0:0:0:
328,292,141953,1,0,0:0:0:0:
328,292,142045,1,0,0:0:0:0:
328,292,142138,1,0,0:0:0:0:
328,292,142323,1,0,0:0:0:0:
328,292,142508,1,8,0:0:0:0:
328,292,142693,1,0,0:0:0:0:
328,292,142786,1,0,0:0:0:0:
328,292,142878,1,0,0:0:0:0:
328,292,143064,1,0,0:0:0:0:
328,292,143249,1,8,0:0:0:0:
328,292,143434,1,0,0:0:0:0:
328,276,143496,1,0,0:0:0:0:
328,276,143557,1,0,0:0:0:0:
328,276,143619,1,0,0:0:0:0:
312,292,143712,1,0,0:0:0:0:
328,276,143804,1,0,0:0:0:0:
312,292,143866,1,0,0:0:0:0:
312,292,143928,1,0,0:0:0:0:
312,292,143990,1,8,0:0:0:0:
312,292,144175,1,0,0:0:0:0:
328,292,144267,1,0,0:0:0:0:
328,292,144360,1,8,0:0:0:0:
312,292,144546,1,0,0:0:0:0:
312,292,144731,1,8,0:0:0:0:
312,292,144916,1,0,0:0:0:0:
312,292,145100,1,8,0:0:0:0:
312,292,145286,1,0,0:0:0:0:
312,292,145378,1,0,0:0:0:0:
312,292,145471,1,8,0:0:0:0:
312,292,145656,1,0,0:0:0:0:
312,292,145841,1,0,0:0:0:0:
312,292,146026,1,0,0:0:0:0:
312,292,146212,1,8,0:0:0:0:
312,292,146397,1,8,0:0:0:0:
312,292,146582,1,0,0:0:0:0:
312,292,146767,1,0,0:0:0:0:
312,292,146952,1,8,0:0:0:0:
312,292,147137,1,0,0:0:0:0:
312,292,147230,1,0,0:0:0:0:
312,292,147323,1,0,0:0:0:0:
312,292,147508,1,0,0:0:0:0:
312,292,147693,1,8,0:0:0:0:
312,292,147878,1,8,0:0:0:0:
312,292,148063,1,0,0:0:0:0:
312,292,148249,1,0,0:0:0:0:
312,292,148341,1,0,0:0:0:0:
312,292,148434,1,8,0:0:0:0:
312,292,148619,1,0,0:0:0:0:
312,292,148712,1,8,0:0:0:0:
312,292,148804,1,0,0:0:0:0:
312,292,148989,1,0,0:0:0:0:
312,292,149175,1,8,0:0:0:0:
312,292,149360,1,8,0:0:0:0:
312,292,149452,1,8,0:0:0:0:
312,292,149545,1,0,0:0:0:0:
312,292,149730,1,0,0:0:0:0:
312,292,149915,1,8,0:0:0:0:
312,292,150100,1,0,0:0:0:0:
312,292,150286,1,0,0:0:0:0:
312,292,150471,1,0,0:0:0:0:
312,292,150656,1,8,0:0:0:0:
312,292,150841,1,8,0:0:0:0:
294,302,150934,1,8,0:0:0:0:
312,292,151026,1,0,0:0:0:0:
294,302,151212,1,0,0:0:0:0:
294,302,151304,1,0,0:0:0:0:
294,302,151397,1,8,0:0:0:0:
294,302,151582,1,0,0:0:0:0:
294,302,151767,1,0,0:0:0:0:
294,302,151952,1,0,0:0:0:0:
294,302,152137,1,8,0:0:0:0:
294,302,152323,1,8,0:0:0:0:
294,302,152415,1,8,0:0:0:0:
294,302,152508,1,0,0:0:0:0:
294,302,152693,1,0,0:0:0:0:
294,302,152786,1,0,0:0:0:0:
294,302,152878,1,8,0:0:0:0:
294,302,153063,1,0,0:0:0:0:
294,302,153156,1,8,0:0:0:0:
294,302,153249,1,0,0:0:0:0:
294,302,153434,1,0,0:0:0:0:
294,302,153619,1,8,0:0:0:0:
294,302,153804,1,0,0:0:0:0:
294,302,153866,1,0,0:0:0:0:
294,302,153928,1,0,0:0:0:0:
294,302,153989,1,0,0:0:0:0:
294,302,154175,1,0,0:0:0:0:
294,302,154360,1,8,0:0:0:0:
294,302,154545,1,0,0:0:0:0:
294,302,154607,1,0,0:0:0:0:
294,302,154668,1,0,0:0:0:0:
294,302,154730,1,0,0:0:0:0:
294,302,154915,1,0,0:0:0:0:
294,302,155100,1,8,0:0:0:0:
294,302,155286,1,8,0:0:0:0:
294,302,155471,1,0,0:0:0:0:
294,302,155563,1,0,0:0:0:0:
294,302,155656,1,0,0:0:0:0:
294,302,155749,1,0,0:0:0:0:
294,302,155841,1,8,0:0:0:0:
294,302,155934,1,8,0:0:0:0:
294,302,156026,1,8,0:0:0:0:
294,302,156119,1,8,0:0:0:0:
294,302,156212,1,0,0:0:0:0:
294,302,156304,1,0,0:0:0:0:
294,302,156397,1,0,0:0:0:0:
294,302,156489,1,0,0:0:0:0:
294,302,156582,1,8,0:0:0:0:
294,302,156675,1,8,0:0:0:0:
294,302,156767,1,8,0:0:0:0:
294,302,156860,1,8,0:0:0:0:
294,302,156952,1,0,0:0:0:0:
294,302,157137,1,8,0:0:0:0:
294,302,157230,1,0,0:0:0:0:
294,302,157323,1,8,0:0:0:0:
294,302,157508,1,0,0:0:0:0:
294,302,157693,1,8,0:0:0:0:
294,302,157878,1,0,0:0:0:0:
294,302,158063,1,8,0:0:0:0:
294,302,158249,1,8,0:0:0:0:
294,302,158434,1,0,0:0:0:0:
294,302,158619,1,0,0:0:0:0:
294,302,158712,1,0,0:0:0:0:
294,302,158804,1,8,0:0:0:0:
294,302,158989,1,0,0:0:0:0:
294,302,159175,1,8,0:0:0:0:
294,302,159360,1,8,0:0:0:0:
294,302,159452,1,0,0:0:0:0:
294,302,159545,1,0,0:0:0:0:
294,302,159637,1,8,0:0:0:0:
294,302,159730,1,0,0:0:0:0:
294,302,159823,1,8,0:0:0:0:
294,302,159915,1,0,0:0:0:0:
294,302,160008,1,0,0:0:0:0:
294,302,160100,1,8,0:0:0:0:
294,302,160286,1,0,0:0:0:0:
294,302,160471,1,0,0:0:0:0:
294,302,160656,1,8,0:0:0:0:
294,302,160841,1,8,0:0:0:0:
294,302,161026,1,0,0:0:0:0:
294,302,161212,1,0,0:0:0:0:
294,302,161397,1,0,0:0:0:0:
294,302,161582,1,8,0:0:0:0:
294,302,161767,1,0,0:0:0:0:
294,302,161952,1,0,0:0:0:0:
294,302,162137,1,8,0:0:0:0:
294,302,162323,1,0,0:0:0:0:
294,302,162415,1,0,0:0:0:0:
294,302,162508,1,0,0:0:0:0:
294,302,162693,1,0,0:0:0:0:
294,302,162786,1,0,0:0:0:0:
294,302,162878,1,8,0:0:0:0:
294,302,163063,1,0,0:0:0:0:
294,302,163249,1,8,0:0:0:0:
294,302,163341,1,8,0:0:0:0:
294,302,163434,1,0,0:0:0:0:
294,302,163526,1,0,0:0:0:0:
294,302,163619,1,8,0:0:0:0:
294,302,163804,1,0,0:0:0:0:
294,302,163989,1,8,0:0:0:0:
294,302,164175,1,8,0:0:0:0:
294,302,164360,1,0,0:0:0:0:
294,302,164452,1,8,0:0:0:0:
294,302,164545,1,0,0:0:0:0:
294,302,164637,1,0,0:0:0:0:
294,302,164730,1,8,0:0:0:0:
294,302,164823,1,0,0:0:0:0:
294,302,164915,1,0,0:0:0:0:
294,302,165008,1,0,0:0:0:0:
294,302,165100,1,8,0:0:0:0:
294,302,165286,1,0,0:0:0:0:
294,302,165471,1,0,0:0:0:0:
294,302,165656,1,8,0:0:0:0:
294,302,165841,1,0,0:0:0:0:
294,302,166026,1,8,0:0:0:0:
294,302,166119,1,0,0:0:0:0:
294,302,166212,1,8,0:0:0:0:
294,302,166397,1,0,0:0:0:0:
294,302,166489,1,0,0:0:0:0:
294,302,166582,1,8,0:0:0:0:
294,302,166767,1,0,0:0:0:0:
294,302,166952,1,8,0:0:0:0:
294,302,167045,1,0,0:0:0:0:
294,302,167137,1,8,0:0:0:0:
294,302,167230,1,8,0:0:0:0:
294,302,167323,1,0,0:0:0:0:
294,302,167508,1,0,0:0:0:0:
303,320,167570,1,0,0:0:0:0:
294,302,167878,1,0,0:0:0:0:
294,302,167940,1,0,0:0:0:0:
294,302,168063,1,8,0:0:0:0:
294,302,168804,1,0,0:0:0:0:
294,302,168989,1,0,0:0:0:0:
294,302,169360,1,0,0:0:0:0:
294,302,169452,1,0,0:0:0:0:
294,302,169545,1,8,0:0:0:0:
294,302,169915,1,0,0:0:0:0:
294,302,170100,1,0,0:0:0:0:
266,258,170286,1,0,0:0:0:0:
260,333,170563,1,0,0:0:0:0:
294,302,170841,1,0,0:0:0:0:
293,279,170934,1,0,0:0:0:0:
294,302,171026,1,8,0:0:0:0:
293,279,171767,1,0,0:0:0:0:
293,279,171952,1,0,0:0:0:0:
293,279,172323,1,0,0:0:0:0:
293,279,172415,1,0,0:0:0:0:
293,279,172508,1,8,0:0:0:0:
293,279,172878,1,0,0:0:0:0:
293,279,173063,1,0,0:0:0:0:
293,279,173249,1,0,0:0:0:0:
293,279,173526,1,0,0:0:0:0:
293,279,173804,1,0,0:0:0:0:
293,279,173897,1,0,0:0:0:0:
293,279,173989,1,8,0:0:0:0:
309,331,174175,1,0,0:0:0:0:
293,281,174360,1,8,0:0:0:0:
310,325,174545,1,0,0:0:0:0:
292,279,174730,1,8,0:0:0:0:
308,321,174915,1,0,0:0:0:0:
271,221,175286,1,0,0:0:0:0:
288,267,175471,1,8,0:0:0:0:
325,369,175841,1,0,0:0:0:0:
307,320,176026,1,8,0:0:0:0:
307,320,176212,1,8,0:0:0:0:
307,320,176397,1,0,0:0:0:0:
307,320,176582,1,0,0:0:0:0:
302,321,176952,1,8,0:0:0:0:
325,211,177323,1,0,0:0:0:0:
310,263,177508,1,0,0:0:0:0:
304,318,177693,1,8,0:0:0:0:
311,266,177878,1,0,0:0:0:0:
304,314,178063,1,8,0:0:0:0:
304,314,178249,1,0,0:0:0:0:
304,314,178434,1,8,0:0:0:0:
304,314,178619,1,0,0:0:0:0:
304,314,178804,1,8,0:0:0:0:
304,314,178989,1,0,0:0:0:0:
304,314,179175,1,8,0:0:0:0:
304,314,179360,1,0,0:0:0:0:
304,314,179421,1,0,0:0:0:0:
304,314,179483,1,0,0:0:0:0:
304,314,179545,1,8,0:0:0:0:
304,314,179730,1,0,0:0:0:0:
304,314,179792,1,0,0:0:0:0:
304,314,179854,1,0,0:0:0:0:
304,314,179915,1,8,0:0:0:0:
304,314,180100,1,0,0:0:0:0:
304,314,180286,1,8,0:0:0:0:
304,314,180841,1,0,0:0:0:0:
304,314,181026,1,8,0:0:0:0:
304,314,181119,1,8,0:0:0:0:
304,314,181212,1,8,0:0:0:0:
304,314,181397,1,0,0:0:0:0:
304,314,183063,1,0,0:0:0:0:
304,314,183156,1,0,0:0:0:0:
304,314,183249,1,8,0:0:0:0:
260,248,183619,1,0,0:0:0:0:
260,248,183804,1,0,0:0:0:0:
260,248,183897,1,0,0:0:0:0:
260,248,183989,1,8,0:0:0:0:
260,248,184174,1,0,0:0:0:0:
260,248,184267,1,0,0:0:0:0:
260,248,184360,1,0,0:0:0:0:
260,248,184545,1,0,0:0:0:0:
260,248,184730,1,8,0:0:0:0:
260,248,184915,1,0,0:0:0:0:
260,248,185286,1,0,0:0:0:0:
260,248,185471,1,8,0:0:0:0:
260,248,185656,1,0,0:0:0:0:
260,248,185748,1,0,0:0:0:0:
260,248,185841,1,0,0:0:0:0:
260,248,186026,1,0,0:0:0:0:
260,248,186211,1,8,0:0:0:0:
260,248,186397,1,0,0:0:0:0:
260,248,186582,1,8,0:0:0:0:
260,248,186767,1,0,0:0:0:0:
260,248,186860,1,0,0:0:0:0:
260,248,186952,1,8,0:0:0:0:
260,248,187137,1,0,0:0:0:0:
260,248,187323,1,0,0:0:0:0:
260,248,187508,1,0,0:0:0:0:
260,248,187600,1,0,0:0:0:0:
260,248,187693,1,8,0:0:0:0:
260,248,187878,1,0,0:0:0:0:
260,248,188063,1,8,0:0:0:0:
260,248,188249,1,0,0:0:0:0:
260,248,188434,1,8,0:0:0:0:
260,248,188619,1,0,0:0:0:0:
260,248,188681,1,0,0:0:0:0:
260,248,188742,1,0,0:0:0:0:
260,248,188804,1,0,0:0:0:0:
260,248,188989,1,0,0:0:0:0:
260,248,189051,1,0,0:0:0:0:
260,248,189113,1,0,0:0:0:0:
260,248,189174,1,8,0:0:0:0:
260,248,189360,1,8,0:0:0:0:
260,248,189452,1,8,0:0:0:0:
260,248,189545,1,0,0:0:0:0:
260,248,189730,1,0,0:0:0:0:
260,248,189915,1,8,0:0:0:0:
260,248,190100,1,0,0:0:0:0:
260,248,190286,1,8,0:0:0:0:
260,248,190471,1,0,0:0:0:0:
260,248,190656,1,8,0:0:0:0:
260,248,190841,1,0,0:0:0:0:
260,248,191026,1,0,0:0:0:0:
260,248,191119,1,0,0:0:0:0:
260,248,191211,1,0,0:0:0:0:
260,248,191397,1,8,0:0:0:0:
260,248,191582,1,0,0:0:0:0:
260,248,191767,1,0,0:0:0:0:
260,248,191952,1,0,0:0:0:0:
260,248,192045,1,0,0:0:0:0:
260,248,192137,1,8,0:0:0:0:
260,248,192323,1,0,0:0:0:0:
260,248,192508,1,0,0:0:0:0:
260,248,192693,1,0,0:0:0:0:
260,248,192786,1,0,0:0:0:0:
260,248,192878,1,8,0:0:0:0:
260,248,193063,1,0,0:0:0:0:
260,248,193249,1,0,0:0:0:0:
260,248,193341,1,0,0:0:0:0:
260,248,193434,1,0,0:0:0:0:
260,248,193619,1,8,0:0:0:0:
260,248,193804,1,0,0:0:0:0:
260,248,193897,1,0,0:0:0:0:
260,248,193989,1,0,0:0:0:0:
260,248,194174,1,0,0:0:0:0:
260,248,194267,1,0,0:0:0:0:
260,248,194360,1,8,0:0:0:0:
260,248,194545,1,0,0:0:0:0:
260,248,194607,1,0,0:0:0:0:
260,248,194668,1,0,0:0:0:0:
272,264,194730,1,0,0:0:0:0:
284,268,194823,1,0,0:0:0:0:
284,268,194915,1,0,0:0:0:0:
296,256,194977,1,0,0:0:0:0:
296,256,195039,1,0,0:0:0:0:
284,268,195100,1,8,0:0:0:0:
328,292,195286,1,0,0:0:0:0:
328,292,195471,1,8,0:0:0:0:
328,292,195656,1,8,0:0:0:0:
328,292,195749,1,8,0:0:0:0:
328,292,195841,1,8,0:0:0:0:
328,292,196026,1,0,0:0:0:0:
328,292,196119,1,0,0:0:0:0:
328,292,196211,1,8,0:0:0:0:
328,292,196397,1,0,0:0:0:0:
328,292,196490,1,8,0:0:0:0:
328,292,196582,1,8,0:0:0:0:
328,292,196767,1,0,0:0:0:0:
328,292,196952,1,8,0:0:0:0:
328,292,197045,1,8,0:0:0:0:
328,292,197137,1,0,0:0:0:0:
328,292,197231,1,0,0:0:0:0:
328,292,197323,1,8,0:0:0:0:
328,292,197508,1,0,0:0:0:0:
328,292,197600,1,0,0:0:0:0:
328,292,197693,1,8,0:0:0:0:
328,292,197878,1,0,0:0:0:0:
328,292,198063,1,8,0:0:0:0:
328,292,198249,1,0,0:0:0:0:
328,292,198341,1,0,0:0:0:0:
328,292,198434,1,0,0:0:0:0:
328,292,198619,1,0,0:0:0:0:
328,292,198804,1,8,0:0:0:0:
328,292,198989,1,0,0:0:0:0:
328,292,199082,1,0,0:0:0:0:
328,292,199174,1,0,0:0:0:0:
328,292,199360,1,0,0:0:0:0:
328,292,199545,1,8,0:0:0:0:
328,292,199730,1,0,0:0:0:0:
328,276,199792,1,0,0:0:0:0:
328,276,199853,1,0,0:0:0:0:
328,276,199915,1,0,0:0:0:0:
312,292,200008,1,0,0:0:0:0:
328,276,200100,1,0,0:0:0:0:
312,292,200162,1,0,0:0:0:0:
312,292,200224,1,0,0:0:0:0:
312,292,200286,1,8,0:0:0:0:
312,292,200471,1,0,0:0:0:0:
328,292,200563,1,0,0:0:0:0:
328,292,200656,1,8,0:0:0:0:
328,292,200841,1,0,0:0:0:0:
328,292,200934,1,0,0:0:0:0:
328,292,201026,1,8,0:0:0:0:
328,292,201212,1,0,0:0:0:0:
328,292,201582,1,8,0:0:0:0:
328,292,201675,1,0,0:0:0:0:
328,292,201767,1,8,0:0:0:0:
328,292,201952,1,0,0:0:0:0:
328,292,202323,1,0,0:0:0:0:
328,292,202508,1,8,0:0:0:0:
328,292,202878,1,6,0:0:0:0:
328,292,203063,1,0,0:0:0:0:
328,292,203249,1,6,0:0:0:0:
328,292,203434,1,0,0:0:0:0:
328,292,203619,1,6,0:0:0:0:
324,310,203804,1,4,0:0:0:0:
328,292,203989,1,8,0:0:0:0:
328,292,204082,1,8,0:0:0:0:
324,310,204175,1,0,0:0:0:0:
