osu file format v14

[General]
AudioFilename: audio.mp3
AudioLeadIn: 0
PreviewTime: 32706
Countdown: 0
SampleSet: Soft
StackLeniency: 0.7
Mode: 0
LetterboxInBreaks: 0
WidescreenStoryboard: 1

[Editor]
Bookmarks: 32364,53937,78206,99779,121352,156408,160285,167195
DistanceSpacing: 1.1
BeatDivisor: 8
GridSize: 32
TimelineZoom: 1

[Metadata]
Title:BLOOD
TitleUnicode:BLOOD
Artist:KLOUD
ArtistUnicode:KLOUD
Creator:AirinCat
Version:NORMAL
Source:
Tags:english electronic dance edm autonomy pop hip hop
BeatmapID:3662731
BeatmapSetID:1781619

[Difficulty]
HPDrainRate:3
CircleSize:3.6
OverallDifficulty:4
ApproachRate:5.6
SliderMultiplier:1.4
SliderTickRate:1

[Events]
//Background and Video events
0,0,"aaaaaaaab.jpg",0,0
//Break Periods
//Storyboard Layer 0 (Background)
//Storyboard Layer 1 (Fail)
//Storyboard Layer 2 (Pass)
//Storyboard Layer 3 (Foreground)
//Storyboard Layer 4 (Overlay)
//Storyboard Sound Samples

[TimingPoints]
10787,674.157303370787,4,2,1,50,1,0
10787,-76.9230769230769,4,2,1,50,0,0
31011,-76.9230769230769,4,2,1,50,0,0
33034,-90.9090909090909,4,2,1,50,0,0
53258,-83.3333333333333,4,2,1,70,0,0
53933,-76.9230769230769,4,2,1,80,0,0
56629,-76.9230769230769,4,2,2,80,0,0
64719,-76.9230769230769,4,2,1,80,0,0
67247,-76.9230769230769,4,2,2,80,0,0
75506,-76.9230769230769,4,2,1,50,0,0
77528,-100,4,2,1,60,0,0
78202,-83.3333333333333,4,2,2,70,0,0
100449,-90.9090909090909,4,2,1,50,0,0
109888,-90.9090909090909,4,2,1,40,0,0
110225,-90.9090909090909,4,2,1,45,0,0
110393,-90.9090909090909,4,2,1,50,0,0
120674,-90.9090909090909,4,2,1,70,0,0
121348,-76.9230769230769,4,2,2,80,0,1
142921,-76.9230769230769,4,2,2,80,0,0
161798,-76.9230769230769,4,2,1,80,0,0
162135,-90.9090909090909,4,2,1,70,0,0
164494,-90.9090909090909,4,2,1,30,0,0
166517,-100,4,2,1,50,0,0

[Colours]
Combo1 : 191,70,70
Combo2 : 255,117,117
Combo3 : 185,28,28

[HitObjects]
17,253,10787,6,0,P|63:245|129:231,1,90.9999958343508,2|2,1:2|0:2,0:2:0:0:
179,304,11461,2,0,P|225:311|276:328,1,90.9999958343508,10|2,1:2|0:2,0:2:0:0:
316,308,11966,1,2,0:2:0:0:
316,308,12135,2,0,P|326:265|338:217,1,90.9999958343508,2|2,1:2|0:2,0:2:0:0:
425,171,12809,1,8,1:2:0:0:
284,28,13483,6,0,P|235:23|187:14,1,90.9999958343508,2|2,1:2|0:2,0:0:0:0:
115,77,14157,2,0,P|77:82|24:98,1,90.9999958343508,8|0,1:2|0:2,0:2:0:0:
5,144,14663,1,2,0:2:0:0:
5,144,14831,1,0,1:2:0:0:
5,244,15169,1,2,0:2:0:0:
78,311,15506,2,0,P|132:302|188:284,1,90.9999958343508,8|0,1:2|0:2,0:2:0:0:
216,276,16011,1,0,0:2:0:0:
216,276,16180,6,0,P|251:285|272:292,2,45.4999979171754,2|2|2,1:2|0:2|0:2,0:0:0:0:
182,181,16854,2,0,P|190:127|208:83,1,90.9999958343508,10|2,1:2|0:2,0:2:0:0:
248,68,17360,1,2,0:2:0:0:
248,68,17528,2,0,P|294:76|339:94,1,90.9999958343508,2|2,1:2|0:2,0:2:0:0:
429,58,18202,1,8,1:2:0:0:
502,125,18539,2,0,P|495:149|489:181,1,45.4999979171754,0|0,0:2|0:2,0:0:0:0:
450,198,18876,6,0,P|460:245|468:296,1,90.9999958343508,2|2,1:2|0:2,0:0:0:0:
394,356,19551,2,0,P|351:361|302:369,1,90.9999958343508,10|2,1:2|0:2,0:2:0:0:
265,345,20056,1,2,0:2:0:0:
265,345,20225,2,0,P|255:300|246:254,1,90.9999958343508,2|2,1:2|0:2,0:2:0:0:
314,182,20899,2,0,P|321:142|334:77,1,90.9999958343508,8|2,1:2|0:2,0:0:0:0:
315,50,21404,1,2,0:2:0:0:
315,50,21573,5,2,1:2:0:0:
217,71,21910,1,2,0:2:0:0:
135,13,22247,2,0,P|100:22|29:37,1,90.9999958343508,10|2,1:2|0:2,0:2:0:0:
25,81,22753,1,2,0:2:0:0:
25,81,22921,2,0,P|34:127|45:181,1,90.9999958343508,2|0,1:2|0:2,0:2:0:0:
123,229,23595,2,0,L|115:278,1,45.4999979171754,10|2,1:2|0:2,0:0:0:0:
79,309,23933,2,0,L|92:358,1,45.4999979171754,2|2,0:2|0:2,0:0:0:0:
138,368,24270,5,2,1:2:0:0:
216,305,24607,1,2,0:2:0:0:
302,354,24944,2,0,P|344:343|402:334,1,90.9999958343508,10|2,1:2|0:2,0:2:0:0:
438,315,25449,1,2,0:2:0:0:
438,315,25618,2,0,P|462:318|494:326,2,45.4999979171754,2|2|2,1:2|0:2|0:2,0:0:0:0:
405,220,26292,2,0,L|424:117,1,90.9999958343508,10|2,1:2|0:2,0:2:0:0:
459,97,26798,1,2,0:2:0:0:
459,97,26966,6,0,L|509:107,2,45.4999979171754,2|2|2,1:2|0:2|0:0,0:0:0:0:
385,28,27640,2,0,P|347:33|290:42,1,90.9999958343508,10|2,1:2|0:2,0:2:0:0:
266,83,28146,1,2,0:2:0:0:
266,83,28315,2,0,P|272:127|280:176,1,90.9999958343508,2|2,1:2|0:2,0:2:0:0:
214,249,28989,1,8,1:2:0:0:
117,221,29326,2,0,P|97:224|65:234,1,45.4999979171754,0|0,0:2|0:2,0:2:0:0:
25,215,29663,6,0,P|15:169|0:121,1,90.9999958343508,2|2,1:2|0:2,0:0:0:0:
40,34,30337,2,0,P|80:24|129:11,1,90.9999958343508,10|2,1:2|0:2,0:2:0:0:
174,41,30843,1,2,0:2:0:0:
174,41,31011,1,2,1:2:0:0:
266,2,31348,1,2,0:2:0:0:
355,47,31685,2,0,P|367:91|375:149,1,90.9999958343508,8|0,1:2|0:2,0:0:0:0:
349,180,32191,1,8,0:1:0:0:
349,180,32360,1,12,0:1:0:0:
180,166,33034,6,0,P|170:127|163:91,1,77.0000023498536,2|0,0:2|0:2,0:2:0:0:
134,59,33539,1,2,0:2:0:0:
8,229,34382,1,2,0:2:0:0:
3,313,34719,1,2,0:2:0:0:
75,356,35056,2,0,P|112:349|161:339,1,77.0000023498536,2|2,0:2|0:2,0:2:0:0:
209,280,35730,2,0,P|247:285|290:294,1,77.0000023498536,2|0,0:2|0:2,0:2:0:0:
306,329,36236,1,2,0:2:0:0:
445,169,37079,2,0,P|440:130|429:93,1,77.0000023498536,2|0,0:2|0:2,0:2:0:0:
450,59,37584,1,8,0:1:0:0:
450,59,37753,6,0,P|484:50|502:46,2,38.5000011749268,8|2|2,0:1|0:2|0:2,0:0:0:0:
373,22,38427,2,0,L|297:38,1,77.0000023498536,2|0,0:2|0:2,0:2:0:0:
272,72,38933,1,2,0:2:0:0:
117,273,39944,2,0,L|125:322,2,38.5000011749268,0|0|0,0:2|0:2|0:2,0:0:0:0:
142,239,40449,1,2,0:2:0:0:
220,271,40787,1,2,0:2:0:0:
279,210,41124,2,0,L|328:201,1,38.5000011749268,2|2,0:2|0:2,0:0:0:0:
346,233,41461,2,0,L|403:225,1,38.5000011749268,2|0,0:2|0:2,0:2:0:0:
415,198,41798,2,0,P|407:158|401:118,1,77.0000023498536,2|2,0:2|0:2,0:2:0:0:
223,16,42978,1,8,0:1:0:0:
223,16,43146,1,8,0:1:0:0:
110,142,43820,6,0,L|12:157,1,77.0000023498536,2|0,0:2|0:2,0:2:0:0:
10,190,44326,1,2,0:2:0:0:
10,190,44494,2,0,P|15:227|21:266,1,77.0000023498536,8|0,0:1|0:0,0:2:0:0:
89,316,45169,1,2,0:2:0:0:
161,272,45506,1,2,0:2:0:0:
232,317,45843,6,0,P|270:306|320:300,1,77.0000023498536,8|0,0:1|0:2,0:2:0:0:
353,230,46517,2,0,P|393:233|438:248,1,77.0000023498536,2|0,0:2|0:2,0:2:0:0:
469,229,47022,1,2,0:2:0:0:
469,229,47191,2,0,P|483:172|487:112,1,115.50000352478,8|0,0:1|0:2,0:2:0:0:
461,81,47865,1,2,0:2:0:0:
376,84,48202,2,0,P|352:79|324:70,1,38.5000011749268,2|8,0:2|0:1,0:0:0:0:
296,83,48539,6,0,P|283:122|282:160,1,77.0000023498536,8|2,0:1|0:2,0:0:0:0:
314,236,49213,2,0,P|312:274|304:311,1,77.0000023498536,2|0,0:2|0:2,0:2:0:0:
312,357,49719,1,2,0:2:0:0:
312,357,49888,2,0,P|242:325|166:332,1,154.000004699707,8|0,0:1|0:2,0:2:0:0:
82,345,50899,2,0,P|76:325|69:302,1,38.5000011749268,0|0,0:2|0:2,0:0:0:0:
36,283,51236,5,8,0:1:0:0:
58,201,51573,1,2,0:2:0:0:
142,202,51910,2,0,P|165:196|193:190,1,38.5000011749268,2|2,0:2|0:2,0:0:0:0:
211,165,52247,2,0,P|234:170|262:177,1,38.5000011749268,2|2,0:2|0:2,0:0:0:0:
286,192,52584,2,0,P|328:187|382:174,1,77.0000023498536,8|2,0:1|0:2,0:2:0:0:
425,113,53258,1,8,0:2:0:0:
503,161,53595,2,0,L|513:216,1,41.9999987182618,8|8,0:3|0:3,0:0:0:0:
503,252,53933,6,0,P|458:260|414:273,1,90.9999958343508,6|2,1:2|0:2,0:2:0:0:
389,318,54438,1,0,1:2:0:0:
389,318,54607,1,10,1:2:0:0:
291,295,54944,2,0,P|281:267|277:237,1,45.4999979171754,2|2,1:2|1:2,0:0:0:0:
280,201,55281,1,2,0:2:0:0:
313,106,55618,1,2,1:2:0:0:
236,41,55955,2,0,P|191:52|136:67,1,90.9999958343508,10|2,1:2|0:2,0:2:0:0:
120,106,56461,1,0,3:2:0:0:
120,106,56629,6,0,P|133:149|142:202,1,90.9999958343508,4|0,1:3|0:2,0:0:0:0:
115,238,57135,1,0,1:2:0:0:
115,238,57303,1,10,0:2:0:0:
191,302,57640,2,0,P|212:296|240:290,1,45.4999979171754,0|0,1:2|1:2,0:0:0:0:
275,260,57978,2,0,P|319:263|371:276,1,90.9999958343508,2|0,0:2|1:2,0:0:0:0:
449,220,58652,1,10,0:2:0:0:
423,123,58989,2,0,P|424:100|434:70,1,45.4999979171754,0|8,1:2|0:1,0:0:0:0:
394,42,59326,6,0,P|344:34|288:16,1,90.9999958343508,6|2,1:2|0:2,0:2:0:0:
263,46,59831,1,0,1:2:0:0:
263,46,60000,1,10,0:2:0:0:
163,32,60337,2,0,P|157:49|153:80,1,45.4999979171754,2|2,1:2|1:2,0:0:0:0:
115,108,60674,2,0,P|71:100|21:83,1,90.9999958343508,2|2,0:2|1:2,0:2:0:0:
13,184,61348,1,8,0:2:0:0:
82,255,61685,2,0,P|80:275|75:300,1,45.4999979171754,2|2,1:3|0:3,0:0:0:0:
102,341,62022,6,0,P|150:346|216:361,1,90.9999958343508,4|0,1:3|0:2,0:0:0:0:
241,339,62528,1,0,1:2:0:0:
241,339,62697,1,10,0:2:0:0:
315,271,63034,2,0,P|317:243|322:222,1,45.4999979171754,0|0,1:2|1:2,0:0:0:0:
291,185,63371,1,2,0:2:0:0:
357,110,63708,1,0,1:2:0:0:
446,154,64045,1,8,0:2:0:0:
509,76,64382,2,0,P|504:52|502:27,1,45.4999979171754,0|8,1:2|0:1,0:0:0:0:
461,2,64719,6,0,P|420:9|368:19,1,90.9999958343508,6|2,1:2|0:2,0:2:0:0:
338,55,65225,1,0,1:2:0:0:
338,55,65393,2,0,L|249:34,1,90.9999958343508,10|2,1:2|1:2,0:2:0:0:
204,50,65899,1,2,1:2:0:0:
204,50,66067,1,2,0:2:0:0:
154,137,66404,1,2,1:2:0:0:
224,207,66742,2,0,P|215:250|207:308,1,90.9999958343508,10|2,1:2|0:2,0:2:0:0:
170,328,67247,1,0,0:2:0:0:
170,328,67416,5,4,1:3:0:0:
84,275,67753,2,0,P|86:244|93:222,1,45.4999979171754,2|0,0:3|1:2,0:0:0:0:
59,190,68090,1,10,2:2:0:0:
125,114,68427,2,0,P|149:117|174:120,1,45.4999979171754,2|0,1:3|1:2,0:0:0:0:
209,88,68764,1,2,0:2:0:0:
283,154,69101,1,2,1:3:0:0:
221,233,69438,1,10,0:2:0:0:
285,309,69775,2,0,P|309:314|337:324,1,45.4999979171754,2|2,1:3|0:2,0:0:0:0:
371,294,70112,6,0,P|414:280|459:274,1,90.9999958343508,4|2,1:2|0:3,0:2:0:0:
510,295,70618,1,0,1:2:0:0:
510,295,70787,1,10,0:2:0:0:
511,194,71124,2,0,P|501:168|495:135,1,45.4999979171754,2|2,1:3|1:2,0:0:0:0:
455,123,71461,1,2,0:2:0:0:
451,22,71798,2,0,P|406:32|362:43,1,90.9999958343508,2|10,1:3|0:2,0:2:0:0:
298,120,72472,2,0,P|278:115|253:107,1,45.4999979171754,2|2,0:3|0:2,0:0:0:0:
204,115,72809,6,0,P|190:158|184:203,1,90.9999958343508,6|2,1:2|0:3,0:2:0:0:
210,251,73315,1,0,1:2:0:0:
210,251,73483,1,10,0:2:0:0:
117,290,73820,2,0,P|94:284|62:280,1,45.4999979171754,2|2,1:3|1:2,0:0:0:0:
29,254,74157,2,0,P|35:204|51:154,1,90.9999958343508,2|2,0:2|1:3,0:2:0:0:
21,68,74831,2,0,P|66:78|117:88,1,90.9999958343508,8|2,0:2|1:3,0:0:0:0:
156,117,75337,1,8,0:1:0:0:
156,117,75506,6,0,L|147:161,1,45.4999979171754,2|0,1:1|1:2,0:2:0:0:
290,114,76180,2,0,L|281:158,1,45.4999979171754,2|0,1:1|1:2,0:2:0:0:
424,110,76854,2,0,L|414:159,1,45.4999979171754,2|0,1:1|1:2,0:2:0:0:
512,242,77528,2,2,L|489:353,1,105,0|0,0:2|0:0,0:1:0:0:
445,355,78202,5,2,1:2:0:0:
380,289,78539,1,2,0:2:0:0:
305,343,78876,2,0,P|265:345|197:364,1,83.9999974365235,10|0,0:2|0:2,0:2:0:0:
178,340,79382,2,0,P|170:320|165:296,1,41.9999987182618,2|0,0:2|1:2,0:2:0:0:
128,272,79719,2,0,P|82:277|39:291,1,83.9999974365235,2|0,0:2|0:2,0:2:0:0:
4,266,80225,1,10,0:2:0:0:
21,175,80562,1,0,0:2:0:0:
66,94,80899,6,0,P|63:72|60:49,2,41.9999987182618,2|2|2,1:2|0:2|0:2,0:0:0:0:
148,134,81573,2,0,P|190:130|249:117,1,83.9999974365235,10|0,0:2|0:2,0:2:0:0:
265,91,82079,2,0,P|287:94|313:98,1,41.9999987182618,2|0,0:2|1:2,0:2:0:0:
344,123,82416,2,0,P|381:111|427:101,1,83.9999974365235,2|0,0:2|0:2,0:2:0:0:
466,121,82921,2,0,P|477:157|484:213,1,83.9999974365235,10|0,0:2|0:2,0:2:0:0:
437,282,83595,5,2,1:2:0:0:
359,231,83933,1,2,0:2:0:0:
291,294,84270,2,0,P|251:300|199:315,1,83.9999974365235,10|0,0:2|0:2,0:2:0:0:
167,292,84775,2,0,P|162:270|159:251,1,41.9999987182618,2|0,0:2|1:2,0:2:0:0:
130,213,85112,2,0,P|136:172|146:127,1,83.9999974365235,2|0,0:2|0:2,0:2:0:0:
185,108,85618,2,0,P|223:112|268:123,1,83.9999974365235,10|0,0:2|0:2,0:2:0:0:
292,33,86292,6,0,P|258:25|201:9,1,83.9999974365235,2|2,1:2|0:2,0:2:0:0:
121,34,86966,2,0,P|85:44|40:54,1,83.9999974365235,10|0,0:2|0:2,0:2:0:0:
20,96,87472,2,0,P|26:115|32:148,1,41.9999987182618,2|0,0:2|1:2,0:2:0:0:
67,164,87809,2,0,P|57:203|47:256,1,83.9999974365235,2|0,0:2|0:2,0:2:0:0:
71,285,88315,1,10,0:2:0:0:
162,274,88652,2,0,P|183:276|207:282,1,41.9999987182618,0|8,0:2|0:1,0:0:0:0:
234,314,88989,5,2,1:2:0:0:
307,258,89326,1,2,0:2:0:0:
387,302,89663,2,0,P|430:291|487:280,1,83.9999974365235,10|0,0:2|0:2,0:2:0:0:
504,253,90169,1,2,0:2:0:0:
504,253,90337,2,0,P|495:210|485:169,1,83.9999974365235,2|0,1:2|0:2,0:2:0:0:
405,125,91011,2,0,L|359:135,1,41.9999987182618,10|0,0:2|0:2,0:0:0:0:
338,172,91348,2,0,L|292:164,1,41.9999987182618,0|2,0:2|0:2,0:0:0:0:
265,130,91685,6,0,P|274:82|281:41,1,83.9999974365235,2|2,1:2|0:2,0:2:0:0:
189,29,92360,2,0,P|181:74|170:117,1,83.9999974365235,10|0,0:2|0:2,0:2:0:0:
139,143,92865,1,2,0:2:0:0:
139,143,93034,2,0,L|94:133,2,41.9999987182618,2|2|2,1:2|0:2|0:3,0:0:0:0:
177,227,93708,2,0,L|273:247,1,83.9999974365235,10|2,0:2|0:3,0:2:0:0:
301,223,94213,1,2,0:2:0:0:
301,223,94382,6,0,L|310:167,2,41.9999987182618,2|2|2,1:2|0:2|0:2,0:0:0:0:
348,302,95056,2,0,P|393:311|438:325,1,83.9999974365235,10|0,0:2|0:2,0:2:0:0:
476,310,95562,1,2,0:2:0:0:
476,310,95730,2,0,P|486:266|497:224,1,83.9999974365235,2|2,1:2|0:2,0:2:0:0:
450,148,96404,1,8,0:2:0:0:
365,185,96742,2,0,L|316:175,1,41.9999987182618,0|0,0:2|0:2,0:2:0:0:
289,145,97079,6,0,L|205:154,1,83.9999974365235,2|2,1:2|0:2,0:0:0:0:
132,210,97753,2,0,P|136:249|139:300,1,83.9999974365235,10|0,0:2|0:2,0:2:0:0:
112,332,98258,1,2,0:2:0:0:
112,332,98427,2,0,P|71:336|24:345,2,83.9999974365235,2|2|8,1:2|0:3|0:2,0:2:0:0:
196,370,99438,2,0,P|217:365|246:362,1,41.9999987182618,2|8,0:3|0:1,0:0:0:0:
267,327,99775,1,0,1:1:0:0:
181,180,100449,6,0,P|173:145|165:105,1,77.0000023498536,2|0,0:2|0:2,0:2:0:0:
177,64,100955,1,2,0:2:0:0:
386,30,101798,1,2,0:2:0:0:
461,68,102135,1,2,0:2:0:0:
424,144,102472,2,0,P|431:178|440:219,1,77.0000023498536,2|2,0:2|0:2,0:2:0:0:
415,300,103146,2,0,P|378:306|336:319,1,77.0000023498536,2|0,0:2|0:2,0:2:0:0:
313,350,103652,1,2,0:2:0:0:
110,289,104494,2,0,P|101:247|95:205,1,77.0000023498536,2|0,0:2|0:2,0:2:0:0:
122,181,105000,1,8,0:1:0:0:
122,181,105169,6,0,P|142:176|168:173,2,38.5000011749268,8|2|2,0:1|0:2|0:2,0:0:0:0:
57,126,105843,2,0,P|47:86|45:48,1,77.0000023498536,2|0,0:2|0:2,0:2:0:0:
73,19,106348,1,2,0:2:0:0:
326,39,107360,2,0,P|322:20|318:1,2,38.5000011749268,0|0|0,0:2|0:2|0:2,0:0:0:0:
357,66,107865,1,2,0:2:0:0:
427,18,108202,1,2,0:2:0:0:
484,79,108539,2,0,L|477:122,1,38.5000011749268,2|2,0:2|0:2,0:0:0:0:
448,147,108876,2,0,L|456:193,1,38.5000011749268,2|0,0:2|0:2,0:2:0:0:
491,206,109213,2,0,L|477:284,1,77.0000023498536,2|2,0:2|0:2,0:2:0:0:
409,332,109888,6,0,L|365:323,2,38.5000011749268,8|8|8,0:1|0:1|0:1,0:0:0:0:
436,370,110393,1,8,0:1:0:0:
436,370,110562,1,8,0:1:0:0:
370,213,111236,2,0,P|335:221|294:230,1,77.0000023498536,2|0,0:2|0:2,0:2:0:0:
278,270,111742,1,2,0:2:0:0:
278,270,111910,2,0,P|240:263|202:254,1,77.0000023498536,8|0,0:1|0:0,0:2:0:0:
151,187,112584,1,2,0:2:0:0:
197,116,112921,1,2,0:2:0:0:
139,53,113258,6,0,L|62:64,1,77.0000023498536,8|0,0:1|0:2,0:2:0:0:
2,123,113933,2,0,L|9:200,1,77.0000023498536,2|0,0:2|0:2,0:2:0:0:
50,222,114438,1,2,0:2:0:0:
50,222,114607,2,0,P|37:274|26:342,1,115.50000352478,8|0,0:1|0:2,0:2:0:0:
59,362,115281,1,2,0:2:0:0:
136,328,115618,2,0,P|153:329|186:338,1,38.5000011749268,0|8,0:2|0:1,0:0:0:0:
202,365,115955,6,0,P|238:356|288:347,1,77.0000023498536,8|2,0:1|0:2,0:0:0:0:
332,284,116629,2,0,P|373:294|416:305,1,77.0000023498536,2|0,0:2|0:2,0:2:0:0:
450,291,117135,1,2,0:2:0:0:
450,291,117303,2,0,P|490:219|467:145,1,154.000004699707,8|0,0:1|0:2,0:2:0:0:
403,106,118315,2,0,L|356:116,1,38.5000011749268,0|0,0:2|0:2,0:0:0:0:
340,148,118652,5,8,0:1:0:0:
303,224,118989,1,2,0:2:0:0:
223,195,119326,2,0,L|207:148,1,38.5000011749268,2|2,0:2|0:2,0:0:0:0:
221,117,119663,2,0,P|211:91|205:72,1,38.5000011749268,2|2,0:2|0:2,0:0:0:0:
168,63,120000,2,0,P|126:78|87:88,1,77.0000023498536,8|2,0:1|0:2,0:2:0:0:
38,149,120674,2,0,P|43:171|50:203,1,38.5000011749268,8|8,0:2|0:3,0:0:0:0:
84,206,121011,2,0,P|80:224|76:248,1,38.5000011749268,8|4,0:3|0:3,0:0:0:0:
43,281,121348,6,0,P|86:289|138:301,1,90.9999958343508,6|2,1:2|0:2,0:2:0:0:
171,338,121854,1,0,1:2:0:0:
171,338,122022,1,10,0:2:0:0:
251,278,122360,2,0,P|255:250|261:230,1,45.4999979171754,2|2,1:2|1:2,0:0:0:0:
299,202,122697,2,0,P|341:206|402:226,1,90.9999958343508,2|2,0:2|1:2,0:2:0:0:
473,168,123371,1,10,0:2:0:0:
430,77,123708,2,0,P|435:52|443:29,1,45.4999979171754,2|2,0:2|0:2,0:2:0:0:
405,0,124045,6,0,P|360:6|315:14,1,90.9999958343508,4|0,1:3|0:2,0:0:0:0:
282,53,124551,1,0,1:2:0:0:
282,53,124719,1,10,0:2:0:0:
335,137,125056,2,0,L|341:182,1,45.4999979171754,0|0,1:2|1:2,0:0:0:0:
316,225,125393,1,2,0:2:0:0:
216,219,125730,1,0,1:2:0:0:
147,291,126067,1,10,0:2:0:0:
49,267,126404,2,0,P|41:240|36:220,1,45.4999979171754,0|2,1:2|0:2,0:0:0:0:
1,186,126742,6,0,P|43:173|88:158,1,90.9999958343508,6|2,1:2|0:2,0:2:0:0:
120,121,127247,1,0,1:2:0:0:
120,121,127416,1,10,0:2:0:0:
185,45,127753,2,0,P|210:47|237:50,1,45.4999979171754,2|2,1:2|1:2,0:0:0:0:
272,76,128090,2,0,P|315:62|373:52,1,90.9999958343508,2|2,0:2|1:2,0:2:0:0:
451,94,128764,1,10,0:2:0:0:
429,191,129101,2,0,P|433:212|439:240,1,45.4999979171754,2|2,0:3|0:3,0:0:0:0:
466,276,129438,6,0,P|421:283|377:296,1,90.9999958343508,4|0,1:3|0:2,0:0:0:0:
347,337,129944,1,0,1:2:0:0:
347,337,130112,1,10,0:2:0:0:
267,275,130449,2,0,P|260:250|257:222,1,45.4999979171754,0|0,1:2|1:2,0:0:0:0:
274,182,130787,1,2,0:2:0:0:
364,139,131124,1,0,1:2:0:0:
352,39,131461,1,10,0:2:0:0:
263,0,131798,2,0,P|243:6|220:12,1,45.4999979171754,0|2,1:2|0:2,0:0:0:0:
187,50,132135,6,0,P|140:42|95:30,1,90.9999958343508,4|2,1:2|0:2,0:2:0:0:
55,52,132640,1,0,1:2:0:0:
55,52,132809,2,0,P|45:93|37:149,1,90.9999958343508,10|2,0:2|1:2,0:2:0:0:
10,184,133315,1,2,1:2:0:0:
10,184,133483,1,2,0:2:0:0:
90,243,133820,1,2,1:2:0:0:
163,174,134157,2,0,P|204:179|252:189,1,90.9999958343508,8|2,0:2|0:2,0:2:0:0:
299,219,134663,1,0,0:2:0:0:
299,219,134831,5,6,1:3:0:0:
378,157,135169,2,0,P|381:134|384:111,1,45.4999979171754,2|0,0:3|1:2,0:0:0:0:
414,72,135506,1,10,0:2:0:0:
501,121,135843,2,0,P|498:143|495:167,1,45.4999979171754,2|0,1:3|1:2,0:0:0:0:
464,206,136180,1,2,0:2:0:0:
504,297,136517,1,2,1:3:0:0:
427,360,136854,1,10,0:2:0:0:
345,302,137191,2,0,P|325:304|295:308,1,45.4999979171754,2|2,1:3|0:2,0:0:0:0:
252,323,137528,6,0,P|239:279|234:234,1,90.9999958343508,4|2,1:2|0:3,0:2:0:0:
261,193,138034,1,0,1:2:0:0:
261,193,138202,1,10,0:2:0:0:
317,110,138539,2,0,P|313:85|308:63,1,45.4999979171754,2|2,1:3|1:2,0:0:0:0:
271,31,138876,1,2,0:2:0:0:
173,51,139213,2,0,P|135:62|70:72,1,90.9999958343508,2|10,1:3|0:2,0:2:0:0:
8,136,139888,2,0,P|12:158|17:184,1,45.4999979171754,2|8,0:3|0:1,0:0:0:0:
55,212,140225,6,0,P|46:252|37:305,1,90.9999958343508,4|2,1:2|0:3,0:2:0:0:
65,348,140730,1,0,1:2:0:0:
65,348,140899,2,0,P|102:354|162:369,1,90.9999958343508,10|2,0:2|1:3,0:2:0:0:
201,347,141404,1,2,1:2:0:0:
201,347,141573,1,2,0:2:0:0:
199,246,141910,2,0,P|203:200|216:151,1,90.9999958343508,2|8,1:3|0:2,0:2:0:0:
300,106,142584,2,0,P|321:108|346:115,1,45.4999979171754,0|8,1:2|0:1,0:0:0:0:
389,137,142921,6,0,P|453:123|487:66,1,136.499993751526,4|0,1:2|1:2,0:2:0:0:
477,17,143595,1,8,2:2:0:0:
380,21,143933,1,2,1:2:0:0:
380,21,144101,2,0,P|335:16|282:7,1,90.9999958343508,2|2,1:2|1:2,0:0:0:0:
247,34,144607,2,0,L|238:88,1,45.4999979171754,2|2,1:2|0:2,0:0:0:0:
260,123,144944,1,8,2:2:0:0:
438,212,145618,6,0,P|428:258|420:301,1,90.9999958343508,4|2,1:1|0:2,0:0:0:0:
381,332,146124,1,2,1:2:0:0:
381,332,146292,1,10,2:2:0:0:
295,280,146629,2,0,L|251:271,1,45.4999979171754,0|0,1:2|1:2,0:0:0:0:
204,291,146966,2,0,P|154:301|103:317,1,90.9999958343508,2|2,0:2|1:3,0:0:0:0:
74,294,147472,1,0,0:2:0:0:
74,294,147640,1,10,0:2:0:0:
24,206,147978,1,2,1:3:0:0:
74,119,148315,6,0,P|124:109|177:94,1,90.9999958343508,4|2,1:2|0:2,0:0:0:0:
202,67,148820,1,0,1:2:0:0:
202,67,148989,2,0,P|240:74|309:81,1,90.9999958343508,10|0,1:2|1:2,0:2:0:0:
320,121,149494,2,0,P|368:113|437:92,1,90.9999958343508,2|0,1:2|1:2,0:2:0:0:
457,115,150000,1,0,1:2:0:0:
423,209,150337,1,8,0:2:0:0:
494,279,150674,2,0,P|499:300|503:329,1,45.4999979171754,0|8,0:2|0:1,0:0:0:0:
460,350,151011,6,0,P|414:357|371:367,1,90.9999958343508,4|0,1:1|0:2,0:2:0:0:
330,345,151517,1,0,1:2:0:0:
330,345,151685,2,0,P|321:296|315:246,1,90.9999958343508,8|0,0:2|1:2,0:2:0:0:
286,220,152191,1,0,1:2:0:0:
286,220,152360,1,0,0:2:0:0:
344,138,152697,1,0,1:2:0:0:
270,70,153034,2,0,P|224:79|168:88,1,90.9999958343508,8|0,0:2|1:2,0:2:0:0:
153,129,153539,1,8,0:1:0:0:
153,129,153708,6,0,P|87:127|42:180,1,136.499993751526,4|0,1:2|1:2,0:2:0:0:
31,222,154382,1,8,0:2:0:0:
94,306,154719,1,0,1:2:0:0:
94,306,154888,2,0,L|184:293,1,90.9999958343508,0|2,1:2|1:2,0:0:0:0:
222,261,155393,2,0,L|274:270,1,45.4999979171754,2|2,1:2|0:2,0:0:0:0:
304,301,155730,1,10,0:2:0:0:
474,196,156404,6,0,L|489:107,1,90.9999958343508,4|2,1:1|0:3,0:0:0:0:
466,67,156910,1,2,1:2:0:0:
466,67,157079,1,8,2:2:0:0:
367,85,157416,2,0,L|320:76,1,45.4999979171754,2|2,1:3|1:2,0:0:0:0:
290,37,157753,1,2,0:2:0:0:
207,94,158090,1,2,1:3:0:0:
270,171,158427,1,10,2:2:0:0:
207,249,158764,1,2,1:3:0:0:
122,195,159101,6,0,P|78:206|28:214,1,90.9999958343508,4|2,1:2|0:3,0:0:0:0:
6,255,159607,1,0,1:2:0:0:
6,255,159775,2,0,P|17:296|24:351,1,90.9999958343508,10|2,2:2|1:3,0:2:0:0:
61,376,160281,2,0,P|104:361|155:355,1,90.9999958343508,2|0,1:2|1:2,0:2:0:0:
181,317,160787,1,2,1:3:0:0:
271,359,161124,1,8,2:2:0:0:
357,309,161461,2,0,P|363:281|369:255,1,45.4999979171754,2|8,0:3|0:1,0:0:0:0:
350,217,161798,5,4,1:1:0:0:
281,166,162135,2,0,L|199:180,1,77.0000023498536,2|0,0:3|0:2,0:2:0:0:
141,234,162809,2,0,L|65:220,1,77.0000023498536,2|0,0:3|0:2,0:2:0:0:
48,303,163483,2,0,L|130:316,1,77.0000023498536,2|0,0:3|0:2,0:2:0:0:
193,363,164157,2,0,L|251:350,1,38.5000011749268,10|8,0:3|0:3,0:0:0:0:
261,326,164494,6,0,L|298:333,1,38.5000011749268,2|0,1:1|1:2,0:2:0:0:
324,208,165169,2,0,L|361:215,1,38.5000011749268,2|0,1:1|1:2,0:2:0:0:
375,89,165843,2,0,L|412:96,1,38.5000011749268,2|0,1:1|1:2,0:2:0:0:
501,170,166517,6,2,L|479:311,1,140,0|4,0:0|1:3,0:1:0:0:
