osu file format v14

[General]
AudioFilename: audio.mp3
AudioLeadIn: 0
PreviewTime: 32706
Countdown: 0
SampleSet: Soft
StackLeniency: 0.7
Mode: 0
LetterboxInBreaks: 0
WidescreenStoryboard: 1

[Editor]
Bookmarks: 32364,53937,78206,99779,121352,156408,160285,167195
DistanceSpacing: 0.6
BeatDivisor: 8
GridSize: 32
TimelineZoom: 1

[Metadata]
Title:BLOOD
TitleUnicode:BLOOD
Artist:KLOUD
ArtistUnicode:KLOUD
Creator:AirinCat
Version:INSANE
Source:
Tags:english electronic dance edm autonomy pop hip hop
BeatmapID:3653114
BeatmapSetID:1781619

[Difficulty]
HPDrainRate:5
CircleSize:4
OverallDifficulty:8
ApproachRate:9
SliderMultiplier:2
SliderTickRate:1

[Events]
//Background and Video events
0,0,"aaaaaaaab.jpg",0,0
//Break Periods
//Storyboard Layer 0 (Background)
//Storyboard Layer 1 (Fail)
//Storyboard Layer 2 (Pass)
//Storyboard Layer 3 (Foreground)
//Storyboard Layer 4 (Overlay)
//Storyboard Sound Samples

[TimingPoints]
10787,674.157303370787,4,2,1,50,1,0
10787,-71.4285714285714,4,2,1,50,0,0
31011,-66.6666666666667,4,2,1,50,0,0
33034,-100,4,2,1,50,0,0
53258,-100,4,2,1,70,0,0
53933,-62.5,4,2,1,80,0,0
56629,-62.5,4,2,2,80,0,0
64719,-62.5,4,2,1,80,0,0
67247,-62.5,4,2,2,80,0,0
75506,-62.5,4,2,1,50,0,0
77528,-217.391304347826,4,2,1,60,0,0
78202,-66.6666666666667,4,2,2,70,0,0
100449,-100,4,2,1,50,0,0
109888,-100,4,2,1,40,0,0
110225,-100,4,2,1,45,0,0
110393,-100,4,2,1,50,0,0
120674,-100,4,2,1,70,0,0
121348,-62.5,4,2,2,80,0,1
142921,-62.5,4,2,2,80,0,0
161798,-66.6666666666667,4,2,1,80,0,0
162135,-100,4,2,1,70,0,0
164494,-100,4,2,1,30,0,0
166517,-400,4,2,1,50,0,0

[Colours]
Combo1 : 191,70,70
Combo2 : 255,117,117
Combo3 : 185,28,28

[HitObjects]
26,257,10787,6,0,P|35:290|40:325,1,69.9999978637696,2|0,1:2|0:2,0:2:0:0:
136,208,11124,2,0,P|141:173|150:139,1,69.9999978637696,2|0,0:2|0:2,0:2:0:0:
229,296,11461,2,0,P|297:307|351:264,1,139.999995727539,10|2,1:2|0:2,0:2:0:0:
452,106,11966,1,2,0:2:0:0:
491,206,12135,2,0,P|458:199|423:192,1,69.9999978637696,2|0,1:2|0:2,0:2:0:0:
343,144,12472,2,0,P|323:78|366:23,1,139.999995727539,2|8,0:2|1:2,0:2:0:0:
362,24,13483,5,2,1:2:0:0:
241,57,13652,2,0,P|170:42|93:19,1,139.999995727539,2|0,0:2|0:2,0:0:0:0:
0,183,14157,2,0,P|54:143|119:164,1,139.999995727539,8|0,1:2|0:2,0:2:0:0:
226,152,14663,2,0,L|208:223,1,69.9999978637696,2|0,0:2|1:2,0:2:0:0:
151,358,15000,1,2,0:2:0:0:
78,329,15169,2,0,P|68:288|59:253,1,69.9999978637696,2|0,0:2|0:2,0:2:0:0:
247,303,15506,2,0,B|313:318|295:346|366:372,1,139.999995727539,8|0,1:2|0:2,0:2:0:0:
449,342,16011,1,0,0:2:0:0:
459,201,16180,5,2,1:2:0:0:
380,256,16348,1,2,0:2:0:0:
307,184,16517,2,0,P|312:149|322:115,1,69.9999978637696,2|0,0:2|0:2,0:2:0:0:
512,4,16854,2,0,P|460:47|393:35,1,139.999995727539,10|2,1:2|0:2,0:2:0:0:
228,100,17360,1,2,0:2:0:0:
203,0,17528,2,0,P|236:10|270:19,1,69.9999978637696,2|0,1:2|0:2,0:2:0:0:
225,193,17865,2,0,P|157:177|89:160,1,139.999995727539,2|8,0:2|1:2,0:2:0:0:
89,160,18539,2,0,L|71:227,1,69.9999978637696,0|0,0:2|0:2,0:0:0:0:
223,365,18876,5,2,1:2:0:0:
178,294,19045,1,2,0:2:0:0:
111,357,19213,2,0,L|43:342,1,69.9999978637696,2|0,0:2|0:2,0:2:0:0:
189,203,19551,2,0,L|326:230,1,139.999995727539,10|2,1:2|0:2,0:2:0:0:
410,297,20056,1,2,0:2:0:0:
498,222,20225,2,0,P|512:154|470:98,1,139.999995727539,2|2,1:2|0:2,0:2:0:0:
419,7,20730,1,0,0:0:0:0:
343,32,20899,2,0,L|326:99,1,69.9999978637696,8|2,1:2|0:2,0:0:0:0:
406,186,21236,1,2,0:2:0:0:
406,186,21404,1,2,0:2:0:0:
263,236,21573,6,0,L|192:220,1,69.9999978637696,2|0,1:2|0:2,0:2:0:0:
99,95,21910,2,0,L|170:79,1,69.9999978637696,2|0,0:2|0:2,0:2:0:0:
67,275,22247,2,0,P|8:239|-1:172,1,139.999995727539,10|2,1:2|0:2,0:2:0:0:
85,189,22753,1,2,0:2:0:0:
27,366,22921,2,0,P|75:318|143:324,1,139.999995727539,2|0,1:2|0:2,0:2:0:0:
143,324,23595,5,10,1:2:0:0:
264,241,23764,1,2,0:2:0:0:
166,216,23933,1,2,0:2:0:0:
239,340,24101,1,2,0:2:0:0:
353,271,24270,6,0,L|370:203,1,69.9999978637696,2|0,1:2|0:2,0:2:0:0:
247,76,24607,2,0,L|229:147,1,69.9999978637696,2|0,0:2|0:2,0:2:0:0:
484,69,24944,2,0,P|429:109|362:95,1,139.999995727539,10|2,1:2|0:2,0:2:0:0:
407,26,25449,1,2,0:2:0:0:
512,170,25618,5,2,1:2:0:0:
434,213,25787,1,2,0:2:0:0:
493,334,25955,2,0,L|517:250,1,69.9999978637696,2|0,0:2|0:2,0:2:0:0:
304,152,26292,2,0,L|328:297,1,139.999995727539,10|2,1:2|0:2,0:2:0:0:
281,362,26798,1,2,0:2:0:0:
142,267,26966,5,2,1:2:0:0:
206,196,27135,1,2,0:2:0:0:
123,143,27303,2,0,P|89:151|54:160,1,69.9999978637696,2|0,0:0|0:0,0:0:0:0:
238,283,27640,2,0,P|291:239|298:171,1,139.999995727539,10|2,1:2|0:2,0:2:0:0:
193,71,28146,1,2,0:2:0:0:
298,0,28315,2,0,P|291:30|283:74,1,69.9999978637696,2|0,1:2|0:2,0:2:0:0:
379,132,28652,2,0,P|463:135|507:83,1,139.999995727539,2|8,0:2|1:2,0:2:0:0:
501,100,29326,2,0,P|507:133|513:186,1,69.9999978637696,0|0,0:2|0:2,0:2:0:0:
409,349,29663,5,2,1:2:0:0:
341,294,29831,1,2,0:2:0:0:
404,241,30000,2,0,P|440:244|472:254,1,69.9999978637696,2|0,0:2|0:2,0:2:0:0:
282,384,30337,2,0,P|231:339|230:271,1,139.999995727539,10|2,1:2|0:2,0:2:0:0:
293,157,30843,1,2,0:2:0:0:
227,98,31011,2,0,P|190:106|153:115,1,75.0000028610231,2|0,1:2|0:2,0:2:0:0:
22,274,31348,2,0,P|57:261|94:254,1,75.0000028610231,2|0,0:2|0:0,0:2:0:0:
83,18,31685,2,0,P|28:65|31:137,1,150.000005722046,8|0,1:2|0:2,0:0:0:0:
193,215,32191,1,8,0:1:0:0:
193,215,32275,1,8,0:1:0:0:
193,215,32360,1,12,0:1:0:0:
193,215,33034,6,0,P|248:202|299:190,1,100,2|0,0:2|0:2,0:2:0:0:
387,114,33539,2,0,P|443:134|462:192,1,125,2|0,0:2|0:2,0:2:0:0:
462,192,34382,2,0,P|449:233|441:291,1,100,2|2,0:2|0:2,0:2:0:0:
216,376,35056,2,0,P|209:342|197:311,1,50,2|0,0:2|0:2,0:2:0:0:
268,258,35393,2,0,P|275:224|287:193,1,50,2|0,0:2|0:2,0:2:0:0:
233,126,35730,2,0,P|180:117|137:94,1,100,2|0,0:2|0:2,0:2:0:0:
35,117,36236,2,0,P|-9:174|3:245,1,150,2|0,0:2|0:2,0:2:0:0:
23,328,36910,1,0,0:2:0:0:
96,353,37079,2,0,P|143:336|192:327,1,100,2|0,0:2|0:2,0:2:0:0:
267,267,37584,5,8,0:1:0:0:
267,267,37669,1,8,0:1:0:0:
267,267,37753,1,8,0:1:0:0:
329,319,37921,1,2,0:2:0:0:
386,263,38090,2,0,P|381:238|373:214,1,50,2|0,0:2|0:2,0:2:0:0:
406,134,38427,2,0,P|457:114|507:111,1,100,2|0,0:2|0:2,0:2:0:0:
493,1,38933,2,0,P|423:27|348:32,1,150,2|0,0:2|0:2,0:2:0:0:
348,32,39944,5,0,0:2:0:0:
292,85,40112,1,0,0:2:0:0:
332,153,40281,1,0,0:2:0:0:
287,219,40449,2,0,P|269:223|228:231,1,50,2|0,0:2|0:2,0:2:0:0:
178,174,40787,2,0,P|160:169|119:162,1,50,2|0,0:2|0:2,0:2:0:0:
77,228,41124,1,2,0:2:0:0:
77,228,41292,1,2,0:2:0:0:
6,175,41461,2,0,P|11:151|18:127,1,50,2|0,0:2|0:2,0:2:0:0:
0,34,41798,2,0,P|43:46|106:54,2,100,2|2|0,0:2|0:2|0:2,0:2:0:0:
202,320,42978,1,8,0:1:0:0:
202,320,43062,1,8,0:1:0:0:
202,320,43146,1,8,0:1:0:0:
202,320,43820,6,0,P|214:271|220:222,1,100,2|0,0:2|0:2,0:2:0:0:
171,133,44326,1,2,0:2:0:0:
219,67,44494,2,0,P|291:60|343:111,1,150,8|0,0:1|0:2,0:2:0:0:
437,80,45169,2,0,P|424:129|416:177,1,100,2|2,0:2|0:2,0:2:0:0:
205,384,45843,2,0,P|198:333|184:286,1,100,8|0,0:1|0:2,0:2:0:0:
184,286,46517,2,0,P|230:269|280:265,1,100,2|0,0:2|0:2,0:2:0:0:
365,311,47022,1,2,0:2:0:0:
446,290,47191,2,0,P|488:230|479:157,1,150,8|0,0:1|0:2,0:2:0:0:
503,69,47865,2,0,P|457:82|405:95,1,100,2|2,0:2|0:2,0:2:0:0:
358,169,48371,5,8,0:1:0:0:
358,169,48455,1,8,0:1:0:0:
358,169,48539,1,8,0:1:0:0:
289,111,48708,1,2,0:2:0:0:
226,165,48876,2,0,P|221:189|220:220,1,50,2|0,0:2|0:2,0:2:0:0:
263,299,49213,2,0,P|311:309|361:313,1,100,2|0,0:2|0:2,0:2:0:0:
183,373,49719,1,2,0:2:0:0:
183,373,49888,2,0,P|86:360|34:279,1,200,8|0,0:1|0:2,0:2:0:0:
11,205,50730,5,0,0:2:0:0:
66,149,50899,1,0,0:2:0:0:
137,186,51067,1,0,0:2:0:0:
194,131,51236,6,0,L|205:82,1,50,8|0,0:1|0:2,0:2:0:0:
289,12,51573,2,0,L|300:61,1,50,2|0,0:2|0:2,0:2:0:0:
379,111,51910,1,2,0:2:0:0:
454,67,52079,1,2,0:2:0:0:
466,161,52247,1,2,0:2:0:0:
393,217,52416,1,2,0:2:0:0:
450,302,52584,2,0,L|498:313,1,50,8|0,0:1|0:2,0:2:0:0:
310,161,52921,2,0,L|209:182,1,100,2|8,0:2|0:2,0:2:0:0:
212,181,53595,5,8,0:3:0:0:
94,360,53764,1,8,0:3:0:0:
94,360,53848,1,8,0:3:0:0:
94,360,53933,6,0,P|79:274|64:195,1,160,6|2,1:2|0:2,0:2:0:0:
227,86,54438,1,0,1:2:0:0:
150,3,54607,2,0,L|127:81,1,80,10|0,1:2|0:2,0:2:0:0:
212,181,54944,1,2,1:2:0:0:
326,97,55112,1,2,1:2:0:0:
367,177,55281,2,0,L|343:262,1,80,2|0,0:2|1:2,0:2:0:0:
199,384,55618,2,0,L|167:249,1,120,2|0,1:2|0:2,0:2:0:0:
171,267,55955,6,0,L|92:287,1,80,10|0,1:2|0:2,0:2:0:0:
299,375,56292,2,0,L|377:352,1,80,2|0,0:2|3:2,0:2:0:0:
455,269,56545,1,0,3:2:0:0:
455,269,56629,6,0,L|475:349,1,80,4|2,1:3|0:2,0:0:0:0:
314,251,56966,1,0,0:2:0:0:
416,160,57135,1,0,1:2:0:0:
291,91,57303,2,0,L|203:115,1,80,10|2,0:2|0:2,0:0:0:0:
135,261,57640,1,0,1:2:0:0:
0,177,57809,1,0,1:2:0:0:
84,80,57978,2,0,L|106:164,1,80,2|2,0:2|1:2,0:0:0:0:
33,356,58315,2,0,L|11:272,1,80,0|0,1:2|0:2,0:0:0:0:
191,200,58652,5,10,0:2:0:0:
328,276,58820,1,2,0:2:0:0:
464,146,58989,1,0,1:2:0:0:
370,105,59157,5,8,0:1:0:0:
370,105,59242,1,8,0:1:0:0:
370,105,59326,2,0,L|405:260,1,160,6|2,1:2|0:2,0:2:0:0:
316,371,59831,1,0,1:2:0:0:
200,317,60000,2,0,L|181:226,1,80,10|0,0:2|0:2,0:2:0:0:
236,18,60337,1,2,1:2:0:0:
285,146,60506,1,2,1:2:0:0:
180,106,60674,2,0,L|103:128,1,80,2|0,0:2|1:2,0:2:0:0:
298,260,61011,2,0,P|371:238|395:165,1,160,2|8,1:2|0:2,0:2:0:0:
349,94,61517,5,0,0:2:0:0:
512,147,61685,1,2,1:3:0:0:
512,147,61770,1,2,0:3:0:0:
512,147,61854,1,2,0:3:0:0:
512,147,61938,1,2,0:3:0:0:
512,147,62022,6,0,L|494:231,1,80,4|2,1:3|0:2,0:0:0:0:
345,384,62360,1,0,0:2:0:0:
314,231,62528,1,0,1:2:0:0:
409,313,62697,2,0,L|488:334,1,80,10|2,0:2|0:2,0:0:0:0:
396,173,63034,1,0,1:2:0:0:
267,316,63202,1,0,1:2:0:0:
267,316,63287,1,2,0:2:0:0:
267,316,63371,5,2,0:2:0:0:
186,233,63539,1,2,1:2:0:0:
254,155,63708,2,0,L|234:72,1,80,0|0,1:2|0:2,0:0:0:0:
1,140,64045,2,0,L|21:223,1,80,8|2,0:2|0:2,0:0:0:0:
116,173,64382,1,0,1:2:0:0:
25,361,64551,1,8,0:1:0:0:
25,361,64635,1,8,0:1:0:0:
25,361,64719,6,0,P|77:303|155:305,1,160,6|2,1:2|0:2,0:2:0:0:
269,374,65225,1,0,1:2:0:0:
363,309,65393,2,0,L|380:230,1,80,10|0,1:2|0:2,0:2:0:0:
268,93,65730,1,2,1:2:0:0:
268,93,65899,1,2,1:2:0:0:
347,40,66067,2,0,L|433:64,1,80,2|0,0:2|1:2,0:2:0:0:
202,168,66404,2,0,L|85:137,1,120,2|0,1:2|0:2,0:2:0:0:
85,137,66742,6,0,L|63:213,1,80,10|0,1:2|0:2,0:2:0:0:
181,377,67079,2,0,L|203:301,1,80,2|0,0:2|0:2,0:2:0:0:
279,254,67331,1,0,0:2:0:0:
279,254,67416,6,0,L|359:277,1,80,4|2,1:3|0:2,0:0:0:0:
512,158,67753,1,2,0:3:0:0:
391,179,67921,1,0,1:2:0:0:
466,337,68090,2,0,L|487:254,1,80,10|2,2:2|0:2,0:0:0:0:
431,76,68427,1,2,1:3:0:0:
305,153,68595,1,0,1:2:0:0:
256,16,68764,2,0,L|336:36,1,80,2|2,0:2|1:2,0:0:0:0:
284,249,69101,2,0,L|206:228,1,80,2|0,1:3|0:2,0:0:0:0:
52,125,69438,5,10,0:2:0:0:
206,228,69607,1,2,0:2:0:0:
86,361,69775,1,2,1:3:0:0:
86,361,69860,1,2,0:0:0:0:
86,361,69944,1,2,0:2:0:0:
86,361,70028,1,2,0:2:0:0:
86,361,70112,6,0,L|123:202,1,160,4|2,1:2|0:3,0:2:0:0:
0,34,70618,1,0,1:2:0:0:
104,0,70787,2,0,L|87:79,1,80,10|0,0:2|0:2,0:2:0:0:
253,228,71124,1,2,1:3:0:0:
321,80,71292,1,2,1:2:0:0:
238,143,71461,6,0,L|159:126,1,80,2|0,0:2|1:2,0:2:0:0:
262,336,71798,2,0,L|350:312,1,80,2|0,1:3|0:2,0:2:0:0:
512,217,72135,2,0,P|426:197|354:171,1,160,10|2,0:2|0:3,0:2:0:0:
85,277,72640,1,2,0:2:0:0:
85,277,72725,1,2,0:2:0:0:
85,277,72809,6,0,P|161:289|223:214,1,160,6|2,1:2|0:3,0:2:0:0:
322,61,73315,1,0,1:2:0:0:
209,41,73483,2,0,L|229:128,1,80,10|0,0:2|0:2,0:2:0:0:
360,236,73820,1,2,1:3:0:0:
460,121,73989,1,2,1:2:0:0:
511,200,74157,2,0,L|495:287,1,80,2|0,0:2|1:2,0:2:0:0:
257,384,74494,2,0,P|241:295|226:222,1,160,2|8,1:3|0:2,0:2:0:0:
298,172,75000,5,0,0:2:0:0:
134,140,75169,1,2,1:3:0:0:
134,140,75253,1,0,0:2:0:0:
134,140,75337,1,8,0:1:0:0:
134,140,75421,1,8,0:1:0:0:
134,140,75506,6,0,L|214:121,1,80,2|0,1:1|1:2,0:2:0:0:
134,140,76180,2,0,L|214:121,1,80,2|0,1:1|1:2,0:2:0:0:
134,140,76854,2,0,L|214:121,1,80,2|0,1:1|1:2,0:2:0:0:
134,140,77528,2,2,L|214:121,1,80.4999972976685,2|0,0:1|0:2,0:1:0:0:
212,121,78202,6,0,L|227:194,1,75.0000028610231,2|0,1:2|0:2,0:2:0:0:
95,339,78539,2,0,L|79:265,1,75.0000028610231,2|0,0:2|0:2,0:2:0:0:
262,290,78876,2,0,B|338:291|326:321|402:342,1,150.000005722046,10|0,0:2|0:2,0:2:0:0:
495,316,79382,2,0,P|507:274|513:243,1,75.0000028610231,2|0,0:2|1:2,0:2:0:0:
462,132,79719,2,0,P|390:127|345:183,1,150.000005722046,2|0,0:2|0:2,0:2:0:0:
212,317,80225,2,0,P|139:314|101:253,1,150.000005722046,10|0,0:2|0:2,0:2:0:0:
101,253,80899,5,2,1:2:0:0:
0,165,81067,1,2,0:2:0:0:
108,85,81236,2,0,L|88:157,1,75.0000028610231,2|0,0:2|0:2,0:2:0:0:
218,276,81573,2,0,P|276:258|366:242,1,150.000005722046,10|0,0:2|0:2,0:2:0:0:
434,152,82079,2,0,P|397:143|353:127,1,75.0000028610231,2|0,0:2|1:2,0:2:0:0:
302,35,82416,2,0,P|236:91|251:163,1,150.000005722046,2|0,0:2|0:2,0:2:0:0:
387,346,82921,2,0,P|448:307|455:234,1,150.000005722046,10|0,0:2|0:2,0:2:0:0:
389,176,83427,1,0,0:2:0:0:
309,276,83595,6,0,P|295:311|288:347,1,75.0000028610231,2|0,1:2|0:2,0:2:0:0:
161,267,83933,2,0,P|152:226|137:189,1,75.0000028610231,2|0,0:2|0:2,0:2:0:0:
277,54,84270,2,0,P|222:111|151:96,1,150.000005722046,10|0,0:2|0:2,0:2:0:0:
31,20,84775,2,0,P|71:10|108:-3,1,75.0000028610231,2|0,0:2|1:2,0:2:0:0:
157,100,85112,2,0,P|97:115|5:151,1,150.000005722046,2|0,0:2|0:2,0:2:0:0:
99,326,85618,2,0,P|160:288|168:216,1,150.000005722046,10|0,0:2|0:2,0:2:0:0:
81,229,86124,1,0,0:2:0:0:
205,370,86292,6,0,P|240:359|277:351,1,75.0000028610231,2|0,1:2|0:2,0:2:0:0:
403,270,86629,2,0,P|366:262|330:251,1,75.0000028610231,2|0,0:2|0:2,0:2:0:0:
237,145,86966,2,0,P|245:70|262:-2,1,150.000005722046,10|0,0:2|0:2,0:2:0:0:
351,32,87472,2,0,P|342:68|336:105,1,75.0000028610231,2|0,0:2|1:2,0:2:0:0:
391,180,87809,2,0,P|463:184|512:131,1,150.000005722046,2|0,0:2|0:2,0:2:0:0:
292,211,88315,2,0,P|246:266|263:336,1,150.000005722046,10|0,0:2|0:2,0:2:0:0:
351,298,88820,1,8,0:1:0:0:
351,298,88904,1,8,0:1:0:0:
351,298,88989,6,0,P|389:304|428:315,1,75.0000028610231,2|0,1:2|0:2,0:2:0:0:
173,370,89326,2,0,L|96:353,1,75.0000028610231,2|0,0:2|0:2,0:2:0:0:
32,237,89663,2,0,B|39:163|78:173|88:97,1,150.000005722046,10|0,0:2|0:2,0:2:0:0:
9,98,90169,1,2,0:2:0:0:
123,232,90337,2,0,B|204:225|186:191|264:187,1,150.000005722046,2|0,1:2|0:2,0:2:0:0:
264,187,91011,5,10,0:2:0:0:
348,242,91180,1,0,0:2:0:0:
386,136,91348,1,0,0:2:0:0:
302,75,91517,1,2,0:2:0:0:
386,136,91685,6,0,L|472:113,1,75.0000028610231,2|0,1:2|0:2,0:2:0:0:
278,0,92022,2,0,P|237:8|198:21,1,75.0000028610231,2|0,0:2|0:2,0:2:0:0:
99,188,92360,2,0,P|191:174|213:104,1,150.000005722046,10|0,0:2|0:2,0:2:0:0:
136,95,92865,1,2,0:2:0:0:
270,209,93034,5,2,1:2:0:0:
210,272,93202,1,2,0:2:0:0:
284,328,93371,2,0,L|376:308,1,75.0000028610231,2|0,0:3|0:2,0:2:0:0:
512,164,93708,2,0,L|360:128,1,150.000005722046,10|2,0:2|0:3,0:2:0:0:
420,231,94213,1,2,0:2:0:0:
461,58,94382,5,2,1:2:0:0:
366,129,94551,1,2,0:2:0:0:
291,0,94719,2,0,P|333:11|371:19,1,75.0000028610231,2|0,0:2|0:2,0:2:0:0:
200,138,95056,2,0,P|127:134|85:73,1,150.000005722046,10|0,0:2|0:2,0:2:0:0:
176,45,95562,1,2,0:2:0:0:
285,157,95730,2,0,L|266:236,1,75.0000028610231,2|0,1:2|0:2,0:2:0:0:
386,357,96067,2,0,P|409:285|424:212,1,150.000005722046,2|8,0:2|0:2,0:2:0:0:
424,212,96742,2,0,P|464:219|505:231,1,75.0000028610231,0|0,0:2|0:2,0:2:0:0:
264,352,97079,5,2,1:2:0:0:
202,278,97247,1,2,0:2:0:0:
267,214,97416,2,0,P|276:178|285:136,1,75.0000028610231,2|0,0:2|0:2,0:2:0:0:
175,16,97753,2,0,P|98:39|18:60,1,150.000005722046,10|0,0:2|0:2,0:2:0:0:
38,217,98258,1,2,0:2:0:0:
129,229,98427,2,0,P|123:191|107:151,1,75.0000028610231,2|0,1:2|0:2,0:2:0:0:
301,57,98764,2,0,P|240:97|235:169,1,150.000005722046,2|8,0:3|0:2,0:2:0:0:
332,151,99270,1,0,0:2:0:0:
332,151,99438,1,2,0:3:0:0:
192,286,99607,1,8,0:1:0:0:
192,286,99691,1,8,0:1:0:0:
192,286,99775,1,0,1:1:0:0:
192,286,100449,6,0,P|240:296|287:313,1,100,2|0,0:2|0:2,0:2:0:0:
384,380,100955,2,0,P|444:340|444:276,1,125,2|0,0:2|0:2,0:2:0:0:
449,291,101798,2,0,P|443:241|454:193,1,100,2|2,0:2|0:2,0:2:0:0:
257,0,102472,2,0,P|263:24|268:52,1,50,2|0,0:2|0:2,0:2:0:0:
330,105,102809,2,0,P|323:129|318:153,1,50,2|0,0:2|0:2,0:2:0:0:
248,197,103146,2,0,P|198:190|151:174,1,100,2|0,0:2|0:2,0:2:0:0:
48,199,103652,2,0,P|0:253|11:325,1,150,2|0,0:2|0:2,0:2:0:0:
82,366,104326,1,0,0:2:0:0:
156,330,104494,2,0,P|204:343|256:357,1,100,2|0,0:2|0:2,0:2:0:0:
343,308,105000,5,8,0:1:0:0:
343,308,105084,1,8,0:1:0:0:
343,308,105169,1,8,0:1:0:0:
292,237,105337,1,2,0:2:0:0:
363,198,105506,2,0,P|369:167|376:142,1,50,2|0,0:2|0:2,0:2:0:0:
326,68,105843,2,0,P|284:76|220:86,1,100,2|0,0:2|0:2,0:2:0:0:
129,164,106348,2,0,P|61:138|38:69,1,150,2|0,0:2|0:2,0:2:0:0:
38,69,107360,5,0,0:2:0:0:
100,20,107528,1,0,0:2:0:0:
170,58,107697,1,0,0:2:0:0:
234,13,107865,2,0,P|257:16|286:22,1,50,2|0,0:2|0:2,0:2:0:0:
339,78,108202,2,0,P|335:99|329:135,1,50,2|0,0:2|0:2,0:2:0:0:
258,182,108539,1,2,0:2:0:0:
258,182,108708,1,2,0:2:0:0:
300,253,108876,2,0,L|355:269,1,50,2|0,0:2|0:2,0:2:0:0:
417,337,109213,2,0,P|431:283|438:229,1,100,2|2,0:2|0:2,0:2:0:0:
435,239,109888,5,8,0:1:0:0:
494,176,110056,1,8,0:1:0:0:
465,95,110225,1,8,0:1:0:0:
389,74,110393,1,8,0:1:0:0:
389,74,110478,1,8,0:1:0:0:
389,74,110562,1,8,0:1:0:0:
389,74,111236,6,0,P|349:85|287:96,1,100,2|0,0:2|0:2,0:2:0:0:
248,179,111742,1,2,0:2:0:0:
165,209,111910,2,0,P|101:152|113:81,1,150,8|0,0:1|0:2,0:2:0:0:
89,0,112584,2,0,P|139:10|190:32,1,100,2|2,0:2|0:2,0:2:0:0:
104,286,113258,6,0,P|53:275|3:254,1,100,8|0,0:1|0:2,0:2:0:0:
8,257,113933,2,0,P|15:207|31:160,1,100,2|0,0:2|0:2,0:2:0:0:
111,134,114438,1,2,0:2:0:0:
164,198,114607,2,0,P|233:224|312:238,1,150,8|0,0:1|0:2,0:2:0:0:
381,305,115281,2,0,P|393:254|397:204,1,100,2|0,0:2|0:2,0:2:0:0:
349,141,115787,5,8,0:1:0:0:
349,141,115871,1,8,0:1:0:0:
349,141,115955,1,8,0:1:0:0:
267,157,116124,1,2,0:2:0:0:
210,101,116292,2,0,P|213:76|219:52,1,50,2|0,0:2|0:2,0:2:0:0:
290,7,116629,2,0,P|337:22|397:32,1,100,2|0,0:2|0:2,0:2:0:0:
483,6,117135,1,2,0:2:0:0:
510,81,117303,2,0,P|491:170|483:279,1,200,8|0,0:1|0:2,0:2:0:0:
507,358,118146,5,0,0:2:0:0:
423,376,118315,1,0,0:2:0:0:
390,301,118483,1,0,0:2:0:0:
323,354,118652,6,0,L|264:367,1,50,8|0,0:1|0:2,0:2:0:0:
213,297,118989,2,0,L|149:283,1,50,2|0,0:2|0:2,0:2:0:0:
105,353,119326,1,2,0:2:0:0:
35,311,119494,1,2,0:2:0:0:
87,238,119663,1,2,0:2:0:0:
4,158,119831,1,2,0:2:0:0:
106,71,120000,2,0,L|118:134,1,50,8|0,0:1|0:2,0:2:0:0:
295,281,120337,2,0,L|321:170,1,100,2|8,0:2|0:2,0:2:0:0:
260,121,120843,5,8,0:3:0:0:
399,228,121011,1,8,0:3:0:0:
479,17,121180,1,4,0:3:0:0:
479,17,121264,1,4,0:3:0:0:
479,17,121348,6,0,L|323:54,1,160,6|2,1:2|0:2,0:2:0:0:
209,199,121854,1,0,1:2:0:0:
90,112,122022,2,0,L|73:33,1,80,10|0,0:2|0:2,0:2:0:0:
216,108,122360,1,2,1:2:0:0:
114,235,122528,1,2,1:2:0:0:
222,309,122697,2,0,L|304:289,1,80,2|0,0:2|1:2,0:2:0:0:
476,145,123034,2,0,L|359:115,1,120,2|0,1:2|0:2,0:2:0:0:
359,115,123371,6,0,L|340:192,1,80,10|0,0:2|0:2,0:2:0:0:
462,364,123708,2,0,L|480:286,1,80,2|2,0:2|0:2,0:2:0:0:
376,313,123961,1,2,0:2:0:0:
376,313,124045,6,0,L|299:289,1,80,4|2,1:3|0:2,0:0:0:0:
212,182,124382,1,0,0:2:0:0:
359,115,124551,1,0,1:2:0:0:
269,0,124719,2,0,L|245:88,1,80,10|2,0:2|0:2,0:0:0:0:
111,215,125056,1,0,1:2:0:0:
24,90,125225,1,0,1:2:0:0:
130,123,125393,5,2,0:2:0:0:
10,232,125562,1,2,1:2:0:0:
142,315,125730,2,0,P|183:302|231:288,1,80,0|0,1:2|0:2,0:0:0:0:
366,205,126067,5,10,0:2:0:0:
240,169,126236,1,2,0:2:0:0:
331,362,126404,1,0,1:2:0:0:
429,311,126573,5,2,0:2:0:0:
429,311,126657,1,2,0:2:0:0:
429,311,126742,2,0,L|457:153,1,160,6|2,1:2|0:2,0:2:0:0:
334,52,127247,1,0,1:2:0:0:
419,0,127416,2,0,L|506:21,1,80,10|0,0:2|0:2,0:2:0:0:
333,145,127753,1,2,1:2:0:0:
241,50,127921,1,2,1:2:0:0:
121,159,128090,2,0,L|134:245,1,80,2|0,0:2|1:2,0:2:0:0:
284,384,128427,2,0,P|352:334|348:256,1,160,2|10,1:2|0:2,0:2:0:0:
263,295,128933,5,0,0:2:0:0:
393,181,129101,1,2,0:3:0:0:
393,181,129185,1,2,0:3:0:0:
393,181,129270,1,2,0:3:0:0:
393,181,129354,1,2,0:3:0:0:
393,181,129438,6,0,L|302:161,1,80,4|2,1:3|0:2,0:0:0:0:
142,41,129775,1,0,0:2:0:0:
291,26,129944,1,0,1:2:0:0:
214,107,130112,2,0,L|196:185,1,80,10|2,0:2|0:2,0:0:0:0:
278,353,130449,1,0,1:2:0:0:
407,241,130618,1,0,1:2:0:0:
407,241,130702,1,0,0:2:0:0:
407,241,130787,1,2,0:2:0:0:
284,264,130955,1,2,1:2:0:0:
404,366,131124,2,0,L|503:342,1,80,0|0,1:2|0:2,0:0:0:0:
298,171,131461,5,10,0:2:0:0:
179,274,131629,1,2,0:2:0:0:
26,184,131798,1,0,1:2:0:0:
69,112,131966,5,2,0:2:0:0:
69,112,132051,1,2,0:2:0:0:
69,112,132135,2,0,L|33:281,1,160,4|2,1:2|0:2,0:2:0:0:
139,374,132640,1,0,1:2:0:0:
264,284,132809,2,0,L|249:202,1,80,10|0,0:2|0:2,0:2:0:0:
324,87,133146,1,2,1:2:0:0:
412,158,133315,1,2,1:2:0:0:
505,29,133483,2,0,L|415:55,1,80,2|0,0:2|1:2,0:2:0:0:
382,264,133820,2,0,P|459:264|508:204,1,160,2|8,1:2|0:2,0:2:0:0:
490,123,134326,1,0,0:2:0:0:
490,123,134494,1,2,0:2:0:0:
324,192,134663,5,0,0:2:0:0:
324,192,134747,1,2,0:2:0:0:
324,192,134831,2,0,L|239:175,1,80,6|2,1:3|0:2,0:0:0:0:
108,0,135169,1,2,0:3:0:0:
231,54,135337,1,0,1:2:0:0:
123,125,135506,2,0,L|102:212,1,80,10|2,0:2|0:2,0:0:0:0:
169,384,135843,1,2,1:3:0:0:
279,272,136011,1,0,1:2:0:0:
187,259,136180,5,2,0:2:0:0:
284,384,136348,1,2,1:2:0:0:
394,290,136517,2,0,L|411:189,1,80,2|0,1:3|0:2,0:0:0:0:
504,69,136854,5,10,0:2:0:0:
407,211,137022,1,2,0:2:0:0:
239,52,137191,1,2,1:3:0:0:
239,52,137275,1,2,0:2:0:0:
239,52,137360,1,2,0:2:0:0:
239,52,137444,1,2,0:2:0:0:
239,52,137528,6,0,L|399:94,1,160,4|2,1:2|0:3,0:2:0:0:
203,214,138034,1,0,1:2:0:0:
122,175,138202,2,0,L|111:80,1,80,10|0,0:2|0:2,0:2:0:0:
294,176,138539,1,2,1:3:0:0:
218,297,138708,1,2,1:2:0:0:
380,323,138876,2,0,L|463:303,1,80,2|0,0:2|1:2,0:2:0:0:
512,153,139213,2,0,L|434:134,1,80,2|0,1:3|0:2,0:2:0:0:
308,0,139551,2,0,P|240:42|239:124,1,160,10|2,0:2|0:3,0:2:0:0:
188,355,140056,1,8,0:1:0:0:
188,355,140140,1,8,0:1:0:0:
188,355,140225,6,0,P|236:294|217:215,1,160,4|2,1:2|0:3,0:2:0:0:
102,91,140730,1,0,1:2:0:0:
44,152,140899,2,0,L|66:244,1,80,10|0,0:2|0:2,0:2:0:0:
223,111,141236,1,2,1:3:0:0:
223,111,141404,1,2,1:2:0:0:
310,177,141573,2,0,P|348:167|386:152,1,80,2|0,0:2|1:2,0:2:0:0:
486,316,141910,2,0,P|411:336|349:290,1,160,2|8,1:3|0:2,0:2:0:0:
434,237,142416,5,0,0:2:0:0:
259,360,142584,1,0,1:2:0:0:
259,360,142669,1,0,1:2:0:0:
259,360,142753,1,8,0:1:0:0:
259,360,142837,1,8,0:1:0:0:
259,360,142921,6,0,P|304:302|278:213,1,160,4|0,1:2|0:2,0:2:0:0:
209,270,143427,1,0,1:2:0:0:
350,156,143595,1,8,2:2:0:0:
350,156,143933,5,2,1:2:0:0:
408,244,144101,1,2,1:2:0:0:
498,209,144270,2,0,P|505:169|513:130,1,80,0|2,0:2|1:2,0:0:0:0:
457,30,144607,1,2,1:2:0:0:
457,30,144775,1,2,0:2:0:0:
280,70,144944,2,0,P|209:56|125:31,1,160,8|0,2:2|0:2,0:2:0:0:
51,63,145449,1,8,0:1:0:0:
51,63,145534,1,8,0:1:0:0:
51,63,145618,6,0,P|38:100|28:148,1,80,4|2,1:1|0:2,0:0:0:0:
163,270,145955,1,2,0:2:0:0:
134,149,146124,1,2,1:2:0:0:
16,274,146292,1,10,2:2:0:0:
16,274,146629,5,0,1:2:0:0:
126,384,146798,1,0,1:2:0:0:
240,325,146966,2,0,P|246:284|255:237,1,80,2|0,0:2|1:2,0:0:0:0:
140,133,147303,1,2,1:3:0:0:
140,133,147472,1,0,0:2:0:0:
271,18,147640,2,0,P|344:38|437:54,1,160,10|2,0:2|1:3,0:2:0:0:
491,122,148146,1,2,0:2:0:0:
491,122,148230,1,2,0:2:0:0:
491,122,148315,5,4,1:2:0:0:
374,168,148483,1,2,0:2:0:0:
457,300,148652,2,0,P|467:259|472:221,1,80,2|0,0:2|1:2,0:2:0:0:
282,120,148989,2,0,P|261:200|256:285,1,160,10|0,1:2|1:2,0:2:0:0:
141,348,149494,2,0,P|68:315|54:238,1,160,2|0,1:2|1:2,0:2:0:0:
0,153,150000,2,0,P|41:139|86:133,1,80,0|0,1:2|0:2,0:2:0:0:
168,20,150337,2,0,P|219:78|208:155,1,160,8|0,0:2|0:2,0:2:0:0:
289,362,150843,1,8,0:1:0:0:
289,362,150927,1,8,0:1:0:0:
289,362,151011,6,0,P|256:291|292:223,1,160,4|0,1:1|0:2,0:2:0:0:
469,128,151517,1,0,1:2:0:0:
390,47,151685,2,0,L|372:125,1,80,8|0,0:2|0:2,0:2:0:0:
510,248,152022,1,0,1:2:0:0:
510,248,152191,1,0,1:2:0:0:
427,334,152360,2,0,P|385:321|344:315,1,80,0|0,0:2|1:2,0:2:0:0:
232,178,152697,2,0,P|273:190|315:197,1,80,0|0,1:2|0:2,0:2:0:0:
143,381,153034,2,0,P|101:315|127:235,1,160,8|0,0:2|1:2,0:2:0:0:
376,59,153539,5,8,0:1:0:0:
376,59,153624,1,8,0:1:0:0:
376,59,153708,2,0,P|394:136|403:216,1,160,4|0,1:2|0:2,0:2:0:0:
473,260,154213,1,0,1:2:0:0:
319,195,154382,1,8,0:2:0:0:
319,195,154719,5,0,1:2:0:0:
255,281,154888,1,0,1:2:0:0:
170,232,155056,2,0,P|157:184|149:141,1,80,0|2,0:2|1:2,0:0:0:0:
214,58,155393,1,2,1:2:0:0:
214,58,155562,1,2,0:2:0:0:
12,18,155730,2,0,P|35:99|52:189,1,160,10|0,0:2|0:2,0:2:0:0:
15,295,156236,1,8,0:1:0:0:
15,295,156320,1,8,0:1:0:0:
15,295,156404,6,0,L|97:270,1,80,4|2,1:1|0:2,0:0:0:0:
258,279,156742,1,2,0:3:0:0:
172,363,156910,1,2,1:2:0:0:
188,145,157079,1,8,2:2:0:0:
188,145,157416,5,2,1:3:0:0:
327,192,157584,1,2,1:2:0:0:
415,91,157753,2,0,P|408:49|393:4,1,80,2|2,0:2|1:2,0:0:0:0:
307,82,158090,1,2,1:3:0:0:
307,82,158258,1,2,0:2:0:0:
487,232,158427,2,0,P|410:232|369:297,1,160,10|2,2:2|1:3,0:2:0:0:
427,369,158933,1,2,0:2:0:0:
427,369,159017,1,2,0:2:0:0:
427,369,159101,5,4,1:2:0:0:
273,272,159270,1,2,0:2:0:0:
177,384,159438,2,0,P|168:344|158:302,1,80,2|0,0:3|1:2,0:2:0:0:
296,83,159775,2,0,P|359:132|356:209,1,160,10|2,2:2|1:3,0:2:0:0:
168,220,160281,2,0,B|88:233|102:261|22:284,1,160,2|0,1:2|1:2,0:2:0:0:
34,185,160787,2,0,P|20:142|10:106,1,80,2|0,1:3|0:2,0:2:0:0:
190,0,161124,6,0,P|228:105|236:160,1,160,8|2,2:2|0:3,0:2:0:0:
137,340,161629,1,8,0:1:0:0:
137,340,161713,1,8,0:1:0:0:
137,340,161798,1,4,1:1:0:0:
137,340,162135,6,0,L|242:316,1,100,2|0,0:3|0:2,0:2:0:0:
234,317,162809,2,0,L|331:342,1,100,2|0,0:3|0:2,0:2:0:0:
330,341,163483,2,0,L|433:315,1,100,2|0,0:3|0:2,0:2:0:0:
426,316,164157,1,10,0:3:0:0:
409,207,164326,1,8,0:3:0:0:
409,207,164410,1,8,0:3:0:0:
409,207,164494,6,0,L|354:219,1,50,2|0,1:1|1:2,0:2:0:0:
409,207,165169,2,0,L|354:219,1,50,2|0,1:1|1:2,0:2:0:0:
409,207,165843,2,0,L|354:219,1,50,2|0,1:1|1:2,0:2:0:0:
409,207,166517,2,2,L|354:219,1,50,2|4,0:1|1:3,0:1:0:0:
