osu file format v14

[General]
AudioFilename: audio.mp3
AudioLeadIn: 0
PreviewTime:46401
Countdown: 0
SampleSet: Soft
StackLeniency: 0.4
Mode: 0
LetterboxInBreaks: 0
WidescreenStoryboard: 1

[Editor]
DistanceSpacing: 1.3
BeatDivisor: 4
GridSize: 32
TimelineZoom: 1.4

[Metadata]
Title:Hutao's Costume party!
TitleUnicode:Hutao's Costume party!
Artist:KKOMDA
ArtistUnicode:KKOMDA
Creator:Present
Version:sinn's -198 (Insane)
Source:原神
Tags:生人勿近 Genshin Impact げんしん 원신 Yu-Peng Chen @HOYO-MiX hoyo mix 陈致逸 let the living beware Video game Electronic Instrumental 陳致逸 ChenZhiyi 往生堂 Wangsheng Funeral Parlor Parlour 왕생당 fuutao fuu fu tao 胡桃 hutao hu 호두 theme thema キャラクターテーマ Character 角色主題曲 角色主题曲 캐릭터 테마 PV short ver. version Chinese musical instruments trap videogame AngelSnow Bellicose sinn Lanzhu Erisu any last words? 尽在吾辈 Broker Betwixt Life and Death 送往迎来 闪耀的群星2 The Stellar Moments Vol. 2
BeatmapID:3308928
BeatmapSetID:1619052

[Difficulty]
HPDrainRate:5
CircleSize:0
OverallDifficulty:7
ApproachRate:8.5
SliderMultiplier:1.46
SliderTickRate:2

[Events]
//Background and Video events
0,0,"32.jpg",0,0
Video,0,"1.KKOMDA_Hutao(Av763887541P1)_1.mp4"
//Break Periods
//Storyboard Layer 0 (Background)
//Storyboard Layer 1 (Fail)
//Storyboard Layer 2 (Pass)
//Storyboard Layer 3 (Foreground)
//Storyboard Layer 4 (Overlay)
//Storyboard Sound Samples

[TimingPoints]
10,483.870967741935,4,2,1,40,1,0
12590,-100,4,2,1,5,0,0
13316,-100,4,2,1,40,0,0
13558,-66.6666666666667,4,2,1,50,0,0
15493,-66.6666666666667,4,2,1,60,0,0
21300,-40,4,2,1,60,0,0
22026,-66.6666666666667,4,2,1,60,0,0
30977,-100,4,2,1,40,0,0
38719,-83.3333333333333,4,2,1,50,0,0
42590,-66.6666666666667,4,2,1,60,0,0
61703,-100,4,2,1,60,0,0
61945,-83.3333333333333,4,2,1,40,0,0
62429,-125,4,2,1,40,0,0
63759,-83.3333333333333,4,2,1,40,0,0

[Colours]
Combo1 : 255,255,96
Combo2 : 255,64,64
Combo3 : 255,128,64

[HitObjects]
19,47,10,6,0,B|165:22|165:22|199:175,1,292,2|2,0:0|0:0,0:0:0:0:
493,337,1945,2,0,B|347:362|347:362|313:209,1,292,2|2,0:0|0:0,0:0:0:0:
487,27,3155,1,0,0:0:0:0:
374,57,3276,1,0,0:0:0:0:
261,87,3397,2,0,L|146:52,1,109.5,2|0,0:0|0:0,0:0:0:0:
120,42,3880,5,10,0:2:0:0:
502,208,4364,1,2,0:0:0:0:
125,365,4848,2,0,L|116:329,1,36.5,2|0,0:0|0:0,0:0:0:0:
245,214,5090,2,0,L|227:286,1,73
90,220,5574,1,2,0:0:0:0:
470,63,5816,6,0,L|494:180,1,109.5,10|0,0:0|0:0,0:0:0:0:
502,208,6300,1,2,0:0:0:0:
110,91,6784,1,2,0:0:0:0:
313,150,7026,1,0,0:0:0:0:
254,353,7268,1,0,0:0:0:0:
51,294,7509,1,2,0:0:0:0:
243,14,7751,6,0,L|209:129,1,109.5,10|0,0:0|0:0,0:0:0:0:
203,157,8235,1,2,0:0:0:0:
460,349,8719,1,2,0:0:0:0:
372,87,8961,1,0,3:0:0:0:
347,201,9082,1,0,3:0:0:0:
322,315,9203,1,0,3:0:0:0:
137,198,9445,1,2,0:0:0:0:
372,87,9687,5,10,0:0:0:0:
151,330,9929,1,2,0:0:0:0:
48,18,10171,1,2,0:0:0:0:
256,192,10292,12,0,12590,0:0:0:0:
356,96,13316,5,2,0:0:0:0:
356,96,13437,1,2,0:0:0:0:
356,96,13558,2,0,P|323:113|306:142,1,54.7500020885468,10|0,0:0|0:0,0:0:0:0:
283,316,13800,2,0,P|284:278|268:249,1,54.7500020885468,2|0,0:0|0:0,0:0:0:0:
126,147,14042,2,0,P|157:167|190:167,1,54.7500020885468,10|0,0:0|0:0,0:0:0:0:
356,96,14284,2,0,P|323:113|306:142,1,54.7500020885468,2|0,0:0|0:0,0:0:0:0:
169,297,14526,5,14,1:2:0:0:
171,278,14647,1,0,0:0:0:0:
174,259,14768,1,2,0:0:0:0:
177,240,14889,1,0,0:0:0:0:
209,219,15009,5,10,0:0:0:0:
207,200,15130,1,0,0:0:0:0:
204,181,15251,1,2,0:0:0:0:
201,162,15372,1,0,0:0:0:0:
165,121,15493,5,10,1:2:0:0:
293,351,15735,1,2,0:0:0:0:
356,96,15977,1,10,0:0:0:0:
152,261,16219,1,2,0:0:0:0:
404,337,16461,6,0,L|411:310,6,27.3750010442734,10|0|0|0|0|0|0,3:2|3:0|3:0|3:0|3:0|3:0|3:0,0:0:0:0:
465,140,16945,2,0,P|408:159|384:210,1,109.500004177094,10|2,0:0|0:0,0:0:0:0:
169,53,17429,6,0,L|162:80,6,27.3750010442734,10|0|0|0|0|0|0,3:2|3:0|3:0|3:0|3:0|3:0|3:0,0:0:0:0:
113,251,17913,2,0,P|170:232|194:181,1,109.500004177094,10|2,0:0|0:0,0:0:0:0:
404,337,18397,2,0,L|411:310,6,27.3750010442734,10|0|0|0|0|0|0,3:2|3:0|3:0|3:0|3:0|3:0|3:0,0:0:0:0:
385,199,18880,5,10,0:0:0:0:
146,29,19364,2,0,L|173:36,6,27.3750010442734,10|0|0|0|0|0|0,3:2|3:0|3:0|3:0|3:0|3:0|3:0,0:0:0:0:
351,74,19848,2,0,P|296:85|255:130,1,109.500004177094,10|2,0:0|0:0,0:0:0:0:
387,334,20332,6,0,L|394:307,6,27.3750010442734,10|0|0|0|0|0|0,3:2|3:0|3:0|3:0|3:0|3:0|3:0,0:0:0:0:
385,199,20816,1,10,0:0:0:0:
29,21,21300,6,0,L|39:71,10,45.625,10|0|0|0|0|0|0|0|8|0|0,3:2|3:0|3:0|3:0|3:0|3:0|3:0|3:0|3:2|3:0|3:0,0:0:0:0:
23,242,22026,2,0,P|31:217|54:177,1,54.7500020885468,2|2,0:0|0:0,0:0:0:0:
146,99,22268,1,10,0:0:0:0:
278,22,22509,1,2,0:0:0:0:
428,55,22751,1,10,0:0:0:0:
462,205,22993,1,2,0:0:0:0:
390,353,23235,5,10,1:2:0:0:
178,252,23477,1,2,0:0:0:0:
372,121,23719,1,10,0:0:0:0:
286,369,23961,1,2,0:0:0:0:
150,144,24203,6,0,L|117:151,6,27.3750010442734,10|0|0|0|0|0|0,3:2|3:0|3:0|3:0|3:0|3:0|3:0,0:0:0:0:
0,302,24687,2,0,P|54:296|89:248,1,109.500004177094,10|2,0:0|0:0,0:0:0:0:
256,38,25171,6,0,L|263:71,6,27.3750010442734,10|0|0|0|0|0|0,3:2|3:0|3:0|3:0|3:0|3:0|3:0,0:0:0:0:
461,112,25655,2,0,P|407:118|372:166,1,109.500004177094,10|2,0:0|0:0,0:0:0:0:
190,348,26139,6,0,L|183:315,6,27.3750010442734,10|0|0|0|0|0|0,3:2|3:0|3:0|3:0|3:0|3:0|3:0,0:0:0:0:
54,265,26622,2,0,P|78:248|112:245,1,54.7500020885468,2|0,3:2|0:0,0:0:0:0:
210,214,26864,1,2,0:0:0:0:
222,160,26985,1,2,0:0:0:0:
232,106,27106,5,10,1:2:0:0:
448,144,27348,1,2,1:2:0:0:
402,358,27590,2,0,L|337:345,1,54.7500020885468,10|0,0:0|0:0,0:0:0:0:
132,303,27832,1,2,1:2:0:0:
186,46,28074,5,10,1:2:0:0:
402,358,28558,1,10,0:0:0:0:
61,119,28800,1,2,0:0:0:0:
169,89,28921,1,2,0:0:0:0:
277,58,29042,2,0,L|285:23,4,27.3750010442734,10|0|0|0|0,1:2|0:0|0:0|0:0|0:0,0:0:0:0:
45,343,30009,5,6,0:0:0:0:
486,194,30977,5,2,3:2:0:0:
384,145,31219,1,2,0:0:0:0:
384,145,31340,1,2,0:0:0:0:
384,145,31461,1,2,0:0:0:0:
335,247,31703,1,2,3:2:0:0:
442,346,31945,6,0,P|456:306|464:267,2,73,2|2|2,3:2|0:0|0:0,0:0:0:0:
335,247,32671,1,2,0:0:0:0:
218,333,32913,2,0,L|142:311,2,73,2|2|2,3:2|0:0|0:0,0:0:0:0:
335,247,33639,2,0,L|346:206,1,36.5,2|0,0:0|0:0,0:0:0:0:
247,110,33880,6,0,L|225:192,1,73,2|0,3:2|0:0,0:0:0:0:
234,223,34243,1,0,3:3:0:0:
234,223,34364,2,0,P|194:212|156:215,1,73,0|2,0:0|3:2,0:0:0:0:
133,231,34727,1,0,0:0:0:0:
133,231,34848,5,2,3:2:0:0:
22,204,35090,1,2,0:0:0:0:
22,204,35211,1,2,0:0:0:0:
22,204,35332,1,2,0:0:0:0:
45,78,35574,1,2,0:0:0:0:
188,47,35816,6,0,L|169:125,2,73,2|2|2,3:2|0:0|0:0,0:0:0:0:
45,78,36542,1,2,0:0:0:0:
111,208,36784,2,0,P|79:225|38:227,2,73,2|2|2,3:2|0:0|0:0,0:0:0:0:
45,78,37509,2,0,L|57:36,1,36.5,2|0,3:2|3:2,0:0:0:0:
188,47,37751,6,0,L|169:125,1,73,2|0,3:2|3:2,0:0:0:0:
223,223,38235,1,0,3:2:0:0:
353,34,38477,1,2,0:2:0:0:
353,34,38598,1,2,0:0:0:0:
353,34,38719,5,10,1:2:0:0:
450,74,38961,1,2,0:0:0:0:
499,167,39203,1,2,0:0:0:0:
488,272,39445,1,2,0:0:0:0:
429,359,39687,1,10,0:0:0:0:
325,372,39929,5,0,0:0:0:0:
499,167,40171,1,0,0:0:0:0:
280,120,40413,1,2,0:0:0:0:
280,120,40534,1,2,0:0:0:0:
280,120,40655,5,10,1:2:0:0:
353,34,40897,1,2,0:0:0:0:
405,46,41018,1,0,0:0:0:0:
450,74,41139,1,2,0:0:0:0:
499,167,41380,1,2,0:0:0:0:
488,272,41622,1,10,0:0:0:0:
429,359,41864,1,0,0:0:0:0:
353,34,42106,1,0,0:0:0:0:
353,34,42590,6,0,L|298:21,1,54.7500020885468,2|0,1:2|0:0,0:0:0:0:
101,109,42832,2,0,L|156:122,1,54.7500020885468,2|0,0:0|0:0,0:0:0:0:
341,240,43074,1,10,0:0:0:0:
348,216,43195,1,0,0:0:0:0:
254,160,43316,1,2,0:0:0:0:
247,184,43437,1,0,0:0:0:0:
161,252,43558,6,0,L|171:307,1,54.7500020885468,2|0,1:2|0:0,0:0:0:0:
348,216,43800,2,0,L|358:161,1,54.7500020885468,2|0,0:0|0:0,0:0:0:0:
210,27,44042,1,10,0:0:0:0:
186,20,44163,1,0,0:0:0:0:
130,114,44284,1,2,0:0:0:0:
154,121,44405,1,0,0:0:0:0:
254,165,44526,6,0,L|268:110,1,54.7500020885468,10|0,1:2|0:0,0:0:0:0:
31,311,44768,2,0,L|45:366,1,54.7500020885468,2|0,1:2|0:0,0:0:0:0:
340,282,45009,2,0,L|354:227,1,54.7500020885468,10|0,1:2|0:0,0:0:0:0:
81,41,45251,1,2,1:2:0:0:
109,158,45372,1,2,0:0:0:0:
137,275,45493,1,10,1:2:0:0:
484,41,45977,5,14,1:2:0:0:
0,128,46461,5,2,1:2:0:0:
196,31,46703,1,2,0:0:0:0:
293,227,46945,1,10,0:0:0:0:
97,324,47187,1,2,0:0:0:0:
211,137,47429,6,0,L|200:179,6,27.3750010442734,10|0|0|0|0|0|0,3:2|3:2|3:2|3:2|3:2|3:2|3:2,0:0:0:0:
2,153,47913,2,0,P|55:162|94:211,1,109.500004177094,10|2,0:0|0:0,0:0:0:0:
237,365,48397,6,0,L|248:323,6,27.3750010442734,10|0|0|0|0|0|0,3:2|3:0|3:0|3:0|3:0|3:0|3:0,0:0:0:0:
446,349,48881,2,0,P|393:340|354:291,1,109.500004177094,10|2,0:2|0:0,0:0:0:0:
328,83,49364,6,0,L|317:125,6,27.3750010442734,10|0|0|0|0|0|0,3:2|3:2|3:2|3:2|3:2|3:2|3:2,0:0:0:0:
135,166,49848,2,0,L|241:195,1,109.500004177094,10|0,0:0|0:0,0:0:0:0:
448,349,50332,5,10,0:0:0:0:
492,191,50574,1,10,0:0:0:0:
436,37,50816,1,10,0:0:0:0:
276,1,51058,1,10,0:0:0:0:
119,48,51300,1,10,0:0:0:0:
492,191,51784,1,2,0:0:0:0:
119,317,52268,5,10,1:2:0:0:
94,211,52509,1,2,0:0:0:0:
200,186,52751,1,10,0:0:0:0:
225,292,52993,1,2,0:0:0:0:
250,306,53235,5,10,1:2:0:0:
214,156,53477,1,2,0:0:0:0:
64,190,53719,1,10,0:0:0:0:
100,340,53960,1,2,0:0:0:0:
250,306,54203,5,10,1:2:0:0:
64,190,54445,1,2,0:0:0:0:
180,4,54687,1,10,0:0:0:0:
366,120,54929,1,2,0:0:0:0:
183,262,55171,6,0,L|172:304,6,27.3750010442734,10|0|0|0|0|0|0,3:2|3:0|3:0|3:0|3:0|3:0|3:0,0:0:0:0:
29,159,55655,2,0,P|83:175|137:153,1,109.500004177094,10|2,0:0|0:0,0:0:0:0:
321,46,56139,6,0,L|332:4,6,27.3750010442734,10|0|0|0|0|0|0,3:2|3:0|3:0|3:0|3:0|3:0|3:0,0:0:0:0:
475,149,56623,2,0,P|421:133|367:155,1,109.500004177094,10|2,0:0|0:0,0:0:0:0:
202,295,57106,6,0,L|160:284,6,27.3750010442734,10|0|0|0|0|0|0,3:2|3:0|3:0|3:0|3:0|3:0|3:0,0:0:0:0:
87,150,57590,2,0,L|195:183,1,109.500004177094,10|0,0:0|0:0,0:0:0:0:
442,115,58074,6,0,P|413:107|384:113,1,54.7500020885468,10|0,1:2|0:0,0:0:0:0:
320,211,58316,2,0,P|293:225|277:250,1,54.7500020885468,2|0,1:2|0:0,0:0:0:0:
318,363,58558,1,10,0:0:0:0:
442,115,58800,6,0,P|412:112|384:123,1,54.7500020885468,2|0,1:2|0:0,0:0:0:0:
320,211,59042,2,0,P|296:230|285:257,1,54.7500020885468,10|0,1:2|0:0,0:0:0:0:
48,280,59526,1,10,3:2:0:0:
72,290,59647,1,2,3:2:0:0:
97,301,59768,1,2,3:2:0:0:
123,311,59889,1,2,3:2:0:0:
130,354,60009,6,0,L|73:335,1,54.7500020885468,10|0,1:2|0:0,0:0:0:0:
66,216,60251,2,0,L|39:162,1,54.7500020885468,2|0,1:2|0:0,0:0:0:0:
112,64,60493,1,10,0:0:0:0:
130,354,60735,6,0,L|77:325,1,54.7500020885468,2|0,1:2|0:0,0:0:0:0:
66,216,60977,2,0,L|48:158,1,54.7500020885468,10|0,1:2|0:0,0:0:0:0:
382,9,61703,2,0,L|400:67,1,36.5,2|2,0:0|0:0,0:0:0:0:
461,131,61945,6,0,L|440:222,1,87.5999973266602,10|2,3:2|3:2,0:0:0:0:
322,185,62429,2,0,L|308:241,1,58.4,10|2,3:2|3:2,0:0:0:0:
198,188,62913,5,10,3:2:0:0:
508,25,63397,1,10,0:0:0:0:
461,131,63759,2,0,L|468:156,2,21.8999993316651,2|2|10,0:0|0:0|0:0,0:0:0:0:
19,47,64848,5,2,0:0:0:0:
