osu file format v14

[General]
AudioFilename: audio.mp3
AudioLeadIn: 0
PreviewTime: 172837
Countdown: 0
SampleSet: Soft
StackLeniency: 0.5
Mode: 0
LetterboxInBreaks: 0
WidescreenStoryboard: 1

[Editor]
DistanceSpacing: 1.4
BeatDivisor: 4
GridSize: 4
TimelineZoom: 2.599999

[Metadata]
Title:Hidamari no Uta remake ver.
TitleUnicode:陽だまりの詩 remake ver.
Artist:KK
ArtistUnicode:KK
Creator:Abelia
Version:Bitter Coffee
Source:
Tags:初音ミク ゆよゆっぺ けけ Yuyoyuppe Hatsune Miku Utaite vocaloid Ken Kamikita
BeatmapID:2008536
BeatmapSetID:441758

[Difficulty]
HPDrainRate:5.5
CircleSize:4
OverallDifficulty:7.6
ApproachRate:8.6
SliderMultiplier:1.9
SliderTickRate:2

[Events]
//Background and Video events
0,0,"63967458_p0.jpg",0,0
//Break Periods
2,53699,55235
2,88993,91081
2,96051,97809
2,110169,111706
2,141934,143581
2,249381,251779
//Storyboard Layer 0 (Background)
//Storyboard Layer 1 (Fail)
//Storyboard Layer 2 (Pass)
//Storyboard Layer 3 (Foreground)
//Storyboard Layer 4 (Overlay)
//Storyboard Sound Samples

[TimingPoints]
558,441.176470588235,4,2,1,43,1,0
558,-117.647058823529,4,2,1,30,0,0
14675,-109.89010989011,4,2,1,35,0,0
28793,-100,4,2,1,43,0,0
31330,-100,4,2,1,30,0,0
31440,-100,4,2,1,43,0,0
34859,-100,4,2,1,30,0,0
34969,-100,4,2,1,43,0,0
38388,-100,4,2,1,30,0,0
38499,-100,4,2,1,43,0,0
41918,-100,4,2,1,30,0,0
42028,-100,4,2,1,43,0,0
45447,-100,4,2,1,30,0,0
45557,-100,4,2,1,43,0,0
48977,-100,4,2,1,30,0,0
49087,-100,4,2,1,43,0,0
52506,-100,4,2,1,30,0,0
52616,-100,4,2,1,43,0,0
53499,-133.333333333333,4,2,1,43,0,0
55925,-66.6666666666667,4,2,1,70,0,0
56587,-135.135135135135,4,2,1,70,0,0
56918,-135.135135135135,4,2,1,25,0,0
57028,-84.7457627118644,4,2,1,70,0,0
85263,-116.279069767442,4,2,1,56,0,0
91771,-116.279069767442,4,2,1,34,0,0
91881,-116.279069767442,4,2,1,56,0,0
112396,-84.7457627118644,4,2,1,70,0,0
113057,-135.135135135135,4,2,1,70,0,0
113388,-135.135135135135,4,2,1,25,0,0
113499,-84.7457627118644,4,2,1,70,0,0
141734,-84.7457627118644,4,2,1,70,0,0
144271,-84.7457627118644,4,2,1,19,0,0
144381,-84.7457627118644,4,2,1,56,0,0
145263,-108.695652173913,4,2,1,56,0,0
159381,-97.0873786407767,4,2,1,62,0,0
160925,-83.3333333333333,4,2,1,62,0,0
161587,-83.3333333333333,4,2,1,62,0,0
162469,-114.942528735632,4,2,1,62,0,0
163131,-86.9565217391304,4,2,1,62,0,0
163793,-97.0873786407767,4,2,1,62,0,0
166219,-104.166666666667,4,2,1,62,0,0
166440,-81.9672131147541,4,2,1,62,0,0
167322,-93.4579439252336,4,2,1,62,0,0
169969,-91.743119266055,4,2,1,62,0,0
173499,-128.205128205128,4,2,1,39,0,0
173940,-128.205128205128,4,2,1,14,0,0
174381,-128.205128205128,4,2,1,39,0,0
175263,-128.205128205128,4,2,1,14,0,0
175705,-128.205128205128,4,2,1,39,0,0
176587,-128.205128205128,4,2,1,14,0,0
177028,-128.205128205128,4,2,1,39,0,0
177910,-128.205128205128,4,2,1,14,0,0
178352,-128.205128205128,4,2,1,39,0,0
179234,-128.205128205128,4,2,1,14,0,0
179675,-128.205128205128,4,2,1,39,0,0
180557,-128.205128205128,4,2,1,14,0,0
180999,-128.205128205128,4,2,1,39,0,0
181881,-128.205128205128,4,2,1,14,0,0
182322,-128.205128205128,4,2,1,39,0,0
183205,-128.205128205128,4,2,1,14,0,0
183646,-128.205128205128,4,2,1,40,0,0
184528,-128.205128205128,4,2,1,28,0,0
184969,-128.205128205128,4,2,1,40,0,0
185852,-128.205128205128,4,2,1,28,0,0
186293,-128.205128205128,4,2,1,40,0,0
188499,-128.205128205128,4,2,1,28,0,0
188940,-128.205128205128,4,2,1,40,0,0
189822,-128.205128205128,4,2,1,28,0,0
190263,-128.205128205128,4,2,1,40,0,0
191146,-128.205128205128,4,2,1,28,0,0
191587,-128.205128205128,4,2,1,40,0,0
193793,-128.205128205128,4,2,1,34,0,0
194234,-128.205128205128,4,2,1,40,0,0
195778,-128.205128205128,4,2,1,59,0,0
196440,-90.9090909090909,4,2,1,70,0,0
224675,-161.290322580645,4,2,1,30,0,0
252469,-161.290322580645,4,2,1,70,0,0
252910,-84.7457627118644,4,2,1,70,0,0
281146,-84.7457627118644,4,2,1,70,0,0
295263,-80,4,2,1,58,0,1
309381,-125,4,2,1,30,0,0
309822,-125,4,2,1,30,0,0
322175,-135.135135135135,4,2,1,30,0,0
322616,-147.058823529412,4,2,1,30,0,0
323499,-147.058823529412,4,2,1,25,0,0
323940,-147.058823529412,4,2,1,20,0,0
324381,-147.058823529412,4,2,1,17,0,0

[Colours]
Combo1 : 128,255,0
Combo2 : 74,74,255
Combo3 : 255,91,255
Combo4 : 255,49,49
Combo5 : 213,213,0

[HitObjects]
305,51,558,6,0,B|292:97|261:118|261:118|267:157|252:196,1,161.500003080368,2|0,0:0|0:0,0:0:0:0:
161,332,1440,2,0,P|158:291|155:251,1,80.750001540184,2|0,0:0|0:0,0:0:0:0:
105,173,1881,1,2,0:0:0:0:
105,173,2322,6,0,P|132:143|155:109,1,80.750001540184,2|0,0:0|0:0,0:0:0:0:
247,31,2763,2,0,P|250:71|252:111,1,80.750001540184,2|0,0:0|0:0,0:0:0:0:
215,200,3205,1,2,0:0:0:0:
276,273,3425,2,0,P|315:264|355:262,1,80.750001540184,2|2,0:0|0:0,0:0:0:0:
501,217,4087,6,0,P|516:289|447:316,1,161.500003080368,2|0,0:0|0:0,0:0:0:0:
337,233,4969,2,0,P|349:153|360:73,1,161.500003080368,2|0,0:0|0:0,0:0:0:0:
359,73,5852,6,0,P|319:82|282:98,1,80.750001540184,2|0,0:0|0:0,0:0:0:0:
196,53,6293,2,0,P|190:93|184:133,1,80.750001540184,2|0,0:0|0:0,0:0:0:0:
171,224,6734,1,2,0:0:0:0:
94,164,6955,2,0,P|85:124|69:87,1,80.750001540184,2|2,0:0|0:0,0:0:0:0:
69,87,7616,6,0,P|58:167|49:247,1,161.500003080368,2|0,0:0|0:0,0:0:0:0:
159,339,8499,2,0,P|153:299|147:259,1,80.750001540184,2|0,0:0|0:0,0:0:0:0:
209,188,8940,1,2,0:0:0:0:
209,188,9381,6,0,P|248:195|279:220,1,80.750001540184,2|0,0:0|0:0,0:0:0:0:
271,317,9822,2,0,P|311:311|351:305,1,80.750001540184,2|0,0:0|0:0,0:0:0:0:
439,345,10263,1,2,0:0:0:0:
512,281,10484,2,0,P|506:241|500:201,1,80.750001540184,2|2,0:0|0:0,0:0:0:0:
382,49,11146,6,0,P|378:129|372:210,1,161.500003080368,2|0,0:0|0:0,0:0:0:0:
310,333,12028,2,0,P|237:313|237:238,1,161.500003080368,2|0,0:0|0:0,0:0:0:0:
236,238,12910,6,0,P|276:242|316:245,1,80.750001540184,2|0,0:0|0:0,0:0:0:0:
220,141,13352,2,0,P|180:146|156:177,1,80.750001540184,2|0,0:0|0:0,0:0:0:0:
147,270,13793,1,2,0:0:0:0:
70,206,14013,2,0,P|62:166|56:126,2,80.750001540184,2|2|2,0:0|0:0|0:0,0:0:0:0:
147,270,14675,6,0,P|159:184|176:99,1,172.900005804138,2|0,0:0|0:0,0:0:0:0:
317,1,15557,2,0,P|322:87|333:173,1,172.900005804138,2|0,0:0|0:0,0:0:0:0:
479,240,16440,6,0,B|476:281|476:281|457:322,1,86.4500029020692,2|0,0:0|0:0,0:0:0:0:
363,384,16881,2,0,P|322:369|280:357,1,86.4500029020692,2|0,0:0|0:0,0:0:0:0:
183,384,17322,1,2,0:0:0:0:
89,345,17543,2,0,P|98:302|104:259,1,86.4500029020692,2|2,0:0|0:0,0:0:0:0:
0,87,18205,6,0,P|82:61|161:26,2,172.900005804138,2|0|2,0:0|0:0|0:0,0:0:0:0:
121,194,19528,1,2,0:0:0:0:
54,368,19969,6,0,P|95:355|138:345,1,86.4500029020692,2|0,0:0|0:0,0:0:0:0:
199,267,20410,2,0,P|240:280|283:290,1,86.4500029020692,2|0,0:0|0:0,0:0:0:0:
373,268,20852,1,2,0:0:0:0:
463,295,21072,2,0,P|452:336|445:380,1,86.4500029020692,2|2,0:0|0:0,0:0:0:0:
306,196,21734,6,0,P|382:156|453:107,1,172.900005804138,2|0,0:0|0:0,0:0:0:0:
219,0,22616,2,0,P|209:85|191:170,1,172.900005804138,2|0,0:0|0:0,0:0:0:0:
30,183,23499,6,0,P|25:140|16:97,1,86.4500029020692,2|0,0:0|0:0,0:0:0:0:
126,36,23940,2,0,P|116:78|112:121,1,86.4500029020692,2|0,0:0|0:0,0:0:0:0:
191,170,24381,1,2,0:0:0:0:
242,89,24602,2,0,B|272:120|272:120|309:140,1,86.4500029020692,2|2,0:0|0:0,0:0:0:0:
395,167,25043,1,2,0:0:0:0:
473,67,25263,6,0,P|482:152|500:237,1,172.900005804138,2|0,0:0|0:0,0:0:0:0:
330,336,26146,2,0,P|348:251|357:165,1,172.900005804138,2|0,0:0|0:0,0:0:0:0:
202,49,27028,6,0,P|211:134|229:219,2,172.900005804138,2|2|2,0:0|0:0|0:0,0:0:0:0:
324,36,28131,2,0,P|307:29|293:25,3,28.8166676340231,2|0|0|4,0:0|0:0|0:0|0:0,0:0:0:0:
34,122,28793,6,0,B|138:84|106:184|211:135,1,190,2|0,1:2|0:0,0:0:0:0:
384,82,29675,2,0,B|354:80|323:74|323:74|321:133|306:200,1,190,10|0,0:0|0:0,0:0:0:0:
250,263,30337,1,2,1:2:0:0:
173,297,30557,6,0,P|158:203|151:109,1,190,2|0,1:2|0:0,0:0:0:0:
157,322,31330,1,8,0:0:0:0:
173,297,31440,2,0,B|222:286|264:311|264:311|280:261|325:242,1,190,10|0,0:0|0:0,0:0:0:0:
492,311,32322,6,0,P|477:217|470:123,1,190,2|0,1:2|0:0,0:0:0:0:
295,50,33205,2,0,B|324:46|352:29|352:29|334:85|325:154,1,190,10|0,0:0|0:0,0:0:0:0:
389,246,33866,1,2,1:2:0:0:
347,343,34087,2,0,P|253:325|159:315,1,190,2|0,1:2|0:0,0:0:0:0:
393,269,34859,1,8,0:0:0:0:
415,287,34969,1,10,0:0:0:0:
228,357,35410,1,10,0:0:0:0:
428,313,35852,6,0,B|437:244|455:188|455:188|432:170|418:138,1,190,2|0,1:2|0:0,0:0:0:0:
508,7,36734,2,0,B|526:27|526:27|444:43|370:0,1,190,10|0,0:0|0:0,0:0:0:0:
322,116,37396,1,2,1:2:0:0:
203,15,37616,5,2,1:2:0:0:
322,116,38057,2,0,P|275:127|229:137,1,95,2|0,0:0|0:0,0:0:0:0:
159,189,38388,1,8,0:0:0:0:
145,223,38499,2,0,B|140:207|127:190|127:190|145:146|146:87,1,142.5,10|0,0:0|0:0,0:0:0:0:
125,16,38940,1,2,0:0:0:0:
8,93,39160,1,2,0:0:0:0:
49,271,39381,6,0,P|109:339|200:319,1,190,2|0,1:2|0:0,0:0:0:0:
349,371,40263,2,0,B|363:339|386:321|386:321|368:265|359:196,1,190,10|0,0:0|0:0,0:0:0:0:
387,113,40925,1,2,1:2:0:0:
251,68,41146,6,0,P|299:51|343:33,1,95,2|0,1:2|0:0,0:0:0:0:
269,175,41587,2,0,P|198:163|127:155,1,142.5,2|8,0:0|0:0,0:0:0:0:
79,191,42028,2,0,P|67:144|54:99,1,95,10|0,0:0|1:2,0:0:0:0:
176,0,42469,1,8,0:0:0:0:
251,68,42690,1,0,1:2:0:0:
191,209,42910,6,0,P|242:283|332:274,1,190,6|0,1:2|0:0,0:0:0:0:
278,161,43793,1,10,0:0:0:0:
434,228,44124,1,10,0:0:0:0:
404,37,44455,1,2,1:2:0:0:
483,24,44675,5,2,1:2:0:0:
370,152,45116,1,2,0:0:0:0:
205,54,45447,1,8,0:0:0:0:
238,47,45557,5,10,0:0:0:0:
270,236,45999,1,10,0:0:0:0:
92,123,46440,5,2,1:2:0:0:
73,147,47322,1,10,0:0:0:0:
241,196,47653,1,10,0:0:0:0:
160,347,47984,1,2,1:2:0:0:
238,324,48205,5,2,1:2:0:0:
266,172,48646,1,2,0:0:0:0:
353,367,48977,1,8,0:0:0:0:
322,373,49087,5,10,0:0:0:0:
469,233,49528,1,10,0:0:0:0:
309,86,49969,5,2,1:2:0:0:
338,77,50852,1,10,0:0:0:0:
186,17,51182,1,10,0:0:0:0:
46,136,51513,1,2,1:2:0:0:
124,115,51734,5,2,1:2:0:0:
172,268,52175,1,2,0:0:0:0:
25,365,52506,1,8,0:0:0:0:
42,338,52616,5,10,0:0:0:0:
197,384,53057,1,10,0:0:0:0:
256,255,53278,1,2,1:2:0:0:
218,160,53499,5,2,1:2:0:0:
135,235,55925,6,0,L|141:329,1,71.2500027179719,0|0,1:2|1:2,0:0:0:0:
217,291,56146,2,0,L|221:243,2,47.5000018119813,0|0|0,1:2|1:2|1:2,0:0:0:0:
228,309,56366,1,0,1:2:0:0:
269,307,56440,1,0,1:2:0:0:
303,289,56513,1,0,1:2:0:0:
321,255,56587,2,0,L|330:150,1,105.450002574463,8|0,0:0|0:0,0:0:0:0:
402,101,57028,6,0,P|291:117|179:127,1,224.199992131653,6|0,1:2|0:0,0:0:0:0:
84,12,57690,1,2,1:2:0:0:
195,260,57910,2,0,P|107:306|71:213,1,224.199992131653,10|0,0:0|0:0,0:0:0:0:
198,16,58572,6,0,P|190:71|179:126,1,112.099996065827,2|0,1:2|0:0,0:0:0:0:
31,350,59013,2,0,P|141:330|252:317,1,224.199992131653,2|0,1:2|1:2,0:0:0:0:
329,320,59565,1,0,1:2:0:0:
319,358,59675,1,10,0:0:0:0:
291,164,59896,1,0,1:2:0:0:
452,371,60116,2,0,P|460:287|471:203,1,168.14999409874,10|0,0:0|0:0,0:0:0:0:
500,282,60557,6,0,P|486:170|466:60,1,224.199992131653,2|0,1:2|0:0,0:0:0:0:
317,10,61219,1,2,1:2:0:0:
369,186,61440,2,0,B|328:203|311:233|311:233|239:206|165:221,1,224.199992131653,10|0,0:0|0:0,0:0:0:0:
39,91,62102,6,0,P|75:50|130:45,1,112.099996065827,2|0,1:2|0:0,0:0:0:0:
166,221,62543,2,0,P|151:274|133:327,1,112.099996065827,2|0,1:2|0:0,0:0:0:0:
133,328,63205,1,10,0:0:0:0:
107,149,63425,1,0,1:2:0:0:
340,211,63646,1,10,0:0:0:0:
9,115,64087,6,0,B|132:72|90:169|223:119,1,224.199992131653,2|0,1:2|0:0,0:0:0:0:
351,1,64749,1,2,1:2:0:0:
198,35,64969,2,0,B|237:45|269:46|269:46|246:116|243:195,1,224.199992131653,10|0,0:0|0:0,0:0:0:0:
173,362,65631,6,0,P|227:348|282:338,1,112.099996065827,2|0,1:2|0:0,0:0:0:0:
487,374,66072,2,0,B|448:364|416:363|416:363|439:293|442:214,1,224.199992131653,2|0,1:2|1:2,0:0:0:0:
451,136,66624,1,0,1:2:0:0:
492,153,66734,1,10,0:0:0:0:
309,186,66955,1,0,1:2:0:0:
209,5,67175,2,0,P|195:88|179:170,1,168.14999409874,10|0,0:0|0:0,0:0:0:0:
234,246,67616,6,0,P|179:335|78:306,1,224.199992131653,2|0,1:2|0:0,0:0:0:0:
42,140,68278,2,0,P|68:131|95:123,1,56.0499980329133,2|0,1:2|0:0,0:0:0:0:
234,246,68499,2,0,B|285:272|343:260|343:260|372:315|426:329,1,224.199992131653,10|0,0:0|0:0,0:0:0:0:
475,174,69160,6,0,P|460:119|450:64,1,112.099996065827,2|0,1:2|0:0,0:0:0:0:
287,160,69602,1,2,1:2:0:0:
450,64,69822,1,2,1:2:0:0:
255,42,70043,1,0,1:2:0:0:
292,60,70153,1,0,1:2:0:0:
332,65,70263,1,10,0:0:0:0:
152,95,70484,1,2,1:2:0:0:
370,54,70705,1,10,0:0:0:0:
332,65,70815,1,8,0:0:0:0:
306,98,70925,1,8,0:0:0:0:
297,139,71035,1,8,0:0:0:0:
308,179,71146,6,0,B|355:175|389:160|389:160|431:199|431:199|465:187|512:181,1,224.199992131653,6|0,1:2|0:0,0:0:0:0:
472,48,71807,1,2,1:2:0:0:
370,268,72028,2,0,P|474:278|512:181,1,224.199992131653,10|0,0:0|0:0,0:0:0:0:
303,71,72690,2,0,B|321:121|321:121|307:178,1,112.099996065827,2|0,1:2|0:0,0:0:0:0:
330,355,73131,6,0,P|218:337|107:326,1,224.199992131653,2|0,1:2|1:2,0:0:0:0:
26,315,73682,1,0,1:2:0:0:
32,359,73793,1,10,0:0:0:0:
78,169,74013,1,0,1:2:0:0:
107,326,74234,2,0,P|189:312|273:304,1,168.14999409874,10|0,0:0|0:0,0:0:0:0:
350,357,74675,6,0,P|453:340|466:237,1,224.199992131653,2|0,1:2|0:0,0:0:0:0:
512,46,75337,1,2,1:2:0:0:
366,252,75557,2,0,B|355:208|354:169|354:169|303:144|303:144|302:108|291:62,1,224.199992131653,10|0,0:0|0:0,0:0:0:0:
116,0,76219,6,0,P|109:55|100:110,1,112.099996065827,2|0,1:2|0:0,0:0:0:0:
263,233,76660,2,0,P|225:272|170:276,1,112.099996065827,2|0,1:2|1:2,0:0:0:0:
99,110,77322,1,10,0:0:0:0:
263,233,77543,1,0,1:2:0:0:
235,0,77763,1,10,0:0:0:0:
512,57,78205,6,0,B|376:56|461:147|313:137,1,224.199992131653,2|0,1:2|0:0,0:0:0:0:
235,0,78866,1,2,1:2:0:0:
184,190,79087,2,0,B|238:205|269:259|269:259|325:244|377:270,1,224.199992131653,10|0,0:0|0:0,0:0:0:0:
346,29,79749,6,0,P|332:83|315:137,1,112.099996065827,2|0,1:2|0:0,0:0:0:0:
494,256,80190,2,0,P|481:359|378:376,1,224.199992131653,2|0,1:2|1:2,0:0:0:0:
335,308,80741,1,0,1:2:0:0:
377,298,80852,1,10,0:0:0:0:
200,250,81072,1,0,1:2:0:0:
247,60,81293,2,0,P|165:81|82:96,1,168.14999409874,10|0,0:0|0:0,0:0:0:0:
60,58,81734,6,0,P|172:76|283:87,1,224.199992131653,2|0,1:2|0:0,0:0:0:0:
504,92,82396,1,2,1:2:0:0:
470,65,82506,1,0,1:2:0:0:
449,27,82616,2,0,B|454:101|418:169|418:169|446:190|458:233,1,224.199992131653,10|0,0:0|0:0,0:0:0:0:
349,381,83278,6,0,P|356:325|359:269,1,112.099996065827,2|0,1:2|0:0,0:0:0:0:
209,162,83719,1,2,1:2:0:0:
255,306,83940,1,2,1:2:0:0:
325,104,84160,2,0,P|330:117|335:131,2,28.0249990164566,0|0|0,1:2|0:0|1:2,0:0:0:0:
296,71,84381,1,10,0:0:0:0:
242,230,84602,1,0,1:2:0:0:
475,271,84822,1,10,0:0:0:0:
473,318,84932,1,8,0:0:0:0:
443,358,85042,1,8,0:0:0:0:
398,381,85152,1,8,0:0:0:0:
349,380,85263,6,0,P|356:297|361:216,1,163.400002493286,6|2,1:2|0:0,0:0:0:0:
320,101,85925,1,2,1:2:0:0:
463,182,86146,1,8,0:0:0:0:
463,182,86587,1,2,0:0:0:0:
418,60,86807,1,2,1:2:0:0:
360,217,87028,6,0,B|318:210|278:205|278:205|242:187|203:175,1,163.400002493286,2|2,1:2|0:0,0:0:0:0:
149,66,87690,2,0,P|189:62|230:56,1,81.7000012466431,2|8,0:0|0:0,0:0:0:0:
193,204,88352,2,0,P|146:266|67:263,1,163.400002493286,10|4,0:0|1:2,0:0:0:0:
67,262,91771,5,2,0:0:0:0:
46,296,91881,1,10,0:0:0:0:
88,146,92102,1,2,0:0:0:0:
12,316,92322,6,0,P|93:332|172:349,1,163.400002493286,0|2,1:2|0:0,0:0:0:0:
292,384,92984,1,2,1:2:0:0:
199,244,93205,1,8,0:0:0:0:
199,244,93646,1,2,0:0:0:0:
171,349,93866,1,2,1:2:0:0:
320,278,94087,6,0,P|325:198|282:131,1,163.400002493286,2|0,1:2|0:0,0:0:0:0:
185,10,94749,2,0,P|181:50|175:91,1,81.7000012466431,2|8,1:2|0:0,0:0:0:0:
352,176,95410,2,0,B|389:162|421:166|421:166|439:155|439:155|473:158|510:145,1,163.400002493286,2|4,1:2|0:0,0:0:0:0:
510,145,98499,5,8,0:0:0:0:
323,58,98719,1,0,1:2:0:0:
390,294,98940,2,0,P|393:232|396:171,1,122.550001869965,10|0,0:0|0:0,0:0:0:0:
442,116,99381,6,0,B|394:117|353:133|385:155|344:173|295:174,1,163.400002493286,0|2,1:2|0:0,0:0:0:0:
232,55,100043,1,2,1:2:0:0:
183,161,100263,2,0,P|176:242|168:323,1,163.400002493286,8|2,0:0|0:0,0:0:0:0:
41,354,100925,1,2,1:2:0:0:
80,195,101146,6,0,P|83:235|87:276,1,81.7000012466431,2|0,1:2|0:0,0:0:0:0:
168,323,101587,1,2,0:0:0:0:
225,228,101807,1,2,0:0:0:0:
244,384,102028,2,0,B|313:374|313:374|334:379|334:379|405:369,1,163.400002493286,10|10,0:0|0:0,0:0:0:0:
405,369,102690,1,2,0:0:0:0:
512,264,102910,6,0,B|442:254|442:254|421:259|421:259|350:249,1,163.400002493286,2|2,1:2|0:0,0:0:0:0:
236,308,103572,2,0,P|229:267|224:227,1,81.7000012466431,2|8,1:2|0:0,0:0:0:0:
224,227,104234,1,2,0:0:0:0:
143,328,104455,1,2,1:2:0:0:
247,203,104675,6,0,P|235:122|228:40,1,163.400002493286,2|2,1:2|0:0,0:0:0:0:
121,0,105337,1,2,0:0:0:0:
263,22,105557,2,0,P|237:96|160:108,1,163.400002493286,10|10,0:0|0:0,0:0:0:0:
160,108,106219,1,2,0:0:0:0:
42,42,106440,6,0,P|35:123|23:204,1,163.400002493286,2|2,1:2|0:0,0:0:0:0:
73,344,107102,2,0,P|117:279|194:288,1,163.400002493286,2|0,1:2|0:0,0:0:0:0:
241,379,107763,1,2,0:0:0:0:
345,361,107984,6,0,P|333:280|326:198,1,163.400002493286,2|0,1:2|0:0,0:0:0:0:
359,85,108646,1,2,0:0:0:0:
425,196,108866,1,2,1:2:0:0:
261,112,109087,2,0,B|220:124|181:135|181:135|146:157|111:175,1,163.400002493286,8|2,0:0|1:2,0:0:0:0:
48,37,109749,2,0,P|44:77|38:118,1,81.7000012466431,2|4,0:0|1:2,0:0:0:0:
153,134,112396,6,0,P|180:140|207:145,1,56.0499980329133,0|0,1:2|1:2,0:0:0:0:
371,95,112616,1,8,0:0:0:0:
206,328,112837,1,0,1:2:0:0:
35,46,113057,2,0,P|45:97|54:149,1,105.450002574463,10|0,0:0|0:0,0:0:0:0:
21,268,113499,6,0,P|131:246|242:230,1,224.199992131653,6|2,1:2|0:0,0:0:0:0:
413,327,114160,1,2,1:2:0:0:
227,42,114381,2,0,B|273:163|320:69|367:203,1,224.199992131653,10|2,0:0|0:0,0:0:0:0:
227,341,115043,6,0,P|235:285|241:229,1,112.099996065827,2|0,1:2|0:0,0:0:0:0:
62,22,115484,2,0,P|67:77|76:133,1,112.099996065827,2|2,1:2|0:0,0:0:0:0:
358,132,115925,1,2,1:2:0:0:
293,161,116035,1,0,1:2:0:0:
223,149,116146,1,10,0:0:0:0:
473,200,116366,1,2,1:2:0:0:
296,0,116587,2,0,B|256:22|242:58|242:58|196:56|159:82,1,168.14999409874,10|0,0:0|0:0,0:0:0:0:
13,12,117028,6,0,B|52:22|84:23|84:23|61:93|58:172,1,224.199992131653,2|2,1:2|0:0,0:0:0:0:
241,262,117690,1,2,1:2:0:0:
241,262,117910,2,0,B|187:282|163:336|163:336|100:322|55:359,1,224.199992131653,10|2,0:0|0:0,0:0:0:0:
288,155,118572,6,0,P|232:162|176:168,1,112.099996065827,2|0,1:2|0:0,0:0:0:0:
280,369,119013,1,2,1:2:0:0:
406,125,119234,2,0,P|395:180|386:235,1,112.099996065827,2|0,1:2|0:0,0:0:0:0:
470,348,119675,1,10,0:0:0:0:
318,12,119896,2,0,P|321:39|326:67,1,56.0499980329133,2|0,1:2|0:0,0:0:0:0:
512,233,120116,1,10,0:0:0:0:
512,233,120557,6,0,B|465:245|429:243|429:243|403:294|403:294|367:294|321:304,1,224.199992131653,2|2,1:2|0:0,0:0:0:0:
221,112,121219,1,2,1:2:0:0:
179,361,121440,2,0,P|192:306|203:251,1,112.099996065827,10|0,0:0|0:0,0:0:0:0:
341,170,121881,1,2,0:0:0:0:
78,20,122102,6,2,B|71:64|54:88|54:88|109:138|96:226,1,224.199992131653,2|2,1:2|1:2,0:0:0:0:
1,368,122763,1,2,1:2:0:0:
244,158,122984,1,2,1:2:0:0:
192,207,123095,1,0,1:2:0:0:
178,277,123205,1,10,0:0:0:0:
78,20,123425,1,2,1:2:0:0:
331,140,123646,2,0,B|353:115|357:89|357:89|412:96|453:44,1,168.14999409874,10|0,0:0|0:0,0:0:0:0:
510,142,124087,6,0,B|508:286|428:187|425:336,1,224.199992131653,2|2,1:2|0:0,0:0:0:0:
209,275,124749,1,2,1:2:0:0:
269,315,124859,1,0,1:2:0:0:
290,384,124969,2,0,P|281:272|267:161,1,224.199992131653,10|2,0:0|0:0,0:0:0:0:
452,44,125631,6,0,P|396:34|342:22,1,112.099996065827,2|0,1:2|0:0,0:0:0:0:
164,175,126072,1,2,1:2:0:0:
21,0,126293,1,2,1:2:0:0:
49,280,126513,1,2,1:2:0:0:
83,214,126624,1,0,1:2:0:0:
81,143,126734,1,10,0:0:0:0:
198,366,126955,1,2,1:2:0:0:
196,38,127175,1,10,0:0:0:0:
162,103,127286,1,8,0:0:0:0:
164,175,127396,1,8,0:0:0:0:
206,234,127506,1,8,0:0:0:0:
273,263,127616,6,0,P|381:226|487:198,1,224.199992131653,6|2,1:2|0:0,0:0:0:0:
407,332,128278,1,2,1:2:0:0:
317,64,128499,2,0,B|285:48|260:19|260:19|260:89|244:170,1,224.199992131653,10|2,0:0|0:0,0:0:0:0:
112,329,129160,6,0,B|102:271|56:234|56:234|77:176|57:124,1,224.199992131653,2|2,1:2|1:2,0:0:0:0:
159,3,129822,1,2,0:0:0:0:
163,203,130043,1,2,1:2:0:0:
234,203,130153,1,0,1:2:0:0:
299,173,130264,1,8,0:0:0:0:
43,22,130484,1,2,1:2:0:0:
112,329,130705,2,0,B|197:338|197:338|220:376|263:384,1,168.14999409874,10|0,0:0|0:0,0:0:0:0:
328,287,131146,6,0,B|232:298|232:298|206:317|206:317|111:329,1,224.199992131653,2|2,1:2|0:0,0:0:0:0:
375,383,131807,1,2,1:2:0:0:
164,221,132028,2,0,P|184:110|200:0,1,224.199992131653,10|2,0:0|0:0,0:0:0:0:
410,184,132690,6,0,P|418:239|428:294,1,112.099996065827,2|0,1:2|0:0,0:0:0:0:
263,319,133131,1,2,1:2:0:0:
441,87,133352,2,0,P|490:108|502:160,1,112.099996065827,2|0,1:2|0:0,0:0:0:0:
486,379,133793,1,10,0:0:0:0:
325,91,134013,1,2,1:2:0:0:
48,273,134234,1,10,0:0:0:0:
48,273,134675,6,0,B|93:290|129:293|129:293|148:346|148:346|184:351|228:366,1,224.199992131653,2|2,1:2|0:0,0:0:0:0:
339,215,135337,1,2,1:2:0:0:
289,165,135447,1,0,1:2:0:0:
276,96,135557,2,0,B|237:102|204:105|204:105|222:180|228:255,1,224.199992131653,10|2,0:0|0:0,0:0:0:0:
404,354,136219,6,0,P|408:298|415:242,1,112.099996065827,2|0,1:2|0:0,0:0:0:0:
512,70,136660,1,2,1:2:0:0:
322,225,136881,1,2,0:0:0:0:
215,5,137102,1,2,1:2:0:0:
215,76,137212,1,0,1:2:0:0:
185,141,137323,1,10,0:0:0:0:
422,92,137543,1,2,1:2:0:0:
365,377,137763,2,0,B|354:332|322:309|322:309|336:265|321:224,1,168.14999409874,10|0,0:0|0:0,0:0:0:0:
433,263,138205,6,0,B|289:265|388:345|239:348,1,224.199992131653,2|2,1:2|0:0,0:0:0:0:
110,150,138866,1,2,1:2:0:0:
70,210,138976,1,0,1:2:0:0:
1,231,139086,2,0,P|113:222|224:208,1,224.199992131653,10|2,0:0|0:0,0:0:0:0:
350,42,139749,6,0,P|294:34|239:24,1,112.099996065827,2|0,1:2|0:0,0:0:0:0:
331,183,140190,1,2,1:2:0:0:
478,0,140410,1,2,1:2:0:0:
466,264,140631,2,0,P|462:250|459:236,2,28.0249990164566,2|0|0,1:2|0:0|1:2,0:0:0:0:
494,299,140852,1,10,0:0:0:0:
442,94,141072,1,2,1:2:0:0:
305,342,141293,1,10,0:0:0:0:
271,305,141403,1,8,0:0:0:0:
224,288,141513,1,8,0:0:0:0:
174,293,141624,1,8,0:0:0:0:
190,334,141734,5,8,0:0:0:0:
132,218,144271,6,0,L|123:192,1,28.0249990164566,8|8,0:0|0:0,0:0:0:0:
127,264,144381,1,8,0:0:0:0:
53,69,144602,1,0,1:2:0:0:
95,300,144822,1,0,1:2:0:0:
95,300,145263,5,6,1:2:0:0:
138,148,145484,1,0,1:2:0:0:
193,360,145705,2,0,B|236:351|236:351|273:329,1,87.3999970660401,2|2,0:0|0:0,0:0:0:0:
355,284,146035,1,2,0:0:0:0:
338,254,146146,2,0,P|296:239|253:233,1,87.3999970660401,10|0,0:0|0:0,0:0:0:0:
356,375,146587,1,0,1:2:0:0:
432,218,146807,1,0,1:2:0:0:
484,328,147028,5,2,0:0:0:0:
341,190,147249,1,2,0:0:0:0:
335,221,147359,1,2,0:0:0:0:
338,254,147469,1,2,0:0:0:0:
417,113,147690,1,2,0:0:0:0:
234,98,147910,2,0,P|237:141|247:184,1,87.3999970660401,8|0,0:0|0:0,0:0:0:0:
329,336,148352,1,2,0:0:0:0:
308,361,148462,1,2,0:0:0:0:
279,374,148572,1,2,0:0:0:0:
246,371,148682,1,2,0:0:0:0:
220,352,148793,5,2,1:2:0:0:
144,200,149013,2,0,P|140:243|130:286,1,87.3999970660401,0|0,1:2|0:0,0:0:0:0:
28,370,149455,1,2,0:0:0:0:
26,333,149565,1,2,0:0:0:0:
15,296,149675,1,10,0:0:0:0:
159,304,149896,1,2,0:0:0:0:
88,125,150116,2,0,P|131:120|174:112,1,87.3999970660401,0|0,1:2|1:2,0:0:0:0:
279,0,150557,2,0,B|286:42|286:42|308:80,1,87.3999970660401,2|2,0:0|0:0,0:0:0:0:
405,61,150888,6,0,P|390:124|379:189,1,131.09999559906,2|2,0:0|0:0,0:0:0:0:
466,303,151440,1,8,0:0:0:0:
390,380,151660,1,0,1:2:0:0:
261,282,151881,1,8,0:0:0:0:
283,300,152322,5,0,1:2:0:0:
140,323,152543,1,0,1:2:0:0:
52,208,152763,1,2,0:0:0:0:
183,146,152984,1,2,0:0:0:0:
181,184,153094,1,2,0:0:0:0:
189,220,153204,1,10,0:0:0:0:
256,82,153425,1,2,0:0:0:0:
206,253,153646,1,0,1:2:0:0:
360,206,153866,1,0,1:2:0:0:
256,82,154087,5,2,0:0:0:0:
106,142,154307,1,2,0:0:0:0:
108,104,154417,1,2,0:0:0:0:
100,68,154527,1,2,0:0:0:0:
59,234,154749,1,2,0:0:0:0:
195,166,154969,2,0,P|198:209|204:252,1,87.3999970660401,8|0,0:0|0:0,0:0:0:0:
297,375,155410,1,2,1:2:0:0:
310,345,155520,1,2,0:0:0:0:
335,325,155630,1,2,0:0:0:0:
368,319,155740,1,2,0:0:0:0:
398,331,155851,5,2,1:2:0:0:
323,207,156072,2,0,P|365:216|409:221,1,87.3999970660401,0|0,1:2|0:0,0:0:0:0:
495,374,156513,1,2,0:0:0:0:
497,337,156623,1,2,0:0:0:0:
508,300,156733,1,10,0:0:0:0:
398,331,156955,1,2,0:0:0:0:
512,178,157175,1,0,1:2:0:0:
334,108,157396,1,0,1:2:0:0:
409,221,157616,2,0,P|365:225|322:235,1,87.3999970660401,2|2,0:0|0:0,0:0:0:0:
308,322,157947,6,0,P|245:304|180:291,1,131.09999559906,2|2,0:0|0:0,0:0:0:0:
35,165,158499,1,10,0:0:0:0:
137,190,158719,1,2,1:2:0:0:
93,358,158940,1,10,0:0:0:0:
16,77,159160,1,10,0:0:0:0:
297,150,159381,5,6,1:2:0:0:
40,267,159602,2,0,B|39:257|35:250|35:250|100:278|169:288|169:288|174:307|187:323,1,195.69999835762,2|0,1:2|0:0,0:0:0:0:
369,233,160263,2,0,B|346:248|346:248|278:262,1,97.8499991788101,8|0,0:0|0:0,0:0:0:0:
282,54,160705,1,2,1:2:0:0:
492,337,160925,6,0,B|439:318|439:318|476:259|473:176|473:176|451:191,1,227.999993041992,2|0,1:2|0:0,0:0:0:0:
282,54,161587,2,0,B|266:135|266:135|279:163,1,113.999996520996,2|0,0:0|0:0,0:0:0:0:
371,229,162028,2,0,B|327:290|258:299|258:299|266:265,1,170.999994781494,10|0,0:0|0:0,0:0:0:0:
298,243,162469,2,0,B|277:247|261:255|261:255|223:232|179:242,1,123.97500104044,0|0,1:2|0:0,0:0:0:0:
123,301,162910,5,2,1:2:0:0:
126,36,163131,2,0,B|118:37|112:44|112:44|178:75|236:77|236:77|240:117|260:145,1,218.500004167557,2|0,1:2|0:0,0:0:0:0:
448,56,163793,2,0,P|400:66|352:78,1,97.8499991788101,8|0,0:0|0:0,0:0:0:0:
226,240,164234,1,2,1:2:0:0:
377,181,164455,6,0,B|424:255|515:256|515:256|496:232,1,195.69999835762,2|0,1:2|0:0,0:0:0:0:
319,0,165116,2,0,P|311:48|302:96,1,97.8499991788101,2|0,0:0|0:0,0:0:0:0:
142,282,165557,1,10,0:0:0:0:
377,181,165778,1,2,1:2:0:0:
172,30,165999,1,10,0:0:0:0:
335,307,166219,2,0,P|337:292|341:271,2,30.4000007421875
345,351,166440,5,2,1:2:0:0:
415,96,166660,2,0,B|428:86|434:72|434:72|317:51|280:166,1,231.799990450135,2|0,1:2|0:0,0:0:0:0:
199,340,167322,2,0,B|207:313|207:313|194:277|195:240,1,101.649996897888,8|0,0:0|0:0,0:0:0:0:
236,43,167763,1,2,1:2:0:0:
0,122,167984,6,0,B|18:132|36:150|36:150|92:142|134:116|134:116|155:134|181:137,1,203.299993795777,2|0,1:2|0:0,0:0:0:0:
379,217,168646,2,0,B|355:203|355:203|329:220|288:234,1,101.649996897888,2|0,0:0|0:0,0:0:0:0:
480,368,169087,1,10,0:0:0:0:
512,91,169307,1,2,1:2:0:0:
480,368,169528,2,0,B|447:335|447:335|463:284|467:231,1,152.474995346832,10|0,0:0|0:0,0:0:0:0:
445,189,169969,5,2,1:2:0:0:
355,384,170190,2,0,P|349:333|344:281,1,103.550001106033,2|0,1:2|0:0,0:0:0:0:
371,77,170631,1,2,1:2:0:0:
243,291,170852,2,0,P|145:274|109:182,1,207.100002212067,8|0,0:0|0:0,0:0:0:0:
269,17,171513,2,0,P|263:67|258:119,1,103.550001106033,2|0,1:2|0:0,0:0:0:0:
10,257,171955,6,0,P|4:206|0:154,1,103.550001106033,2|2,1:2|1:2,0:0:0:0:
0,153,172616,1,10,0:0:0:0:
258,120,172837,1,2,1:2:0:0:
188,28,173057,1,10,0:0:0:0:
189,36,173167,1,8,0:0:0:0:
191,46,173277,1,8,0:0:0:0:
195,54,173387,1,8,0:0:0:0:
175,94,173499,5,2,1:2:0:0:
96,246,173940,2,8,P|94:233|93:221,5,24.7000008291626,10|8|8|8|8|8,0:0|0:0|0:0|0:0|0:0|0:0,0:0:0:0:
54,275,174381,2,0,P|127:281|201:289,1,148.200004974976,10|10,0:0|1:2,0:0:0:0:
341,339,175263,6,8,L|338:363,5,24.7000008291626,10|8|8|8|8|8,0:0|0:0|0:0|0:0|0:0|0:0,0:0:0:0:
374,306,175705,2,0,L|365:231,1,74.1000024874879,10|8,0:0|0:0,0:0:0:0:
312,175,176035,1,8,0:0:0:0:
322,136,176146,1,10,0:0:0:0:
332,97,176587,2,8,P|327:86|324:73,5,24.7000008291626
321,135,177028,6,0,P|256:106|230:38,1,148.200004974976,10|10,0:0|1:2,0:0:0:0:
164,213,177910,2,8,P|167:201|172:189,5,24.7000008291626,10|8|8|8|8|8,0:0|0:0|0:0|0:0|0:0|0:0,0:0:0:0:
121,243,178352,2,0,P|124:279|129:316,1,74.1000024874879,10|8,0:0|0:0,0:0:0:0:
310,339,178793,5,2,1:2:0:0:
332,171,179234,2,8,P|334:158|336:146,5,24.7000008291626,10|8|8|8|8|8,0:0|0:0|0:0|0:0|0:0|0:0,0:0:0:0:
294,202,179675,2,0,B|261:145|264:73|264:73|276:81,1,148.200004974976,10|10,0:0|1:2,0:0:0:0:
382,252,180557,6,8,P|383:264|385:276,5,24.7000008291626,10|8|8|8|8|8,0:0|0:0|0:0|0:0|0:0|0:0,0:0:0:0:
420,215,180999,2,0,P|457:220|495:224,1,74.1000024874879,10|8,0:0|0:0,0:0:0:0:
512,299,181330,1,8,0:0:0:0:
474,327,181440,1,10,0:0:0:0:
454,130,181881,2,8,P|451:117|449:105,5,24.7000008291626
501,149,182322,6,0,B|498:95|490:45|490:45|505:27|512:7,1,148.200004974976,10|10,0:0|1:2,0:0:0:0:
335,50,183205,2,8,L|312:41,5,24.7000008291626,10|8|8|8|8|8,0:0|0:0|0:0|0:0|0:0|0:0,0:0:0:0:
361,101,183646,2,0,L|287:109,1,74.1000024874879,10|8,1:2|0:0,0:0:0:0:
134,38,184087,5,2,0:0:0:0:
126,127,184528,1,2,0:0:0:0:
168,229,184969,1,2,0:0:0:0:
63,313,185410,5,2,0:0:0:0:
147,344,185852,1,2,0:0:0:0:
256,312,186293,1,2,0:0:0:0:
227,167,186734,5,2,0:0:0:0:
227,167,187616,1,2,0:0:0:0:
205,246,188057,5,2,0:0:0:0:
205,246,188499,1,2,0:0:0:0:
205,246,188940,1,2,0:0:0:0:
387,208,189381,5,2,0:0:0:0:
355,136,189822,1,2,0:0:0:0:
373,40,190263,1,2,0:0:0:0:
453,135,190705,5,2,0:0:0:0:
430,212,191146,1,2,0:0:0:0:
348,286,191587,1,2,0:0:0:0:
205,284,192028,5,2,0:0:0:0:
205,284,192910,1,2,0:0:0:0:
233,208,193352,5,2,0:0:0:0:
233,208,193793,1,2,0:0:0:0:
233,208,194234,1,2,0:0:0:0:
47,44,194675,5,2,0:0:0:0:
127,96,195116,1,2,0:0:0:0:
247,163,195557,1,2,0:0:0:0:
422,287,195778,5,0,1:2:0:0:
374,273,195888,1,0,1:2:0:0:
321,217,195999,1,8,0:0:0:0:
143,86,196440,6,0,B|165:60|169:37|169:37|213:258|4:97|63:342,1,418.000012756348,6|8,1:2|0:0,0:0:0:0:
63,341,197763,1,2,0:0:0:0:
215,297,197984,6,0,P|317:316|421:330,2,209.000006378174,2|0|0,1:2|1:2|1:2,0:0:0:0:
122,337,199087,2,0,P|117:284|111:233,1,104.500003189087,10|0,0:0|1:2,0:0:0:0:
4,0,199528,2,0,B|7:27|21:50|21:50|6:97|0:151,1,156.750004783631,10|0,0:0|0:0,0:0:0:0:
75,198,199969,6,0,B|97:211|112:233|112:233|160:227|202:194|202:194|270:215|346:202|346:202|331:223,1,313.500009567261,2|0,1:2|1:2,0:0:0:0:
299,371,200852,2,0,B|353:361|402:361|402:361|420:340|445:329,1,156.750004783631,8|0,0:0|0:0,0:0:0:0:
475,367,201293,1,2,0:0:0:0:
438,182,201513,6,0,B|383:54|360:172|291:50,2,209.000006378174,2|0|0,1:2|1:2|0:0,0:0:0:0:
352,331,202616,2,0,B|281:332|216:353|216:353|189:328|152:327,1,209.000006378174,10|8,0:0|0:0,0:0:0:0:
0,381,203278,1,2,0:0:0:0:
25,151,203499,6,0,P|128:164|231:184,1,209.000006378174,2|2,1:2|0:0,0:0:0:0:
434,44,204381,2,0,B|447:145|470:246|470:246|419:248|366:269,1,313.500009567261,10|2,0:0|1:2,0:0:0:0:
237,384,205263,6,0,P|221:280|201:178,1,209.000006378174,2|2,0:0|0:0,0:0:0:0:
101,7,206146,1,10,0:0:0:0:
327,141,206477,1,10,0:0:0:0:
97,269,206807,1,10,0:0:0:0:
63,157,207028,6,0,B|131:180|184:184|184:184|222:230|222:230|287:237|347:259,1,313.500009567261,2|0,1:2|1:2,0:0:0:0:
365,340,207910,2,0,P|393:245|491:235,1,209.000006378174,10|2,0:0|0:0,0:0:0:0:
302,40,208572,6,0,P|308:91|312:143,1,104.500003189087,2|0,1:2|0:0,0:0:0:0:
365,340,209013,1,2,1:2:0:0:
142,236,209234,1,2,1:2:0:0:
418,127,209455,1,2,1:2:0:0:
93,326,209675,1,10,0:0:0:0:
65,113,209896,1,2,1:2:0:0:
417,230,210116,2,0,B|364:244|315:248|315:248|299:271|275:284,1,156.750004783631,10|0,0:0|0:0,0:0:0:0:
247,317,210557,6,0,B|234:351|247:388|298:408|318:392|345:372|366:333|338:307|309:294|298:245|298:245|290:206|291:168|299:136|312:94,1,418.000012756348,2|8,1:2|0:0,0:0:0:0:
310,99,211881,1,2,0:0:0:0:
190,0,212102,6,0,B|162:137|103:32|90:170,2,209.000006378174,2|0|2,1:2|1:2|1:2,0:0:0:0:
213,279,213205,2,0,P|204:227|196:175,1,104.500003189087,10|0,0:0|1:2,0:0:0:0:
438,113,213646,2,0,B|423:105|415:94|415:94|365:111|299:92|299:92|306:86,1,156.750004783631,10|0,0:0|0:0,0:0:0:0:
306,169,214087,6,0,B|292:217|292:217|297:176|270:123|270:123|279:53|325:-7|325:-7|333:15,1,313.500009567261,2|0,1:2|1:2,0:0:0:0:
383,259,214969,2,0,P|334:317|259:316,1,156.750004783631,8|0,0:0|0:0,0:0:0:0:
216,288,215410,1,2,0:0:0:0:
471,384,215631,6,0,P|487:280|507:178,1,209.000006378174,2|0,1:2|1:2,0:0:0:0:
320,59,216293,2,0,B|350:130|323:187|323:187|349:208|364:250,2,209.000006378174,2|10|10,1:2|0:0|0:0,0:0:0:0:
320,59,217616,6,0,B|265:81|218:125|218:125|112:75|-5:68|-5:68|21:83|35:113,1,418.000012756348,2|8,1:2|0:0,0:0:0:0:
36,115,218940,1,2,0:0:0:0:
203,28,219160,6,0,P|219:131|239:233,2,209.000006378174,2|2|2,1:2|1:2|1:2,0:0:0:0:
78,243,220484,6,0,P|87:337|183:337,1,209.000006378174,2|2,1:2|0:0,0:0:0:0:
191,224,221146,2,0,P|388:196|502:359,1,418.000012756348,2|8,1:2|0:0,0:0:0:0:
502,359,222469,1,2,0:0:0:0:
503,179,222690,6,0,P|325:287|122:330,1,418.000012756348,2|0,1:2|0:0,0:0:0:0:
189,209,223793,2,0,P|139:123|41:133,1,209.000006378174,10|10,0:0|0:0,0:0:0:0:
83,149,224344,1,8,0:0:0:0:
129,137,224455,1,10,0:0:0:0:
150,96,224565,1,8,0:0:0:0:
140,48,224675,5,0,0:0:0:0:
252,90,225116,1,2,0:0:0:0:
252,90,225337,2,0,P|248:60|245:31,1,58.8999976632691,2|0,0:0|0:0,0:0:0:0:
196,183,225999,1,2,0:0:0:0:
196,183,226219,6,0,P|284:189|371:201,1,176.699992989807,2|2,0:0|0:0,0:0:0:0:
448,247,227102,1,2,0:0:0:0:
448,247,227763,1,2,0:0:0:0:
448,247,227984,6,0,P|420:295|360:288,1,117.799995326538,2|0,0:0|0:0,0:0:0:0:
284,331,228646,1,2,0:0:0:0:
284,331,228866,2,2,P|275:257|265:190,1,117.799995326538,2|0,0:0|0:0,0:0:0:0:
189,174,229528,1,2,0:0:0:0:
189,174,229749,6,0,P|176:261|165:349,1,176.699992989807,2|2,0:0|0:0,0:0:0:0:
164,349,230631,1,2,0:0:0:0:
164,349,231293,1,2,0:0:0:0:
164,349,231513,6,0,P|153:261|139:173,1,176.699992989807,2|2,0:0|0:0,0:0:0:0:
98,96,232396,1,2,0:0:0:0:
98,96,233057,1,2,0:0:0:0:
98,95,233278,6,0,P|175:67|219:137,1,176.699992989807,2|2,0:0|0:0,0:0:0:0:
191,224,234160,1,2,0:0:0:0:
191,224,234822,1,2,0:0:0:0:
191,224,235043,6,0,P|263:213|331:208,1,117.799995326538,2|0,0:0|0:0,0:0:0:0:
391,235,235705,1,2,0:0:0:0:
391,235,235925,1,2,0:0:0:0:
391,235,236587,1,2,0:0:0:0:
391,235,236807,6,0,P|381:147|375:59,1,176.699992989807,2|2,0:0|0:0,0:0:0:0:
438,0,237690,1,2,0:0:0:0:
469,122,238352,1,2,0:0:0:0:
469,122,238572,6,0,P|439:117|410:115,1,58.8999976632691,2|0,0:0|0:0,0:0:0:0:
345,225,239234,1,2,0:0:0:0:
345,225,239455,2,0,P|317:213|290:203,1,58.8999976632691,2|0,0:0|0:0,0:0:0:0:
198,292,240116,1,2,0:0:0:0:
198,292,240337,6,0,B|227:151|117:222|140:78,1,235.599990653077,2|2,0:0|0:0,0:0:0:0:
139,78,241881,1,2,0:0:0:0:
139,78,242102,6,0,L|216:70,1,58.8999976632691,2|0,0:0|0:0,0:0:0:0:
202,186,242763,1,2,0:0:0:0:
202,186,242984,2,0,L|279:194,1,58.8999976632691,2|0,0:0|0:0,0:0:0:0:
397,209,243646,1,2,0:0:0:0:
397,209,243866,6,0,B|422:123|422:123|397:35,1,176.699992989807,2|2,0:0|0:0,0:0:0:0:
322,118,244749,1,2,0:0:0:0:
322,118,245410,5,2,0:0:0:0:
322,118,245631,1,2,0:0:0:0:
401,241,246293,1,2,0:0:0:0:
401,241,246514,1,2,0:0:0:0:
331,352,247175,1,2,0:0:0:0:
331,352,247396,6,0,P|241:340|156:333,1,176.699992989807,2|2,0:0|0:0,0:0:0:0:
76,364,248278,1,2,0:0:0:0:
76,364,248940,5,2,0:0:0:0:
76,364,249160,1,2,0:0:0:0:
53,158,252469,5,10,0:0:0:0:
199,30,252910,6,0,P|206:141|219:253,1,224.199992131653,6|2,1:2|0:0,0:0:0:0:
389,230,253572,1,2,1:2:0:0:
112,280,253793,2,0,P|150:376|252:358,1,224.199992131653,10|2,0:0|0:0,0:0:0:0:
505,372,254455,6,0,P|497:316|491:260,1,112.099996065827,2|0,1:2|0:0,0:0:0:0:
328,33,254896,2,0,P|322:88|314:144,1,112.099996065827,2|2,1:2|0:0,0:0:0:0:
252,364,255337,1,2,1:2:0:0:
178,365,255447,1,0,1:2:0:0:
114,330,255558,1,10,0:0:0:0:
382,277,255778,1,2,1:2:0:0:
177,81,255999,2,0,P|189:164|200:247,1,168.14999409874,10|0,0:0|0:0,0:0:0:0:
178,274,256440,6,0,B|142:129|245:204|209:64,1,224.199992131653,2|2,1:2|0:0,0:0:0:0:
297,242,257102,1,2,1:2:0:0:
14,156,257322,2,0,B|44:205|30:263|30:263|79:294|96:351,1,224.199992131653,10|0,0:0|0:0,0:0:0:0:
209,64,257984,6,0,P|152:57|97:49,1,112.099996065827,2|0,1:2|0:0,0:0:0:0:
30,262,258425,1,2,1:2:0:0:
294,137,258646,2,0,P|239:153|186:170,1,112.099996065827,2|0,1:2|0:0,0:0:0:0:
304,382,259087,1,10,0:0:0:0:
388,70,259307,1,2,1:2:0:0:
139,280,259528,1,10,0:0:0:0:
139,280,259969,6,0,P|249:264|360:246,1,224.199992131653,2|2,1:2|0:0,0:0:0:0:
512,87,260631,1,2,1:2:0:0:
484,338,260852,2,0,P|473:283|463:227,1,112.099996065827,10|0,0:0|0:0,0:0:0:0:
489,0,261293,1,2,0:0:0:0:
360,246,261513,6,0,P|255:238|235:136,1,224.199992131653,2|0,1:2|1:2,0:0:0:0:
203,0,262175,1,2,0:0:0:0:
442,81,262396,1,2,1:2:0:0:
375,48,262506,1,0,1:2:0:0:
302,53,262617,1,10,0:0:0:0:
236,267,262837,1,2,1:2:0:0:
203,0,263057,2,0,B|218:41|204:85|204:85|236:108|247:153,1,168.14999409874,10|0,0:0|0:0,0:0:0:0:
341,246,263499,6,0,P|316:350|201:348,1,224.199992131653,2|2,1:2|0:0,0:0:0:0:
44,172,264160,1,2,1:2:0:0:
104,132,264270,1,0,1:2:0:0:
125,63,264380,2,0,P|116:175|102:286,1,224.199992131653,10|2,0:0|0:0,0:0:0:0:
341,248,265043,6,0,P|333:192|329:136,1,112.099996065827,2|0,1:2|0:0,0:0:0:0:
490,4,265484,1,2,0:0:0:0:
244,59,265705,1,2,1:2:0:0:
448,251,265925,1,2,1:2:0:0:
423,319,266035,1,0,1:2:0:0:
362,360,266146,1,8,0:0:0:0:
440,120,266366,1,2,1:2:0:0:
251,267,266587,1,10,0:0:0:0:
176,257,266697,1,8,0:0:0:0:
116,213,266807,1,8,0:0:0:0:
45,233,266918,1,8,0:0:0:0:
0,291,267028,6,0,P|9:181|19:67,1,224.199992131653,6|2,1:2|0:0,0:0:0:0:
243,81,267690,1,2,1:2:0:0:
164,330,267910,2,0,B|214:322|245:311|245:311|286:349|286:349|323:339|370:333,1,224.199992131653,10|0,0:0|0:0,0:0:0:0:
388,47,268572,6,0,B|427:57|459:58|459:58|436:128|433:207,1,224.199992131653,2|0,1:2|1:2,0:0:0:0:
490,384,269234,1,2,0:0:0:0:
328,138,269455,1,2,1:2:0:0:
325,211,269565,1,0,1:2:0:0:
349,281,269676,1,10,0:0:0:0:
173,50,269896,1,2,1:2:0:0:
487,56,270116,2,0,B|478:141|478:141|440:164|432:207,1,168.14999409874,10|0,0:0|0:0,0:0:0:0:
512,216,270557,6,0,B|488:73|423:182|399:34,1,224.199992131653,2|2,1:2|0:0,0:0:0:0:
349,281,271219,1,2,1:2:0:0:
271,0,271440,2,0,B|259:95|259:95|240:121|240:121|229:217,1,224.199992131653,10|2,0:0|0:0,0:0:0:0:
431,353,272102,6,0,P|376:366|323:384,1,112.099996065827,2|0,1:2|0:0,0:0:0:0:
190,215,272543,1,2,1:2:0:0:
388,153,272763,2,0,P|415:199|396:250,1,112.099996065827,2|0,1:2|0:0,0:0:0:0:
180,359,273205,1,10,0:0:0:0:
304,47,273425,1,2,1:2:0:0:
1,194,273646,1,10,0:0:0:0:
1,194,274087,6,0,B|31:190|51:182|51:182|71:188|95:192|95:192|150:157|216:163,1,224.199992131653,2|2,1:2|0:0,0:0:0:0:
461,240,274749,1,2,1:2:0:0:
409,188,274859,1,0,1:2:0:0:
400,114,274970,2,0,B|398:258|318:159|315:308,1,224.199992131653,10|2,0:0|0:0,0:0:0:0:
269,3,275631,6,0,P|286:56|299:110,1,112.099996065827,2|0,1:2|0:0,0:0:0:0:
323,345,276072,1,0,1:2:0:0:
140,171,276293,1,2,0:0:0:0:
409,188,276513,1,2,1:2:0:0:
341,218,276623,1,0,1:2:0:0:
269,228,276733,1,10,0:0:0:0:
420,26,276955,1,2,1:2:0:0:
323,345,277175,2,0,B|261:338|212:323|212:323|196:341|162:352,1,168.14999409874,10|0,0:0|0:0,0:0:0:0:
61,362,277616,6,0,B|68:318|85:294|85:294|30:244|43:156,1,224.199992131653,2|2,0:0|0:0,0:0:0:0:
294,126,278278,1,2,1:2:0:0:
246,71,278388,1,0,1:2:0:0:
243,0,278498,2,0,P|222:110|207:221,1,224.199992131653,10|0,0:0|1:2,0:0:0:0:
411,113,279160,6,0,P|386:163|364:215,1,112.099996065827,2|0,1:2|0:0,0:0:0:0:
335,381,279602,1,2,1:2:0:0:
319,52,279822,1,2,1:2:0:0:
493,280,280043,1,2,1:2:0:0:
420,269,280153,1,0,1:2:0:0:
352,291,280263,1,10,0:0:0:0:
220,0,280484,1,2,1:2:0:0:
150,358,280705,1,10,0:0:0:0:
198,302,280815,1,8,0:0:0:0:
184,229,280925,1,8,0:0:0:0:
233,174,281035,1,8,0:0:0:0:
239,100,281146,6,0,B|248:196|248:196|266:222|266:222|277:317,1,224.199992131653,6|0,1:2|1:2,0:0:0:0:
512,70,282028,2,0,B|452:62|401:81|401:81|371:28|327:0,1,224.199992131653,2|0,1:2|1:2,0:0:0:0:
66,32,282910,6,0,B|106:41|137:44|137:44|119:116|113:194,1,224.199992131653,2|0,1:2|1:2,0:0:0:0:
0,362,283793,2,0,P|55:352|111:347,1,112.099996065827,10|0,0:0|0:0,0:0:0:0:
273,195,284234,2,0,B|162:171|162:171|112:193,1,168.14999409874,10|0,0:0|0:0,0:0:0:0:
0,89,284675,6,0,B|21:232|87:122|111:270,1,224.199992131653,2|0,1:2|1:2,0:0:0:0:
392,80,285557,2,0,P|280:66|168:57,1,224.199992131653,10|0,1:2|1:2,0:0:0:0:
489,250,286440,6,0,B|444:266|408:271|408:271|389:324|389:324|353:327|308:344,1,224.199992131653,2|0,1:2|1:2,0:0:0:0:
118,190,287322,2,0,B|134:182|134:182|126:234|113:274|113:274|128:297|135:324,1,168.14999409874,10|0,0:0|0:0,0:0:0:0:
95,350,287763,1,2,1:2:0:0:
119,63,288205,6,0,P|218:39|249:136,1,224.199992131653,6|0,1:2|1:2,0:0:0:0:
95,350,289087,2,0,P|205:334|317:320,1,224.199992131653,2|0,1:2|1:2,0:0:0:0:
453,117,289969,6,0,B|427:133|407:159|407:159|333:133|247:135,1,224.199992131653,10|0,0:0|1:2,0:0:0:0:
27,270,290852,2,0,B|83:261|83:261|133:236,1,112.099996065827,10|0,0:0|0:0,0:0:0:0:
70,42,291293,2,0,P|8:87|43:155,1,168.14999409874,10|0,0:0|0:0,0:0:0:0:
151,211,291734,6,0,B|246:200|246:200|272:182|272:182|368:173,1,224.199992131653,2|0,1:2|1:2,0:0:0:0:
501,12,292616,2,0,B|514:31|514:31|431:34|372:-2|372:-2|365:22|346:46,1,224.199992131653,2|0,1:2|1:2,0:0:0:0:
475,255,293499,6,0,P|364:273|256:302,1,224.199992131653,10|8,0:0|0:0,0:0:0:0:
89,255,294381,6,0,L|86:296,2,37.3666653552755,10|8|8,0:0|0:0|0:0,0:0:0:0:
161,360,294602,2,0,L|164:308,2,37.3666653552755,2|0|0,1:2|1:2|1:2,0:0:0:0:
171,226,294822,6,0,L|156:164,3,56.0499980329133,8|8|8|8,0:0|0:0|0:0|0:0,0:0:0:0:
251,201,295263,6,0,L|242:162,47,39.5833333333333,6|0|0|0|0|0|0|0|0|0|0|0|4|0|0|0|0|0|0|0|0|0|0|0|4|0|0|0|0|0|0|0|0|0|0|0|4|0|0|0|0|0|0|0|0|0|0|0,1:2|1:2|1:2|1:2|1:2|1:2|1:2|1:2|1:2|1:2|1:2|1:2|1:2|1:2|1:2|1:2|1:2|1:2|1:2|1:2|1:2|1:2|1:2|1:2|1:2|1:2|1:2|1:2|1:2|1:2|1:2|1:2|1:2|1:2|1:2|1:2|1:2|1:2|1:2|1:2|1:2|1:2|1:2|1:2|1:2|1:2|1:2|1:2,1:2:0:0:
226,320,298793,6,0,L|211:270,47,39.5833333333333,6|0|0|0|0|0|0|0|0|0|0|0|4|0|0|0|0|0|0|0|0|0|0|0|4|0|0|0|0|0|0|0|0|0|0|0|4|0|0|0|0|0|0|0|0|0|0|0,1:2|1:2|1:2|1:2|1:2|1:2|1:2|1:2|1:2|1:2|1:2|1:2|1:2|1:2|1:2|1:2|1:2|1:2|1:2|1:2|1:2|1:2|1:2|1:2|1:2|1:2|1:2|1:2|1:2|1:2|1:2|1:2|1:2|1:2|1:2|1:2|1:2|1:2|1:2|1:2|1:2|1:2|1:2|1:2|1:2|1:2|1:2|1:2,1:2:0:0:
184,104,302322,6,0,L|173:66,47,39.5833333333333,6|0|0|0|0|0|0|0|0|0|0|0|4|0|0|0|0|0|0|0|0|0|0|0|4|0|0|0|0|0|0|0|0|0|0|0|4|0|0|0|0|0|0|0|0|0|0|0,1:2|1:2|1:2|1:2|1:2|1:2|1:2|1:2|1:2|1:2|1:2|1:2|1:2|1:2|1:2|1:2|1:2|1:2|1:2|1:2|1:2|1:2|1:2|1:2|1:2|1:2|1:2|1:2|1:2|1:2|1:2|1:2|1:2|1:2|1:2|1:2|1:2|1:2|1:2|1:2|1:2|1:2|1:2|1:2|1:2|1:2|1:2|1:2,1:2:0:0:
251,200,305852,6,0,L|240:149,35,39.5833333333333,6|0|0|0|0|0|0|0|0|0|0|0|4|0|0|0|0|0|0|0|0|0|0|0|4|0|0|0|0|0|0|0|0|0|0|0,1:2|1:2|1:2|1:2|1:2|1:2|1:2|1:2|1:2|1:2|1:2|1:2|1:2|1:2|1:2|1:2|1:2|1:2|1:2|1:2|1:2|1:2|1:2|1:2|1:2|1:2|1:2|1:2|1:2|1:2|1:2|1:2|1:2|1:2|1:2|1:2,1:2:0:0:
262,131,308499,5,8,0:0:0:0:
295,110,308572,1,8,0:0:0:0:
328,130,308646,1,8,0:0:0:0:
353,120,308719,1,0,1:2:0:0:
380,126,308793,1,0,1:2:0:0:
400,143,308866,1,0,1:2:0:0:
413,180,308940,5,8,0:0:0:0:
402,217,309013,1,8,0:0:0:0:
410,255,309087,1,8,0:0:0:0:
457,285,309160,5,8,0:0:0:0:
480,234,309234,1,8,0:0:0:0:
475,179,309307,1,8,0:0:0:0:
467,105,309381,5,12,0:0:0:0:
19,25,309822,6,0,P|55:33|93:39,1,76,2|0,0:0|0:0,0:0:0:0:
70,141,310263,2,0,P|143:123|219:112,1,152,2|0,0:0|0:0,0:0:0:0:
354,45,311146,6,0,P|340:80|330:116,1,76,2|0,0:0|0:0,0:0:0:0:
436,176,311587,2,0,P|401:190|367:208,1,76,2|0,0:0|0:0,0:0:0:0:
347,299,312028,2,0,P|272:282|197:272,1,152,2|2,0:0|0:0,0:0:0:0:
73,375,312910,6,0,B|65:332|46:306|46:306|49:267|37:229,1,152,2|0,0:0|0:0,0:0:0:0:
161,280,313793,2,0,P|177:205|187:130,1,152,2|0,0:0|0:0,0:0:0:0:
42,78,314675,6,0,P|78:68|114:55,1,76,2|0,0:0|0:0,0:0:0:0:
196,0,315116,1,2,0:0:0:0:
187,130,315557,2,0,P|167:203|140:274,1,152,2|2,0:0|0:0,0:0:0:0:
314,298,316440,6,0,P|253:344|189:384,1,152,2|0,0:0|0:0,0:0:0:0:
102,288,317322,2,0,L|111:212,1,76,2|0,0:0|0:0,0:0:0:0:
124,126,317763,1,2,0:0:0:0:
124,126,318205,6,0,P|87:121|56:142,1,76,2|0,0:0|0:0,0:0:0:0:
111,212,318646,2,0,P|148:216|185:224,1,76,2|0,0:0|0:0,0:0:0:0:
248,283,319087,1,2,0:0:0:0:
321,236,319307,2,0,B|311:199|311:199|314:161,1,76,2|2,0:0|0:0,0:0:0:0:
387,28,319969,6,0,P|459:28|486:96,1,152,2|0,0:0|0:0,0:0:0:0:
512,244,320852,2,0,P|436:233|361:226,1,152,2|0,0:0|0:0,0:0:0:0:
268,340,321734,2,0,P|266:302|264:264,1,76,2|0,0:0|0:0,0:0:0:0:
196,202,322175,2,0,P|202:167|209:132,1,70.3000017163086,2|0,0:0|0:0,0:0:0:0:
112,254,322616,2,0,P|105:219|98:184,1,64.6000003942871,2|2,0:0|0:0,0:0:0:0:
77,342,323057,1,2,0:0:0:0:
114,325,323499,5,2,0:0:0:0:
148,329,323940,1,2,0:0:0:0:
165,344,324381,1,2,0:0:0:0:
