osu file format v14

[General]
AudioFilename: audio.mp3
AudioLeadIn: 0
PreviewTime: 49705
Countdown: 0
SampleSet: Soft
StackLeniency: 0.6
Mode: 0
LetterboxInBreaks: 0
WidescreenStoryboard: 1

[Editor]
Bookmarks: 118965
DistanceSpacing: 0.9
BeatDivisor: 4
GridSize: 8
TimelineZoom: 1.9

[Metadata]
Title:The Whole Rest
TitleUnicode:The Whole Rest
Artist:KIVA
ArtistUnicode:KIVĪ›
Creator:SaltyLucario
Version:Normal
Source:Cytus II
Tags:2 saltking salty browiec opening op k a-tse rua eajrock yichen chris hemingway shao-ting sun mobile video rhythm game electronic pop rock jazz english rayark inc. short ver. version
BeatmapID:2752358
BeatmapSetID:1328714

[Difficulty]
HPDrainRate:3
CircleSize:3.6
OverallDifficulty:3.4
ApproachRate:5
SliderMultiplier:1.2
SliderTickRate:1

[Events]
//Background and Video events
Video,1918,"video.mp4"
0,0,"a.png",0,0
//Break Periods
2,61752,65702
//Storyboard Layer 0 (Background)
//Storyboard Layer 1 (Fail)
//Storyboard Layer 2 (Pass)
//Storyboard Layer 3 (Foreground)
//Storyboard Layer 4 (Overlay)
//Storyboard Sound Samples

[TimingPoints]
3463,382.165605095541,4,2,1,30,1,0
3463,-111.111111111111,4,2,1,30,0,0
9004,-111.111111111111,4,2,1,50,0,0
9577,-100,4,2,1,60,0,0
11870,-100,4,2,2,60,0,0
12252,-100,4,2,1,60,0,0
12634,-100,4,2,1,70,0,0
15310,-100,4,2,2,75,0,0
15692,-111.111111111111,4,2,2,40,0,0
17412,-111.111111111111,4,2,1,40,0,0
24864,-100,4,2,1,55,0,0
30787,-100,4,2,3,55,0,0
30883,-100,4,2,1,55,0,0
36329,-100,4,2,1,62,0,0
36711,-100,4,2,1,70,0,0
37093,-100,4,2,2,70,0,0
38240,-100,4,2,1,70,0,0
38622,-100,4,2,2,70,0,0
41106,-100,4,2,1,70,0,0
41679,-100,4,2,2,70,0,0
42443,-100,4,2,3,70,0,0
42826,-100,4,2,2,70,0,0
43208,-100,4,2,4,70,0,0
43590,-100,4,2,2,70,0,0
44163,-100,4,2,1,70,0,0
44354,-100,4,2,2,70,0,0
45596,-100,4,2,1,70,0,0
46265,-100,4,2,2,70,0,0
47412,-100,4,2,1,70,0,0
47794,-100,4,2,2,70,0,0
49322,-111.111111111111,4,2,2,40,0,0
49705,-111.111111111111,4,2,1,40,0,0
55437,-100,4,2,2,50,0,0
58494,-100,4,2,2,55,0,0
60023,-100,4,2,2,65,0,0
60787,-100,4,2,2,75,0,0
61552,-100,4,2,2,35,0,0
62316,-100,4,2,1,35,0,0
66902,-100,4,2,3,50,0,0
67093,-100,4,2,1,50,0,0
67475,-100,4,2,1,65,0,0
71106,-100,4,2,4,65,0,0
71201,-100,4,2,1,65,0,0
73017,-100,4,2,5,75,0,0
73208,-100,4,2,1,75,0,0
82953,-100,4,2,1,80,0,0
84673,-100,4,2,1,72,0,0
85819,-100,4,2,1,65,0,0
90596,-100,4,2,1,70,0,0
92125,-100,4,2,1,50,0,0
95182,-100,4,2,4,65,0,0
95947,-100,4,2,1,65,0,0
96711,-100,4,2,4,65,0,0
97475,-100,4,2,1,65,0,0
98240,-100,4,2,4,65,0,0
99004,-100,4,2,1,65,0,0
99386,-100,4,2,4,65,0,0
100533,-100,4,2,1,65,0,0
101297,-100,4,2,4,65,0,0
102061,-100,4,2,1,65,0,0
102826,-100,4,2,4,65,0,0
103590,-100,4,2,1,65,0,0
104354,-100,4,2,4,65,0,0
105119,-100,4,2,1,65,0,0
105883,-100,4,2,4,65,0,0
106265,-100,4,2,1,65,0,0
106838,-100,4,2,4,65,0,0
107507,-100,4,2,4,30,0,0
108558,-100,4,2,1,30,0,0

[Colours]
Combo1 : 80,175,216
Combo2 : 211,173,224
Combo3 : 204,104,106
Combo4 : 216,225,96

[HitObjects]
40,305,3463,6,0,B|127:278|106:343|200:314,1,161.999995056153,2|2,0:2|0:2,0:0:0:0:
281,197,4609,2,0,B|194:170|215:235|121:206,1,161.999995056153,2|2,0:2|0:2,0:0:0:0:
423,369,6520,6,0,B|439:324|414:285|414:285|409:236|447:199,1,161.999995056153,2|2,0:2|0:2,0:0:0:0:
310,136,7666,2,0,B|333:156|328:205|328:205|303:244|319:289,1,161.999995056153,2|2,0:2|0:2,0:0:0:0:
206,381,8813,1,2,0:2:0:0:
122,331,9195,1,10,0:2:0:0:
32,270,9577,6,0,L|26:132,1,120,14|0,0:2|3:0,0:0:0:0:
5,100,10150,2,0,P|83:100|131:67,1,120,14|0,0:2|3:0,0:0:0:0:
160,46,10724,2,0,P|213:20|272:25,1,120,10|0,0:2|3:0,0:0:0:0:
319,53,11297,2,0,L|313:172,1,120,10|0,0:2|3:0,0:0:0:0:
311,226,11870,5,10,0:3:0:0:
385,304,12252,1,10,0:2:0:0:
475,245,12634,6,0,P|457:172|475:113,1,120,14|0,0:2|3:0,0:0:0:0:
500,86,13208,2,0,L|368:62,1,120,14|0,0:2|3:0,0:0:0:0:
341,99,13781,2,0,L|209:123,1,120,10|0,0:2|3:0,0:0:0:0:
170,134,14354,2,0,P|188:207|170:266,1,120,2|8,3:2|0:3,0:0:0:0:
142,289,14927,5,10,3:2:0:0:
245,321,15310,1,10,3:3:0:0:
348,351,15692,5,4,3:2:0:0:
348,351,16456,2,0,L|361:183,1,161.999995056153,2|2,0:2|0:2,0:0:0:0:
439,132,17412,2,0,L|433:63,2,53.9999983520508,0|0|0,1:0|3:0|0:0,0:0:0:0:
454,227,18176,1,0,3:0:0:0:
320,168,18749,6,0,B|268:201|210:185,1,107.999996704102,2|0,3:2|0:0,0:0:0:0:
171,168,19322,1,0,3:0:0:0:
123,89,19705,1,0,0:0:0:0:
123,89,19896,2,0,L|53:81,1,53.9999983520508,2|2,0:2|0:2,0:0:0:0:
31,112,20278,6,0,B|50:220|50:220,1,107.999996704102,2|2,0:2|0:2,0:0:0:0:
95,234,20851,2,0,L|82:346,1,107.999996704102,2|2,0:0|1:2,0:0:0:0:
181,318,21615,1,2,0:2:0:0:
181,318,21806,6,0,P|251:306|292:319,1,107.999996704102,0|0,3:0|0:0,0:0:0:0:
323,346,22380,1,0,3:0:0:0:
406,296,22762,2,0,L|464:308,2,53.9999983520508,0|2|0,0:0|0:2|0:0,0:0:0:0:
385,251,23335,6,0,B|375:136|375:136,1,107.999996704102,2|0,0:2|3:0,0:0:0:0:
371,95,23908,2,0,B|288:73|299:141|207:116,1,161.999995056153,2|2,0:2|0:2,0:0:0:0:
126,56,24864,5,4,3:2:0:0:
56,138,25246,1,8,0:2:0:0:
138,207,25628,1,2,3:2:0:0:
138,207,25819,2,0,L|117:346,1,120,2|2,3:2|0:2,0:0:0:0:
223,356,26584,2,0,B|281:330|281:330|358:347,1,120,2|2,0:2|0:2,0:0:0:0:
440,371,27348,1,2,3:2:0:0:
463,268,27730,1,2,0:3:0:0:
463,268,27921,6,0,B|411:254|411:254|399:242|399:242|326:224,1,120,0|8,3:0|0:2,0:0:0:0:
253,198,28685,1,2,3:2:0:0:
253,198,28877,1,2,3:2:0:0:
200,292,29259,2,0,P|140:285|84:305,1,120,2|2,3:2|3:2,0:0:0:0:
26,215,30023,1,2,0:2:0:0:
52,113,30405,1,2,3:2:0:0:
52,113,30596,2,0,L|64:53,1,60,8|10,0:2|0:3,0:0:0:0:
111,28,30978,5,4,3:2:0:0:
162,123,31361,2,0,B|176:149|176:149|152:263,1,120,8|0,0:2|3:0,0:0:0:0:
207,333,32125,1,10,0:2:0:0:
260,328,32316,1,2,0:2:0:0:
313,321,32507,6,0,L|434:312,1,120,2|10,3:2|0:2,0:0:0:0:
476,279,33080,1,2,0:2:0:0:
459,172,33463,1,2,3:2:0:0:
446,69,33845,1,10,0:2:0:0:
446,69,34036,6,0,B|391:85|391:85|308:69,1,120,4|8,3:2|0:2,0:0:0:0:
231,28,34800,1,0,3:0:0:0:
139,85,35182,2,0,L|67:70,2,60,8|0|0,0:2|3:0|0:0,0:0:0:0:
206,169,35947,5,10,0:2:0:0:
120,234,36329,1,10,3:2:0:0:
190,315,36711,1,2,3:2:0:0:
276,250,37093,6,0,B|354:259|354:259|374:276|374:276|459:285,1,180,6|2,1:2|0:2,0:0:0:0:
502,291,37857,1,0,1:0:0:0:
488,183,38240,2,0,L|479:113,1,60,10|2,0:1|0:1,0:0:0:0:
442,85,38622,6,0,P|374:80|320:121,1,120,2|8,1:2|0:1,0:0:0:0:
293,144,39195,1,2,0:2:0:0:
293,144,39386,2,0,P|241:172|182:165,1,120,0|8,1:0|0:1,0:0:0:0:
91,106,40150,6,0,B|78:132|78:132|90:246,1,120,2|10,1:2|0:1,0:0:0:0:
96,276,40724,2,0,L|230:304,1,120,2|2,0:2|0:1,0:0:0:0:
317,328,41488,1,2,0:1:0:0:
423,298,41870,5,2,0:2:0:0:
423,298,42061,2,0,L|432:225,1,60,10|2,0:1|0:2,0:0:0:0:
473,205,42443,2,0,B|472:156|472:156|447:135|447:135|440:75,1,120,2|10,1:1|0:1,0:0:0:0:
402,69,43017,1,2,0:2:0:0:
402,69,43208,6,0,B|329:64|355:108|282:92,1,120,2|10,1:1|0:1,0:0:0:0:
196,36,43972,2,0,B|168:92|168:92|188:152,1,120,2|10,1:2|0:1,0:0:0:0:
217,197,44545,1,2,0:2:0:0:
217,197,44736,6,0,L|196:321,1,120,0|10,1:0|0:1,0:0:0:0:
91,339,45501,2,0,L|12:355,2,60,2|2|10,1:2|0:1|0:1,0:0:0:0:
108,290,46074,1,2,0:1:0:0:
108,290,46265,6,0,L|90:146,1,120,0|8,1:0|0:1,0:0:0:0:
146,77,47029,2,0,P|209:58|281:87,1,120,2|10,1:2|0:1,0:0:0:0:
301,106,47603,1,2,0:2:0:0:
301,106,47794,1,0,1:0:0:0:
407,86,48176,5,10,0:1:0:0:
419,193,48558,1,2,1:2:0:0:
432,300,48940,2,0,L|366:310,1,60,10|0,0:1|1:0,0:0:0:0:
335,348,49322,6,0,L|207:331,1,107.999996704102,6|8,3:2|0:2,0:0:0:0:
141,377,50087,2,0,P|129:340|160:260,1,107.999996704102,2|10,0:2|0:2,0:0:0:0:
178,238,50660,2,0,L|166:109,1,107.999996704102,2|2,0:2|0:2,0:0:0:0:
196,37,51424,1,2,0:2:0:0:
291,55,51806,1,2,0:2:0:0:
429,21,52380,6,0,P|418:95|438:142,1,107.999996704102,2|10,0:2|0:2,0:0:0:0:
455,165,52953,1,2,0:2:0:0:
485,257,53335,2,0,B|406:289|414:219|314:239,1,161.999995056153,2|2,0:2|0:2,0:0:0:0:
246,286,54291,5,10,0:2:0:0:
315,354,54673,2,0,L|388:342,2,53.9999983520508,2|2|10,0:2|0:2|0:2,0:0:0:0:
209,377,55437,6,0,L|76:353,1,120,4|10,1:2|0:1,0:0:0:0:
38,261,56201,2,0,L|100:249,1,60,2|2,1:2|0:2,0:0:0:0:
149,236,56583,1,10,0:1:0:0:
90,144,56966,6,0,P|73:70|83:25,1,120,0|10,1:0|0:1,0:0:0:0:
131,6,57539,1,2,0:2:0:0:
131,6,57730,2,0,L|269:23,1,120,2|10,1:2|0:1,0:0:0:0:
357,34,58494,6,0,L|344:107,1,60,8|8,0:1|0:1,0:0:0:0:
386,130,58877,2,0,L|399:203,1,60,8|8,0:1|0:1,0:0:0:0:
437,224,59259,2,0,L|424:297,1,60,8|8,0:1|0:1,0:0:0:0:
383,316,59642,2,0,L|396:389,1,60,8|8,0:1|0:1,0:0:0:0:
256,192,60023,12,2,61552,3:2:0:0:
104,54,66902,6,0,L|43:63,2,60,10|0|8,0:3|3:0|0:2,0:0:0:0:
146,86,67475,2,0,B|218:100|218:100|250:90|250:90|341:104,1,180,6|10,3:2|0:2,0:0:0:0:
425,67,68431,2,0,L|432:187,1,120,10|8,0:2|0:2,0:0:0:0:
440,244,69004,1,2,3:2:0:0:
440,244,69195,5,8,0:2:0:0:
332,230,69577,1,10,0:2:0:0:
262,312,69959,2,0,L|135:332,1,120,10|8,0:2|0:2,0:0:0:0:
91,347,70533,1,2,3:2:0:0:
91,347,70724,5,8,3:2:0:0:
86,239,71106,1,8,0:3:0:0:
27,148,71488,2,0,B|86:125|86:125|165:151,1,120,8|8,0:2|0:2,0:0:0:0:
187,168,72061,1,2,0:3:0:0:
229,71,72443,5,8,0:2:0:0:
229,71,72634,1,8,0:2:0:0:
339,95,73017,1,10,0:3:0:0:
339,95,73208,2,0,L|417:111,1,60,8|8,0:2|0:2,0:0:0:0:
447,85,73590,6,0,L|458:221,1,120,6|2,3:2|3:2,0:0:0:0:
466,312,74354,1,2,0:2:0:0:
360,289,74736,1,2,3:2:0:0:
269,348,75119,1,2,0:2:0:0:
164,321,75501,2,0,P|93:345|39:338,1,120,2|0,3:2|0:0,0:0:0:0:
6,317,76074,1,2,3:2:0:0:
6,317,76265,1,2,3:2:0:0:
24,210,76647,6,0,P|95:186|149:193,1,120,6|2,3:2|3:2,0:0:0:0:
237,234,77412,1,2,0:2:0:0:
278,134,77794,1,2,3:2:0:0:
313,32,78176,2,0,L|439:17,1,120,2|2,3:2|3:2,0:0:0:0:
477,46,78749,1,8,0:2:0:0:
477,46,78940,2,0,P|497:124|475:177,1,120,10|2,0:2|3:2,0:0:0:0:
476,267,79705,6,0,B|378:262|426:181|311:195,1,180,6|8,3:2|0:2,0:0:0:0:
217,222,80660,1,2,3:2:0:0:
235,328,81042,1,10,0:2:0:0:
128,346,81424,2,0,L|106:215,1,120,2|10,0:2|0:2,0:0:0:0:
65,193,81998,1,2,3:2:0:0:
48,86,82380,2,0,B|83:71|83:71|166:100,1,120,2|0,3:2|3:0,0:0:0:0:
210,118,82953,6,0,L|339:94,1,120,14|0,0:2|3:0,0:0:0:0:
363,136,83526,2,0,L|319:259,1,120,14|0,0:2|3:0,0:0:0:0:
362,286,84099,1,14,0:2:0:0:
432,367,84482,2,0,L|525:354,2,90,8|8|8,0:2|0:2|0:2,0:0:0:0:
379,379,85246,2,0,B|323:372|323:372|313:377|313:377|240:367,1,120,10|8,0:2|0:2,0:0:0:0:
224,328,85819,6,0,B|128:349|160:263|61:277,1,180,6|10,3:2|0:2,0:0:0:0:
9,183,86775,1,10,3:2:0:0:
100,125,87157,1,8,0:2:0:0:
100,125,87348,6,0,B|198:110|166:196|262:175,1,180,6|10,3:2|0:2,0:0:0:0:
341,102,88303,1,10,0:2:0:0:
438,148,88685,1,8,0:2:0:0:
438,148,88877,6,0,B|421:286,1,120,6|2,3:2|3:2,0:0:0:0:
415,323,89450,1,8,0:2:0:0:
415,323,89641,2,0,L|340:333,1,60,2|8,3:2|0:2,0:0:0:0:
312,298,90023,2,0,L|252:290,2,60,2|8|0,3:2|0:2|3:0,0:0:0:0:
341,252,90596,5,10,0:2:0:0:
320,146,90978,1,10,0:2:0:0:
320,146,91170,2,0,L|311:78,2,60,2|8|0,3:2|0:2|3:0,0:0:0:0:
282,184,91743,1,8,0:2:0:0:
186,133,92125,6,0,B|168:214|168:214|178:226|178:226|154:327,1,180,6|0,3:2|3:0,0:0:0:0:
146,357,92889,1,8,0:2:0:0:
256,340,93271,1,0,3:0:0:0:
256,340,93462,6,0,B|307:325|307:325|389:343,1,120,4|8,3:2|0:2,0:0:0:0:
478,216,94418,2,0,P|485:150|420:196,1,180,8|0,0:2|0:0,0:0:0:0:
379,226,95182,6,0,B|303:242|303:242|238:213|238:213|133:235,1,240,6|10,1:1|0:1,0:0:0:0:
110,192,96138,2,0,L|29:183,2,60,2|2|2,0:1|0:1|0:1,0:0:0:0:
145,150,96711,5,2,1:1:0:0:
160,43,97093,2,0,L|283:54,1,120,0|10,0:0|0:1,0:0:0:0:
326,90,97666,1,2,0:1:0:0:
326,90,97857,2,0,L|398:80,1,60,2|2,0:1|0:1,0:0:0:0:
429,113,98240,6,0,B|468:134|468:134|430:229|430:229,1,120,2|2,1:1|0:1,0:0:0:0:
443,312,99004,2,0,L|373:303,1,60,10|2,0:1|0:1,0:0:0:0:
346,265,99386,6,0,B|223:248|266:358|134:345,1,240,6|2,1:1|0:1,0:0:0:0:
39,290,100533,2,0,B|58:230|58:230|133:251,1,120,8|0,0:1|0:0,0:0:0:0:
199,181,101297,6,0,B|180:69|180:69|326:44,1,240,6|10,1:1|0:1,0:0:0:0:
411,32,102443,1,2,0:1:0:0:
375,134,102826,6,0,L|280:150,2,90,2|2|2,1:1|0:1|0:1,0:0:0:0:
410,174,103590,2,0,L|499:186,2,90,10|2|2,0:1|0:1|0:1,0:0:0:0:
382,220,104354,6,0,P|343:315|289:236,1,240,2|10,1:1|0:1,0:0:0:0:
319,135,105501,1,2,0:1:0:0:
245,55,105883,6,0,L|108:68,1,120,2|10,1:1|0:1,0:0:0:0:
84,168,106647,1,10,0:1:0:0:
84,168,106838,2,0,L|203:181,1,120,2|2,1:1|0:1,0:0:0:0:
256,192,107412,5,4,1:1:0:0:
256,192,107603,12,2,110469,0:2:0:0:
