osu file format v14

[General]
AudioFilename: audio.mp3
AudioLeadIn: 0
PreviewTime: 49705
Countdown: 0
SampleSet: Soft
StackLeniency: 0.6
Mode: 0
LetterboxInBreaks: 0
WidescreenStoryboard: 0

[Editor]
Bookmarks: 118965
DistanceSpacing: 0.4
BeatDivisor: 4
GridSize: 8
TimelineZoom: 1.9

[Metadata]
Title:The Whole Rest
TitleUnicode:The Whole Rest
Artist:KIVA
ArtistUnicode:KIVĪ›
Creator:SaltyLucario
Version:Lost
Source:Cytus II
Tags:2 saltking salty browiec opening op k a-tse rua eajrock yichen chris hemingway shao-ting sun mobile video rhythm game electronic pop rock jazz english rayark inc. short ver. version
BeatmapID:2752357
BeatmapSetID:1328714

[Difficulty]
HPDrainRate:5
CircleSize:4.7
OverallDifficulty:9
ApproachRate:9.3
SliderMultiplier:1.7
SliderTickRate:1

[Events]
//Background and Video events
Video,1918,"video.mp4"
0,0,"a.png",0,0
//Break Periods
//Storyboard Layer 0 (Background)
//Storyboard Layer 1 (Fail)
//Storyboard Layer 2 (Pass)
//Storyboard Layer 3 (Foreground)
//Storyboard Layer 4 (Overlay)
//Storyboard Sound Samples

[TimingPoints]
3463,382.165605095541,4,2,1,30,1,0
3463,-200,4,2,1,30,0,0
3845,-83.3333333333333,4,2,99,5,0,0
4036,-200,4,2,1,30,0,0
4418,-83.3333333333333,4,2,99,5,0,0
4609,-200,4,2,1,30,0,0
4991,-83.3333333333333,4,2,99,5,0,0
5182,-200,4,2,1,30,0,0
6902,-83.3333333333333,4,2,99,5,0,0
7093,-200,4,2,1,30,0,0
7475,-83.3333333333333,4,2,99,5,0,0
7666,-200,4,2,1,30,0,0
8048,-83.3333333333333,4,2,99,5,0,0
8240,-208.333333333333,4,2,1,30,0,0
9004,-100,4,2,1,50,0,0
9577,-100,4,2,1,60,0,0
11870,-100,4,2,2,60,0,0
12252,-100,4,2,1,60,0,0
12634,-100,4,2,1,70,0,0
15310,-100,4,2,2,75,0,0
15692,-133.333333333333,4,2,2,40,0,0
17412,-133.333333333333,4,2,1,40,0,0
18749,-83.3333333333333,4,2,1,40,0,0
19036,-83.3333333333333,4,2,99,5,0,0
19131,-133.333333333333,4,2,1,40,0,0
24768,-100,4,2,1,40,0,0
24816,-83.3333333333333,4,2,99,5,0,0
24864,-100,4,2,1,55,0,0
30787,-100,4,2,3,55,0,0
30883,-100,4,2,1,55,0,0
30931,-83.3333333333333,4,2,99,5,0,0
30978,-100,4,2,1,55,0,0
32794,-83.3333333333333,4,2,99,5,0,0
32889,-100,4,2,1,55,0,0
33988,-83.3333333333333,4,2,99,5,0,0
34036,-100,4,2,1,55,0,0
36329,-76.9230769230769,4,2,1,62,0,0
36711,-100,4,2,3,70,0,0
37093,-58.8235294117647,4,2,2,70,0,0
37380,-83.3333333333333,4,2,99,5,0,0
37475,-58.8235294117647,4,2,2,70,0,0
37571,-83.3333333333333,4,2,99,5,0,0
37666,-58.8235294117647,4,2,2,70,0,0
37810,-83.3333333333333,4,2,99,5,0,0
37857,-58.8235294117647,4,2,2,70,0,0
38192,-83.3333333333333,4,2,99,5,0,0
38240,-200,4,2,1,70,0,0
38335,-83.3333333333333,4,2,99,5,0,0
38431,-200,4,2,1,70,0,0
38526,-83.3333333333333,4,2,99,5,0,0
38622,-58.8235294117647,4,2,2,70,0,0
38908,-83.3333333333333,4,2,99,5,0,0
39004,-58.8235294117647,4,2,2,70,0,0
39673,-83.3333333333333,4,2,99,5,0,0
39768,-58.8235294117647,4,2,2,70,0,0
39864,-83.3333333333333,4,2,99,5,0,0
39959,-58.8235294117647,4,2,2,70,0,0
40055,-83.3333333333333,4,2,99,5,0,0
40150,-50,4,2,2,70,0,0
40437,-83.3333333333333,4,2,99,5,0,0
40533,-58.8235294117647,4,2,2,70,0,0
40628,-83.3333333333333,4,2,99,5,0,0
40724,-58.8235294117647,4,2,2,70,0,0
40867,-83.3333333333333,4,2,99,5,0,0
40915,-58.8235294117647,4,2,2,70,0,0
41106,-58.8235294117647,4,2,1,70,0,0
41679,-58.8235294117647,4,2,2,70,0,0
42443,-43.4782608695652,4,2,3,70,0,0
42730,-83.3333333333333,4,2,99,5,0,0
42826,-58.8235294117647,4,2,2,70,0,0
42921,-83.3333333333333,4,2,99,5,0,0
43017,-58.8235294117647,4,2,2,70,0,0
43112,-83.3333333333333,4,2,99,5,0,0
43208,-58.8235294117647,4,2,4,70,0,0
43494,-83.3333333333333,4,2,99,5,0,0
43590,-47.6190476190476,4,2,2,70,0,0
43877,-83.3333333333333,4,2,99,5,0,0
43972,-47.6190476190476,4,2,2,70,0,0
44163,-47.6190476190476,4,2,1,70,0,0
44354,-47.6190476190476,4,2,2,70,0,0
44641,-83.3333333333333,4,2,99,5,0,0
44736,-33.3333333333333,4,2,2,70,0,0
44880,-83.3333333333333,4,2,99,5,0,0
44927,-47.6190476190476,4,2,2,70,0,0
45214,-83.3333333333333,4,2,99,5,0,0
45310,-47.6190476190476,4,2,2,70,0,0
45596,-47.6190476190476,4,2,1,70,0,0
46170,-83.3333333333333,4,2,99,5,0,0
46265,-47.6190476190476,4,2,2,70,0,0
46552,-83.3333333333333,4,2,99,5,0,0
46647,-47.6190476190476,4,2,2,70,0,0
46934,-83.3333333333333,4,2,99,5,0,0
47029,-66.6666666666667,4,2,2,70,0,0
47316,-83.3333333333333,4,2,99,5,0,0
47412,-66.6666666666667,4,2,1,70,0,0
47698,-83.3333333333333,4,2,99,5,0,0
47794,-66.6666666666667,4,2,2,70,0,0
48080,-83.3333333333333,4,2,99,5,0,0
48176,-66.6666666666667,4,2,2,70,0,0
49322,-133.333333333333,4,2,2,40,0,0
49705,-133.333333333333,4,2,1,40,0,0
55437,-100,4,2,2,50,0,0
55724,-83.3333333333333,4,2,99,5,0,0
55819,-100,4,2,2,50,0,0
57252,-83.3333333333333,4,2,99,5,0,0
57348,-100,4,2,2,50,0,0
58494,-100,4,2,2,55,0,0
60023,-100,4,2,2,65,0,0
60787,-100,4,2,2,75,0,0
61552,-133.333333333333,4,2,2,35,0,0
62316,-133.333333333333,4,2,1,35,0,0
66138,-100,4,2,1,35,0,0
66806,-83.3333333333333,4,2,99,5,0,0
66902,-100,4,2,3,50,0,0
67093,-100,4,2,1,50,0,0
67475,-76.9230769230769,4,2,1,65,0,0
71106,-76.9230769230769,4,2,4,65,0,0
71201,-76.9230769230769,4,2,1,65,0,0
73017,-76.9230769230769,4,2,5,75,0,0
73208,-76.9230769230769,4,2,1,75,0,0
73590,-68.9655172413793,4,2,1,75,0,0
73877,-83.3333333333333,4,2,99,5,0,0
73972,-68.9655172413793,4,2,1,75,0,0
76934,-83.3333333333333,4,2,99,5,0,0
77029,-68.9655172413793,4,2,1,75,0,0
82953,-68.9655172413793,4,2,1,80,0,0
84673,-68.9655172413793,4,2,1,72,0,0
85819,-68.9655172413793,4,2,1,65,0,0
89163,-83.3333333333333,4,2,99,5,0,0
89259,-68.9655172413793,4,2,1,65,0,0
90501,-83.3333333333333,4,2,99,5,0,0
90596,-68.9655172413793,4,2,1,70,0,0
92125,-133.333333333333,4,2,1,50,0,0
92889,-111.111111111111,4,2,1,50,0,0
93654,-95.2380952380952,4,2,1,50,0,0
94418,-76.9230769230769,4,2,1,50,0,0
95182,-66.6666666666667,4,2,4,65,0,0
95851,-83.3333333333333,4,2,99,5,0,0
95947,-100,4,2,1,65,0,0
96138,-66.6666666666667,4,2,1,65,0,0
96233,-83.3333333333333,4,2,99,5,0,0
96329,-66.6666666666667,4,2,1,65,0,0
96424,-83.3333333333333,4,2,99,5,0,0
96520,-66.6666666666667,4,2,1,65,0,0
96615,-83.3333333333333,4,2,99,5,0,0
96711,-66.6666666666667,4,2,4,65,0,0
97189,-83.3333333333333,4,2,99,5,0,0
97284,-66.6666666666667,4,2,4,65,0,0
97380,-83.3333333333333,4,2,99,5,0,0
97475,-66.6666666666667,4,2,1,65,0,0
97762,-83.3333333333333,4,2,99,5,0,0
97857,-66.6666666666667,4,2,1,65,0,0
97953,-83.3333333333333,4,2,99,5,0,0
98048,-66.6666666666667,4,2,1,65,0,0
98144,-83.3333333333333,4,2,99,5,0,0
98240,-47.6190476190476,4,2,4,65,0,0
98526,-83.3333333333333,4,2,99,5,0,0
98622,-83.3333333333333,4,2,4,65,0,0
99004,-83.3333333333333,4,2,1,65,0,0
99386,-66.6666666666667,4,2,4,65,0,0
100055,-83.3333333333333,4,2,99,5,0,0
100150,-133.333333333333,4,2,4,65,0,0
100533,-66.6666666666667,4,2,1,65,0,0
101297,-66.6666666666667,4,2,4,65,0,0
101584,-83.3333333333333,4,2,99,5,0,0
101679,-50,4,2,4,65,0,0
101966,-83.3333333333333,4,2,99,5,0,0
102061,-83.3333333333333,4,2,1,65,0,0
102826,-83.3333333333333,4,2,4,65,0,0
103017,-83.3333333333333,4,2,99,5,0,0
103112,-83.3333333333333,4,2,4,65,0,0
103303,-83.3333333333333,4,2,99,5,0,0
103399,-83.3333333333333,4,2,4,65,0,0
103494,-83.3333333333333,4,2,99,5,0,0
103590,-83.3333333333333,4,2,1,65,0,0
103781,-83.3333333333333,4,2,99,5,0,0
103877,-83.3333333333333,4,2,1,65,0,0
104068,-83.3333333333333,4,2,99,5,0,0
104163,-83.3333333333333,4,2,1,65,0,0
104259,-83.3333333333333,4,2,99,5,0,0
104354,-71.4285714285714,4,2,4,65,0,0
105023,-83.3333333333333,4,2,99,5,0,0
105119,-71.4285714285714,4,2,1,65,0,0
105883,-71.4285714285714,4,2,4,65,0,0
106265,-71.4285714285714,4,2,1,65,0,0
106552,-83.3333333333333,4,2,99,5,0,0
106647,-71.4285714285714,4,2,1,65,0,0
106838,-71.4285714285714,4,2,4,65,0,0
107412,-200,4,2,4,65,0,0
107507,-200,4,2,4,30,0,0
108558,-200,4,2,1,30,0,0
108940,-83.3333333333333,4,2,99,5,0,0
109131,-200,4,2,1,30,0,0
110851,-83.3333333333333,4,2,99,5,0,0
111042,-200,4,2,1,30,0,0
111424,-83.3333333333333,4,2,99,5,0,0
111615,-200,4,2,1,30,0,0
112953,-83.3333333333333,4,2,99,5,0,0
113144,-200,4,2,1,30,0,0
113335,-83.3333333333333,4,2,99,5,0,0
113526,-200,4,2,1,30,0,0

[Colours]
Combo1 : 80,175,216
Combo2 : 211,173,224
Combo3 : 204,104,106
Combo4 : 216,225,96

[HitObjects]
475,142,3463,6,0,P|423:122|390:121,1,85,2|0,0:2|0:0,0:0:0:0:
306,212,4036,2,0,P|349:176|366:148,1,85,2|0,0:2|0:0,0:0:0:0:
330,28,4609,2,0,P|338:83|354:112,1,85,2|0,0:2|0:0,0:0:0:0:
423,201,5182,1,2,0:2:0:0:
82,147,6520,6,0,P|134:127|167:126,1,85,2|0,0:2|0:0,0:0:0:0:
251,217,7093,2,0,P|207:181|190:153,1,85,2|0,0:2|0:0,0:0:0:0:
227,33,7666,2,0,P|218:88|202:117,1,85,2|0,0:2|0:0,0:0:0:0:
134,205,8240,2,0,P|197:196|255:219,1,122.400002988281,2|2,0:2|0:2,0:0:0:0:
210,365,9004,5,8,0:3:0:0:
206,333,9099,1,8,0:3:0:0:
201,299,9195,1,10,0:2:0:0:
277,309,9291,1,8,0:2:0:0:
353,318,9386,1,0,3:0:0:0:
349,302,9482,1,0,3:0:0:0:
345,285,9577,5,14,0:2:0:0:
404,234,9768,1,0,3:0:0:0:
477,259,9959,1,0,3:0:0:0:
325,267,10150,5,14,0:2:0:0:
353,183,10341,1,0,3:0:0:0:
439,166,10532,1,0,3:0:0:0:
291,259,10724,5,10,0:2:0:0:
270,160,10915,1,0,3:0:0:0:
345,95,11106,1,0,3:0:0:0:
253,265,11297,5,10,0:2:0:0:
176,180,11488,1,0,3:0:0:0:
213,74,11679,1,0,3:0:0:0:
255,265,11870,5,10,0:3:0:0:
213,74,12061,1,0,3:0:0:0:
71,302,12252,5,10,0:2:0:0:
96,112,12443,1,0,3:0:0:0:
254,350,12634,5,14,0:2:0:0:
171,253,12825,1,0,3:0:0:0:
44,281,13016,1,0,3:0:0:0:
291,336,13208,5,14,0:2:0:0:
264,197,13399,1,0,3:0:0:0:
128,154,13590,1,0,3:0:0:0:
328,339,13781,5,10,0:2:0:0:
378,191,13972,1,0,3:0:0:0:
272,75,14163,1,0,3:0:0:0:
367,356,14354,5,2,3:2:0:0:
503,241,14545,1,8,0:3:0:0:
459,69,14736,1,8,0:3:0:0:
368,338,14927,5,10,3:2:0:0:
373,308,15023,1,0,3:0:0:0:
378,278,15119,1,0,3:0:0:0:
383,248,15214,1,0,3:0:0:0:
441,205,15310,5,10,3:3:0:0:
437,181,15406,1,0,3:0:0:0:
433,157,15502,1,0,3:0:0:0:
429,133,15597,1,0,3:0:0:0:
374,92,15692,6,0,B|312:134|309:67|231:110,1,127.500004863739,4|0,3:2|0:0,0:0:0:0:
101,172,16265,1,0,3:0:0:0:
162,88,16456,2,0,L|179:240,1,127.500004863739,2|0,0:2|0:0,0:0:0:0:
260,282,17029,2,0,L|269:206,1,63.7500024318696,2|0,0:2|0:0,0:0:0:0:
188,337,17412,5,0,1:0:0:0:
250,358,17507,1,0,3:0:0:0:
260,363,17603,1,0,3:0:0:0:
183,256,17794,2,0,L|117:274,1,63.7500024318696,0|0,0:0|1:0,0:0:0:0:
329,316,18176,1,0,3:0:0:0:
329,316,18749,6,0,B|348:310|348:310|367:321|367:321|391:315|391:315|420:339|458:348|457:274|423:284|397:303,1,152.999995330811,2|0,3:2|0:0,0:0:0:0:
384,243,19131,6,0,P|411:204|418:167,1,63.7500024318696,0|0,0:0|3:0,0:0:0:0:
457,86,19513,2,0,P|477:110|488:140,1,63.7500024318696,0|0,1:0|0:0,0:0:0:0:
332,185,19896,5,2,0:2:0:0:
349,90,20087,2,0,B|355:55,1,31.8750012159348,2|0,0:2|0:0,0:0:0:0:
342,203,20278,2,0,P|291:212|210:187,1,127.500004863739,2|2,0:2|0:2,0:0:0:0:
89,207,20851,2,0,P|128:175|168:168,1,63.7500024318696,2|0,0:2|0:0,0:0:0:0:
211,282,21233,2,0,P|171:250|131:243,1,63.7500024318696,2|0,1:2|0:0,0:0:0:0:
86,290,21615,1,2,0:2:0:0:
189,174,21806,6,0,L|180:110,1,63.7500024318696,0|0,3:0|0:0,0:0:0:0:
157,0,22189,1,0,0:0:0:0:
284,87,22380,1,0,3:0:0:0:
286,71,22475,1,0,3:0:0:0:
289,58,22571,2,0,L|210:43,1,63.7500024318696,0|0,1:0|0:0,0:0:0:0:
383,13,22953,2,0,L|472:29,1,63.7500024318696,2|0,0:2|0:0,0:0:0:0:
484,180,23335,5,2,0:2:0:0:
395,133,23526,1,0,1:0:0:0:
331,149,23622,1,0,3:0:0:0:
321,152,23717,1,0,3:0:0:0:
397,246,23908,5,2,0:2:0:0:
417,122,24099,2,0,L|430:48,1,63.7500024318696,0|0,1:0|3:0,0:0:0:0:
235,0,24482,5,2,0:2:0:0:
251,167,24673,1,2,0:3:0:0:
191,140,24768,2,0,L|204:106,1,21.25,2|0,0:3|0:0,0:0:0:0:
131,114,24864,5,4,3:2:0:0:
113,218,25055,1,0,0:0:0:0:
122,46,25246,5,8,0:2:0:0:
170,260,25437,1,0,0:0:0:0:
20,169,25628,5,2,3:2:0:0:
252,105,25819,1,2,3:2:0:0:
170,260,26010,1,8,0:2:0:0:
274,68,26201,6,0,L|368:82,1,85,2|0,0:2|3:0,0:0:0:0:
323,298,26584,2,0,B|303:271|303:271|315:232|295:195,1,85,2|8,0:2|0:2,0:0:0:0:
503,75,26966,2,0,B|493:101|504:125|504:125|485:151,1,85,2|0,0:2|3:0,0:0:0:0:
388,266,27348,1,2,3:2:0:0:
327,79,27539,1,8,0:2:0:0:
403,190,27730,2,0,L|411:147,2,28.3333333333333,2|2|2,0:3|0:3|0:3,0:0:0:0:
333,159,27921,5,0,3:0:0:0:
185,188,28112,1,0,0:0:0:0:
403,190,28303,5,8,0:2:0:0:
171,115,28494,1,0,0:0:0:0:
268,251,28685,5,2,3:2:0:0:
341,84,28877,2,0,B|348:62|348:62|328:-13,1,85,2|8,3:2|0:2,0:0:0:0:
137,98,29258,5,2,3:2:0:0:
272,65,29449,1,0,0:0:0:0:
103,169,29641,2,0,B|126:172|126:172|141:189|141:189|159:199|203:201,1,85,2|8,3:2|0:2,0:0:0:0:
407,126,30023,2,0,B|384:129|384:129|368:146|368:146|351:156|307:158,1,85,2|0,0:2|3:0,0:0:0:0:
444,305,30405,5,2,3:2:0:0:
441,265,30500,1,0,0:0:0:0:
438,226,30596,1,8,0:2:0:0:
260,160,30787,1,10,0:3:0:0:
244,224,30882,2,0,L|212:218,1,21.25,8|0,0:3|0:0,0:0:0:0:
228,287,30978,5,4,3:2:0:0:
192,138,31170,1,0,0:0:0:0:
138,342,31361,2,0,B|153:329|153:329|128:295|152:234,1,85,8|0,0:2|0:0,0:0:0:0:
276,121,31743,2,0,B|287:153|265:183|265:183|280:196,1,85,0|0,3:0|3:0,0:0:0:0:
427,324,32125,1,10,0:2:0:0:
462,138,32316,1,2,0:2:0:0:
322,291,32507,6,0,B|288:298|288:298|203:246,1,127.5,2|0,3:2|0:0,0:0:0:0:
150,206,32889,1,10,0:2:0:0:
289,60,33080,2,0,L|295:178,1,85,2|0,0:2|3:0,0:0:0:0:
74,229,33462,2,0,L|78:144,1,85,2|8,3:2|0:2,0:0:0:0:
301,222,33845,1,10,0:2:0:0:
237,238,33940,2,0,L|243:273,1,21.25,8|0,0:2|0:0,0:0:0:0:
174,254,34036,5,4,3:2:0:0:
209,151,34227,1,0,0:0:0:0:
209,332,34418,5,8,0:2:0:0:
151,105,34609,1,0,0:0:0:0:
55,215,34800,5,0,3:0:0:0:
174,254,34991,1,0,3:0:0:0:
266,47,35182,5,8,0:2:0:0:
147,86,35373,1,0,3:0:0:0:
289,218,35564,5,0,0:0:0:0:
431,250,35755,2,0,L|353:231,1,42.5,0|0,3:0|3:0,0:0:0:0:
251,137,35947,5,10,0:2:0:0:
269,132,36042,1,0,3:0:0:0:
290,127,36138,1,0,3:0:0:0:
307,124,36233,1,0,3:0:0:0:
326,121,36329,6,0,L|434:144,2,73.6666632944744,10|8|8,0:2|0:3|0:3,3:0:0:0:
221,218,36711,1,10,0:3:0:0:
261,286,36838,1,8,0:3:0:0:
318,234,36966,1,8,0:3:0:0:
347,347,37093,6,0,B|296:354|296:354|275:321|275:321|107:292,1,216.750004134178,6|0,1:2|0:0,0:0:0:0:
56,307,37475,2,0,L|160:325,1,72.2500013780594,8|0,0:1|0:0,0:0:0:0:
318,234,37666,6,0,B|276:230|276:230|267:214|267:214|188:222,1,108.375002067089,2|0,0:2|0:0,0:0:0:0:
151,225,37857,1,0,1:0:0:0:
360,160,38048,2,0,B|318:156|318:156|309:140|309:140|230:148,1,108.375002067089
190,150,38240,6,0,L|192:128,1,21.25,10|0,0:1|0:0,0:0:0:0:
239,74,38431,2,0,L|241:52,1,21.25,2|0,0:1|0:0,0:0:0:0:
413,280,38622,6,0,B|396:228|396:228|432:197|432:197|434:54,1,216.750004134178,2|0,1:2|0:0,0:0:0:0:
408,17,39004,1,8,0:1:0:0:
512,201,39195,1,2,0:2:0:0:
274,138,39386,6,0,B|156:100|185:186|65:127,1,216.750004134178,0|0,1:0|0:0,0:0:0:0:
191,229,39768,2,0,B|212:228|229:237|229:237|243:222|263:218,1,72.2500013780594,8|0,0:1|0:0,0:0:0:0:
12,219,39959,2,0,B|25:216|39:201|39:201|56:210|77:209,1,72.2500013780594
142,382,40150,6,0,B|132:388|132:388|131:331|131:331|138:326|138:326|139:281|139:281|121:261|121:261|122:193|122:193|127:185|127:185|127:109,1,255,2|0,1:2|0:0,0:0:0:0:
134,64,40533,2,0,B|148:69|148:69|146:152,1,72.2500013780594,10|0,0:1|0:0,0:0:0:0:
260,273,40724,6,0,B|264:246|264:246|253:205|253:205|271:172|253:135,1,108.375002067089,2|0,0:2|0:0,0:0:0:0:
250,96,40915,1,0,1:0:0:0:
342,308,41106,2,0,B|349:264|349:264|338:223|338:223|356:173|340:140,1,144.500002756119,2|8,0:1|0:1,0:0:0:0:
122,251,41488,2,0,B|150:241|150:241|177:251|177:251|185:249|185:249|287:281,1,144.500002756119,2|0,0:1|1:0,0:0:0:0:
461,186,41870,5,2,0:2:0:0:
278,130,42061,1,10,0:1:0:0:
110,82,42252,1,2,0:2:0:0:
352,56,42443,6,0,B|366:23|366:23|366:112|366:112|372:119|372:119|371:169|371:169|349:184|349:184|343:343,1,293.2500055933,2|0,1:1|0:0,0:0:0:0:
481,235,42826,6,0,B|475:208|475:208|429:231|406:231,1,72.2500013780594,10|0,0:1|0:0,0:0:0:0:
349,364,43017,2,0,B|355:337|355:337|401:360|424:360,1,72.2500013780594,2|0,0:2|0:0,0:0:0:0:
274,172,43208,6,0,B|251:177|251:177|234:222|254:258|254:258|269:265|269:265|285:297|276:333|276:333|211:377,1,216.750004134178,2|0,1:1|0:0,0:0:0:0:
341,134,43590,2,0,B|315:103|315:103|254:93|201:116|201:116|185:144|185:144|149:134|74:151,1,267.749991828919,10|0,0:1|0:0,0:0:0:0:
40,169,43972,1,2,1:2:0:0:
254,26,44163,5,2,0:1:0:0:
332,34,44259,1,2,0:1:0:0:
406,43,44354,1,10,0:1:0:0:
280,253,44545,2,0,L|273:143,1,89.2499972763062,2|0,0:2|0:0,0:0:0:0:
460,97,44736,6,0,B|487:117|487:117|484:159|484:159|448:176|448:176|414:154|414:154|416:118,1,191.250007295609,0|0,1:0|0:0,0:0:0:0:
406,43,44927,5,2,0:2:0:0:
384,218,45119,2,0,B|413:240|413:240|385:244|385:244|378:285,1,89.2499972763062,10|0,0:1|0:0,0:0:0:0:
365,383,45310,1,2,0:2:0:0:
347,150,45501,5,2,1:2:0:0:
332,162,45596,1,2,0:1:0:0:
268,157,45692,1,2,0:1:0:0:
252,164,45787,1,2,0:1:0:0:
191,137,45883,1,10,0:1:0:0:
243,90,45978,5,2,0:1:0:0:
268,157,46074,2,0,B|258:225|258:225|227:237,1,89.2499972763062,2|0,0:1|0:0,0:0:0:0:
55,40,46265,6,0,B|90:72|90:72|56:125|56:125|84:279,1,267.749991828919,0|0,1:0|0:0,0:0:0:0:
128,3,46647,2,0,B|188:61|188:61|140:139|140:139|169:286,1,267.749991828919,8|0,0:1|0:0,0:0:0:0:
331,302,47029,6,0,B|364:257|364:257|230:240,1,191.250007295609,2|0,1:2|0:0,0:0:0:0:
107,304,47412,1,10,0:1:0:0:
150,308,47507,1,2,0:1:0:0:
193,313,47603,2,0,L|289:325,1,63.7500024318696,2|0,0:2|0:0,0:0:0:0:
405,156,47794,6,0,B|346:171|346:171|196:151,1,191.250007295609,0|0,1:0|0:0,0:0:0:0:
139,139,48176,1,10,0:1:0:0:
358,64,48367,5,0,0:0:0:0:
336,235,48558,1,2,1:2:0:0:
315,384,48749,1,0,0:0:0:0:
307,320,48845,1,0,1:0:0:0:
297,257,48940,5,10,0:1:0:0:
512,357,49131,1,0,1:0:0:0:
214,380,49322,6,0,B|196:365|196:365|186:238,1,127.500004863739,6|8,3:2|0:2,0:0:0:0:
197,171,49896,1,0,0:0:0:0:
197,171,50087,2,0,B|162:166|136:188|136:188|101:212|56:192,1,127.500004863739,2|10,0:2|0:2,0:0:0:0:
31,106,50660,2,0,P|68:112|96:125,1,63.7500024318696,2|0,0:2|0:0,0:0:0:0:
158,27,51042,2,0,P|121:33|93:46,1,63.7500024318696,2|8,0:2|0:2,0:0:0:0:
172,165,51424,2,0,L|166:89,1,63.7500024318696,2|0,0:2|0:0,0:0:0:0:
242,209,51806,2,0,L|251:76,1,127.500004863739,2|0,0:2|0:0,0:0:0:0:
337,161,52380,6,0,B|402:194|403:133|473:164,1,127.500004863739,2|10,0:2|0:2,0:0:0:0:
502,242,52953,2,0,L|425:230,1,63.7500024318696,2|0,0:2|0:0,0:0:0:0:
344,267,53335,2,0,P|370:209|333:159,1,127.500004863739,2|0,0:2|0:0,0:0:0:0:
239,210,53908,5,2,0:2:0:0:
239,210,54291,2,0,L|246:282,1,63.7500024318696,10|2,0:2|0:2,0:0:0:0:
184,363,54673,1,2,0:2:0:0:
162,279,54864,1,2,0:2:0:0:
267,345,55055,1,10,0:2:0:0:
135,384,55246,1,2,0:2:0:0:
81,170,55437,6,0,L|243:157,1,127.5,4|0,1:2|0:0,0:0:0:0:
48,150,55819,2,0,L|155:141,1,85,10|2,0:1|0:2,0:0:0:0:
289,132,56201,1,2,1:2:0:0:
186,13,56392,1,2,3:2:0:0:
180,43,56488,1,0,3:2:0:0:
174,73,56584,1,10,3:1:0:0:
136,233,56775,1,2,0:2:0:0:
180,43,56966,6,0,L|146:194,1,127.5,0|0,1:0|0:0,0:0:0:0:
136,234,57348,1,10,0:1:0:0:
291,197,57539,1,2,0:2:0:0:
237,333,57730,1,2,1:2:0:0:
231,305,57825,1,0,3:0:0:0:
225,276,57921,1,0,3:0:0:0:
219,248,58016,1,0,3:0:0:0:
213,219,58112,1,10,3:1:0:0:
245,104,58303,1,2,0:2:0:0:
340,244,58494,5,8,0:1:0:0:
384,97,58685,1,8,0:1:0:0:
242,0,58877,5,8,0:1:0:0:
279,193,59068,1,8,0:1:0:0:
132,75,59259,5,8,0:1:0:0:
372,24,59450,1,8,0:1:0:0:
405,218,59641,5,8,0:1:0:0:
112,153,59832,1,8,0:1:0:0:
259,368,60023,5,8,0:1:0:0:
282,322,60119,1,8,0:1:0:0:
280,271,60214,1,8,0:1:0:0:
250,229,60310,1,8,0:1:0:0:
203,209,60405,1,8,0:1:0:0:
152,217,60501,1,8,0:1:0:0:
114,250,60596,1,8,0:1:0:0:
98,298,60692,1,8,0:1:0:0:
110,347,60787,5,8,0:1:0:0:
147,311,60883,1,8,0:1:0:0:
152,256,60978,1,8,0:1:0:0:
122,203,61074,1,8,0:1:0:0:
115,139,61170,1,8,0:1:0:0:
152,84,61265,1,8,0:1:0:0:
221,69,61361,1,8,0:1:0:0:
279,107,61456,1,8,0:1:0:0:
277,179,61552,6,0,P|252:168|234:171,1,31.8750012159348,2|0,3:2|0:0,0:0:0:0:
278,179,62316,1,0,1:0:0:0:
368,217,62507,6,0,L|381:155,1,63.7500024318696,2|0,0:2|0:0,0:0:0:0:
334,275,62794,2,0,L|346:212,1,63.7500024318696,2|0,0:2|0:0,0:0:0:0:
295,329,63080,1,2,3:2:0:0:
316,262,63176,2,0,P|269:263|225:322,1,95.6250036478044
185,384,63654,5,0,0:0:0:0:
98,284,63845,2,0,P|65:264|27:261,1,76.5000029182435,2|0,1:2|0:0,0:0:0:0:
168,249,64227,2,0,P|186:207|186:163,1,85.0000032424928,2|0,3:2|3:0,0:0:0:0:
77,106,64609,6,0,P|78:148|95:186,1,85.0000032424928,2|0,3:2|0:0,0:0:0:0:
168,249,64991,1,2,3:2:0:0:
239,110,65246,1,0,0:0:0:0:
171,95,65373,1,2,1:2:0:0:
237,232,65628,1,0,0:0:0:0:
305,217,65755,2,0,L|389:202,1,63.7500024318696,2|0,3:2|0:0,0:0:0:0:
492,180,66138,1,2,3:2:0:0:
331,295,66520,6,0,B|288:302|288:302|257:291|257:291|187:302,1,127.5,2|0,3:2|0:0,0:0:0:0:
120,374,66902,5,10,0:3:0:0:
130,299,66998,1,8,0:3:0:0:
137,221,67093,1,0,3:0:0:0:
120,225,67189,1,0,3:0:0:0:
101,230,67284,2,0,L|40:247,1,42.5,8|0,0:2|0:0,0:0:0:0:
195,36,67475,6,0,B|192:86|223:119|223:119|195:146|195:146|248:193|204:270,1,220.999989883423,6|0,3:2|0:0,0:0:0:0:
384,339,68048,5,10,0:2:0:0:
415,116,68240,1,0,0:0:0:0:
238,186,68431,5,10,0:2:0:0:
339,261,68622,1,0,3:0:0:0:
512,157,68813,1,8,0:2:0:0:
297,72,69004,5,2,3:2:0:0:
360,273,69195,1,8,0:2:0:0:
488,295,69386,1,0,0:0:0:0:
372,69,69577,5,10,0:2:0:0:
181,112,69768,2,0,L|134:121,2,36.8333316472372,0|0|0,3:0|3:0|3:0,0:0:0:0:
294,169,69959,5,10,0:2:0:0:
154,204,70150,1,0,3:0:0:0:
3,54,70341,1,8,0:2:0:0:
249,56,70532,5,2,3:2:0:0:
75,279,70724,5,8,3:2:0:0:
74,269,70819,1,0,3:0:0:0:
73,258,70915,1,0,3:0:0:0:
72,248,71010,1,0,3:0:0:0:
123,196,71106,5,8,0:3:0:0:
124,186,71201,1,8,0:3:0:0:
125,175,71297,1,8,0:3:0:0:
126,165,71392,1,8,0:3:0:0:
88,102,71488,5,8,0:2:0:0:
108,94,71584,1,8,0:2:0:0:
140,93,71679,1,8,0:2:0:0:
176,111,71775,1,8,0:2:0:0:
218,136,71870,1,8,0:2:0:0:
275,137,71966,1,8,0:2:0:0:
329,83,72061,6,0,L|323:3,1,55.2499974708558,2|0,0:3|0:0,0:0:0:0:
421,228,72252,1,0,3:0:0:0:
427,219,72348,1,0,3:0:0:0:
433,211,72443,6,0,L|439:131,1,55.2499974708558,8|0,0:2|0:0,0:0:0:0:
254,8,72634,2,0,L|244:106,1,55.2499974708558,8|0,0:2|0:0,0:0:0:0:
212,252,72826,1,0,3:0:0:0:
222,247,72921,1,0,3:0:0:0:
230,242,73017,6,0,L|219:160,1,55.2499974708558,10|0,0:3|0:0,0:0:0:0:
469,282,73208,1,8,0:2:0:0:
415,296,73303,1,8,0:2:0:0:
365,271,73399,1,8,0:2:0:0:
354,217,73494,1,8,0:2:0:0:
395,151,73590,6,0,B|340:128|295:167|295:167|337:118|299:48,1,184.875005641937,6|0,3:2|0:0,0:0:0:0:
238,48,73972,5,2,3:2:0:0:
212,205,74163,1,8,0:2:0:0:
471,112,74354,5,2,0:2:0:0:
348,10,74545,1,0,3:0:0:0:
311,274,74736,5,2,3:2:0:0:
459,218,74927,1,8,0:2:0:0:
239,122,75119,6,0,L|106:98,1,123.250003761292,2|0,0:2|0:0,0:0:0:0:
42,254,75501,1,2,3:2:0:0:
239,215,75692,2,0,L|106:239,1,123.250003761292,8|0,0:2|0:0,0:0:0:0:
42,254,75978,1,0,3:0:0:0:
69,298,76074,1,2,3:2:0:0:
103,121,76265,2,0,L|82:-13,1,123.250003761292,2|8,3:2|0:2,0:0:0:0:
224,234,76647,6,0,B|251:209|292:199|331:226|331:226|361:201|399:208,1,184.875005641937,6|0,3:2|0:0,0:0:0:0:
383,286,77029,5,2,3:2:0:0:
317,134,77220,1,8,0:2:0:0:
120,278,77412,5,2,0:2:0:0:
281,297,77603,1,0,3:0:0:0:
264,46,77794,5,2,3:2:0:0:
165,177,77985,1,8,0:2:0:0:
444,232,78176,6,0,B|421:181|421:181|421:171|421:171|394:112,1,123.250003761292,2|0,3:2|0:0,0:0:0:0:
193,85,78558,1,2,3:2:0:0:
280,309,78749,5,8,0:2:0:0:
325,39,78940,1,10,0:2:0:0:
388,178,79131,1,0,3:0:0:0:
218,144,79322,2,0,L|82:163,1,123.250003761292,2|8,3:2|0:2,0:0:0:0:
296,328,79705,6,0,B|272:285|306:235|306:235|285:210|285:210|327:157|288:94,1,246.500007522583,6|0,3:2|3:0,0:0:0:0:
97,232,80278,2,0,L|217:259,1,123.250003761292,8|0,0:2|0:0,0:0:0:0:
429,316,80660,5,2,3:2:0:0:
408,171,80851,1,0,3:0:0:0:
247,116,81042,5,10,0:2:0:0:
217,259,81233,1,0,3:0:0:0:
429,156,81424,6,0,L|405:21,1,123.250003761292,2|0,0:2|3:0,0:0:0:0:
481,43,81711,1,0,3:0:0:0:
512,52,81806,1,10,0:2:0:0:
277,76,81998,2,0,L|138:49,1,123.250003761292,2|0,3:2|0:0,0:0:0:0:
333,224,82380,1,2,3:2:0:0:
334,235,82443,1,0,3:0:0:0:
336,247,82507,1,0,3:0:0:0:
366,265,82571,2,0,L|392:125,1,123.250003761292,8|0,0:2|3:0,0:0:0:0:
370,369,82953,5,14,0:2:0:0:
213,284,83144,1,0,3:0:0:0:
64,375,83335,1,0,3:0:0:0:
217,84,83526,5,14,0:2:0:0:
222,268,83717,1,0,3:0:0:0:
384,356,83908,1,0,3:0:0:0:
38,372,84099,5,14,0:2:0:0:
201,270,84290,1,0,3:0:0:0:
196,76,84481,1,8,0:2:0:0:
102,210,84673,5,0,3:0:0:0:
118,144,84768,1,8,0:2:0:0:
293,201,84959,5,0,3:0:0:0:
267,138,85054,1,8,0:2:0:0:
207,342,85246,5,10,0:2:0:0:
201,270,85342,1,8,0:2:0:0:
195,197,85437,1,0,3:0:0:0:
217,204,85533,1,0,3:0:0:0:
243,209,85628,2,0,L|325:233,1,61.6250018806458,8|0,0:2|0:0,0:0:0:0:
434,36,85819,6,0,B|396:71|340:66|340:66|418:113|367:220,1,246.500007522583,6|0,3:2|3:0,0:0:0:0:
325,341,86392,5,10,0:2:0:0:
302,218,86584,1,0,3:0:0:0:
300,203,86679,1,0,3:0:0:0:
297,187,86775,5,10,3:2:0:0:
181,127,86966,1,0,3:0:0:0:
0,269,87157,1,8,0:2:0:0:
156,50,87348,6,0,B|225:36|263:82|267:127|267:127|302:76|377:103,1,246.500007522583,6|0,3:2|3:0,0:0:0:0:
512,190,87921,5,10,0:2:0:0:
368,176,88112,1,0,3:0:0:0:
351,174,88208,1,0,3:0:0:0:
331,173,88303,5,10,0:2:0:0:
233,272,88494,1,0,3:0:0:0:
29,146,88685,1,8,0:2:0:0:
220,348,88877,6,0,B|277:355|301:311|301:311|330:349|388:341,1,184.875005641937,6|0,3:2|0:0,0:0:0:0:
455,319,89259,1,2,3:2:0:0:
368,147,89450,5,8,0:2:0:0:
365,199,89545,1,8,0:2:0:0:
363,252,89641,1,2,3:2:0:0:
389,243,89736,1,0,3:0:0:0:
413,235,89832,1,8,0:2:0:0:
198,166,90023,5,2,3:2:0:0:
409,45,90214,1,8,0:2:0:0:
512,181,90405,2,0,B|496:164|496:164|494:154|494:154|473:128,1,61.6250018806458,0|0,3:0|0:0,0:0:0:0:
245,8,90596,5,10,0:2:0:0:
304,249,90787,1,0,3:0:0:0:
34,330,90978,5,10,0:2:0:0:
92,32,91169,1,2,3:2:0:0:
335,115,91361,1,8,0:2:0:0:
48,226,91552,1,0,3:0:0:0:
57,185,91647,1,0,3:0:0:0:
67,143,91743,6,0,P|120:125|176:138,1,82.1666691741944,8|8,0:2|0:2,0:0:0:0:
241,182,91998,1,8,0:2:0:0:
115,242,92125,6,0,B|155:238|155:238|200:267|200:267|251:261,1,127.500004863739,6|0,3:2|0:0,0:0:0:0:
327,180,92698,1,0,3:0:0:0:
354,344,92889,2,0,L|340:266,2,50.9999984436036,8|0|0,0:2|0:0|0:0,0:0:0:0:
433,238,93271,1,0,3:0:0:0:
249,132,93462,6,0,L|236:212,2,50.9999984436036,4|0|0,3:2|0:0|0:0,0:0:0:0:
387,44,93844,1,8,0:2:0:0:
401,112,93972,1,0,0:0:0:0:
323,143,94099,1,0,0:0:0:0:
312,219,94227,1,0,3:0:0:0:
133,47,94418,6,0,L|231:28,1,73.6666632944744,8|8,0:2|0:3,0:0:0:0:
239,182,94673,1,8,0:3:0:0:
165,154,94800,1,8,0:3:0:0:
111,244,94927,1,8,0:3:0:0:
21,199,95055,1,8,0:3:0:0:
152,328,95182,6,0,B|165:325|174:310|174:310|183:325|183:325|206:308|206:308|215:323|215:323|238:305|238:305|247:321|247:321|270:303|270:303|279:319|279:319|302:301|302:301|311:316|311:316|334:299|334:299|343:314|343:314|366:296|366:296|375:312|375:312|398:294|398:294|407:310|407:310|430:292|430:292|439:307|439:307|445:295|462:290|462:290,1,446.250017023087,6|0,1:1|0:0,0:0:0:0:
471,218,95947,1,10,0:1:0:0:
289,42,96138,6,0,B|319:52|319:52|342:75,1,63.7500024318696,2|0,0:1|0:0,0:0:0:0:
395,227,96329,2,0,B|389:192|389:192|397:162,1,63.7500024318696,2|0,0:1|0:0,0:0:0:0:
512,49,96520,2,0,B|484:71|484:71|455:77,1,63.7500024318696,2|0,0:1|0:0,0:0:0:0:
290,131,96711,6,0,B|310:146|310:146|204:160,1,127.500004863739,2|0,1:1|0:0,0:0:0:0:
140,169,96998,1,0,0:0:0:0:
73,180,97093,2,0,P|74:208|50:292,1,63.7500024318696
284,292,97284,2,0,P|272:250|266:207,1,63.7500024318696
57,322,97475,5,10,0:1:0:0:
179,85,97666,6,0,B|231:93|231:93|255:117,1,63.7500024318696,2|0,0:1|0:0,0:0:0:0:
73,180,97857,2,0,B|53:130|53:130|62:98,1,63.7500024318696,2|0,0:1|0:0,0:0:0:0:
199,232,98048,2,0,B|166:273|166:273|133:281,1,63.7500024318696,2|0,0:1|0:0,0:0:0:0:
288,36,98240,6,0,B|312:40|312:40|297:59|297:59|320:64|320:64|305:83|305:83|328:88|328:88|313:107|313:107|336:112|336:112|321:134|321:134|344:140|344:140|328:160|328:160|352:164|352:164,1,267.749991828919,2|0,1:1|0:0,0:0:0:0:
416,200,98622,2,0,P|419:150|432:86,1,101.999996887207,2|0,0:1|0:0,0:0:0:0:
460,287,99004,5,10,0:1:0:0:
441,276,99099,1,2,0:1:0:0:
375,296,99195,1,2,0:1:0:0:
356,285,99290,1,2,0:1:0:0:
287,303,99386,6,0,B|242:292|201:328|201:328|228:286|206:226|206:226|167:304|73:282|52:226|52:226|84:242|110:232,1,446.250017023087,6|0,1:1|0:0,0:0:0:0:
227,148,100150,6,0,B|206:142|206:142|188:145|188:145|164:137|164:137,1,63.7500024318696,2|0,0:1|0:0,0:0:0:0:
91,119,100437,1,0,1:0:0:0:
148,64,100533,6,0,B|189:72|189:72|184:64|184:64|248:80|248:80|280:88|296:116|296:116|322:125|355:104,1,191.250007295609,8|8,0:1|0:3,0:0:0:0:
372,164,100915,2,0,L|383:87,1,63.7500024318696,2|2,0:1|0:1,0:0:0:0:
500,48,101106,1,8,0:3:0:0:
498,58,101201,1,0,0:3:0:0:
456,117,101297,6,0,L|427:338,1,191.250007295609,6|0,1:1|0:0,0:0:0:0:
316,228,101679,2,0,B|339:225|339:225|349:241|349:241|342:257|342:257|318:259|318:259|300:229|300:229|292:238|292:238|276:231|276:231|268:240|268:240|252:233|252:233|244:242|244:242|228:235|228:235|221:244|221:244|204:237|204:237|197:246|197:246|180:239|180:239,1,255
167,350,102061,6,0,P|222:321|271:313,1,101.999996887207,10|0,0:1|0:0,0:0:0:0:
108,198,102443,2,0,P|53:169|4:161,1,101.999996887207,2|0,0:1|0:0,0:0:0:0:
221,41,102826,6,0,B|238:90|233:123|233:123|190:166,1,101.999996887207,2|0,1:1|0:0,0:0:0:0:
77,139,103112,2,0,B|110:99|142:87|142:87|200:103,1,101.999996887207,2|0,0:1|0:0,0:0:0:0:
241,216,103399,2,0,B|190:206|163:185|163:185,1,50.9999984436036,2|0,0:1|0:0,0:0:0:0:
303,20,103590,6,0,B|303:71|319:101|319:101|374:126,1,101.999996887207,10|0,0:1|0:0,0:0:0:0:
498,158,103877,2,0,B|452:132|419:131|419:131|369:166,1,101.999996887207,2|0,0:1|0:0,0:0:0:0:
291,259,104163,2,0,B|335:232|352:203|352:203,1,50.9999984436036,2|0,0:1|0:0,0:0:0:0:
233,24,104354,6,0,B|234:95|269:151|269:151|218:118|170:125|170:125|144:213|208:260|208:260|203:238|232:199,1,416.499987289429,2|0,1:1|0:0,0:0:0:0:
101,94,105119,2,0,P|86:163|94:240,1,118.999996368408,10|0,0:1|0:0,0:0:0:0:
283,267,105501,2,0,P|283:207|269:149,1,118.999996368408,2|0,0:1|0:0,0:0:0:0:
101,312,105882,6,0,P|175:323|251:374,1,118.999996368408,2|0,1:1|0:0,0:0:0:0:
419,193,106265,2,0,B|355:192|307:223|307:223|356:211|391:237,1,178.499994552612,10|0,0:1|0:0,0:0:0:0:
441,289,106647,1,10,0:1:0:0:
366,83,106838,6,0,B|381:110|411:118|411:118|350:116|259:165,1,178.499994552612,2|0,1:1|0:0,0:0:0:0:
212,210,107220,1,2,0:1:0:0:
218,162,107316,1,2,0:1:0:0:
227,114,107412,6,0,B|150:162|142:70|58:117|58:117|84:124|95:141,1,212.5,4|0,1:1|0:0,0:0:0:0:
203,201,108558,2,0,P|166:207|119:249,1,85,2|0,0:2|0:0,0:0:0:0:
140,345,109131,2,0,P|153:309|140:248,1,85,2|2,0:2|0:2,0:0:0:0:
139,247,109609,1,2,0:2:0:0:
128,234,109705,2,0,P|94:249|73:251,1,42.5,2|0,0:2|0:0,0:0:0:0:
149,153,110087,2,0,P|169:158|188:168,1,42.5,2|0,0:2|0:0,0:0:0:0:
244,266,110469,6,0,P|254:221|286:185,1,85,2|0,0:2|0:0,0:0:0:0:
384,207,111042,2,0,P|340:220|292:211,1,85,2|0,0:2|0:0,0:0:0:0:
257,112,111615,2,0,P|289:143|293:153,2,42.5,2|0|0,0:2|0:0|0:0,0:0:0:0:
218,185,112189,1,2,0:2:0:0:
405,81,112762,2,0,P|411:113|410:132,1,42.5,2|0,0:2|0:0,0:0:0:0:
329,79,113144,2,0,P|329:57|334:37,1,42.5,2|0,0:2|0:0,0:0:0:0:
408,0,113526,5,2,0:2:0:0:
