osu file format v14

[General]
AudioFilename: audio.mp3
AudioLeadIn: 0
PreviewTime: 49705
Countdown: 0
SampleSet: Soft
StackLeniency: 0.6
Mode: 0
LetterboxInBreaks: 0
WidescreenStoryboard: 1

[Editor]
Bookmarks: 30016,118965
DistanceSpacing: 0.4
BeatDivisor: 4
GridSize: 16
TimelineZoom: 1.9

[Metadata]
Title:The Whole Rest
TitleUnicode:The Whole Rest
Artist:KIVA
ArtistUnicode:KIVĪ›
Creator:SaltyLucario
Version:Insane
Source:Cytus II
Tags:2 saltking salty browiec opening op k a-tse rua eajrock yichen chris hemingway shao-ting sun mobile video rhythm game electronic pop rock jazz english rayark inc. short ver. version
BeatmapID:2752356
BeatmapSetID:1328714

[Difficulty]
HPDrainRate:5
CircleSize:4.3
OverallDifficulty:7.8
ApproachRate:9
SliderMultiplier:1.7
SliderTickRate:1

[Events]
//Background and Video events
Video,1918,"video.mp4"
0,0,"a.png",0,0
//Break Periods
//Storyboard Layer 0 (Background)
//Storyboard Layer 1 (Fail)
//Storyboard Layer 2 (Pass)
//Storyboard Layer 3 (Foreground)
//Storyboard Layer 4 (Overlay)
//Storyboard Sound Samples

[TimingPoints]
3463,382.165605095541,4,2,1,30,1,0
3463,-166.666666666667,4,2,1,30,0,0
3845,-83.3333333333333,4,2,99,5,0,0
4036,-166.666666666667,4,2,1,30,0,0
4418,-83.3333333333333,4,2,99,5,0,0
4609,-166.666666666667,4,2,1,30,0,0
4991,-83.3333333333333,4,2,99,5,0,0
5182,-166.666666666667,4,2,1,30,0,0
6902,-83.3333333333333,4,2,99,5,0,0
7093,-166.666666666667,4,2,1,30,0,0
7475,-83.3333333333333,4,2,99,5,0,0
7666,-166.666666666667,4,2,1,30,0,0
8048,-83.3333333333333,4,2,99,5,0,0
8240,-166.666666666667,4,2,1,30,0,0
9004,-100,4,2,1,50,0,0
9577,-100,4,2,1,60,0,0
11870,-100,4,2,2,60,0,0
12252,-100,4,2,1,60,0,0
12634,-100,4,2,1,70,0,0
15310,-100,4,2,2,75,0,0
15692,-153.846153846153,4,2,2,40,0,0
17412,-153.846153846153,4,2,1,40,0,0
19036,-83.3333333333333,4,2,99,5,0,0
19131,-153.846153846153,4,2,1,40,0,0
24864,-105.263157894736,4,2,1,55,0,0
30787,-105.263157894736,4,2,3,55,0,0
30883,-105.263157894736,4,2,1,55,0,0
36329,-105.263157894736,4,2,1,62,0,0
36711,-105.263157894736,4,2,3,70,0,0
37093,-79.9999999999995,4,2,2,70,0,0
37762,-83.3333333333333,4,2,99,5,0,0
37857,-79.9999999999995,4,2,2,70,0,0
38240,-105.263157894736,4,2,1,70,0,0
38335,-83.3333333333333,4,2,99,5,0,0
38431,-105.263157894736,4,2,1,70,0,0
38526,-83.3333333333333,4,2,99,5,0,0
38622,-79.9999999999995,4,2,2,70,0,0
38908,-83.3333333333333,4,2,99,5,0,0
39004,-79.9999999999995,4,2,2,70,0,0
39864,-83.3333333333333,4,2,99,5,0,0
39959,-79.9999999999995,4,2,2,70,0,0
40055,-83.3333333333333,4,2,99,5,0,0
40150,-79.9999999999995,4,2,2,70,0,0
40437,-83.3333333333333,4,2,99,5,0,0
40533,-79.9999999999995,4,2,2,70,0,0
41106,-79.9999999999995,4,2,1,70,0,0
41679,-79.9999999999995,4,2,2,70,0,0
42443,-79.9999999999995,4,2,3,70,0,0
42730,-83.3333333333333,4,2,99,5,0,0
42826,-79.9999999999995,4,2,2,70,0,0
43208,-79.9999999999995,4,2,4,70,0,0
43590,-79.9999999999995,4,2,2,70,0,0
43877,-83.3333333333333,4,2,99,5,0,0
43972,-79.9999999999995,4,2,2,70,0,0
44163,-79.9999999999995,4,2,1,70,0,0
44354,-79.9999999999995,4,2,2,70,0,0
45214,-83.3333333333333,4,2,99,5,0,0
45310,-79.9999999999995,4,2,2,70,0,0
45596,-79.9999999999995,4,2,1,70,0,0
46265,-79.9999999999995,4,2,2,70,0,0
47412,-79.9999999999995,4,2,1,70,0,0
47794,-79.9999999999995,4,2,2,70,0,0
48080,-83.3333333333333,4,2,99,5,0,0
48176,-79.9999999999995,4,2,2,70,0,0
49322,-117.647058823528,4,2,2,40,0,0
49705,-117.647058823528,4,2,1,40,0,0
55437,-100,4,2,2,50,0,0
58494,-100,4,2,2,55,0,0
60023,-100,4,2,2,65,0,0
60787,-100,4,2,2,75,0,0
61552,-166.666666666667,4,2,2,35,0,0
62316,-166.666666666667,4,2,1,35,0,0
66520,-125,4,2,1,35,0,0
66806,-83.3333333333333,4,2,99,5,0,0
66902,-100,4,2,3,50,0,0
67093,-100,4,2,1,50,0,0
67475,-100,4,2,1,65,0,0
71106,-100,4,2,4,65,0,0
71201,-100,4,2,1,65,0,0
73017,-100,4,2,5,75,0,0
73208,-100,4,2,1,75,0,0
73590,-86.9565217391304,4,2,1,75,0,0
82953,-86.9565217391304,4,2,1,80,0,0
84673,-86.9565217391304,4,2,1,72,0,0
85724,-83.3333333333333,4,2,99,5,0,0
85819,-86.9565217391304,4,2,1,65,0,0
89163,-83.3333333333333,4,2,99,5,0,0
89259,-86.9565217391304,4,2,1,65,0,0
90596,-86.9565217391304,4,2,1,70,0,0
92125,-125,4,2,1,50,0,0
95182,-90.9090909090909,4,2,4,65,0,0
95851,-83.3333333333333,4,2,99,5,0,0
95947,-90.9090909090909,4,2,1,65,0,0
96711,-90.9090909090909,4,2,4,65,0,0
97475,-90.9090909090909,4,2,1,65,0,0
98240,-90.9090909090909,4,2,4,65,0,0
98526,-83.3333333333333,4,2,99,5,0,0
98622,-90.9090909090909,4,2,4,65,0,0
98908,-83.3333333333333,4,2,99,5,0,0
99004,-90.9090909090909,4,2,1,65,0,0
99291,-83.3333333333333,4,2,99,5,0,0
99386,-90.9090909090909,4,2,4,65,0,0
100055,-83.3333333333333,4,2,99,5,0,0
100150,-90.9090909090909,4,2,4,65,0,0
100533,-90.9090909090909,4,2,1,65,0,0
101297,-90.9090909090909,4,2,4,65,0,0
101966,-83.3333333333333,4,2,99,5,0,0
102061,-90.9090909090909,4,2,1,65,0,0
102826,-90.9090909090909,4,2,4,65,0,0
103017,-83.3333333333333,4,2,99,5,0,0
103112,-90.9090909090909,4,2,4,65,0,0
103303,-83.3333333333333,4,2,99,5,0,0
103399,-90.9090909090909,4,2,4,65,0,0
103590,-90.9090909090909,4,2,1,65,0,0
103781,-83.3333333333333,4,2,99,5,0,0
103877,-90.9090909090909,4,2,1,65,0,0
104068,-83.3333333333333,4,2,99,5,0,0
104163,-90.9090909090909,4,2,1,65,0,0
104354,-90.9090909090909,4,2,4,65,0,0
105023,-83.3333333333333,4,2,99,5,0,0
105119,-90.9090909090909,4,2,1,65,0,0
105883,-90.9090909090909,4,2,4,65,0,0
106265,-90.9090909090909,4,2,1,65,0,0
106838,-90.9090909090909,4,2,4,65,0,0
107507,-90.9090909090909,4,2,4,30,0,0
108558,-90.9090909090909,4,2,1,30,0,0
110469,-166.666666666667,4,2,1,30,0,0
110851,-83.3333333333333,4,2,99,5,0,0
111042,-166.666666666667,4,2,1,30,0,0
111424,-83.3333333333333,4,2,99,5,0,0
111615,-166.666666666667,4,2,1,30,0,0
112571,-83.3333333333333,4,2,99,5,0,0
112762,-166.666666666667,4,2,1,30,0,0
112953,-83.3333333333333,4,2,99,5,0,0
113144,-166.666666666667,4,2,1,30,0,0
113335,-83.3333333333333,4,2,99,5,0,0
113526,-166.666666666667,4,2,1,30,0,0

[Colours]
Combo1 : 80,175,216
Combo2 : 211,173,224
Combo3 : 204,104,106
Combo4 : 216,225,96

[HitObjects]
366,339,3463,6,0,P|333:290|334:238,1,101.999996887207,2|0,0:2|0:0,0:0:0:0:
469,193,4036,2,0,P|443:246|397:271,1,101.999996887207,2|0,0:2|0:0,0:0:0:0:
292,176,4609,2,0,P|350:171|395:198,1,101.999996887207,2|0,0:2|0:0,0:0:0:0:
366,339,5182,1,2,0:2:0:0:
191,70,6520,6,0,P|145:91|95:85,1,101.999996887207,2|0,0:2|0:0,0:0:0:0:
206,224,7093,2,0,P|210:173|240:133,1,101.999996887207,2|0,0:2|0:0,0:0:0:0:
57,164,7666,2,0,P|98:192|118:239,1,101.999996887207,2|0,0:2|0:0,0:0:0:0:
22,333,8240,2,0,B|91:292|107:364|184:306,1,152.999995330811,2|2,0:2|0:2,0:0:0:0:
323,336,9004,6,0,L|264:348,1,42.5,8|8,0:3|0:3,0:0:0:0:
203,219,9195,1,10,0:2:0:0:
238,226,9291,1,8,0:2:0:0:
276,233,9386,2,0,L|318:241,1,42.5,0|0,3:0|3:0,0:0:0:0:
486,309,9577,6,0,L|470:202,1,85,14|0,0:2|3:0,0:0:0:0:
449,95,9959,1,0,3:0:0:0:
318,241,10150,2,0,L|334:134,1,85,14|0,0:2|3:0,0:0:0:0:
358,0,10533,1,0,3:0:0:0:
193,56,10724,2,0,L|297:71,1,85,10|0,0:2|3:0,0:0:0:0:
417,139,11106,1,0,3:0:0:0:
226,175,11297,2,0,L|122:190,1,85,10|0,0:2|3:0,0:0:0:0:
39,136,11679,1,0,3:0:0:0:
62,343,11870,6,0,P|62:300|45:262,1,85,10|0,0:3|3:0,0:0:0:0:
226,175,12252,2,0,P|208:213|209:255,1,85,10|0,0:2|3:0,0:0:0:0:
408,276,12634,5,14,0:2:0:0:
235,343,12826,1,0,3:0:0:0:
428,384,13017,1,0,3:0:0:0:
345,186,13208,2,0,L|367:69,1,85,14|0,0:2|3:0,0:0:0:0:
255,19,13590,1,0,3:0:0:0:
236,173,13781,5,10,0:2:0:0:
386,13,13972,1,0,3:0:0:0:
343,210,14163,1,0,3:0:0:0:
185,76,14354,2,0,L|83:92,1,85,2|8,3:2|0:3,0:0:0:0:
0,184,14736,1,8,0:3:0:0:
153,325,14927,5,10,3:2:0:0:
155,303,15023,1,0,3:0:0:0:
157,281,15119,1,0,3:0:0:0:
159,259,15214,1,0,3:0:0:0:
161,235,15310,2,0,L|168:162,3,42.5,10|0|0|0,3:3|3:0|3:0|3:0,0:0:0:0:
232,288,15692,6,0,B|313:250|318:335|408:288,1,165.749992412568,4|0,3:2|3:0,0:0:0:0:
486,332,16456,2,0,L|472:213,1,110.499994941712,2|0,0:2|0:0,0:0:0:0:
392,157,17029,2,0,L|383:227,1,55.2499974708558,2|0,0:2|0:0,0:0:0:0:
482,129,17412,2,0,L|476:87,1,27.6249987354279,0|0,1:0|3:0,0:0:0:0:
396,68,17603,2,0,P|357:79|324:77,2,55.2499974708558,0|0|0,3:0|0:0|1:0,0:0:0:0:
471,13,18176,1,0,3:0:0:0:
258,51,18749,6,0,B|239:92|239:92|270:137,1,82.8749962062838,2|0,3:2|0:0,0:0:0:0:
281,147,19131,2,0,L|266:209,1,55.2499974708558,0|0,0:0|3:0,0:0:0:0:
366,271,19513,2,0,L|353:217,1,55.2499974708558,0|0,1:0|0:0,0:0:0:0:
251,295,19896,1,2,0:2:0:0:
251,295,20087,1,2,0:2:0:0:
188,231,20278,2,0,P|128:226|76:261,1,110.499994941712,2|2,0:2|0:2,0:0:0:0:
12,312,20851,2,0,L|0:196,1,110.499994941712,2|2,0:2|1:2,0:0:0:0:
59,42,21615,1,2,0:2:0:0:
59,42,21806,6,0,P|107:67|161:60,1,110.499994941712,0|0,3:0|0:0,0:0:0:0:
266,37,22380,2,0,L|254:114,1,55.2499974708558,0|0,3:0|1:0,0:0:0:0:
177,150,22762,1,0,0:0:0:0:
177,150,22953,2,0,L|187:227,1,55.2499974708558,2|0,0:2|0:0,0:0:0:0:
253,273,23335,1,2,0:2:0:0:
166,302,23526,2,0,L|124:291,2,27.6249987354279,0|0|0,1:0|3:0|3:0,0:0:0:0:
244,365,23908,1,2,0:2:0:0:
244,365,24099,2,0,P|282:344|317:345,1,55.2499974708558,0|0,1:0|3:0,0:0:0:0:
380,280,24482,2,0,P|353:273|330:257,1,55.2499974708558,2|2,0:2|0:3,0:0:0:0:
306,223,24768,1,2,0:3:0:0:
306,223,24864,5,4,3:2:0:0:
471,191,25055,1,0,0:0:0:0:
368,61,25246,2,0,L|382:163,1,80.7499978437424,8|0,0:2|0:0,0:0:0:0:
212,268,25628,1,2,3:2:0:0:
235,94,25819,2,0,L|245:14,1,80.7499978437424,2|8,3:2|0:2,0:0:0:0:
70,156,26201,6,0,P|110:130|151:128,1,80.7499978437424,2|0,0:2|3:0,0:0:0:0:
121,306,26584,2,0,P|78:284|56:249,1,80.7499978437424,2|8,0:2|0:2,0:0:0:0:
228,190,26966,2,0,P|230:237|211:274,1,80.7499978437424,2|0,0:2|3:0,0:0:0:0:
150,383,27348,1,2,3:2:0:0:
150,383,27539,1,8,0:2:0:0:
130,203,27730,2,0,L|133:232,2,26.9166659479141,2|2|2,0:3|0:3|0:3,0:0:0:0:
142,174,27921,6,0,L|247:195,1,80.7499978437424,0|0,3:0|0:0,0:0:0:0:
324,49,28303,2,0,L|219:70,1,80.7499978437424,8|0,0:2|0:0,0:0:0:0:
384,193,28685,1,2,3:2:0:0:
459,31,28877,1,2,3:2:0:0:
296,69,29068,1,8,0:2:0:0:
493,149,29259,6,0,L|508:248,1,80.7499978437424,2|0,3:2|0:0,0:0:0:0:
335,344,29641,2,0,P|323:293|337:256,1,80.7499978437424,2|8,3:2|0:2,0:0:0:0:
500,327,30023,2,0,P|449:311|424:281,1,80.7499978437424,2|0,0:2|3:0,0:0:0:0:
400,149,30405,1,2,3:2:0:0:
330,266,30596,1,8,0:2:0:0:
268,93,30787,1,10,0:3:0:0:
268,93,30883,1,8,0:3:0:0:
268,93,30978,6,0,L|379:85,1,80.7499978437424,4|0,3:2|0:0,0:0:0:0:
174,130,31361,2,0,B|161:92|161:92|171:52,1,80.7499978437424,8|0,0:2|0:0,0:0:0:0:
272,197,31743,2,0,B|285:235|285:235|274:274,1,80.7499978437424,0|0,3:0|3:0,0:0:0:0:
150,384,32125,1,10,0:2:0:0:
176,216,32316,1,2,0:2:0:0:
35,320,32507,6,0,L|225:297,1,161.499995687485,2|10,3:2|0:2,0:0:0:0:
305,346,33080,2,0,P|280:309|277:240,1,80.7499978437424,2|0,0:2|3:0,0:0:0:0:
316,150,33462,1,2,3:2:0:0:
376,270,33654,1,8,0:2:0:0:
455,98,33845,1,10,0:2:0:0:
455,98,33940,1,8,0:2:0:0:
455,98,34036,6,0,L|346:88,1,80.7499978437424,4|0,3:2|0:0,0:0:0:0:
235,158,34418,2,0,L|315:150,1,80.7499978437424,8|0,0:2|0:0,0:0:0:0:
452,284,34800,1,0,3:0:0:0:
314,247,34991,1,0,3:0:0:0:
489,200,35182,1,8,0:2:0:0:
457,365,35373,1,0,3:0:0:0:
293,260,35564,6,0,P|241:248|201:256,1,80.7499978437424,0|0,0:0|3:0,0:0:0:0:
72,346,35947,1,10,0:2:0:0:
118,196,36138,1,0,3:0:0:0:
118,196,36233,1,0,3:0:0:0:
118,196,36329,6,0,L|129:270,2,53.8333318958283,10|8|8,3:2|0:3|0:3,0:0:0:0:
19,171,36711,1,10,0:3:0:0:
25,126,36838,1,8,0:3:0:0:
31,76,36966,1,8,0:3:0:0:
37,26,37093,6,0,B|125:37|125:37|136:59|136:59|254:73,1,212.5,6|8,1:2|0:1,0:0:0:0:
417,27,37666,2,0,L|407:100,1,53.125,2|0,0:2|0:0,0:0:0:0:
319,202,37857,2,0,B|314:157|314:157|319:150|319:150|312:89,1,106.25,0|0,1:0|0:0,0:0:0:0:
445,225,38240,2,0,L|491:218,1,40.3749989218712,10|0,0:1|0:0,0:0:0:0:
451,204,38431,2,0,L|507:197,1,40.3749989218712,2|0,0:1|0:0,0:0:0:0:
368,322,38622,6,0,B|258:302|258:302|192:339,1,159.375,2|0,1:2|0:0,0:0:0:0:
154,365,39004,1,8,0:1:0:0:
0,290,39195,1,2,0:2:0:0:
123,182,39386,2,0,P|119:224|141:313,1,106.25,0|0,1:0|0:0,0:0:0:0:
199,121,39768,2,0,B|185:103|185:103|157:89,1,53.125,8|0,0:1|0:0,0:0:0:0:
62,107,39959,2,0,B|44:120|44:120|30:148,1,53.125
212,217,40150,6,0,B|236:202|263:203|263:203|273:171|273:171|318:197|362:168,1,159.375,2|0,1:2|0:0,0:0:0:0:
418,158,40533,1,10,0:1:0:0:
326,0,40724,2,0,L|312:118,1,106.25,2|0,0:2|1:0,0:0:0:0:
506,167,41106,2,0,L|490:40,1,106.25,2|8,0:1|0:1,0:0:0:0:
342,178,41488,2,0,B|328:189|328:189|311:302,1,106.25,2|0,0:1|1:0,0:0:0:0:
467,384,41870,5,2,0:2:0:0:
436,202,42061,1,10,0:1:0:0:
322,351,42252,1,2,0:2:0:0:
226,247,42443,2,0,B|202:252|170:241|170:241|149:251|138:273|138:273|114:287|64:265,1,159.375,2|0,1:1|0:0,0:0:0:0:
16,307,42826,1,10,0:1:0:0:
174,361,43017,1,2,0:2:0:0:
57,184,43208,6,0,P|41:134|47:71,1,106.25,2|0,1:1|0:0,0:0:0:0:
240,41,43590,2,0,B|214:18|214:18|202:52|202:52|231:98|196:155,1,159.375,10|0,0:1|0:0,0:0:0:0:
157,194,43972,1,2,1:2:0:0:
298,105,44163,1,2,0:1:0:0:
301,125,44258,1,2,0:1:0:0:
304,146,44354,1,10,0:1:0:0:
337,325,44545,1,2,0:2:0:0:
484,217,44736,6,0,B|447:195|447:195|379:211,1,106.25,0|2,1:0|0:2,0:0:0:0:
215,255,45119,2,0,L|207:348,1,53.125,10|0,0:1|0:0,0:0:0:0:
271,375,45310,1,2,0:2:0:0:
273,191,45501,5,2,1:2:0:0:
244,176,45596,1,2,0:1:0:0:
212,171,45692,1,2,0:1:0:0:
181,179,45787,1,2,0:1:0:0:
153,195,45883,2,0,L|84:184,1,53.125,10|2,0:1|0:1,0:0:0:0:
16,273,46074,2,0,L|91:261,1,53.125,2|0,0:1|0:0,0:0:0:0:
137,95,46265,6,0,L|-12:121,1,106.25,0|0,1:0|0:0,0:0:0:0:
232,7,46647,2,0,L|381:33,1,106.25,8|0,0:1|0:0,0:0:0:0:
264,222,47029,2,0,P|247:184|251:109,1,106.25,2|0,1:2|0:0,0:0:0:0:
418,147,47412,1,10,0:1:0:0:
397,151,47507,1,2,0:1:0:0:
375,155,47603,1,2,0:2:0:0:
512,286,47794,6,0,B|525:249|525:249|495:95,1,159.375,0|0,1:0|0:0,0:0:0:0:
484,57,48176,1,10,0:1:0:0:
375,154,48367,1,0,0:0:0:0:
255,1,48558,2,0,P|276:48|275:101,1,106.25,2|0,1:2|0:0,0:0:0:0:
222,162,48845,1,0,1:0:0:0:
222,162,48940,1,10,0:1:0:0:
165,18,49131,1,0,1:0:0:0:
100,239,49322,6,0,B|177:211|172:284|255:249,1,144.500002756119,6|8,3:2|0:2,0:0:0:0:
301,189,49896,1,0,0:0:0:0:
301,189,50087,2,0,L|444:213,1,144.500002756119,2|10,0:2|0:2,0:0:0:0:
501,290,50660,2,0,L|425:307,1,72.2500013780594,2|0,0:2|0:0,0:0:0:0:
357,352,51042,2,0,L|281:335,1,72.2500013780594,2|8,0:2|0:2,0:0:0:0:
205,354,51424,2,0,P|212:298|230:273,1,72.2500013780594,2|0,0:2|0:0,0:0:0:0:
330,209,51806,2,0,B|255:246|264:176|176:213,1,144.500002756119,2|0,0:2|0:0,0:0:0:0:
120,288,52380,6,0,P|144:222|119:156,1,144.500002756119,2|10,0:2|0:2,0:0:0:0:
75,85,52953,2,0,L|3:98,1,72.2500013780594,2|0,0:2|0:0,0:0:0:0:
109,9,53336,2,0,L|259:33,1,144.500002756119,2|0,0:2|0:0,0:0:0:0:
350,54,53908,5,2,0:2:0:0:
350,54,54291,2,0,P|334:104|343:135,1,72.2500013780594,10|2,0:2|0:2,0:0:0:0:
405,196,54673,1,2,0:2:0:0:
310,218,54864,1,2,0:2:0:0:
337,122,55055,1,10,0:2:0:0:
381,289,55246,1,2,0:2:0:0:
243,172,55437,6,0,P|198:192|156:190,1,85,4|0,1:2|0:0,0:0:0:0:
206,22,55819,2,0,P|203:75|177:109,1,85,10|2,0:1|0:2,0:0:0:0:
61,137,56201,1,2,1:2:0:0:
163,191,56392,1,2,0:2:0:0:
110,68,56584,1,10,0:1:0:0:
23,215,56775,6,0,B|92:237|92:237|100:256|100:256|200:290,1,170,2|0,0:2|0:0,0:0:0:0:
322,255,57348,1,10,0:1:0:0:
272,354,57539,1,2,0:2:0:0:
233,205,57730,2,0,P|292:158|319:158,1,85,2|0,1:2|0:0,0:0:0:0:
387,302,58112,2,0,P|347:287|321:254,1,85,10|2,0:1|0:2,0:0:0:0:
412,89,58494,5,8,0:1:0:0:
392,224,58685,1,8,0:1:0:0:
511,95,58877,1,8,0:1:0:0:
340,51,59068,1,8,0:1:0:0:
486,208,59259,1,8,0:1:0:0:
481,0,59450,1,8,0:1:0:0:
296,119,59641,2,0,L|305:203,1,85,8|8,0:1|0:1,0:0:0:0:
181,333,60023,5,8,0:1:0:0:
193,310,60119,1,8,0:1:0:0:
192,284,60214,1,8,0:1:0:0:
182,260,60310,1,8,0:1:0:0:
164,242,60405,1,8,0:1:0:0:
140,232,60501,1,8,0:1:0:0:
114,232,60596,1,8,0:1:0:0:
91,244,60692,1,8,0:1:0:0:
74,263,60787,6,0,L|59:199,3,42.5,8|8|8|8,0:1|0:1|0:1|0:1,0:0:0:0:
98,149,61170,2,0,L|83:85,3,42.5,8|8|8|8,0:1|0:1|0:1|0:1,0:0:0:0:
144,38,61552,6,0,P|197:51|262:46,1,101.999996887207,2|0,3:2|0:0,0:0:0:0:
418,24,62316,1,0,1:0:0:0:
391,95,62507,2,0,P|398:147|409:177,1,76.4999976654053,2|2,0:2|0:2,0:0:0:0:
506,215,63080,6,0,P|467:223|427:281,1,101.999996887207,2|0,3:2|0:0,0:0:0:0:
417,348,63654,1,0,0:0:0:0:
343,336,63845,2,0,L|337:270,1,61.1999981323243,2|0,1:2|0:0,0:0:0:0:
292,210,64227,2,0,P|262:224|212:235,1,67.9999979248048,2|0,3:2|3:0,0:0:0:0:
143,220,64609,6,0,P|157:250|166:283,1,67.9999979248048,2|0,3:2|0:0,0:0:0:0:
153,326,64991,2,0,P|122:340|89:349,1,67.9999979248048,2|0,3:2|0:0,0:0:0:0:
53,324,65373,2,0,P|38:293|29:260,1,67.9999979248048,2|0,1:2|0:0,0:0:0:0:
53,220,65755,2,0,L|116:198,1,50.9999984436036,2|0,3:2|0:0,0:0:0:0:
106,126,66138,1,2,3:2:0:0:
106,126,66520,6,0,L|212:139,1,102,2|0,3:2|0:0,0:0:0:0:
295,173,66902,5,10,0:3:0:0:
292,139,66998,1,8,0:3:0:0:
289,101,67093,2,0,L|284:46,1,42.5,0|0,3:0|3:0,0:0:0:0:
405,11,67284,1,8,0:2:0:0:
428,208,67475,6,0,B|331:179|362:281|232:235,1,170,6|0,3:2|0:0,0:0:0:0:
397,379,68048,2,0,L|411:260,1,85,10|0,0:2|0:0,0:0:0:0:
266,162,68431,1,10,0:2:0:0:
245,354,68622,1,0,3:0:0:0:
358,215,68813,1,8,0:2:0:0:
164,284,69004,6,0,B|126:302|126:302|104:141,1,170,2|0,3:2|0:0,0:0:0:0:
280,83,69577,2,0,L|265:202,1,85,10|0,0:2|3:0,0:0:0:0:
107,57,69959,1,10,0:2:0:0:
138,222,70150,1,0,3:0:0:0:
203,38,70341,1,8,0:2:0:0:
20,125,70533,1,2,3:2:0:0:
269,167,70724,5,8,3:2:0:0:
294,163,70819,1,0,3:0:0:0:
319,159,70915,1,0,3:0:0:0:
344,156,71010,1,0,3:0:0:0:
369,153,71106,2,0,L|379:77,3,42.5,8|8|8|8,0:3|0:3|0:3|0:3,0:0:0:0:
454,169,71488,2,0,L|459:212,1,42.5,8|8,0:2|0:2,0:0:0:0:
383,299,71679,1,8,0:2:0:0:
348,296,71775,1,8,0:2:0:0:
308,289,71870,2,0,L|229:279,1,42.5,8|8,0:2|0:2,0:0:0:0:
228,128,72061,6,0,B|244:143|244:143|223:237,1,85,2|0,0:3|3:0,0:0:0:0:
163,241,72348,1,0,3:0:0:0:
163,241,72443,6,0,L|150:178,1,42.5,8|0,0:2|0:0,0:0:0:0:
38,350,72635,2,0,L|46:309,1,42.5,8|0,0:2|0:0,0:0:0:0:
0,201,72826,1,0,3:0:0:0:
0,201,72921,1,0,3:0:0:0:
0,201,73017,6,0,L|41:192,1,42.5,10|0,0:3|0:0,0:0:0:0:
129,321,73208,1,8,0:2:0:0:
167,325,73303,1,8,0:2:0:0:
203,329,73399,1,8,0:2:0:0:
241,332,73494,1,8,0:2:0:0:
278,337,73590,6,0,B|306:373|306:373|361:293|292:209,1,195.500003728867,6|2,3:2|3:2,0:0:0:0:
219,123,74163,1,8,0:2:0:0:
344,42,74354,2,0,L|325:137,1,97.7500018644333,2|0,0:2|3:0,0:0:0:0:
183,233,74736,1,2,3:2:0:0:
155,59,74927,1,8,0:2:0:0:
11,188,75119,6,0,P|64:161|114:159,1,97.7500018644333,2|0,0:2|0:0,0:0:0:0:
93,350,75501,1,2,3:2:0:0:
93,350,75692,2,0,L|76:225,1,97.7500018644333,8|0,0:2|0:0,0:0:0:0:
268,118,76074,1,2,3:2:0:0:
223,305,76265,1,2,3:2:0:0:
147,133,76456,1,8,0:2:0:0:
333,204,76647,6,0,B|376:170|376:170|519:204,1,195.500003728867,6|2,3:2|3:2,0:0:0:0:
403,278,77220,1,8,0:2:0:0:
375,88,77412,2,0,L|489:116,1,97.7500018644333,2|0,0:2|3:0,0:0:0:0:
333,204,77794,1,2,3:2:0:0:
285,23,77985,1,8,0:2:0:0:
164,160,78176,6,0,B|202:123|202:123|178:280,1,195.500003728867,2|2,3:2|3:2,0:0:0:0:
33,382,78749,1,8,0:2:0:0:
1,173,78940,2,0,P|54:200|104:206,1,97.7500018644333,10|0,0:2|3:0,0:0:0:0:
183,41,79322,2,0,P|135:50|92:74,1,97.7500018644333,2|8,3:2|0:2,0:0:0:0:
265,206,79705,6,0,B|222:105|334:120|278:-16,1,195.500003728867,6|0,3:2|3:0,0:0:0:0:
359,172,80278,2,0,L|346:306,1,97.7500018644333,8|0,0:2|0:0,0:0:0:0:
512,384,80660,1,2,3:2:0:0:
465,230,80851,1,0,3:0:0:0:
342,355,81042,2,0,P|291:333|230:333,1,97.7500018644333,10|0,0:2|3:0,0:0:0:0:
93,238,81424,6,0,B|140:225|140:225|197:248,1,97.7500018644333,2|0,0:2|3:0,0:0:0:0:
140,309,81711,1,0,3:0:0:0:
140,309,81806,1,10,0:2:0:0:
22,178,81998,2,0,B|33:61,1,97.7500018644333,2|0,3:2|0:0,0:0:0:0:
200,21,82380,1,2,3:2:0:0:
200,21,82571,2,0,L|212:145,1,97.7500018644333,8|0,0:2|3:0,0:0:0:0:
388,230,82953,5,14,0:2:0:0:
315,164,83144,1,0,3:0:0:0:
295,261,83335,1,0,3:0:0:0:
392,151,83526,5,14,0:2:0:0:
242,205,83717,1,0,3:0:0:0:
372,313,83908,1,0,3:0:0:0:
287,104,84099,5,14,0:2:0:0:
255,310,84291,1,0,3:0:0:0:
454,245,84482,6,0,L|476:104,1,97.7500018644333,8|0,0:2|3:0,0:0:0:0:
397,84,84768,2,0,L|375:225,1,97.7500018644333,8|0,0:2|3:0,0:0:0:0:
368,258,85055,1,8,0:2:0:0:
269,92,85246,5,10,0:2:0:0:
245,76,85341,1,8,0:2:0:0:
210,73,85437,1,0,3:0:0:0:
176,86,85533,1,0,3:0:0:0:
156,118,85628,2,0,L|163:189,1,48.8750009322167,8|0,0:2|0:0,0:0:0:0:
285,276,85819,6,0,B|296:191|296:191|286:173|286:173|299:66,1,195.500003728867,6|0,3:2|3:0,0:0:0:0:
133,26,86392,2,0,L|143:139,1,97.7500018644333,10|0,0:2|3:0,0:0:0:0:
154,315,86775,1,10,3:2:0:0:
31,167,86966,1,0,3:0:0:0:
203,193,87157,1,8,0:2:0:0:
0,308,87348,6,0,B|47:276|47:276|201:306,1,195.500003728867,6|0,3:2|3:0,0:0:0:0:
292,168,87921,2,0,P|269:239|281:286,1,97.7500018644333,10|0,0:2|3:0,0:0:0:0:
296,336,88208,1,0,3:0:0:0:
296,336,88303,2,0,P|356:309|402:310,1,97.7500018644333,10|0,0:2|3:0,0:0:0:0:
512,384,88685,1,8,0:2:0:0:
507,187,88877,6,0,P|426:190|363:158,1,146.62500279665,6|0,3:2|0:0,0:0:0:0:
310,117,89259,2,0,L|321:17,1,97.7500018644333,2|8,3:2|0:2,0:0:0:0:
186,199,89641,1,2,3:2:0:0:
186,199,89736,1,0,3:0:0:0:
186,199,89832,1,8,0:2:0:0:
151,45,90023,1,2,3:2:0:0:
54,216,90214,1,8,0:2:0:0:
241,125,90405,1,0,3:0:0:0:
40,20,90596,6,0,L|50:150,1,97.7500018644333,10|0,0:2|3:0,0:0:0:0:
207,299,90978,1,10,0:2:0:0:
153,96,91170,1,2,3:2:0:0:
31,255,91361,1,8,0:2:0:0:
261,205,91552,1,0,3:0:0:0:
261,205,91647,1,0,3:0:0:0:
261,205,91743,2,0,L|333:215,2,65.1666679096222,8|8|8,0:2|0:2|0:2,0:0:0:0:
186,129,92125,6,0,L|330:115,1,136,6|0,3:2|0:0,0:0:0:0:
393,172,92698,1,0,3:0:0:0:
462,76,92889,2,0,L|383:60,1,68,8|0,0:2|0:0,0:0:0:0:
304,39,93271,1,0,3:0:0:0:
403,185,93462,6,0,L|324:201,1,68,4|0,3:2|0:0,0:0:0:0:
317,342,93845,2,0,L|329:269,1,68,8|0,0:2|0:0,0:0:0:0:
255,204,94227,1,0,3:0:0:0:
215,354,94418,5,8,0:2:0:0:
184,344,94545,1,8,0:3:0:0:
153,333,94673,1,8,0:3:0:0:
118,252,94800,5,8,0:3:0:0:
63,262,94927,1,8,0:3:0:0:
9,273,95055,1,8,0:3:0:0:
26,168,95182,6,0,B|33:142|33:142|5:45|5:45|12:50|12:50|26:49|26:49|38:52|38:52|48:48|48:48|61:49|61:49|70:42|70:42|79:42|79:42|90:33|90:33|96:35|96:35|112:16|112:16|86:45|85:75|98:115,1,327.250009986878,6|0,1:1|0:0,0:0:0:0:
133,156,95947,1,10,0:1:0:0:
298,96,96138,1,2,0:1:0:0:
238,222,96329,1,2,0:1:0:0:
187,57,96520,1,2,0:1:0:0:
343,164,96711,6,0,L|460:147,1,93.5000028533936,2|0,1:1|0:0,0:0:0:0:
478,219,96998,1,0,0:0:0:0:
478,219,97093,2,0,L|363:235,1,93.5000028533936
242,338,97475,1,10,0:1:0:0:
265,203,97666,1,2,0:1:0:0:
406,345,97857,1,2,0:1:0:0:
385,231,98048,1,2,0:1:0:0:
234,353,98239,6,0,B|190:340|190:340|186:344|186:344|132:329|132:329|82:359,1,140.25000428009,2|0,1:1|0:0,0:0:0:0:
35,303,98622,2,0,B|27:259|64:221|64:221|77:251|118:258,1,140.25000428009,2|0,0:1|0:0,0:0:0:0:
186,265,99004,1,10,0:1:0:0:
186,265,99099,1,2,0:1:0:0:
186,265,99195,2,0,L|195:180,1,46.7500014266968,2|2,0:1|0:1,0:0:0:0:
53,134,99386,6,0,B|128:146|128:146|155:128|155:128|202:136|202:136|206:142|206:142|266:156|266:156|293:217|263:282,1,327.250009986878,6|0,1:1|0:0,0:0:0:0:
314,319,100150,2,0,P|370:288|423:293,1,93.5000028533936,2|0,0:1|0:0,0:0:0:0:
460,335,100437,1,0,1:0:0:0:
460,335,100533,2,0,B|478:319|477:294|477:295|477:295|469:277|469:277|485:272|491:251|491:251|474:231|472:198,1,140.25000428009,8|8,0:1|0:3,0:0:0:0:
495,136,100915,2,0,B|470:128|470:128|401:160,1,93.5000028533936,0|8,0:1|0:3,0:1:0:0:
338,198,101201,1,0,0:0:0:0:
338,198,101297,6,0,B|321:157|321:157|339:100|339:100|314:107|281:117|281:117|225:95|225:95|237:157|237:157|205:222,1,327.250009986878,6|0,1:1|0:0,0:0:0:0:
217,272,102061,2,0,P|168:249|103:250,1,93.5000028533936,10|0,0:1|0:0,0:0:0:0:
1,109,102443,2,0,P|47:103|88:82,1,93.5000028533936,2|0,0:1|0:0,0:0:0:0:
33,279,102826,6,0,L|50:143,1,93.5000028533936,2|0,1:1|0:0,0:0:0:0:
117,152,103112,2,0,L|128:244,1,93.5000028533936,2|0,0:1|0:0,0:0:0:0:
139,321,103399,1,2,0:1:0:0:
306,200,103590,6,0,B|260:186|260:186|210:182,1,93.5000028533936,10|0,0:1|0:0,0:0:0:0:
183,110,103877,2,0,B|241:107|241:107|274:92,1,93.5000028533936,2|0,0:1|0:0,0:0:0:0:
343,54,104163,1,2,0:1:0:0:
396,234,104354,6,0,B|381:193|425:146|425:146|508:197|477:316|384:366,1,327.250009986878,2|0,1:1|0:0,0:0:0:0:
341,324,105119,2,0,L|224:308,1,93.5000028533936,10|0,0:1|0:0,0:0:0:0:
191,156,105501,2,0,L|74:172,1,93.5000028533936,2|0,0:1|0:0,0:0:0:0:
179,357,105883,6,0,P|172:280|196:246,1,93.5000028533936,2|0,1:1|0:0,0:0:0:0:
288,169,106265,2,0,P|302:103|262:40,1,140.25000428009,10|0,0:1|0:0,0:0:0:0:
188,53,106647,5,10,0:1:0:0:
378,142,106838,2,0,P|379:89|356:39,1,93.5000028533936,2|0,1:1|0:0,0:0:0:0:
191,156,107220,1,2,0:1:0:0:
191,156,107316,1,2,0:1:0:0:
191,156,107412,5,4,1:1:0:0:
256,192,107507,12,2,110087,0:2:0:0:
297,345,110469,6,0,P|284:300|305:249,1,101.999996887207,2|0,0:2|0:0,0:0:0:0:
445,259,111042,2,0,P|412:292|357:300,1,101.999996887207,2|0,0:2|0:0,0:0:0:0:
301,173,111615,2,0,P|346:184|363:201,2,50.9999984436036,2|0|0,0:2|0:0|0:0,0:0:0:0:
203,237,112189,2,0,P|221:200|211:136,1,101.999996887207,2|0,0:2|0:0,0:0:0:0:
150,94,112762,2,0,L|96:102,1,50.9999984436036,2|0,0:2|0:0,0:0:0:0:
63,173,113144,2,0,L|127:181,1,50.9999984436036,2|0,0:2|0:0,0:0:0:0:
213,141,113526,5,2,0:2:0:0:
