osu file format v14

[General]
AudioFilename: audio.mp3
AudioLeadIn: 0
PreviewTime: 49705
Countdown: 0
SampleSet: Soft
StackLeniency: 0.6
Mode: 0
LetterboxInBreaks: 0
WidescreenStoryboard: 1

[Editor]
Bookmarks: 118965
DistanceSpacing: 0.4
BeatDivisor: 4
GridSize: 8
TimelineZoom: 1.9

[Metadata]
Title:The Whole Rest
TitleUnicode:The Whole Rest
Artist:KIVA
ArtistUnicode:KIVĪ›
Creator:SaltyLucario
Version:Hard
Source:Cytus II
Tags:2 saltking salty browiec opening op k a-tse rua eajrock yichen chris hemingway shao-ting sun mobile video rhythm game electronic pop rock jazz english rayark inc. short ver. version
BeatmapID:2752355
BeatmapSetID:1328714

[Difficulty]
HPDrainRate:4
CircleSize:4
OverallDifficulty:5.6
ApproachRate:7.2
SliderMultiplier:1.5
SliderTickRate:1

[Events]
//Background and Video events
Video,1918,"video.mp4"
0,0,"a.png",0,0
//Break Periods
2,61752,66032
//Storyboard Layer 0 (Background)
//Storyboard Layer 1 (Fail)
//Storyboard Layer 2 (Pass)
//Storyboard Layer 3 (Foreground)
//Storyboard Layer 4 (Overlay)
//Storyboard Sound Samples

[TimingPoints]
3463,382.165605095541,4,2,1,30,1,0
3463,-133.333333333333,4,2,1,30,0,0
8813,-100,4,2,1,30,0,0
9004,-100,4,2,1,50,0,0
9577,-100,4,2,1,60,0,0
11870,-100,4,2,2,60,0,0
12252,-100,4,2,1,60,0,0
12634,-100,4,2,1,70,0,0
15310,-100,4,2,2,75,0,0
15692,-125,4,2,2,40,0,0
17412,-125,4,2,1,40,0,0
24864,-100,4,2,1,55,0,0
30787,-100,4,2,3,55,0,0
30883,-100,4,2,1,55,0,0
36329,-100,4,2,1,62,0,0
36711,-100,4,2,3,70,0,0
37093,-90.9090909090909,4,2,2,70,0,0
38240,-90.9090909090909,4,2,1,70,0,0
38622,-90.9090909090909,4,2,2,70,0,0
41106,-90.9090909090909,4,2,1,70,0,0
41679,-90.9090909090909,4,2,2,70,0,0
42443,-90.9090909090909,4,2,3,70,0,0
42730,-83.3333333333333,4,2,99,5,0,0
42826,-90.9090909090909,4,2,2,70,0,0
43208,-90.9090909090909,4,2,4,70,0,0
43590,-90.9090909090909,4,2,2,70,0,0
44163,-90.9090909090909,4,2,1,70,0,0
44354,-90.9090909090909,4,2,2,70,0,0
45596,-90.9090909090909,4,2,1,70,0,0
46265,-90.9090909090909,4,2,2,70,0,0
47412,-90.9090909090909,4,2,1,70,0,0
47794,-90.9090909090909,4,2,2,70,0,0
49322,-125,4,2,2,40,0,0
49705,-125,4,2,1,40,0,0
55437,-111.111111111111,4,2,2,50,0,0
58494,-111.111111111111,4,2,2,55,0,0
60023,-111.111111111111,4,2,2,65,0,0
60787,-111.111111111111,4,2,2,75,0,0
61552,-133.333333333333,4,2,2,35,0,0
62316,-133.333333333333,4,2,1,35,0,0
66902,-133.333333333333,4,2,3,50,0,0
67093,-133.333333333333,4,2,1,50,0,0
67475,-100,4,2,1,65,0,0
71106,-100,4,2,4,65,0,0
71201,-100,4,2,1,65,0,0
73017,-100,4,2,5,75,0,0
73208,-100,4,2,1,75,0,0
73590,-90.9090909090909,4,2,1,75,0,0
82953,-90.9090909090909,4,2,1,80,0,0
84673,-90.9090909090909,4,2,1,72,0,0
85819,-100,4,2,1,65,0,0
90596,-100,4,2,1,70,0,0
92125,-117.647058823529,4,2,1,50,0,0
95182,-117.647058823529,4,2,4,65,0,0
95851,-83.3333333333333,4,2,99,5,0,0
95947,-100,4,2,1,65,0,0
96711,-100,4,2,4,65,0,0
97475,-100,4,2,1,65,0,0
98240,-100,4,2,4,65,0,0
98526,-83.3333333333333,4,2,99,5,0,0
98622,-100,4,2,4,65,0,0
99004,-100,4,2,1,65,0,0
99291,-83.3333333333333,4,2,99,5,0,0
99386,-100,4,2,4,65,0,0
100533,-100,4,2,1,65,0,0
101297,-100,4,2,4,65,0,0
101966,-83.3333333333333,4,2,99,5,0,0
102061,-100,4,2,1,65,0,0
102826,-100,4,2,4,65,0,0
103590,-100,4,2,1,65,0,0
104354,-100,4,2,4,65,0,0
105119,-100,4,2,1,65,0,0
105883,-100,4,2,4,65,0,0
106265,-100,4,2,1,65,0,0
106838,-100,4,2,4,65,0,0
107507,-100,4,2,4,30,0,0
108558,-100,4,2,1,30,0,0

[Colours]
Combo1 : 80,175,216
Combo2 : 211,173,224
Combo3 : 204,104,106
Combo4 : 216,225,96

[HitObjects]
335,345,3463,6,0,B|371:262|298:267|327:183,1,168.750006437302,2|2,0:2|0:2,0:0:0:0:
447,346,4609,2,0,B|418:262|491:267|455:184,1,168.750006437302,2|2,0:2|0:2,0:0:0:0:
45,74,6520,6,0,B|94:53|94:53|227:74,1,168.750006437302,2|2,0:2|0:2,0:0:0:0:
48,194,7666,2,0,B|97:215|97:215|230:194,1,168.750006437302,2|2,0:2|0:2,0:0:0:0:
411,163,8813,1,2,0:2:0:0:
361,240,9004,1,8,0:3:0:0:
361,240,9099,1,8,0:3:0:0:
361,240,9195,2,0,L|301:230,3,37.5,10|8|0|0,0:2|0:2|3:0|3:0,0:0:0:0:
295,198,9577,6,0,L|285:108,2,75,14|0|0,0:2|3:0|3:0,0:0:0:0:
189,201,10150,2,0,L|148:119,2,75,14|0|0,0:2|3:0|3:0,0:0:0:0:
128,273,10724,2,0,L|62:210,2,75,10|0|0,0:2|3:0|3:0,0:0:0:0:
141,374,11297,2,0,L|58:337,2,75,10|0|0,0:2|3:0|3:0,0:0:0:0:
252,299,11870,6,0,P|293:287|341:300,1,75,10|0,0:3|3:0,0:0:0:0:
419,345,12252,1,10,0:2:0:0:
419,345,12443,1,0,3:0:0:0:
434,221,12634,6,0,L|441:137,1,75,14|0,0:2|3:0,0:0:0:0:
450,47,13017,1,0,3:0:0:0:
450,47,13208,6,0,L|366:39,1,75,14|0,0:2|3:0,0:0:0:0:
272,33,13591,1,0,3:0:0:0:
272,33,13781,6,0,L|264:116,1,75,10|0,0:2|3:0,0:0:0:0:
259,216,14164,1,0,3:0:0:0:
259,216,14354,6,0,L|175:208,1,75,2|8,3:2|0:3,0:0:0:0:
93,202,14737,1,8,0:3:0:0:
65,304,14927,6,0,L|113:292,3,37.5,10|0|0|0,3:2|3:0|3:0|3:0,0:0:0:0:
141,315,15310,2,0,L|189:327,3,37.5,10|0|0|0,3:3|3:0|3:0|3:0,0:0:0:0:
209,307,15692,6,0,B|316:325|283:255|397:289,1,180,4|0,3:2|3:0,0:0:0:0:
440,345,16456,2,0,P|465:275|427:220,1,120,2|0,0:2|0:0,0:0:0:0:
375,195,17029,1,2,0:2:0:0:
419,32,17412,2,0,L|431:-16,2,30,0|0|0,1:0|3:0|3:0,0:0:0:0:
349,78,17794,1,0,0:0:0:0:
349,78,17985,2,0,L|277:87,1,60,0|0,1:0|3:0,0:0:0:0:
56,181,18749,6,0,B|115:197|115:197|192:181|192:181,1,120,2|0,3:2|0:0,0:0:0:0:
252,159,19322,2,0,L|228:299,1,120,0|0,3:0|0:0,0:0:0:0:
220,363,19896,1,2,0:2:0:0:
220,363,20087,1,2,0:2:0:0:
298,332,20278,6,0,P|386:313|430:338,1,120,2|2,0:2|0:2,0:0:0:0:
490,348,20851,2,0,L|480:228,1,120,2|2,0:2|1:2,0:0:0:0:
459,65,21615,1,2,0:2:0:0:
459,65,21806,6,0,P|423:91|332:89,1,120,0|0,3:0|0:0,0:0:0:0:
272,60,22380,1,0,3:0:0:0:
226,224,22762,1,0,0:0:0:0:
226,224,22953,2,0,P|265:231|297:228,1,60,2|0,0:2|0:0,0:0:0:0:
355,184,23335,6,0,B|372:265|372:265|341:305,1,120,2|0,0:2|3:0,0:0:0:0:
373,374,23908,2,0,B|271:394|303:306|183:342,1,180,2|2,0:2|0:2,0:0:0:0:
22,241,24864,5,4,3:2:0:0:
22,241,25055,1,0,0:0:0:0:
105,190,25246,2,0,L|94:115,1,75,8|0,0:2|0:0,0:0:0:0:
156,40,25628,1,2,3:2:0:0:
237,92,25819,2,0,L|218:262,1,150,2|2,3:2|0:2,0:0:0:0:
213,341,26392,1,0,3:0:0:0:
213,341,26584,2,0,P|267:324|311:336,1,75,2|8,0:2|0:2,0:0:0:0:
366,273,26966,2,0,P|420:290|464:278,1,75,2|0,0:2|3:0,0:0:0:0:
487,204,27348,2,0,B|423:168|423:168|320:186,1,150,2|2,3:2|0:3,0:0:0:0:
301,198,27826,1,0,0:0:0:0:
301,198,27921,6,0,L|194:182,2,75,0|0|8,3:0|0:0|0:2,0:0:0:0:
389,371,28685,1,2,3:2:0:0:
305,319,28877,2,0,L|138:347,1,150,2|2,3:2|3:2,0:0:0:0:
70,298,29450,1,0,0:0:0:0:
70,298,29641,2,0,P|84:242|75:205,1,75,2|8,3:2|0:2,0:0:0:0:
17,152,30023,2,0,P|4:116|5:79,1,75,2|0,0:2|3:0,0:0:0:0:
82,20,30405,1,2,3:2:0:0:
126,134,30596,1,8,0:2:0:0:
126,134,30787,1,10,0:3:0:0:
199,69,30978,6,0,L|283:82,1,75,4|0,3:2|0:0,0:0:0:0:
362,49,31361,2,0,P|368:102|354:138,1,75,8|0,0:2|0:0,0:0:0:0:
300,193,31743,2,0,P|282:239|296:275,1,75,0|0,3:0|3:0,0:0:0:0:
354,329,32125,1,10,0:2:0:0:
354,329,32316,1,2,0:2:0:0:
444,291,32507,6,0,B|478:253|478:253|462:132,1,150,2|10,3:2|0:2,0:0:0:0:
448,58,33080,2,0,L|355:69,1,75,2|0,0:2|3:0,0:0:0:0:
278,44,33462,2,0,L|289:137,1,75,2|8,3:2|0:2,0:0:0:0:
346,208,33845,1,10,0:2:0:0:
346,208,33940,1,8,0:2:0:0:
346,208,34036,6,0,B|334:301,2,75,4|0|8,3:2|0:0|0:2,0:0:0:0:
181,103,34800,2,0,L|192:196,1,75,0|0,3:0|3:0,0:0:0:0:
155,268,35182,1,8,0:2:0:0:
69,231,35373,1,0,3:0:0:0:
84,327,35564,2,0,P|141:358|179:350,1,75,0|0,0:0|3:0,0:0:0:0:
234,309,35947,6,0,P|291:278|329:286,1,75,10|0,0:2|3:0,0:0:0:0:
345,292,36233,1,0,3:0:0:0:
345,292,36329,2,0,L|333:367,2,50,10|8|8,3:2|0:3|0:3,0:0:0:0:
408,237,36711,2,0,L|395:172,2,50,10|8|8,0:3|0:3|0:3,0:0:0:0:
484,295,37093,6,0,B|495:232|495:232|486:202|486:202|502:111,1,165.000005035401,6|8,1:2|0:1,0:0:0:0:
408,60,37666,2,0,B|385:45|385:45|314:57,2,82.5000025177003,2|0|0,0:2|1:0|0:0,0:0:0:0:
366,161,38240,1,10,0:1:0:0:
366,161,38431,1,2,0:1:0:0:
263,113,38622,6,0,B|241:104|241:104|72:132,1,165.000005035401,2|8,1:2|0:1,0:0:0:0:
37,215,39195,1,2,0:2:0:0:
129,254,39386,2,0,P|171:233|208:234,1,82.5000025177003,0|0,1:0|0:0,0:0:0:0:
295,331,39768,2,0,B|279:303|279:303|297:240,1,82.5000025177003,8|0,0:1|0:0,0:0:0:0:
358,177,40150,6,0,P|317:176|281:156,1,82.5000025177003,2|0,1:2|0:0,0:0:0:0:
226,78,40533,1,10,0:1:0:0:
312,42,40724,2,0,B|355:37|355:37|418:80,1,82.5000025177003,2|0,0:2|1:0,0:0:0:0:
461,132,41106,2,0,B|449:153|449:153|437:240,1,82.5000025177003,2|8,0:1|0:1,0:0:0:0:
372,278,41488,2,0,B|384:299|384:299|396:386,1,82.5000025177003,2|0,0:1|1:0,0:0:0:0:
265,329,41870,5,2,0:2:0:0:
285,234,42061,1,10,0:1:0:0:
285,234,42252,1,2,0:2:0:0:
180,262,42443,2,0,B|124:281|124:281|119:183,1,123.75000377655,2|0,1:1|0:0,0:0:0:0:
138,189,42826,1,10,0:1:0:0:
49,151,43017,1,2,0:2:0:0:
99,62,43208,6,0,B|181:18|253:82|253:82|300:50|358:94,1,247.500007553101,2|0,1:1|0:0,0:0:0:0:
428,63,43972,2,0,B|437:112|437:112|410:154,1,82.5000025177003,2|2,1:2|0:1,0:0:0:0:
400,167,44259,1,2,0:1:0:0:
400,167,44354,1,10,0:1:0:0:
345,250,44545,2,0,B|453:266,1,82.5000025177003,2|0,0:2|1:0,0:0:0:0:
322,346,44927,5,2,0:2:0:0:
252,280,45119,1,10,0:1:0:0:
161,319,45310,1,2,0:2:0:0:
178,217,45501,2,0,L|190:120,1,82.5000025177003,2|2,1:2|0:1,0:0:0:0:
194,106,45787,1,2,0:1:0:0:
194,106,45883,2,0,L|269:94,1,41.2500012588501,10|2,0:1|0:1,0:0:0:0:
177,29,46074,2,0,L|102:17,1,41.2500012588501,2|0,0:1|0:0,0:0:0:0:
89,87,46265,6,0,L|99:168,1,82.5000025177003,0|0,1:0|0:0,0:0:0:0:
117,269,46647,2,0,L|127:350,1,82.5000025177003,8|0,0:1|0:0,0:0:0:0:
250,384,47029,6,0,B|227:344|227:344|258:222,1,165.000005035401,2|10,1:2|0:1,0:0:0:0:
267,200,47507,1,2,0:1:0:0:
267,200,47603,1,2,0:2:0:0:
339,265,47794,2,0,L|425:252,1,82.5000025177003,0|0,1:0|0:0,0:0:0:0:
497,189,48176,5,10,0:1:0:0:
497,189,48367,1,0,0:0:0:0:
447,105,48558,2,0,L|365:92,1,82.5000025177003,2|0,1:2|0:0,0:0:0:0:
337,87,48845,1,0,1:0:0:0:
337,87,48940,1,10,0:1:0:0:
243,124,49131,1,0,1:0:0:0:
209,14,49322,6,0,L|65:35,1,120,6|8,3:2|0:2,0:0:0:0:
41,179,50087,2,0,P|31:221|42:252,1,60,2|0,0:2|0:0,0:0:0:0:
82,304,50469,1,10,0:2:0:0:
82,304,50660,2,0,P|139:283|202:285,1,120,2|2,0:2|0:2,0:0:0:0:
343,337,51424,1,2,0:2:0:0:
191,373,51806,1,2,0:2:0:0:
191,373,51998,1,8,0:2:0:0:
300,229,52380,6,0,P|274:170|288:92,1,120,2|10,0:2|0:2,0:0:0:0:
316,48,52953,2,0,L|383:37,1,60,2|0,0:2|0:0,0:0:0:0:
436,86,53335,2,0,P|462:145|448:223,1,120,2|0,0:2|0:0,0:0:0:0:
421,270,53908,1,2,0:2:0:0:
282,198,54291,6,0,L|291:284,1,60,10|2,0:2|0:2,0:0:0:0:
238,318,54673,1,2,0:2:0:0:
238,318,54864,1,2,0:2:0:0:
180,266,55055,2,0,L|121:252,1,60,10|2,0:2|0:2,0:0:0:0:
34,318,55437,6,0,L|14:180,1,134.999995880127,4|10,1:2|0:1,0:0:0:0:
56,109,56010,1,2,0:2:0:0:
56,109,56201,2,0,L|41:25,1,67.4999979400635,2|2,1:2|0:2,0:0:0:0:
127,0,56584,1,10,0:1:0:0:
127,0,56775,2,0,B|176:14|176:14|212:10|212:10|278:32,1,134.999995880127,2|0,0:2|0:0,0:0:0:0:
286,107,57348,1,10,0:1:0:0:
286,107,57539,1,2,0:2:0:0:
210,150,57730,2,0,B|179:219|239:217|199:303,1,134.999995880127,2|10,1:2|0:1,0:0:0:0:
372,341,58494,6,0,L|363:267,1,67.4999979400635,8|8,0:1|0:1,0:0:0:0:
436,224,58877,2,0,L|445:139,1,67.4999979400635,8|8,0:1|0:1,0:0:0:0:
407,76,59259,1,8,0:1:0:0:
341,134,59450,1,8,0:1:0:0:
303,54,59641,1,8,0:1:0:0:
237,111,59832,1,8,0:1:0:0:
189,37,60023,6,0,L|129:56,3,33.7499989700318,8|8|8|8,0:1|0:1|0:1|0:1,0:0:0:0:
119,113,60405,2,0,L|59:94,3,33.7499989700318,8|8|8|8,0:1|0:1|0:1|0:1,0:0:0:0:
39,165,60787,1,8,0:1:0:0:
42,178,60883,1,8,0:1:0:0:
46,191,60978,1,8,0:1:0:0:
50,203,61074,1,8,0:1:0:0:
55,216,61169,2,0,L|36:276,3,33.7499989700318,8|8|8|8,0:1|0:1|0:1|0:1,0:0:0:0:
24,322,61552,5,2,3:2:0:0:
457,336,66902,5,10,0:3:0:0:
457,336,66998,1,8,0:3:0:0:
457,336,67093,1,0,3:0:0:0:
406,266,67284,1,8,0:2:0:0:
317,332,67475,6,0,B|266:341|266:341|229:323|229:323|155:333,1,150,6|0,3:2|0:0,0:0:0:0:
88,380,68048,2,0,L|75:300,1,75,10|0,0:2|0:0,0:0:0:0:
147,239,68431,2,0,L|159:164,1,75,10|0,0:2|3:0,0:0:0:0:
114,83,68813,1,8,0:2:0:0:
114,83,69004,2,0,B|192:41|183:118|282:67,1,150,2|0,3:2|0:0,0:0:0:0:
351,49,69577,2,0,L|337:149,1,75,10|0,0:2|3:0,0:0:0:0:
295,209,69959,2,0,P|339:203|378:223,1,75,10|0,0:2|3:0,0:0:0:0:
418,302,70341,1,8,0:2:0:0:
418,302,70533,1,2,3:2:0:0:
333,349,70724,6,0,L|266:340,3,37.5,8|0|0|0,3:2|3:0|3:0|3:0,0:0:0:0:
246,286,71106,2,0,L|179:295,3,37.5,8|8|8|8,0:3|0:3|0:3|0:3,0:0:0:0:
161,354,71488,1,8,0:2:0:0:
161,354,71584,1,8,0:2:0:0:
161,354,71679,2,0,L|94:345,1,37.5,8|8,0:2|0:2,0:0:0:0:
46,369,71870,1,8,0:2:0:0:
64,260,72061,2,0,L|80:158,1,75,2|0,0:3|3:0,0:0:0:0:
85,159,72348,1,0,3:0:0:0:
85,159,72443,5,8,0:2:0:0:
205,200,72634,2,0,L|189:98,1,75,8|0,0:2|3:0,0:0:0:0:
184,99,72921,1,0,3:0:0:0:
184,99,73016,1,10,0:3:0:0:
286,54,73208,1,8,0:2:0:0:
301,50,73303,1,8,0:2:0:0:
314,46,73399,1,8,0:2:0:0:
328,41,73494,1,8,0:2:0:0:
343,37,73590,6,0,B|383:75|383:75|341:202,1,165.000005035401,6|2,3:2|3:2,0:0:0:0:
355,285,74163,1,8,0:2:0:0:
455,252,74354,2,0,L|471:344,1,82.5000025177003,2|0,0:2|3:0,0:0:0:0:
370,375,74736,1,2,3:2:0:0:
370,375,74927,1,8,0:2:0:0:
274,324,75119,2,0,P|228:344|165:339,1,82.5000025177003,2|0,0:2|0:0,0:0:0:0:
110,281,75501,1,2,3:2:0:0:
180,200,75692,2,0,L|188:107,1,82.5000025177003,8|0,0:2|0:0,0:0:0:0:
191,89,75978,1,0,3:0:0:0:
191,89,76074,1,2,3:2:0:0:
101,30,76265,2,0,L|90:143,1,82.5000025177003,2|8,3:2|0:2,0:0:0:0:
180,200,76647,6,0,B|269:237|248:137|362:194,1,165.000005035401,6|2,3:2|3:2,0:0:0:0:
431,230,77220,1,8,0:2:0:0:
493,141,77412,2,0,P|473:104|484:50,1,82.5000025177003,2|0,0:2|3:0,0:0:0:0:
389,11,77794,1,2,3:2:0:0:
389,11,77985,1,8,0:2:0:0:
310,84,78176,2,0,L|142:102,1,165.000005035401,2|2,3:2|3:2,0:0:0:0:
47,58,78749,1,8,0:2:0:0:
10,184,78940,2,0,L|108:197,1,82.5000025177003,10|0,0:2|3:0,0:0:0:0:
198,208,79322,1,2,3:2:0:0:
137,296,79513,1,8,0:2:0:0:
275,277,79705,6,0,B|296:243|296:243|271:110,1,165.000005035401,6|0,3:2|3:0,0:0:0:0:
345,42,80278,2,0,L|440:62,1,82.5000025177003,8|0,0:2|0:0,0:0:0:0:
478,152,80660,1,2,3:2:0:0:
478,152,80851,1,0,3:0:0:0:
381,198,81042,2,0,L|405:308,1,82.5000025177003,10|0,0:2|3:0,0:0:0:0:
336,366,81424,6,0,P|300:344|228:351,1,82.5000025177003,2|0,0:2|3:0,0:0:0:0:
232,350,81711,1,0,3:0:0:0:
232,350,81806,1,10,0:2:0:0:
258,245,81998,2,0,L|275:164,1,82.5000025177003,2|0,3:2|0:0,0:0:0:0:
311,63,82380,2,0,B|270:51|270:51|199:77,1,82.5000025177003,2|8,3:2|0:2,0:0:0:0:
133,24,82762,1,0,3:0:0:0:
58,101,82953,6,0,L|72:204,1,82.5000025177003,14|0,0:2|3:0,0:0:0:0:
92,314,83335,1,0,3:0:0:0:
92,314,83526,2,0,L|173:302,1,82.5000025177003,14|0,0:2|3:0,0:0:0:0:
317,283,83908,1,0,3:0:0:0:
317,283,84099,2,0,L|305:201,1,82.5000025177003,14|0,0:2|3:0,0:0:0:0:
285,95,84482,6,0,B|198:108|198:108|141:82,2,123.75000377655,8|8|8,0:2|0:2|0:2,0:0:0:0:
391,80,85246,1,10,0:2:0:0:
391,80,85341,1,8,0:2:0:0:
391,80,85437,2,0,L|447:98,1,41.2500012588501,0|0,3:2|3:2,0:0:0:0:
507,119,85628,1,8,0:2:0:0:
402,199,85819,6,0,B|418:312|418:312|388:354,1,150,6|0,3:2|3:0,0:0:0:0:
305,308,86392,2,0,P|256:295|221:308,1,75,10|0,0:2|3:0,0:0:0:0:
149,350,86775,2,0,L|140:263,1,75,10|0,3:2|3:0,0:0:0:0:
187,189,87157,1,8,0:2:0:0:
64,216,87347,6,0,L|83:58,1,150,6|0,3:2|3:0,0:0:0:0:
162,11,87921,1,10,0:2:0:0:
213,104,88112,1,0,3:0:0:0:
213,104,88208,1,0,3:0:0:0:
213,104,88303,2,0,L|305:117,1,75,10|0,0:2|3:0,0:0:0:0:
378,79,88685,1,8,0:2:0:0:
410,200,88877,6,0,B|356:206|356:206|329:228|329:228|240:239,1,150,6|2,3:2|3:2,0:0:0:0:
172,249,89450,1,8,0:2:0:0:
236,332,89641,1,2,3:2:0:0:
236,332,89736,1,0,3:0:0:0:
236,332,89832,2,0,L|336:341,1,75,8|2,0:2|3:2,0:0:0:0:
387,278,90214,2,0,L|483:269,1,75,8|0,0:2|3:0,0:0:0:0:
490,177,90596,6,0,L|471:92,1,75,10|0,0:2|3:0,0:0:0:0:
392,50,90978,1,10,0:2:0:0:
324,121,91170,2,0,L|219:104,1,75,2|8,3:2|0:2,0:0:0:0:
161,99,91552,1,0,3:0:0:0:
161,99,91647,1,0,3:0:0:0:
161,99,91743,2,0,L|83:116,2,50,8|8|8,0:2|0:2|0:2,0:0:0:0:
196,169,92125,6,0,B|79:192|79:192|55:273,1,191.250003647804,6|0,3:2|3:0,0:0:0:0:
100,332,92889,2,0,L|243:300,1,127.50000243187,8|0,0:2|3:0,0:0:0:0:
285,212,93462,6,0,L|392:235,1,63.7500012159348,4|0,3:2|0:0,0:0:0:0:
409,280,93845,2,0,B|434:252|434:252|419:127,1,127.50000243187,8|0,0:2|3:0,0:0:0:0:
444,82,94418,2,0,L|457:20,2,42.5000008106232,8|8|8,0:2|0:3|0:3,0:0:0:0:
366,100,94800,2,0,L|353:38,2,42.5000008106232,8|8|8,0:3|0:3|0:3,0:0:0:0:
315,166,95182,6,0,B|284:146|284:146|251:159|251:159|221:140|221:140|187:152|187:152|157:133|157:133|109:150,1,223.125004255772,6|0,1:1|0:0,0:0:0:0:
41,170,95947,1,10,0:1:0:0:
73,278,96138,2,0,B|80:318|80:318|59:367,2,75,2|2|2,0:1|0:1|0:1,0:0:0:0:
171,237,96711,6,0,B|210:247|210:247|256:296,1,75,2|0,1:1|0:0,0:0:0:0:
233,313,96998,1,0,0:0:0:0:
233,313,97093,2,0,B|256:338|256:338|295:348,1,75
393,327,97475,1,10,0:1:0:0:
330,251,97666,1,2,0:1:0:0:
400,183,97857,2,0,L|489:206,1,75,2|2,0:1|0:1,0:0:0:0:
458,104,98240,6,0,B|402:92|402:92|396:84|396:84|323:67,1,112.5,2|0,1:1|0:0,0:0:0:0:
325,32,98622,2,0,L|230:45,1,75,2|0,0:1|0:0,0:0:0:0:
144,67,99004,1,10,0:1:0:0:
144,67,99099,1,2,0:1:0:0:
144,67,99195,2,0,L|132:136,1,37.5,2|2,0:1|0:1,0:0:0:0:
226,132,99386,6,0,B|247:147|247:147|272:369,1,225,6|0,1:1|0:0,0:0:0:0:
174,381,100150,2,0,P|136:378|100:346,1,75,2|0,0:1|0:0,0:0:0:0:
97,313,100437,1,0,1:0:0:0:
97,313,100533,6,0,B|96:283|127:255|127:255|113:210|66:195|66:195|114:145|85:102|85:102,1,225,8|8,0:1|0:3,0:0:0:0:
12,37,101297,6,0,B|92:70|153:16|153:16|163:40|195:55|195:55|197:61|197:61|196:56|196:56|219:39|256:43|256:43,1,262.5,6|0,1:1|0:0,0:0:0:0:
312,35,102061,2,0,B|296:126|296:126,1,75,10|0,0:1|0:0,0:0:0:0:
234,190,102443,2,0,P|286:200|320:227,1,75,2|0,0:1|0:0,0:0:0:0:
385,140,102826,6,0,L|517:118,2,112.5,2|2|2,1:1|0:1|0:1,0:0:0:0:
402,265,103590,2,0,L|516:287,2,112.5,10|2|2,0:1|0:1|0:1,0:0:0:0:
307,240,104354,2,0,B|290:301|338:344|338:344|274:317|216:376,1,225,2|0,1:1|0:0,0:0:0:0:
159,270,105119,2,0,P|97:256|68:263,1,75,10|0,0:1|0:0,0:0:0:0:
36,173,105501,2,0,P|73:173|108:160,1,75,2|0,0:1|0:0,0:0:0:0:
140,52,105883,6,0,L|226:67,1,75,2|0,1:1|0:0,0:0:0:0:
276,139,106265,2,0,L|371:128,1,75,10|0,0:1|0:0,0:0:0:0:
447,58,106647,1,10,0:1:0:0:
479,174,106838,2,0,L|461:277,1,75,2|0,1:1|0:0,0:0:0:0:
379,309,107220,1,2,0:1:0:0:
375,287,107316,1,2,0:1:0:0:
371,261,107412,5,4,1:1:0:0:
256,192,107507,12,2,110469,0:2:0:0:
