osu file format v14

[General]
AudioFilename: audio.mp3
AudioLeadIn: 0
PreviewTime: 240056
Countdown: 1
SampleSet: Normal
StackLeniency: 0.3
Mode: 0
LetterboxInBreaks: 0
WidescreenStoryboard: 0

[Editor]
Bookmarks: 152364,157787,180979,210518,240056,299133,321287,328672,358210,377133,417287
DistanceSpacing: 1
BeatDivisor: 4
GridSize: 4
TimelineZoom: 1.5

[Metadata]
Title:RISA.
TitleUnicode:RISA.
Artist:KIVA
ArtistUnicode:KIVA
Creator:Nitronic Techno
Version:Ruination
Source:
Tags:KIVA RISA Dubstep House Drum Bass
BeatmapID:1622488
BeatmapSetID:771752

[Difficulty]
HPDrainRate:7
CircleSize:5
OverallDifficulty:7
ApproachRate:9
SliderMultiplier:1.9
SliderTickRate:1

[Events]
//Background and Video events
0,0,".3.PNG",0,0
//Break Periods
2,240256,246841
2,417487,424072
//Storyboard Layer 0 (Background)
//Storyboard Layer 1 (Fail)
//Storyboard Layer 2 (Pass)
//Storyboard Layer 3 (Foreground)
//Storyboard Sound Samples

[TimingPoints]
2250,461.538461538462,4,2,0,5,1,0
121903,461.538461538462,4,1,0,40,1,0
122710,-76.9230769230769,4,1,0,40,0,0
122941,-100,4,1,0,40,0,0
124556,-76.9230769230769,4,1,0,40,0,0
124787,-100,4,1,0,40,0,0
126403,-76.9230769230769,4,1,0,40,0,0
126634,-100,4,1,0,40,0,0
126979,-133.333333333333,4,1,0,40,0,0
127441,-100,4,1,0,40,0,0
130095,-76.9230769230769,4,1,0,40,0,0
130326,-100,4,1,0,40,0,0
131364,-83.3333333333333,4,1,0,40,0,0
131595,-100,4,1,0,40,0,0
131826,-133.333333333333,4,1,0,40,0,0
132172,-79.9999999999999,4,1,0,40,0,0
132979,-100,4,1,0,45,0,0
133787,-76.9230769230769,4,1,0,45,0,0
134018,-100,4,1,0,45,0,0
134826,-83.3333333333333,4,1,0,45,0,0
136441,-200,4,1,0,45,0,0
136672,-100,4,1,0,45,0,0
137479,-76.9230769230769,4,1,0,45,0,0
137710,-100,4,1,0,45,0,0
138749,-83.3333333333333,4,1,0,45,0,0
139326,-76.9230769230769,4,1,0,45,0,0
139557,-100,4,1,0,45,0,0
139903,-200,4,1,0,45,0,0
140364,-100,4,1,0,45,0,0
141056,-133.333333333333,4,1,0,40,0,0
141402,-79.9999999999999,4,1,0,40,0,0
143826,-200,4,1,0,45,0,0
144056,-100,4,1,0,45,0,0
144864,-76.9230769230769,4,1,0,45,0,0
145095,-100,4,1,0,45,0,0
145672,-153.846153846154,4,1,0,45,0,0
145903,-100,4,1,0,45,0,0
146364,-71.4285714285714,4,1,0,45,0,0
146826,-100,4,1,0,45,0,0
148556,-76.9230769230769,4,1,0,45,0,0
148787,-100,4,1,0,45,0,0
151441,-250,4,1,0,50,0,0
151903,-100,4,1,0,50,0,0
152826,-125,4,1,0,50,0,0
153287,-166.666666666667,4,1,0,50,0,0
153749,-100,4,1,0,50,0,0
154095,-76.9230769230769,4,1,0,50,0,0
154326,-100,4,1,0,50,0,0
156056,-125,4,1,0,50,0,0
156518,-166.666666666667,4,1,0,50,0,0
156979,-100,4,1,0,50,0,0
158364,-83.3333333333333,4,1,0,65,0,0
158826,-333.333333333333,4,1,0,55,0,0
159518,-76.9230769230769,4,1,0,55,0,0
160672,-100,4,1,0,55,0,0
161479,-76.9230769230769,4,1,0,50,0,0
161710,-100,4,1,0,50,0,0
163326,-76.9230769230769,4,1,0,50,0,0
163557,-100,4,1,0,50,0,0
164364,-66.6666666666667,4,1,0,50,0,0
165056,-100,4,1,0,50,0,0
167595,-125,4,1,0,50,0,0
168056,-250,4,1,0,50,0,0
168518,-100,4,1,0,50,0,0
168864,-76.9230769230769,4,1,0,50,0,0
169095,-100,4,1,0,50,0,0
170710,-76.9230769230769,4,1,0,50,0,0
170941,-100,4,1,0,50,0,0
171287,-125,4,1,0,50,0,0
171749,-100,4,1,0,50,0,0
172556,-76.9230769230769,4,1,0,50,0,0
173595,-100,4,1,0,50,0,0
174403,-76.9230769230769,4,1,0,50,0,0
174633,-100,4,1,0,50,0,0
180979,-100,4,1,0,55,0,0
183287,-83.3333333333333,4,1,0,55,0,0
184095,-76.9230769230769,4,1,0,55,0,0
184672,-100,4,1,0,55,0,0
185479,-76.9230769230769,4,1,0,55,0,0
186056,-100,4,1,0,55,0,0
186518,-71.4285714285714,4,1,0,55,0,0
188364,-100,4,1,0,55,0,0
189172,-83.3333333333333,4,1,0,55,0,0
189518,-100,4,1,0,55,0,0
190903,-66.6666666666667,4,1,0,55,0,0
192056,-100,4,1,0,55,0,0
194364,-90.9090909090909,4,1,0,55,0,0
195749,-100,4,1,0,55,0,0
196556,-76.9230769230769,4,1,0,55,0,0
196903,-100,4,1,0,55,0,0
198403,-80,4,1,0,55,0,0
199441,-100,4,1,0,55,0,0
201287,-71.4285714285714,4,1,0,55,0,0
203133,-100,4,1,0,55,0,0
205672,-66.6666666666667,4,1,0,55,0,0
206826,-100,4,1,0,55,0,0
207633,-83.3333333333333,4,1,0,55,0,0
207979,-100,4,1,0,55,0,0
208672,-83.3333333333333,4,1,0,55,0,0
209133,-66.6666666666667,4,1,0,55,0,0
209479,-133.333333333333,4,1,0,55,0,0
209941,-117.647058823529,4,1,0,55,0,0
210518,-250,4,1,0,55,0,0
211326,-76.9230769230769,4,1,0,55,0,0
211672,-100,4,1,0,55,0,0
214672,-125,4,1,0,55,0,0
215018,-50,4,1,0,55,0,0
215364,-125,4,1,0,55,0,0
216056,-71.4285714285714,4,1,0,55,0,0
217787,-166.666666666667,4,1,0,55,0,0
218364,-100,4,1,0,55,0,0
219056,-68.9655172413793,4,1,0,55,0,0
219749,-100,4,1,0,55,0,0
220441,-66.6666666666667,4,1,0,55,0,0
222056,-100,4,1,0,55,0,0
222403,-76.9230769230769,4,1,0,55,0,0
222749,-100,4,1,0,55,0,0
222979,-142.857142857143,4,1,0,55,0,0
223441,-100,4,1,0,55,0,0
223903,-76.9230769230769,4,1,0,55,0,0
225287,-100,4,1,0,55,0,0
226095,-83.3333333333333,4,1,0,55,0,0
227941,-76.9230769230769,4,1,0,55,0,0
228287,-100,4,1,0,55,0,0
230826,-76.9230769230769,4,1,0,55,0,0
232672,-100,4,1,0,55,0,0
233479,-90.9090909090909,4,1,0,55,0,0
235210,-66.6666666666667,4,1,0,55,0,0
236364,-100,4,1,0,55,0,0
237172,-76.9230769230769,4,1,0,55,0,0
237518,-100,4,1,0,55,0,0
237749,-125,4,1,0,55,0,0
238210,-100,4,1,0,55,0,0
238903,-200,4,1,0,55,0,0
247441,-400,4,2,0,55,0,0
256672,-333.333333333333,4,2,0,55,0,0
264056,-200,4,2,0,55,0,0
276056,-133.333333333333,4,2,0,55,0,0
298672,-133.333333333333,4,1,0,40,0,0
299133,-66.6666666666667,4,2,0,70,0,0
300979,-285.714285714286,4,2,0,70,0,0
302364,-133.333333333333,4,1,0,40,0,0
302825,-66.6666666666667,4,2,0,70,0,0
304672,-285.714285714286,4,2,0,70,0,0
305826,-133.333333333333,4,1,0,40,0,0
306518,-66.6666666666667,4,2,0,70,0,0
308364,-666.666666666667,4,2,0,70,0,0
309749,-133.333333333333,4,1,0,40,0,0
310210,-66.6666666666667,4,2,0,70,0,0
312056,-285.714285714286,4,2,0,70,0,0
312979,-133.333333333333,4,1,0,40,0,0
313902,-66.6666666666667,4,2,0,70,0,0
315749,-285.714285714286,4,2,0,70,0,0
317133,-133.333333333333,4,1,0,40,0,0
317595,-66.6666666666667,4,2,0,70,0,0
319441,-250,4,2,0,70,0,0
321287,-133.333333333333,4,1,0,40,0,0
328672,-83.3333333333333,4,1,0,80,0,1
329479,-62.5,4,1,0,80,0,1
330056,-100,4,1,0,80,0,1
330749,-100,4,1,0,80,0,1
331326,-74.0740740740741,4,1,0,80,0,1
332364,-1000,4,1,0,80,0,1
332479,-1000,4,2,0,5,0,1
332826,-83.3333333333333,4,1,0,80,0,1
333749,-166.666666666667,4,1,0,80,0,1
334441,-83.3333333333333,4,1,0,80,0,1
335018,-76.9230769230769,4,1,0,80,0,1
335364,-83.3333333333333,4,1,0,80,0,1
336056,-333.333333333333,4,1,0,80,0,1
336171,-333.333333333333,4,2,0,20,0,1
336518,-83.3333333333333,4,1,0,80,0,1
336864,-62.5,4,1,0,80,0,1
337903,-41.6666666666667,4,1,0,80,0,1
338710,-62.5,4,1,0,80,0,1
339287,-83.3333333333333,4,1,0,80,0,1
339749,-1000,4,1,0,80,0,1
339864,-1000,4,2,0,5,0,1
340210,-83.3333333333333,4,1,0,80,0,1
342056,-66.6666666666667,4,1,0,80,0,1
342403,-55.5555555555556,4,1,0,80,0,1
342749,-83.3333333333333,4,1,0,80,0,1
342864,-166.666666666667,4,1,0,80,0,1
342979,-83.3333333333333,4,1,0,80,0,1
343441,-25,4,1,0,80,0,1
343903,-83.3333333333333,4,1,0,80,0,1
345749,-100,4,1,0,80,0,1
346095,-71.4285714285714,4,1,0,80,0,1
347133,-33.3333333333333,4,1,0,80,0,1
347826,-83.3333333333333,4,1,0,80,0,1
348518,-111.111111111111,4,1,0,80,0,1
350826,-25,4,1,0,80,0,1
351518,-83.3333333333333,4,1,0,80,0,1
352210,-100,4,1,0,80,0,1
353479,-66.6666666666667,4,1,0,80,0,1
354056,-83.3333333333333,4,1,0,80,0,1
354518,-1000,4,1,0,80,0,1
354633,-1000,4,2,0,5,0,1
354979,-83.3333333333333,4,1,0,80,0,1
355079,-79.3650793650794,4,1,0,80,0,1
355672,-75.5857898715042,4,1,0,80,0,1
356018,-71.9864665442897,4,1,0,80,0,1
356364,-68.5585395659902,4,1,0,80,0,1
356710,-65.2938472057049,4,1,0,80,0,1
357056,-83.3333333333333,4,1,0,80,0,1
358210,-166.666666666667,4,1,0,80,0,1
358903,-83.3333333333333,4,1,0,80,0,1
361441,-66.6666666666667,4,1,0,80,0,1
361787,-83.3333333333333,4,1,0,80,0,1
362364,-71.4285714285714,4,1,0,80,0,1
362710,-57.1428571428571,4,1,0,80,0,1
363056,-83.3333333333333,4,1,0,80,0,1
363287,-71.4285714285714,4,1,0,80,0,1
363633,-57.1428571428571,4,1,0,80,0,1
363979,-83.3333333333333,4,1,0,80,0,1
364210,-71.4285714285714,4,1,0,80,0,1
364556,-57.1428571428571,4,1,0,80,0,1
364902,-83.3333333333333,4,1,0,80,0,1
365595,-100,4,1,0,80,0,1
366403,-62.5,4,1,0,80,0,1
366979,-166.666666666667,4,1,0,80,0,1
367441,-83.3333333333333,4,1,0,80,0,1
368249,-50,4,1,0,80,0,1
369287,-1000,4,1,0,80,0,1
369402,-1000,4,2,0,5,0,1
369748,-83.3333333333333,4,1,0,80,0,1
370210,-111.111111111111,4,1,0,80,0,1
370672,-83.3333333333333,4,1,0,80,0,1
371941,-58.8235294117647,4,1,0,80,0,1
372287,-83.3333333333333,4,1,0,80,0,1
372979,-41.6666666666667,4,1,0,80,0,1
373672,-83.3333333333333,4,1,0,80,0,1
376672,-100,4,1,0,80,0,1
377133,-71.4285714285714,4,1,0,80,0,1
377479,-57.1428571428571,4,1,0,80,0,1
377825,-83.3333333333333,4,1,0,80,0,1
378056,-71.4285714285714,4,1,0,80,0,1
378402,-57.1428571428571,4,1,0,80,0,1
378748,-83.3333333333333,4,1,0,80,0,1
378979,-71.4285714285714,4,1,0,80,0,1
379325,-57.1428571428571,4,1,0,80,0,1
379671,-83.3333333333333,4,1,0,80,0,1
379903,-66.6666666666667,4,1,0,80,0,1
380364,-333.333333333333,4,1,0,80,0,1
380479,-333.333333333333,4,2,0,5,0,1
380825,-83.3333333333333,4,1,0,80,0,1
381749,-62.5,4,1,0,80,0,1
381979,-125,4,1,0,80,0,1
382672,-166.666666666667,4,1,0,80,0,1
383133,-83.3333333333333,4,1,0,80,0,1
384056,-250,4,1,0,80,0,1
384171,-250,4,2,0,5,0,1
384517,-83.3333333333333,4,1,0,80,0,1
384864,-62.5,4,1,0,80,0,1
385441,-125,4,1,0,80,0,1
385903,-83.3333333333333,4,1,0,80,0,1
386710,-66.6666666666667,4,1,0,80,0,1
387287,-55.5555555555556,4,1,0,80,0,1
387749,-76.9230769230769,4,1,0,80,0,1
388556,-62.5,4,1,0,80,0,1
389133,-90.9090909090909,4,1,0,80,0,1
389595,-62.5,4,1,0,80,0,1
390056,-100,4,1,0,80,0,1
390403,-76.9230769230769,4,1,0,80,0,1
390979,-100,4,1,0,80,0,1
391441,-62.5,4,1,0,80,0,1
391672,-76.9230769230769,4,1,0,80,0,1
392249,-66.6666666666667,4,1,0,80,0,1
392826,-76.9230769230769,4,1,0,80,0,1
393172,-61.5384615384615,4,1,0,80,0,1
393749,-76.9230769230769,4,1,0,80,0,1
394095,-61.5384615384615,4,1,0,80,0,1
395133,-250,4,1,0,80,0,1
395249,-250,4,2,0,5,0,1
395595,-76.9230769230769,4,1,0,80,0,1
396056,-100,4,1,0,80,0,1
397441,-76.9230769230769,4,1,0,80,0,1
398826,-1000,4,1,0,80,0,1
398941,-1000,4,2,0,5,0,1
399287,-83.3333333333333,4,1,0,80,0,1
399633,-153.846153846154,4,1,0,80,0,1
400210,-76.9230769230769,4,1,0,80,0,1
400672,-62.5,4,1,0,80,0,1
401133,-83.3333333333333,4,1,0,80,0,1
401710,-55.5555555555556,4,1,0,80,0,1
401941,-111.111111111111,4,1,0,80,0,1
402518,-62.5,4,1,0,80,0,1
402979,-83.3333333333333,4,1,0,80,0,1
403672,-166.666666666667,4,1,0,80,0,1
403903,-83.3333333333333,4,1,0,80,0,1
406672,-76.9230769230769,4,1,0,80,0,1
407018,-61.5384615384615,4,1,0,80,0,1
407595,-76.9230769230769,4,1,0,80,0,1
407941,-61.5384615384615,4,1,0,80,0,1
408518,-76.9230769230769,4,1,0,80,0,1
408864,-61.5384615384615,4,1,0,80,0,1
409441,-86.9565217391304,4,1,0,80,0,1
409903,-173.913043478261,4,1,0,80,0,1
410018,-173.913043478261,4,2,0,5,0,1
410364,-83.3333333333333,4,1,0,80,0,1
410710,-62.5,4,1,0,80,0,1
411287,-83.3333333333333,4,1,0,80,0,1
411749,-166.666666666667,4,1,0,80,0,1
412210,-83.3333333333333,4,1,0,80,0,1
412556,-55.5555555555556,4,1,0,80,0,1
412672,-83.3333333333333,4,1,0,80,0,1
413133,-55.5555555555556,4,1,0,80,0,1
413595,-1000,4,1,0,80,0,1
413710,-1000,4,2,0,5,0,1
414056,-83.3333333333333,4,1,0,80,0,1
414287,-166.666666666667,4,1,0,80,0,1
414518,-71.4285714285714,4,1,0,80,0,1
415441,-55.5555555555556,4,1,0,80,0,1
415672,-111.111111111111,4,1,0,80,0,1
416364,-83.3333333333333,4,1,0,80,0,1
416826,-41.6666666666667,4,1,0,80,0,1
416941,-41.6666666666667,4,2,0,5,0,1
416979,-41.6666666666667,4,1,0,80,0,1
417094,-41.6666666666667,4,2,0,5,0,1
417133,-41.6666666666667,4,1,0,80,0,1
417248,-41.6666666666667,4,2,0,5,0,1
417287,-83.3333333333333,4,1,0,80,0,0
424672,-142.857142857143,4,2,0,50,0,0

[HitObjects]
71,47,121903,6,0,P|64:100|72:150,2,95,0|0|8,0:0|0:0|0:0,0:0:0:0:
230,77,122595,1,0,0:0:0:0:
212,95,122710,2,0,B|212:127|212:127|168:167|168:167|168:204,1,123.499994346619,2|2,0:0|0:0,0:0:0:0:
156,224,123056,1,2,0:0:0:0:
291,251,123287,1,8,0:0:0:0:
180,345,123633,1,0,0:0:0:0:
147,337,123749,6,0,P|95:315|72:279,2,95,0|0|8,0:0|0:0|0:0,0:0:0:0:
317,330,124441,1,0,0:0:0:0:
334,308,124556,2,0,B|334:271|334:271|377:231|377:231|377:197,1,123.499994346619,2|2,0:0|0:0,0:0:0:0:
377,175,124903,1,2,0:0:0:0:
364,146,125018,1,0,0:0:0:0:
373,117,125133,1,8,0:0:0:0:
228,33,125595,5,0,0:0:0:0:
198,54,125710,1,0,0:0:0:0:
183,86,125826,1,0,0:0:0:0:
201,238,126056,1,8,0:0:0:0:
45,325,126287,1,0,0:0:0:0:
65,311,126403,2,0,B|90:283|90:283|86:225|86:225|111:201,1,123.499994346619,2|2,0:0|0:0,0:0:0:0:
117,177,126749,1,2,0:0:0:0:
213,74,126979,2,0,B|249:83|286:68|300:50|329:55,1,106.875004076958,8|0,0:0|0:0,0:0:0:0:
366,96,127441,6,0,P|417:104|477:91,2,95,0|0|8,0:0|0:0|0:0,0:0:0:0:
227,54,128133,1,0,0:0:0:0:
181,43,128249,1,2,0:0:0:0:
77,97,128479,1,2,0:0:0:0:
133,195,128710,1,2,0:0:0:0:
179,206,128826,1,8,0:0:0:0:
287,149,129056,1,0,0:0:0:0:
342,244,129287,6,0,P|331:298|343:346,2,95,0|0|8,0:0|0:0|0:0,0:0:0:0:
362,215,129864,1,0,0:0:0:0:
380,183,129979,1,0,0:0:0:0:
381,151,130095,2,0,B|377:114|377:114|416:74|416:74|412:42,1,123.499994346619,2|2,0:0|0:0,0:0:0:0:
404,8,130441,1,2,0:0:0:0:
287,32,130672,1,8,0:0:0:0:
250,47,130787,1,0,0:0:0:0:
223,71,130903,1,0,0:0:0:0:
188,84,131018,1,0,0:0:0:0:
156,94,131133,5,0,0:0:0:0:
81,158,131364,2,8,P|93:231|158:256,1,113.999996520996
233,332,131826,2,2,L|217:283,1,35.625001358986
271,207,132172,1,0,0:0:0:0:
288,250,132287,1,0,0:0:0:0:
305,294,132403,1,0,0:0:0:0:
321,338,132518,1,0,0:0:0:0:
397,250,132749,1,0,0:0:0:0:
281,110,132979,5,0,0:0:0:0:
274,142,133095,1,0,0:0:0:0:
281,174,133210,1,0,0:0:0:0:
379,138,133441,1,8,0:0:0:0:
194,45,133672,1,0,0:0:0:0:
170,70,133787,2,0,B|146:95|146:95|150:153|150:153|125:178,1,123.499994346619,2|2,0:0|0:0,0:0:0:0:
68,180,134133,2,0,P|78:208|139:234,1,95,2|8,0:0|0:0,0:0:0:0:
39,44,134595,1,0,0:0:0:0:
75,35,134710,1,0,0:0:0:0:
108,42,134826,6,0,P|132:96|92:152,1,113.999996520996
228,197,135287,1,2,0:0:0:0:
134,274,135518,1,0,0:0:0:0:
141,235,135633,1,2,0:0:0:0:
257,193,135864,1,2,0:0:0:0:
378,110,136095,1,2,0:0:0:0:
371,149,136210,1,8,0:0:0:0:
355,344,136441,6,0,B|343:325|343:325|342:309,1,35.625,0|0,0:0|2:0,0:0:0:0:
329,288,136672,6,0,P|334:237|327:178,1,95
253,64,137133,2,0,P|245:127|258:167,1,95,8|0,0:0|0:0,0:0:0:0:
262,182,137479,2,0,B|277:213|277:213|255:267|255:267|271:298,1,123.499994346619,2|2,0:0|0:0,0:0:0:0:
282,324,137826,1,2,0:0:0:0:
207,233,138056,1,8,0:0:0:0:
81,344,138287,1,0,0:0:0:0:
102,338,138403,1,0,0:0:0:0:
115,315,138518,5,0,0:0:0:0:
148,180,138749,2,0,P|117:229|117:287,1,113.999996520996,0|8,0:0|0:0,0:0:0:0:
224,334,139210,1,0,0:0:0:0:
258,334,139326,2,0,B|285:333|285:333|335:270|335:270|364:271,1,123.499994346619,2|2,0:0|0:0,0:0:0:0:
384,271,139672,1,2,0:0:0:0:
417,271,139787,1,0,0:0:0:0:
450,272,139903,2,0,L|491:235,1,47.5,8|0,0:0|0:0,0:0:0:0:
299,207,140364,5,0,0:0:0:0:
331,212,140479,1,0,0:0:0:0:
363,218,140595,2,0,L|447:161,1,95,0|8,0:0|0:0,0:0:0:0:
321,93,141056,2,0,L|275:93,1,35.625001358986,0|2,0:0|0:0,0:0:0:0:
168,127,141403,2,0,L|242:127,1,59.375,2|2,0:0|0:0,0:0:0:0:
118,176,141749,1,8,0:0:0:0:
290,35,141979,1,0,0:0:0:0:
254,40,142095,1,0,0:0:0:0:
233,68,142210,6,0,P|171:105|123:75,2,118.75,8|8|8,0:0|0:0|0:0,0:0:0:0:
385,120,142903,1,0,0:0:0:0:
347,137,143018,1,2,0:0:0:0:
255,193,143249,1,2,0:0:0:0:
127,264,143479,1,2,0:0:0:0:
165,247,143594,1,8,0:0:0:0:
388,214,143826,6,0,B|384:232|384:232|372:252,1,35.625,0|0,0:0|2:0,0:0:0:0:
365,261,144057,6,0,P|323:290|268:314,1,95
184,346,144518,1,8,0:0:0:0:
81,267,144749,1,0,0:0:0:0:
81,232,144864,2,0,B|80:215|80:215|143:165|143:165|144:138,1,123.499994346619,2|2,0:0|0:0,0:0:0:0:
145,106,145210,1,2,0:0:0:0:
256,16,145441,1,8,0:0:0:0:
367,106,145672,2,0,L|367:51,1,30.8749985866547
418,137,145903,6,0,P|411:182|378:243,1,95
285,368,146364,2,0,B|312:290|312:290|318:235|318:235|347:157,1,199.499993911743,8|2,0:0|0:0,0:0:0:0:
212,220,146941,1,2,0:0:0:0:
203,256,147056,1,2,0:0:0:0:
175,283,147172,1,0,0:0:0:0:
139,295,147287,1,8,0:0:0:0:
30,184,147518,1,0,0:0:0:0:
30,184,147749,6,0,L|79:158,2,47.5
74,233,148210,2,0,P|134:250|179:241,1,95,8|0,0:0|0:0,0:0:0:0:
192,241,148556,2,0,B|210:235|210:235|275:282|275:282|302:275,1,123.499994346619,2|2,0:0|0:0,0:0:0:0:
327,269,148903,1,2,0:0:0:0:
435,157,149133,1,8,0:0:0:0:
369,355,149364,1,0,0:0:0:0:
330,347,149479,1,0,0:0:0:0:
298,322,149595,6,0,P|245:302|209:326,1,95,8|8,0:0|0:0,0:0:0:0:
115,263,150056,1,8,0:0:0:0:
143,131,150287,1,0,0:0:0:0:
102,143,150403,1,2,0:0:0:0:
255,192,150633,1,2,0:0:0:0:
410,241,150864,1,2,0:0:0:0:
369,229,150980,1,8,0:0:0:0:
255,81,151210,1,0,0:0:0:0:
255,81,151441,6,0,P|261:104|254:160,1,76,0|8,0:0|0:0,0:0:0:0:
111,28,152133,1,0,0:0:0:0:
124,68,152249,1,0,0:0:0:0:
115,109,152364,1,2,0:0:0:0:
125,150,152479,1,0,0:0:0:0:
142,189,152595,1,0,0:0:0:0:
211,351,152826,2,0,P|225:304|192:239,1,114,10|0,0:0|0:0,0:0:0:0:
138,328,153287,6,0,P|151:276|223:249,1,113.999996520996,2|0,0:0|0:0,0:0:0:0:
256,114,153979,1,0,0:0:0:0:
291,113,154095,2,0,B|310:113|310:113|362:174|362:174|389:174,1,123.499994346619,2|2,0:0|0:0,0:0:0:0:
419,175,154441,1,2,0:0:0:0:
456,174,154556,1,0,0:0:0:0:
494,174,154672,1,8,0:0:0:0:
254,178,154903,1,0,0:0:0:0:
254,178,155133,6,0,L|300:215,2,47.5
83,46,155595,2,0,P|64:101|113:167,1,142.5,10|0,0:0|0:0,0:0:0:0:
207,168,156056,2,0,P|163:142|103:174,1,114,2|0,0:0|0:0,0:0:0:0:
106,243,156518,2,0,P|122:208|100:156,1,85.4999973907472,10|0,0:0|0:0,0:0:0:0:
108,164,156979,5,8,0:0:0:0:
256,223,157210,1,8,0:0:0:0:
223,85,157441,1,8,0:0:0:0:
302,250,157787,1,2,0:0:0:0:
223,85,158018,1,2,0:0:0:0:
374,274,158249,1,2,0:0:0:0:
415,234,158364,1,8,0:0:0:0:
434,180,158479,1,8,0:0:0:0:
432,122,158595,1,8,0:0:0:0:
419,66,158710,1,8,0:0:0:0:
373,30,158826,6,0,P|351:21|317:30,1,56.9999982604981,0|8,0:0|0:0,0:0:0:0:
191,75,159518,1,0,0:0:0:0:
191,75,159633,1,2,0:0:0:0:
283,192,159864,1,2,0:0:0:0:
283,192,159979,1,2,0:0:0:0:
110,262,160210,2,0,P|158:311|274:294,1,185.249991519928,10|0,0:0|0:0,0:0:0:0:
257,236,160672,6,0,P|309:248|326:309,1,95,2|0,0:0|0:0,0:0:0:0:
437,233,161133,2,0,P|383:202|374:161,1,95,8|0,0:0|0:0,0:0:0:0:
364,146,161479,2,0,B|351:124|351:124|273:110|273:110|263:93,1,123.499994346619,2|2,0:0|0:0,0:0:0:0:
238,52,161826,1,8,0:0:0:0:
194,34,161941,1,0,0:0:0:0:
147,41,162056,2,0,P|95:65|40:68,1,95,8|0,0:0|0:0,0:0:0:0:
284,77,162518,5,0,0:0:0:0:
263,107,162633,1,0,0:0:0:0:
250,144,162749,2,0,P|220:195|177:201,1,95,0|10,0:0|0:0,0:0:0:0:
186,352,163326,2,0,B|185:325|185:325|125:274|125:274|125:254,1,123.499994346619,2|2,0:0|0:0,0:0:0:0:
124,208,163672,1,2,0:0:0:0:
184,80,163903,1,10,0:0:0:0:
351,207,164249,1,0,0:0:0:0:
351,207,164364,6,0,B|351:285|351:285|420:325,2,142.500005435944,10|8|8,0:0|0:0|0:0,0:0:0:0:
338,165,164941,1,8,0:0:0:0:
221,57,165172,1,2,0:0:0:0:
157,88,165287,1,8,0:0:0:0:
111,143,165403,1,2,0:0:0:0:
99,213,165518,1,8,0:0:0:0:
188,310,165749,1,8,0:0:0:0:
295,243,165979,1,8,0:0:0:0:
355,280,166094,1,2,0:0:0:0:
414,319,166210,6,0,P|460:293|468:237,2,95,0|0|8,0:0|0:0|0:0,0:0:0:0:
271,323,166903,1,0,0:0:0:0:
224,321,167018,1,0,0:0:0:0:
177,314,167133,2,0,P|109:288|99:206,1,142.5,2|0,0:0|0:0,0:0:0:0:
177,155,167595,2,0,P|140:202|74:229,1,114,10|0,0:0|0:0,0:0:0:0:
52,163,168056,2,0,P|83:197|93:239,1,76,2|8,0:0|0:0,0:0:0:0:
266,348,168749,1,0,0:0:0:0:
303,320,168864,2,0,B|325:305|325:305|401:325|401:325|418:313,1,123.499994346619,2|2,0:0|0:0,0:0:0:0:
456,288,169210,1,2,0:0:0:0:
358,150,169441,2,0,P|357:205|391:256,1,95,8|0,0:0|0:0,0:0:0:0:
456,121,169903,6,0,L|480:61,2,47.5
297,34,170364,1,8,0:0:0:0:
54,54,170710,2,0,B|74:72|74:72|74:150|74:150|89:163,1,123.499994346619,2|2,0:0|0:0,0:0:0:0:
124,193,171056,1,2,0:0:0:0:
58,305,171287,2,0,P|104:312|186:288,1,114,8|0,0:0|0:0,0:0:0:0:
253,279,171749,6,0,P|198:274|161:310,2,95,8|8|8,0:0|0:0|0:0,0:0:0:0:
235,146,172441,1,2,0:0:0:0:
288,114,172556,2,0,L|206:163,1,61.7499971733095,2|8,0:0|0:0,0:0:0:0:
458,330,173018,2,0,B|437:311|437:311|437:233|437:233|422:220,1,123.499994346619,8|8,0:0|0:0,0:0:0:0:
388,191,173364,1,2,0:0:0:0:
281,368,173595,6,0,P|319:332|326:254,1,95
255,154,174056,1,8,0:0:0:0:
224,190,174172,1,0,0:0:0:0:
190,223,174287,1,0,0:0:0:0:
153,257,174403,2,0,B|125:262|125:262|86:330|86:330|66:334,1,123.499994346619,2|2,0:0|0:0,0:0:0:0:
28,331,174749,2,0,L|37:224,1,95,2|8,0:0|0:0,0:0:0:0:
59,16,175326,1,0,0:0:0:0:
117,57,175441,6,0,L|98:162,1,95
210,247,175903,2,0,L|228:140,1,95,8|0,0:0|0:0,0:0:0:0:
299,105,176249,2,0,P|257:150|213:150,1,95,2|2,0:0|0:0,0:0:0:0:
178,150,176595,1,2,0:0:0:0:
136,173,176710,1,0,0:0:0:0:
108,212,176826,2,0,P|103:280|119:315,1,95,8|0,0:0|0:0,0:0:0:0:
316,280,177287,6,0,L|340:218,2,47.5
396,230,177749,2,0,P|355:174|276:217,1,142.5,8|2,0:0|0:0,0:0:0:0:
228,286,178326,1,2,0:0:0:0:
256,251,178441,1,2,0:0:0:0:
116,154,178672,2,0,P|156:209|235:166,1,142.5,8|0,0:0|0:0,0:0:0:0:
256,133,179133,5,8,0:0:0:0:
414,191,179364,1,8,0:0:0:0:
291,285,179595,2,0,P|238:302|136:274,1,142.5,8|2,0:0|0:0,0:0:0:0:
125,156,180172,1,2,0:0:0:0:
146,260,180403,1,2,0:0:0:0:
139,221,180518,1,8,0:0:0:0:
225,303,180672,1,8,0:0:0:0:
100,339,180826,1,8,0:0:0:0:
124,156,180979,5,4,0:0:0:0:
124,156,181441,1,8,0:0:0:0:
282,41,181672,1,0,0:0:0:0:
268,86,181787,1,0,0:0:0:0:
230,115,181903,1,2,0:0:0:0:
237,161,182018,1,0,0:0:0:0:
220,205,182133,1,0,0:0:0:0:
256,363,182364,2,0,P|288:318|298:215,1,142.5,8|0,0:0|0:0,0:0:0:0:
340,160,182826,6,0,P|372:212|419:226,1,95
317,69,183287,2,0,P|249:64|150:126,1,170.999994781494,8|2,0:0|0:0,0:0:0:0:
131,165,183749,1,0,0:0:0:0:
131,165,184095,2,2,B|131:193|131:193|191:243|191:243|191:264,1,123.499994346619
192,322,184441,1,0,0:0:0:0:
321,323,184672,5,2,0:0:0:0:
293,318,184788,1,0,0:0:0:0:
266,313,184903,2,0,P|228:273|164:260,1,95,0|8,0:0|0:0,0:0:0:0:
86,192,185479,2,0,B|100:167|100:167|177:154|177:154|188:136,1,123.499994346619,2|2,0:0|0:0,0:0:0:0:
217,86,185825,1,2,0:0:0:0:
256,203,186056,1,8,0:0:0:0:
295,86,186403,1,0,0:0:0:0:
325,139,186518,6,0,B|368:213|368:213|440:235,1,132.999995941162,8|8,0:0|0:0,0:0:0:0:
439,363,186979,2,0,B|396:289|396:289|324:267,1,132.999995941162,8|8,0:0|0:0,0:0:0:0:
303,225,187326,2,0,B|233:255|233:255|214:329,2,132.999995941162,2|2|2,0:0|0:0|0:0,0:0:0:0:
317,159,187903,2,0,L|308:121,4,33.2499989852906,8|0|0|0|0,0:0|0:0|0:0|0:0|0:0,0:0:0:0:
71,53,188364,6,0,P|51:136|62:171,1,95,2|0,0:0|0:0,0:0:0:0:
129,228,188826,2,0,P|156:187|153:129,1,95,8|0,0:0|0:0,0:0:0:0:
229,160,189172,2,0,L|201:277,1,113.999996520996,2|2,0:0|0:0,0:0:0:0:
262,359,189518,2,0,P|265:312|291:272,1,95,2|8,0:0|0:0,0:0:0:0:
475,154,190095,1,0,0:0:0:0:
475,154,190210,6,0,L|496:258,2,95,8|2|8,0:0|0:0|0:0,0:0:0:0:
384,138,190903,2,0,L|415:294,2,142.500005435944,8|2|8,0:0|0:0|0:0,0:0:0:0:
259,66,191595,2,0,P|239:144|286:304,1,213.750008153916,8|0,0:0|0:0,0:0:0:0:
310,212,192056,6,0,P|315:154|306:117,1,95,2|0,0:0|0:0,0:0:0:0:
87,79,192518,2,0,P|132:139|122:246,1,142.5,8|2,0:0|0:0,0:0:0:0:
69,330,193095,1,2,0:0:0:0:
82,284,193210,1,2,0:0:0:0:
138,205,193441,2,0,P|153:269|216:306,1,142.5,8|0,0:0|0:0,0:0:0:0:
253,311,193903,5,2,0:0:0:0:
378,266,194133,2,8,L|440:297,1,47.5
353,251,194364,2,0,P|309:220|297:114,1,156.750004783631,2|2,0:0|0:0,0:0:0:0:
292,123,195287,2,0,P|249:83|184:93,1,104.500003189087,2|8,0:0|0:0,0:0:0:0:
161,111,195633,1,8,0:0:0:0:
124,149,195749,6,0,P|104:195|125:247,1,95,4|0,0:0|0:0,0:0:0:0:
291,321,196210,2,0,P|338:279|340:230,1,95,10|0,0:0|0:0,0:0:0:0:
277,261,196556,2,0,B|277:232|277:232|218:182|218:182|218:161,1,123.499994346619,2|2,0:0|0:0,0:0:0:0:
206,100,196903,2,0,P|159:142|157:191,1,95,2|8,0:0|0:0,0:0:0:0:
57,276,197479,1,0,0:0:0:0:
31,339,197595,6,0,P|83:337|91:215,1,190,2|8,0:0|0:0,0:0:0:0:
219,147,198287,1,2,0:0:0:0:
285,162,198403,2,0,B|265:208|257:218|257:218|250:228|238:277,1,118.75,2|2,0:0|0:0,0:0:0:0:
304,270,198749,1,2,0:0:0:0:
423,213,198979,1,8,0:0:0:0:
471,248,199095,1,8,0:0:0:0:
452,305,199210,1,8,0:0:0:0:
393,305,199326,1,8,0:0:0:0:
374,247,199441,6,0,L|349:133,2,95,4|0|8,0:0|0:0|0:0,0:0:0:0:
287,108,200249,2,0,P|284:180|297:233,1,95,2|2,0:0|0:0,0:0:0:0:
293,224,200595,2,0,P|293:280|273:324,1,95,2|8,0:0|0:0,0:0:0:0:
145,264,201172,1,0,0:0:0:0:
145,264,201287,6,8,B|125:181|125:181|70:155,2,132.999995941162
188,314,201864,2,0,B|252:332|252:332|311:295,1,132.999995941162,0|2,0:0|0:0,0:0:0:0:
357,251,202210,1,8,0:0:0:0:
354,184,202326,1,2,0:0:0:0:
312,132,202441,2,0,B|238:118|238:118|180:127,2,132.999995941162,8|8|8,0:0|0:0|0:0,0:0:0:0:
376,148,203018,1,2,0:0:0:0:
441,158,203133,6,0,P|472:193|479:281,2,95,4|0|10,0:0|0:0|0:0,0:0:0:0:
312,82,203826,1,2,0:0:0:0:
256,100,203941,2,0,L|221:203,1,95,2|2,0:0|0:0,0:0:0:0:
168,206,204287,1,2,0:0:0:0:
109,280,204518,1,8,0:0:0:0:
403,280,204864,1,0,0:0:0:0:
403,280,204979,6,0,L|374:147,2,95,4|2|8,0:0|0:0|0:0,0:0:0:0:
326,318,205672,2,0,L|286:125,2,142.500005435944,8|2|8,0:0|0:0|0:0,0:0:0:0:
226,368,206364,2,0,P|196:289|209:142,1,213.750008153916,8|8,0:0|0:0,0:0:0:0:
254,213,206826,6,0,P|269:269|264:311,1,95,8|0,0:0|0:0,0:0:0:0:
97,335,207287,2,0,P|83:279|94:231,1,95,8|0,0:0|0:0,0:0:0:0:
144,285,207633,2,0,L|186:165,1,113.999996520996,2|2,0:0|0:0,0:0:0:0:
220,122,207979,2,0,P|245:167|236:220,1,95,2|8,0:0|0:0,0:0:0:0:
295,42,208556,1,0,0:0:0:0:
295,42,208672,6,0,P|311:111|346:148,1,113.999996520996
443,255,209133,2,0,B|467:181|467:181|435:114,1,142.500005435944,8|8,0:0|0:0,0:0:0:0:
378,78,209479,2,0,B|363:95|363:95|379:119|379:119|356:159,1,71.2500027179719,8|0,0:0|0:0,0:0:0:0:
290,300,209941,2,0,B|307:275|307:275|294:247|294:247|315:217,1,80.750001540184,8|0,0:0|0:0,0:0:0:0:
324,195,210287,1,0,0:0:0:0:
307,157,210403,1,0,0:0:0:0:
265,134,210518,6,2,P|224:141|189:175,1,76
155,347,211326,2,0,B|180:332|180:332|193:256|193:256|212:245,1,123.499994346619,2|2,0:0|0:0,0:0:0:0:
252,228,211672,1,2,0:0:0:0:
298,155,211903,2,0,P|337:198|423:211,1,142.5,8|0,0:0|0:0,0:0:0:0:
380,146,212364,6,0,L|304:48,2,95,0|0|8,0:0|0:0|0:0,0:0:0:0:
256,98,213056,1,0,0:0:0:0:
222,63,213172,1,2,0:0:0:0:
187,30,213287,1,8,0:0:0:0:
254,191,213633,1,2,0:0:0:0:
290,321,213864,1,2,0:0:0:0:
256,286,213979,1,8,0:0:0:0:
81,304,214210,6,0,L|51:247,2,47.5
154,123,214672,2,0,P|159:176|190:207,1,76,8|0,0:0|0:0,0:0:0:0:
215,145,215018,2,0,B|245:122|245:122|305:133|305:133|297:188|297:188|250:224,1,190,2|2,0:0|0:0,0:0:0:0:
234,264,215364,2,0,P|293:265|319:250,1,76,2|8,0:0|0:0,0:0:0:0:
446,340,215941,1,0,0:0:0:0:
446,340,216056,6,0,B|461:259|461:259|416:212,1,132.999995941162,8|8,0:0|0:0,0:0:0:0:
250,269,216518,2,8,B|329:260|329:260|365:203,1,132.999995941162
397,163,216864,2,0,B|419:116|419:116|388:41,2,132.999995941162,2|2|2,0:0|0:0|0:0,0:0:0:0:
339,120,217441,2,0,L|325:85,4,33.2499989852906
307,175,217787,6,0,L|321:196,2,14.2499995651245
80,49,218364,2,0,P|81:114|155:165,1,142.5,8|2,0:0|0:0,0:0:0:0:
188,273,218941,1,2,0:0:0:0:
188,273,219056,2,0,P|185:203|131:159,1,137.750004203797,2|8,0:0|0:0,0:0:0:0:
40,237,219518,1,0,0:0:0:0:
178,354,219749,6,0,L|304:354,2,95,8|2|8,0:0|0:0|0:0,0:0:0:0:
154,270,220441,2,0,L|313:270,2,142.500005435944,8|2|8,0:0|0:0|0:0,0:0:0:0:
86,199,221133,2,0,P|158:153|277:220,1,213.750008153916,8|8,0:0|0:0,0:0:0:0:
177,221,221595,6,0,L|177:145,2,71.2500027179719,4|0|0,0:0|0:0|0:0,0:0:0:0:
256,324,222056,2,0,P|307:307|344:265,1,95,8|0,0:0|0:0,0:0:0:0:
365,243,222403,2,0,B|383:220|383:220|369:144|369:144|383:127,1,123.499994346619,2|2,0:0|0:0,0:0:0:0:
415,98,222749,1,2,0:0:0:0:
289,31,222979,2,0,P|274:88|294:147,1,99.7499969558717,8|0,0:0|0:0,0:0:0:0:
343,125,223441,6,0,P|344:184|317:222,1,95,4|0,0:0|0:0,0:0:0:0:
264,205,223787,1,0,0:0:0:0:
202,221,223903,2,0,B|178:274|178:274|137:281|137:281|102:266|102:266|86:215,1,185.249991519928,8|8,0:0|0:0,0:0:0:0:
87,220,224826,2,0,P|156:181|135:120,1,123.499994346619,8|0,0:0|0:0,0:0:0:0:
101,102,225172,1,0,0:0:0:0:
37,127,225287,6,0,P|47:196|156:190,1,190,8|8,0:0|0:0,0:0:0:0:
254,56,226095,2,0,B|310:83|310:83|340:154,1,113.999996520996,2|2,0:0|0:0,0:0:0:0:
355,182,226441,1,10,0:0:0:0:
315,331,226672,1,8,0:0:0:0:
165,292,226903,1,8,0:0:0:0:
205,142,227133,6,0,L|242:120,1,28.4999991302491,8|0,0:0|0:0,0:0:0:0:
120,115,227364,1,0,0:0:0:0:
151,205,227595,1,8,0:0:0:0:
288,214,227826,1,0,0:0:0:0:
337,211,227941,2,0,B|366:210|366:210|415:150|415:150|437:150,1,123.499994346619,2|2,0:0|0:0,0:0:0:0:
480,156,228287,1,2,0:0:0:0:
332,67,228518,1,8,0:0:0:0:
272,82,228633,1,8,0:0:0:0:
209,82,228749,1,8,0:0:0:0:
149,99,228864,1,8,0:0:0:0:
88,107,228979,6,0,P|52:153|105:261,1,190,4|8,0:0|0:0,0:0:0:0:
249,358,229787,2,0,P|238:302|213:258,1,95,2|2,0:0|0:0,0:0:0:0:
188,233,230133,1,2,0:0:0:0:
385,366,230364,1,8,0:0:0:0:
452,159,230710,1,0,0:0:0:0:
452,159,230826,6,8,B|399:116|399:116|392:61,1,123.499994346619
250,66,231287,1,8,0:0:0:0:
250,66,231403,2,0,B|303:109|303:109|309:164,1,123.499994346619,2|2,0:0|0:0,0:0:0:0:
312,225,231749,1,8,0:0:0:0:
277,275,231864,1,2,0:0:0:0:
281,336,231979,1,8,0:0:0:0:
128,341,232210,2,0,B|128:278|128:278|178:235,1,123.499994346619,8|8,0:0|0:0,0:0:0:0:
200,182,232556,1,2,0:0:0:0:
201,119,232672,6,0,P|244:77|301:86,2,95,4|0|8,0:0|0:0|0:0,0:0:0:0:
389,91,233364,1,0,0:0:0:0:
454,104,233479,2,0,P|436:151|410:205,1,104.500003189087,2|2,0:0|0:0,0:0:0:0:
474,221,233826,1,2,0:0:0:0:
256,225,234056,1,8,0:0:0:0:
30,313,234403,1,0,0:0:0:0:
30,313,234518,6,0,P|48:266|65:197,2,104.500003189087,8|2|8,0:0|0:0|0:0,0:0:0:0:
134,349,235210,2,0,P|162:275|187:165,2,142.500005435944,8|2|8,0:0|0:0|0:0,0:0:0:0:
272,367,235903,2,0,P|311:297|309:130,1,213.750008153916,8|8,0:0|0:0,0:0:0:0:
267,211,236364,6,0,P|237:255|235:303,2,95,4|0|8,0:0|0:0|0:0,0:0:0:0:
110,75,237172,2,0,B|109:104|109:104|49:153|49:153|49:175,1,123.499994346619,2|2,0:0|0:0,0:0:0:0:
48,218,237518,1,2,0:0:0:0:
244,69,237749,2,0,B|227:112|248:136|233:185,1,114,8|0,0:0|0:0,0:0:0:0:
299,139,238210,6,0,P|314:81|299:19,2,95,8|8|8,0:0|0:0|0:0,0:0:0:0:
266,222,238903,6,2,L|237:209,1,23.75
145,284,239249,1,2,0:0:0:0:
325,332,239479,1,2,0:0:0:0:
204,88,239710,1,2,0:0:0:0:
193,109,239826,1,8,0:0:0:0:
182,130,239941,1,8,0:0:0:0:
170,150,240056,5,4,0:0:0:0:
126,77,247441,5,2,0:0:0:0:
126,77,247672,1,0,0:0:0:0:
176,108,247903,1,0,0:0:0:0:
328,80,248133,1,2,0:0:0:0:
328,80,248364,1,0,0:0:0:0:
347,136,248595,1,0,0:0:0:0:
343,262,248826,1,2,0:0:0:0:
343,262,249056,1,0,0:0:0:0:
290,289,249287,5,0,0:0:0:0:
143,256,249518,1,2,0:0:0:0:
143,256,249749,1,0,0:0:0:0:
108,207,249979,1,0,0:0:0:0:
179,120,250210,1,2,0:0:0:0:
179,120,250441,1,0,0:0:0:0:
236,105,250672,1,0,0:0:0:0:
310,161,250903,1,2,0:0:0:0:
310,161,251133,5,0,0:0:0:0:
289,216,251364,1,0,0:0:0:0:
216,196,251595,1,2,0:0:0:0:
216,196,251826,1,0,0:0:0:0:
216,196,252056,1,0,0:0:0:0:
256,154,252287,1,2,0:0:0:0:
256,154,252518,1,2,0:0:0:0:
256,154,252749,5,2,0:0:0:0:
285,154,252864,1,2,0:0:0:0:
314,155,252979,1,2,0:0:0:0:
343,155,253095,1,2,0:0:0:0:
372,156,253210,1,2,0:0:0:0:
415,232,253441,2,0,P|407:256|407:260,1,23.75,0|2,0:0|0:0,0:0:0:0:
315,307,253903,2,0,P|325:290|326:284,1,23.75
168,271,254364,1,2,0:0:0:0:
168,271,254479,2,0,P|202:266|256:126,1,201.875,8|4,0:0|0:0,0:0:0:0:
77,56,256672,6,0,L|71:90,2,28.4999991302491,0|0|8,0:0|0:0|0:0,0:0:0:0:
213,159,257364,2,0,L|222:126,1,28.4999991302491
299,197,257826,2,0,L|287:227,2,28.4999991302491,8|0|0,0:0|0:0|0:0,0:0:0:0:
406,221,258518,6,0,L|440:221,2,28.4999991302491,8|0|0,0:0|0:0|0:0,0:0:0:0:
256,260,259210,1,8,0:0:0:0:
221,322,259441,1,0,0:0:0:0:
291,322,259672,1,0,0:0:0:0:
106,221,259903,2,0,L|72:221,2,28.4999991302491,8|0|0,0:0|0:0|0:0,0:0:0:0:
89,79,260595,2,0,L|127:79,2,28.4999991302491,8|0|0,0:0|0:0|0:0,0:0:0:0:
256,124,261287,1,8,0:0:0:0:
291,186,261518,1,0,0:0:0:0:
221,186,261749,1,0,0:0:0:0:
423,79,261979,2,0,L|385:79,2,28.4999991302491,8|0|0,0:0|0:0|0:0,0:0:0:0:
388,252,262672,5,8,0:0:0:0:
372,220,262787,1,0,0:0:0:0:
369,184,262903,1,0,0:0:0:0:
366,148,263018,1,0,0:0:0:0:
342,121,263133,1,0,0:0:0:0:
308,109,263249,1,0,0:0:0:0:
272,105,263364,2,0,L|247:105,4,14.2499995651245,8|0|0|0|0,0:0|0:0|0:0|0:0|0:0,0:0:0:0:
83,194,264056,6,0,L|79:250,2,47.5,8|0|0,0:0|0:0|0:0,0:0:0:0:
154,197,264749,2,0,L|162:136,2,47.5,8|0|0,0:0|0:0|0:0,0:0:0:0:
220,227,265441,1,8,0:0:0:0:
205,311,265672,1,0,0:0:0:0:
220,227,265903,1,0,0:0:0:0:
297,205,266133,1,8,0:0:0:0:
318,100,266364,1,0,0:0:0:0:
297,205,266595,1,0,0:0:0:0:
357,249,266826,2,0,P|340:296|344:304,1,47.5,8|0,0:0|0:0,0:0:0:0:
388,244,267172,1,0,0:0:0:0:
425,235,267287,2,0,P|444:205|443:181,1,47.5
356,85,267749,6,0,L|304:85,1,47.5,2|0,0:0|0:0,0:0:0:0:
156,145,268210,2,0,L|226:145,1,47.5,2|0,0:0|0:0,0:0:0:0:
356,239,268672,2,0,L|308:239,1,47.5,2|0,0:0|0:0,0:0:0:0:
156,299,269133,2,0,L|203:299,1,47.5,2|0,0:0|0:0,0:0:0:0:
126,353,269595,6,0,L|96:350,1,23.75,8|0,0:0|0:0,0:0:0:0:
159,332,269826,2,0,L|200:324,1,23.75,8|0,0:0|0:0,0:0:0:0:
127,304,270056,2,0,L|93:290,1,23.75,8|0,0:0|0:0,0:0:0:0:
143,249,270287,2,0,L|124:215,1,23.75,8|0,0:0|0:0,0:0:0:0:
190,219,270518,2,0,L|212:184,1,23.75,8|0,0:0|0:0,0:0:0:0:
156,161,270749,2,0,L|146:122,1,23.75,8|0,0:0|0:0,0:0:0:0:
209,133,270979,2,0,L|232:114,1,23.75,8|0,0:0|0:0,0:0:0:0:
227,58,271210,2,0,L|260:61,1,23.75,8|0,0:0|0:0,0:0:0:0:
286,107,271441,6,0,L|307:136,1,23.75,8|0,0:0|0:0,0:0:0:0:
355,147,271672,2,0,L|355:185,1,23.75,8|0,0:0|0:0,0:0:0:0:
305,204,271903,2,0,L|285:233,1,23.75,8|0,0:0|0:0,0:0:0:0:
263,275,272133,2,0,L|225:274,1,23.75,8|0,0:0|0:0,0:0:0:0:
205,225,272364,2,0,L|181:201,1,23.75,8|0,0:0|0:0,0:0:0:0:
139,174,272595,2,0,L|138:134,1,23.75,8|0,0:0|0:0,0:0:0:0:
183,111,272826,2,0,L|214:84,1,23.75,8|0,0:0|0:0,0:0:0:0:
242,53,273056,2,0,L|281:53,1,23.75,8|0,0:0|0:0,0:0:0:0:
293,106,273287,6,0,L|262:106,1,23.75,8|0,0:0|0:0,0:0:0:0:
211,120,273518,2,0,L|189:147,1,23.75,8|0,0:0|0:0,0:0:0:0:
212,195,273749,2,0,L|212:231,1,23.75,8|0,0:0|0:0,0:0:0:0:
258,254,273979,2,0,L|294:264,1,23.75,8|0,0:0|0:0,0:0:0:0:
322,217,274210,2,0,L|352:199,1,23.75,8|0,0:0|0:0,0:0:0:0:
323,148,274441,2,0,L|337:116,1,23.75,8|0,0:0|0:0,0:0:0:0:
292,81,274672,2,0,L|259:50,1,23.75,8|0,0:0|0:0,0:0:0:0:
220,90,274903,2,0,L|176:88,1,23.75,8|0,0:0|0:0,0:0:0:0:
137,87,275133,6,0,L|83:87,2,47.5,2|0|0,0:0|0:0|0:0,0:0:0:0:
212,145,275826,1,2,0:0:0:0:
309,188,276056,2,0,P|354:174|383:139,1,71.2500027179719,8|0,0:0|0:0,0:0:0:0:
252,199,276518,2,0,P|213:212|182:238,1,71.2500027179719,8|0,0:0|0:0,0:0:0:0:
256,273,276979,5,2,0:0:0:0:
404,288,277210,1,0,0:0:0:0:
256,273,277441,1,2,0:0:0:0:
423,351,277672,2,0,P|456:322|475:283,1,71.2500027179719
360,280,278133,1,2,0:0:0:0:
384,153,278364,2,0,P|375:114|346:80,1,71.2500027179719
270,177,278826,1,2,0:0:0:0:
165,116,279056,2,0,P|129:114|96:139,1,71.2500027179719
113,216,279518,1,2,0:0:0:0:
166,256,279749,2,0,P|157:296|165:350,1,71.2500027179719,8|0,0:0|0:0,0:0:0:0:
215,295,280210,2,0,P|228:255|223:212,1,71.2500027179719,8|0,0:0|0:0,0:0:0:0:
312,287,280672,6,0,P|302:334|311:364,1,71.2500027179719,2|0,0:0|0:0,0:0:0:0:
389,192,281133,1,2,0:0:0:0:
220,287,281364,2,0,P|273:315|299:317,1,71.2500027179719
152,241,281826,1,2,0:0:0:0:
281,234,282056,2,0,P|333:200|349:176,1,71.2500027179719
358,159,282403,1,0,0:0:0:0:
365,120,282518,1,2,0:0:0:0:
353,82,282633,1,0,0:0:0:0:
324,54,282749,1,0,0:0:0:0:
176,78,282979,6,0,P|219:95|264:90,1,71.2500027179719,0|2,0:0|0:0,0:0:0:0:
153,174,283441,2,0,P|100:162|70:167,1,71.2500027179719,8|0,0:0|0:0,0:0:0:0:
191,252,283903,2,0,P|234:264|272:250,1,71.2500027179719,8|0,0:0|0:0,0:0:0:0:
439,356,284364,6,0,P|483:353|502:319,2,71.2500027179719,2|0|0,0:0|0:0|0:0,0:0:0:0:
390,305,285056,2,0,P|348:304|324:329,2,71.2500027179719,2|0|0,0:0|0:0|0:0,0:0:0:0:
411,241,285749,2,0,P|421:195|415:163,2,71.2500027179719,2|0|0,0:0|0:0|0:0,0:0:0:0:
348,194,286441,2,0,P|337:144|314:117,2,71.2500027179719,2|0|0,0:0|0:0|0:0,0:0:0:0:
245,165,287133,1,2,0:0:0:0:
147,201,287364,1,2,0:0:0:0:
177,130,287595,1,2,0:0:0:0:
222,238,287826,1,2,0:0:0:0:
168,328,288056,6,0,P|120:336|83:328,1,71.2500027179719,2|0,0:0|0:0,0:0:0:0:
220,284,288518,2,0,P|259:275|313:296,2,71.2500027179719,2|0|0,0:0|0:0|0:0,0:0:0:0:
356,329,289210,2,0,P|403:332|437:328,2,71.2500027179719,2|0|0,0:0|0:0|0:0,0:0:0:0:
379,253,289903,1,2,0:0:0:0:
379,253,289979,2,0,B|394:229|394:229|376:193,1,47.5000018119813,8|0,0:0|0:0,0:0:0:0:
315,223,290364,1,0,0:0:0:0:
325,154,290595,2,0,P|314:197|316:228,1,71.2500027179719,2|8,0:0|0:0,0:0:0:0:
254,94,291056,1,0,0:0:0:0:
196,223,291287,2,0,P|197:188|187:154,1,71.2500027179719,8|0,0:0|0:0,0:0:0:0:
255,329,291749,6,0,P|244:281|257:250,1,71.2500027179719,2|0,0:0|0:0,0:0:0:0:
340,301,292210,2,0,P|346:341|337:377,1,71.2500027179719,2|0,0:0|0:0,0:0:0:0:
172,370,292672,2,0,P|165:335|172:301,1,71.2500027179719,0|2,0:0|0:0,0:0:0:0:
86,261,293133,1,0,0:0:0:0:
140,200,293364,1,0,0:0:0:0:
372,200,293595,1,2,0:0:0:0:
426,261,293826,1,0,0:0:0:0:
332,264,294056,2,0,P|306:227|299:192,1,71.2500027179719,0|2,0:0|0:0,0:0:0:0:
212,202,294518,2,0,P|201:236|180:264,1,71.2500027179719,8|0,0:0|0:0,0:0:0:0:
256,137,294979,2,0,L|256:46,1,71.2500027179719,8|0,0:0|0:0,0:0:0:0:
256,192,295441,12,0,298210,0:0:0:0:
315,98,298672,5,8,0:0:0:0:
263,132,298787,5,8,0:0:0:0:
215,90,298903,5,8,0:0:0:0:
165,128,299018,5,8,0:0:0:0:
116,88,299133,6,0,P|59:97|26:178,1,142.500005435944,4|0,0:0|0:0,0:0:0:0:
25,243,299595,1,0,0:0:0:0:
93,292,299826,2,0,P|173:333|251:303,1,142.500005435944,4|0,0:0|0:0,0:0:0:0:
284,270,300287,1,0,0:0:0:0:
361,298,300518,2,0,P|401:223|382:148,1,142.500005435944,4|0,0:0|0:0,0:0:0:0:
314,49,300979,6,0,B|296:66|272:71|272:71|278:95|241:130|241:130|242:167|242:167|224:182,1,166.249994926453,4|0,0:0|0:0,0:0:0:0:
144,197,302364,5,8,0:0:0:0:
90,222,302479,5,8,0:0:0:0:
88,281,302595,5,8,0:0:0:0:
142,297,302710,5,8,0:0:0:0:
177,248,302826,6,0,P|251:201|341:219,1,142.500005435944,4|0,0:0|0:0,0:0:0:0:
388,224,303287,1,0,0:0:0:0:
437,152,303518,2,0,P|394:80|312:71,1,142.500005435944,4|0,0:0|0:0,0:0:0:0:
267,26,303979,1,0,0:0:0:0:
198,69,304210,2,0,P|127:100|35:74,1,142.500005435944,4|0,0:0|0:0,0:0:0:0:
16,55,304556,1,0,0:0:0:0:
9,109,304672,6,0,B|11:140|11:140|-3:183|-3:183|19:225|56:206|56:206|78:226,1,166.249994926453,4|8,0:0|0:0,0:0:0:0:
262,275,306056,1,8,0:0:0:0:
129,273,306287,1,8,0:0:0:0:
312,216,306518,6,0,P|388:188|420:128,1,142.500005435944,4|0,0:0|0:0,0:0:0:0:
388,55,306979,1,0,0:0:0:0:
296,31,307210,2,0,P|216:62|138:58,1,142.500005435944,4|0,0:0|0:0,0:0:0:0:
70,82,307672,1,0,0:0:0:0:
75,176,307903,2,0,P|113:255|182:288,1,142.500005435944,4|0,0:0|0:0,0:0:0:0:
291,324,308364,6,0,B|304:296|304:296|300:266|300:266|307:254,1,71.2499978256226,4|0,0:0|0:0,0:0:0:0:
405,266,309749,5,8,0:0:0:0:
440,217,309864,5,8,0:0:0:0:
436,156,309980,5,8,0:0:0:0:
386,133,310095,5,8,0:0:0:0:
331,157,310210,6,0,P|256:153|193:191,1,142.500005435944,4|0,0:0|0:0,0:0:0:0:
256,253,310672,1,0,0:0:0:0:
198,316,310903,2,0,P|129:353|75:301,1,142.500005435944,4|0,0:0|0:0,0:0:0:0:
36,235,311364,1,0,0:0:0:0:
135,202,311595,2,0,P|164:130|143:53,1,142.500005435944,4|0,0:0|0:0,0:0:0:0:
42,177,312056,6,0,P|65:155|54:83,1,99.7499969558717,4|0,0:0|0:0,0:0:0:0:
32,45,312979,1,8,0:0:0:0:
222,168,313210,1,8,0:0:0:0:
120,226,313441,1,8,0:0:0:0:
142,5,313672,1,8,0:0:0:0:
293,63,313903,6,0,P|333:134|326:215,1,142.500005435944,4|0,0:0|0:0,0:0:0:0:
357,298,314364,1,0,0:0:0:0:
243,304,314595,2,0,P|160:319|99:292,1,142.500005435944,4|0,0:0|0:0,0:0:0:0:
144,206,315056,1,0,0:0:0:0:
39,173,315287,2,0,P|66:104|144:75,1,142.500005435944,4|0,0:0|0:0,0:0:0:0:
318,125,315749,6,0,B|283:154|236:119|236:119|200:142|200:142|163:120,1,166.249994926453,4|0,0:0|0:0,0:0:0:0:
37,260,317133,5,8,0:0:0:0:
43,212,317248,5,8,0:0:0:0:
53,167,317364,5,8,0:0:0:0:
69,122,317479,5,8,0:0:0:0:
103,86,317595,6,0,P|159:146|259:165,1,142.500005435944,4|0,0:0|0:0,0:0:0:0:
286,132,318056,1,0,0:0:0:0:
356,175,318287,2,0,P|389:252|341:317,1,142.500005435944,4|0,0:0|0:0,0:0:0:0:
311,357,318778,1,0,0:0:0:0:
233,352,318979,2,0,P|149:341|81:291,1,142.500005435944,4|0,0:0|0:0,0:0:0:0:
57,245,319441,6,0,B|82:214|168:222|199:243|199:243|179:191|209:143|209:143|259:167,1,304,4|4,0:0|0:0,0:0:0:0:
256,192,326133,12,0,328441,0:0:0:0:
88,74,328672,6,0,P|153:101|139:256,1,227.999993041992,2|0,0:0|0:0,0:0:0:0:
256,344,329364,1,2,0:0:0:0:
294,344,329479,2,0,B|350:344|350:344|350:219|350:219|418:219,1,228,8|8,0:0|0:0,0:0:0:0:
429,58,330056,2,0,P|423:124|305:113,1,190,8|0,0:0|0:0,0:0:0:0:
194,43,330749,1,2,0:0:0:0:
318,43,330979,1,2,0:0:0:0:
83,58,331326,2,0,P|86:125|207:113,1,192.375000733852,8|8,0:0|0:0,0:0:0:0:
256,348,331903,1,0,0:0:0:0:
139,270,332133,1,0,0:0:0:0:
139,270,332249,1,0,0:0:0:0:
139,270,332364,6,0,L|129:281,1,14.25,4|0,0:0|0:0,0:0:0:0:
173,218,332826,6,0,P|219:176|276:189,1,113.999996520996,8|0,0:0|0:0,0:0:0:0:
317,209,333172,2,0,P|377:211|414:165,1,113.999996520996,8|0,0:0|0:0,0:0:0:0:
428,116,333518,1,8,0:0:0:0:
448,63,333633,1,8,0:0:0:0:
491,26,333749,2,0,P|442:16|373:27,1,113.999996520996,8|2,0:0|0:0,0:0:0:0:
325,61,334326,1,2,0:0:0:0:
267,26,334441,2,0,P|218:16|149:27,2,113.999996520996,2|0|0,0:0|0:0|0:0,0:0:0:0:
325,61,335018,2,0,B|325:78|325:78|384:128|384:128|384:157,1,123.499994346619,2|2,0:0|0:0,0:0:0:0:
437,196,335364,2,0,P|392:215|327:193,2,113.999996520996,2|8|8,0:0|0:0|0:0,0:0:0:0:
455,181,335941,1,8,0:0:0:0:
482,164,336056,6,0,P|487:145|483:111,1,42.7499986953736,4|0,0:0|0:0,0:0:0:0:
418,129,336518,2,0,P|410:198|434:247,1,113.999996520996,8|0,0:0|0:0,0:0:0:0:
489,240,336864,2,0,B|469:319|406:297|392:286|392:286|350:248|335:192,1,228,8|8,0:0|0:0,0:0:0:0:
256,267,337441,1,8,0:0:0:0:
256,117,337672,1,0,0:0:0:0:
24,146,337903,6,0,B|57:86|57:86|107:89|120:99|120:99|163:138|178:194,2,227.999993041992,0|8|8,0:0|0:0|0:0,0:0:0:0:
140,308,338595,1,2,0:0:0:0:
139,268,338710,2,0,B|139:221|139:221|264:221|264:221|264:165,1,228,2|2,0:0|0:0,0:0:0:0:
409,60,339287,1,2,0:0:0:0:
409,60,339518,1,8,0:0:0:0:
398,115,339633,1,8,0:0:0:0:
390,171,339749,6,0,L|407:174,1,14.25,4|0,0:0|0:0,0:0:0:0:
329,158,340210,6,0,P|267:136|188:154,1,113.999996520996,8|0,0:0|0:0,0:0:0:0:
167,76,340556,2,0,L|121:256,1,170.999994781494,8|8,0:0|0:0,0:0:0:0:
363,230,341133,1,8,0:0:0:0:
354,291,341249,1,2,0:0:0:0:
292,303,341364,1,2,0:0:0:0:
262,250,341480,1,2,0:0:0:0:
302,199,341595,6,8,P|343:151|352:120,2,56.9999982604981
255,92,342056,2,0,P|167:95|118:145,1,142.500005435944,2|0,0:0|0:0,0:0:0:0:
94,175,342403,2,0,B|61:258|61:258|141:315,1,170.999994781494,2|0,0:0|0:0,0:0:0:0:
177,332,342749,1,2,0:0:0:0:
237,350,342864,2,0,L|251:363,1,14.2499995651245,2|0,0:0|0:0,0:0:0:0:
278,320,342979,1,2,0:0:0:0:
323,285,343095,1,8,0:0:0:0:
354,237,343210,1,8,0:0:0:0:
368,181,343326,1,8,0:0:0:0:
387,118,343441,6,0,B|415:52|333:45|307:73|307:73|259:120|248:161|195:148|171:110|171:110|97:144|88:198|130:234|184:218|184:218|172:274|153:336|246:357|357:354,1,760,4|8,0:0|0:0,0:0:0:0:
337,354,344133,5,8,0:0:0:0:
337,354,344249,2,0,P|405:305|431:206,1,170.999994781494,8|8,0:0|0:0,0:0:0:0:
394,117,344826,2,0,B|350:175|283:165|256:151|256:151|228:137|134:115|88:192,1,341.999989562989,2|2,0:0|0:0,0:0:0:0:
115,310,345749,2,0,P|151:259|156:217,1,95,2|8,0:0|0:0,0:0:0:0:
88,190,346095,2,0,P|151:159|229:252,1,199.499993911743,2|2,0:0|0:0,0:0:0:0:
301,346,346672,1,0,0:0:0:0:
380,244,346903,1,0,0:0:0:0:
301,138,347133,6,0,B|230:88|253:29|298:15|298:15|351:52|386:131|376:195|294:233|294:233|234:205|188:169|196:89,1,570.000021743775,4|8,0:0|0:0,0:0:0:0:
59,60,347826,1,8,0:0:0:0:
59,60,347941,1,8,0:0:0:0:
114,175,348172,1,8,0:0:0:0:
143,223,348287,1,8,0:0:0:0:
173,271,348403,1,8,0:0:0:0:
212,315,348518,2,0,P|271:335|379:316,1,170.999994781494,2|2,0:0|0:0,0:0:0:0:
409,259,349095,5,8,0:0:0:0:
376,206,349210,2,0,P|353:152|363:110,1,85.4999973907472,8|0,0:0|0:0,0:0:0:0:
203,94,349672,1,0,0:0:0:0:
203,94,349787,1,0,0:0:0:0:
69,31,350018,1,0,0:0:0:0:
74,90,350133,1,0,0:0:0:0:
63,149,350249,1,2,0:0:0:0:
79,206,350364,1,8,0:0:0:0:
72,265,350479,1,8,0:0:0:0:
100,317,350595,1,8,0:0:0:0:
156,336,350710,1,8,0:0:0:0:
216,338,350826,6,0,B|268:285|349:341|396:341|396:341|434:341|473:300|432:250|398:250|398:250|371:277|306:266|355:211|392:185|392:185|370:123|312:133|312:195|307:217|307:217|274:238|198:268|167:210,1,760,4|8,0:0|0:0,0:0:0:0:
182,229,351518,5,2,0:0:0:0:
159,205,351633,2,0,P|149:136|254:91,1,170.999994781494,2|2,0:0|0:0,0:0:0:0:
374,36,352210,2,0,L|310:237,1,190,8|0,0:0|0:0,0:0:0:0:
269,88,352903,1,8,0:0:0:0:
441,152,353133,1,8,0:0:0:0:
300,263,353364,1,2,0:0:0:0:
272,289,353479,2,0,P|201:313|62:234,1,213.750008153916,8|2,0:0|0:0,0:0:0:0:
153,100,354056,1,2,0:0:0:0:
185,146,354172,1,8,0:0:0:0:
200,200,354287,1,8,0:0:0:0:
192,256,354403,1,8,0:0:0:0:
176,311,354518,6,0,L|170:325,1,14.25,4|0,0:0|0:0,0:0:0:0:
224,336,354979,2,0,B|256:288|256:288|284:336,1,113.999996520996,8|0,0:0|0:0,0:0:0:0:
223,329,355326,2,0,B|256:278|256:278|285:329,1,119.699996347046,8|0,0:0|0:0,0:0:0:0:
222,322,355672,2,0,B|258:266|258:266|291:322,1,125.684995560291,8|0,0:0|0:0,0:0:0:0:
220,313,356018,2,0,B|258:254|258:254|292:313,1,131.969251998588,8|0,0:0|0:0,0:0:0:0:
218,305,356364,2,0,B|258:244|258:244|294:305,1,138.567710927037,8|0,0:0|0:0,0:0:0:0:
216,297,356710,2,0,B|258:233|258:233|295:297,1,145.496100521196,8|0,0:0|0:0,0:0:0:0:
216,286,357056,2,0,P|150:266|157:157,1,170.999994781494,2|2,0:0|0:0,0:0:0:0:
179,132,357518,1,2,0:0:0:0:
232,111,357633,1,2,0:0:0:0:
280,131,357749,5,8,0:3:0:0:
316,216,357903,1,8,0:3:0:0:
231,252,358056,1,8,0:3:0:0:
195,167,358210,6,0,P|165:166|97:236,1,113.999996520996,4|8,0:0|0:0,0:0:0:0:
156,269,358903,1,2,0:2:0:0:
156,269,359018,2,0,P|152:202|63:117,1,170.999994781494,2|8,0:0|0:2,0:0:0:0:
425,258,359595,2,0,P|366:198|356:115,1,170.999994781494,8|8,0:0|0:2,0:0:0:0:
356,115,360056,1,2,0:3:0:0:
409,168,360287,2,8,P|372:209|317:217,1,113.999996520996
256,96,360864,2,2,L|256:292,1,170.999994781494,2|0,0:0|0:0,0:0:0:0:
191,323,361441,2,0,B|256:355|256:355|325:321,1,142.500005435944,2|0,0:3|0:0,0:0:0:0:
366,292,361787,1,8,0:0:0:0:
357,235,361903,1,8,0:0:0:0:
319,192,362018,1,8,0:0:0:0:
264,176,362133,1,8,0:0:0:0:
61,77,362364,6,0,B|98:134|98:134|139:71,1,132.999995941162,8|0,0:0|0:0,0:0:0:0:
51,81,362710,2,0,B|97:152|97:152|148:73,1,166.250001585484,8|0,0:0|0:0,0:0:0:0:
186,43,363056,1,8,0:3:0:0:
148,205,363287,2,0,B|185:148|185:148|226:211,1,132.999995941162,8|0,0:0|0:0,0:0:0:0:
138,201,363633,2,0,B|184:129|184:129|235:208,1,166.250001585484,8|0,0:0|0:0,0:0:0:0:
273,239,363979,1,8,0:3:0:0:
238,70,364210,2,0,B|275:127|275:127|316:64,1,132.999995941162,8|0,0:0|0:0,0:0:0:0:
228,74,364556,2,0,B|274:145|274:145|325:66,1,166.250001585484,8|0,0:0|0:0,0:0:0:0:
363,36,364903,1,0,0:0:0:0:
440,83,365133,2,2,L|453:150,1,56.9999982604981
389,256,365479,1,2,0:0:0:0:
389,256,365595,6,0,P|317:251|264:348,1,190,4|8,0:0|0:0,0:0:0:0:
68,298,366403,2,0,B|68:223|68:223|147:223|147:223|147:148,1,228,2|2,0:0|0:0,0:0:0:0:
40,40,366979,2,0,P|37:89|48:114,1,56.9999982604981,8|0,0:0|0:0,0:0:0:0:
101,159,367441,2,0,L|116:109,6,37.9999988403321,8|0|0|8|0|0|8,0:0|0:0|0:0|0:0|0:0|0:0|0:0,0:0:0:0:
220,43,368249,2,2,B|204:89|204:89|228:132,1,95
326,127,368595,1,8,0:0:0:0:
287,227,368826,2,2,B|304:265|304:265|256:290|256:290|210:264|210:264|224:215,1,190,2|2,0:2|0:2,0:2:0:0:
256,165,369287,6,0,L|256:181,1,14.25,4|0,0:0|0:0,0:0:0:0:
177,123,369749,6,0,P|232:97|335:126,1,170.999994781494,8|0,0:0|0:0,0:0:0:0:
351,188,370210,2,0,P|385:157|395:104,1,85.4999973907472,8|0,0:0|0:0,0:0:0:0:
325,318,370672,1,8,0:0:0:0:
290,272,370787,1,2,0:0:0:0:
255,317,370903,1,2,0:0:0:0:
222,272,371018,1,2,0:0:0:0:
187,318,371133,6,8,L|146:365,1,56.9999982604981
68,264,371479,2,8,L|116:217,1,56.9999982604981
189,68,371941,2,0,P|262:50|351:95,1,161.500003080368,2|2,0:0|0:0,0:0:0:0:
361,114,372287,1,2,0:0:0:0:
376,146,372403,2,0,L|371:180,1,28.4999991302491,2|0,0:0|0:0,0:0:0:0:
359,205,372518,1,2,0:0:0:0:
327,229,372633,1,8,0:0:0:0:
293,244,372749,1,8,0:0:0:0:
249,249,372864,1,8,0:0:0:0:
213,264,372979,6,0,B|151:290|96:262|88:243|88:243|82:215|120:163|98:111|139:81|139:81|180:128|225:123|317:66,1,455.999986083985,4|8,0:0|0:0,0:0:0:0:
446,40,373672,2,0,L|381:71,1,56.9999982604981,2|0,0:0|0:0,0:0:0:0:
460,55,373903,2,0,P|491:119|463:193,1,113.999996520996,2|0,0:0|0:0,0:0:0:0:
228,296,374364,2,0,P|244:245|259:290,1,113.999996520996,8|0,0:0|0:0,0:0:0:0:
219,283,374710,2,0,P|204:217|250:262,1,170.999994781494,8|0,0:0|0:0,0:0:0:0:
360,164,375287,2,0,P|307:175|339:140,1,113.999996520996,8|0,0:0|0:0,0:0:0:0:
353,178,375633,2,0,P|304:223|319:161,1,170.999994781494,8|0,0:0|0:0,0:0:0:0:
179,115,376210,2,0,P|216:155|169:145,1,113.999996520996,2|2,0:0|0:0,0:0:0:0:
126,152,376556,1,2,0:0:0:0:
68,147,376672,6,8,L|25:111,2,47.5
149,240,377133,2,0,B|81:243|81:243|115:310,1,132.999995941162,8|0,0:0|0:0,0:0:0:0:
150,229,377479,2,0,B|65:233|65:233|108:317,1,166.250001585484,8|0,0:0|0:0,0:0:0:0:
155,335,377825,1,8,0:3:0:0:
244,299,378056,2,0,B|311:295|311:295|277:228,1,132.999995941162,8|0,0:0|0:0,0:0:0:0:
242,309,378403,2,0,B|326:304|326:304|283:220,1,166.250001585484,8|0,0:0|0:0,0:0:0:0:
277,173,378748,1,8,0:3:0:0:
245,97,378979,2,0,B|214:36|214:36|289:32,1,132.999995941162,8|0,0:0|0:0,0:0:0:0:
235,103,379326,2,0,B|196:27|196:27|290:22,1,166.250001585484,8|0,0:0|0:0,0:0:0:0:
330,54,379671,1,8,0:3:0:0:
412,81,379903,1,2,0:0:0:0:
412,81,380018,2,0,P|411:169|376:232,1,142.500005435944,2|2,0:0|0:0,0:0:0:0:
335,243,380364,6,0,P|320:232|286:230,1,42.7499986953736,4|0,0:0|0:0,0:0:0:0:
308,295,380826,2,0,P|371:315|452:296,1,113.999996520996,8|0,0:0|0:0,0:0:0:0:
305,361,381172,2,0,P|235:364|119:325,1,170.999994781494,8|8,0:0|0:0,0:0:0:0:
71,260,381749,2,0,L|49:166,1,76,2|0,0:0|0:0,0:0:0:0:
127,226,381979,2,0,L|112:166,1,38,2|0,0:0|0:0,0:0:0:0:
182,189,382210,5,8,0:0:0:0:
283,252,382441,1,8,0:0:0:0:
178,303,382672,2,0,P|200:258|240:227,1,85.4999973907472
269,198,383133,1,8,0:0:0:0:
298,148,383249,1,0,0:0:0:0:
284,92,383364,2,2,P|237:58|172:61,1,113.999996520996,10|10,0:0|0:0,0:0:0:0:
131,81,383710,1,0,0:0:0:0:
90,121,383826,1,8,0:0:0:0:
85,177,383941,1,0,0:0:0:0:
86,233,384056,6,0,L|85:298,1,57,4|0,0:0|0:0,0:0:0:0:
157,351,384518,6,8,P|174:292|164:228,1,113.999996520996,0|0,0:0|0:0,0:0:0:0:
155,181,384864,2,0,B|135:126|135:126|234:159|234:159|259:230,1,228,8|0,0:0|0:0,0:0:0:0:
289,316,385441,2,0,B|339:352|366:324|401:302|451:333,1,152,0|4,0:0|0:0,0:0:0:0:
434,324,385989,6,0,B|451:230|451:230|362:190,1,185.249994346619,2|2,0:0|0:0,0:0:0:0:
203,55,386710,2,0,P|176:133|222:187,1,142.500005435944,0|2,0:0|0:0,0:0:0:0:
249,181,387056,1,2,0:0:0:0:
290,170,387172,1,2,0:0:0:0:
335,166,387287,6,8,P|346:217|322:277,1,113.999996520996
225,359,387595,2,8,P|226:295|258:244,1,113.999996520996,8|4,0:0|0:0,0:0:0:0:
240,127,387979,5,2,0:0:0:0:
72,140,388210,2,0,P|132:171|187:214,1,123.499994346619,8|0,0:0|0:0,0:0:0:0:
225,237,388556,2,2,P|262:320|408:338,1,228
312,207,389133,2,0,B|382:199|404:237|441:266|483:254,1,156.750004783631,8|0,0:0|0:0,0:0:0:0:
458,204,389595,6,2,B|415:206|390:229|365:256|305:261,1,152
109,359,390056,2,0,P|91:298|121:232,1,95,8|0,0:0|0:0,0:0:0:0:
149,301,390403,2,2,L|279:154,1,185.249991519928
325,191,390979,2,0,P|330:144|313:100,1,95,8|0,0:0|0:0,0:0:0:0:
275,70,391326,1,0,0:0:0:0:
227,56,391441,6,0,L|128:41,1,76,4|0,0:0|0:0,0:0:0:0:
229,96,391672,2,0,P|233:171|206:223,1,123.499994346619,2|8,0:0|0:0,0:0:0:0:
106,346,392133,1,8,0:0:0:0:
106,346,392249,2,0,P|127:264|13:213,1,213.750008153916,2|2,0:0|0:0,0:0:0:0:
130,88,392826,2,0,P|176:89|127:110,1,123.499994346619,8|0,0:0|0:0,0:0:0:0:
124,47,393172,2,0,B|236:75|236:75|149:155,1,231.562506625056,8|0,0:0|0:0,0:0:0:0:
382,296,393749,2,0,P|336:295|385:274,1,123.499994346619,8|0,0:0|0:0,0:0:0:0:
388,337,394095,2,0,B|276:309|276:309|363:229,1,231.562506625056,8|0,0:0|0:0,0:0:0:0:
314,97,394672,1,2,0:0:0:0:
314,97,394787,1,2,0:0:0:0:
198,287,395018,1,2,0:0:0:0:
198,287,395133,6,0,P|163:306|134:297,1,57
98,211,395595,2,0,P|29:250|50:311,1,123.499994346619,8|0,0:0|0:0,0:0:0:0:
84,329,395941,1,0,0:0:0:0:
148,304,396056,2,0,P|138:235|29:241,1,190,8|8,0:0|0:0,0:0:0:0:
27,255,396633,1,2,0:0:0:0:
30,278,396749,1,2,0:0:0:0:
38,300,396864,1,2,0:0:0:0:
58,312,396979,2,0,L|89:328,5,31.6666666666667,8|0|0|8|0|0,0:0|0:0|0:0|0:0|0:0|0:0,0:0:0:0:
137,345,397441,6,0,P|197:345|260:228,1,185.249991519928,4|0,0:0|0:0,0:0:0:0:
231,212,397903,2,0,P|259:160|328:133,1,123.499994346619,8|0,0:0|0:0,0:0:0:0:
442,116,398364,2,0,P|414:168|345:195,1,123.499994346619,2|2,0:0|0:0,0:0:0:0:
161,128,398826,6,0,L|145:126,1,14.25,4|0,0:0|0:0,0:0:0:0:
177,186,399287,2,0,P|225:143|221:88,1,113.999996520996,8|0,0:0|0:0,0:0:0:0:
129,22,399633,2,0,L|166:135,1,92.6249957599642,2|8,0:0|0:0,0:0:0:0:
45,169,400210,1,2,0:0:0:0:
66,227,400326,1,8,0:0:0:0:
110,269,400441,1,8,0:0:0:0:
169,284,400556,1,8,0:0:0:0:
228,297,400672,6,0,L|325:313,1,76,0|2,0:0|0:0,0:0:0:0:
216,271,400903,1,2,0:0:0:0:
388,188,401133,2,0,P|384:254|271:304,1,170.999994781494,8|8,0:0|0:0,0:0:0:0:
264,222,401710,2,0,L|183:169,1,85.4999973907472,8|2,0:0|0:0,0:0:0:0:
278,160,401941,2,2,L|209:117,1,42.7499986953736
289,96,402172,1,4,0:0:0:0:
297,86,402287,1,4,0:0:0:0:
305,76,402403,1,4,0:0:0:0:
317,57,402518,6,0,B|359:26|359:26|409:66|468:161|346:232,1,304,4|8,0:0|0:0,0:0:0:0:
162,200,403210,1,2,0:0:0:0:
204,238,403326,1,2,0:0:0:0:
252,267,403441,2,0,L|308:301,1,56.9999982604981,8|8,0:0|0:0,0:0:0:0:
233,323,403672,2,0,L|262:343,1,28.4999991302491,8|8,0:0|0:0,0:0:0:0:
186,367,403903,6,2,P|126:338|94:292,1,113.999996520996
167,293,404249,2,2,P|141:237|39:189,1,170.999994781494
326,367,404826,2,2,P|386:338|418:292,1,113.999996520996
345,293,405172,2,2,P|371:237|473:189,1,170.999994781494
256,330,405749,2,0,L|256:196,1,113.999996520996,8|8,0:0|0:0,0:0:0:0:
209,90,406210,5,0,0:0:0:0:
256,61,406326,1,2,0:0:0:0:
303,90,406441,1,2,0:0:0:0:
396,244,406672,2,0,B|390:310|390:310|331:282,1,123.499994346619,8|0,0:0|0:0,0:0:0:0:
420,238,407018,2,0,P|413:329|304:298,1,231.562506625056,8|0,0:0|0:0,0:0:0:0:
129,230,407595,2,0,B|74:191|74:191|128:155,1,123.499994346619,8|0,0:0|0:0,0:0:0:0:
122,253,407941,2,0,P|46:201|128:122,1,231.562506625056,8|0,0:0|0:0,0:0:0:0:
328,97,408518,2,0,B|388:69|388:69|393:133,1,123.499994346619,8|0,0:0|0:0,0:0:0:0:
311,79,408864,2,0,P|393:39|420:149,1,231.562506625056,8|0,0:0|0:0,0:0:0:0:
256,134,409441,6,2,L|256:50,1,54.6250010418892
256,250,409787,1,2,0:0:0:0:
256,250,409903,6,0,L|256:335,1,81.9375015628338,4|0,0:0|0:0,0:0:0:0:
162,283,410364,2,8,P|137:232|167:153,1,113.999996520996
180,120,410710,2,8,B|257:38|257:38|332:128,1,228
458,191,411287,1,8,0:0:0:0:
432,242,411403,1,2,0:0:0:0:
396,286,411518,1,2,0:0:0:0:
342,305,411633,1,2,0:0:0:0:
285,310,411749,6,0,P|248:306|219:283,1,56.9999982604981,8|8,0:0|0:0,0:0:0:0:
132,238,412210,1,2,0:0:0:0:
398,271,412556,2,0,L|409:228,1,42.7499986953736
419,195,412672,6,0,P|430:149|432:128,1,56.9999982604981
377,85,412903,2,0,P|366:131|364:152,1,56.9999982604981
306,98,413133,2,0,P|224:106|189:181,1,170.999994781494,8|8,0:0|0:0,0:0:0:0:
180,291,413595,6,0,L|190:278,1,14.25,4|0,0:0|0:0,0:0:0:0:
155,311,414056,6,0,L|104:368,1,56.9999982604981,8|0,0:0|0:0,0:0:0:0:
103,277,414287,2,0,L|81:301,1,28.4999991302491,8|0,0:0|0:0,0:0:0:0:
43,247,414518,2,0,P|87:189|146:149,1,132.999995941162,8|0,0:0|0:0,0:0:0:0:
276,91,414979,2,0,P|238:150|184:197,1,132.999995941162,8|0,0:0|0:0,0:0:0:0:
330,189,415441,6,0,B|362:170|362:170|380:117|380:117|411:98,1,128.249996086121,2|0,0:0|0:0,0:0:0:0:
409,98,415672,2,0,L|481:49,2,85.4999973907472,2|0|0,0:0|0:0|0:0,0:0:0:0:
460,187,416364,2,0,P|402:257|351:277,1,113.999996520996,8|2,0:0|0:0,0:0:0:0:
326,276,416710,1,2,0:0:0:0:
268,274,416826,6,0,P|226:274|176:215,1,113.999996520996,8|0,0:3|0:0,0:0:0:0:
175,199,416979,6,0,P|195:162|272:148,1,113.999996520996,8|0,0:3|0:0,0:0:0:0:
289,157,417133,6,0,P|309:193|283:266,1,113.999996520996,8|0,0:3|0:0,0:0:0:0:
268,274,417287,5,4,0:0:0:0:
83,94,424672,6,0,P|89:55|85:27,2,66.4999979705811,2|0|0,0:0|0:0|0:0,0:0:0:0:
154,120,425364,2,0,P|140:164|147:195,2,66.4999979705811,2|0|0,0:0|0:0|0:0,0:0:0:0:
252,95,426056,2,0,P|262:55|252:23,2,66.4999979705811,2|0|0,0:0|0:0|0:0,0:0:0:0:
317,154,426749,2,0,P|309:194|319:226,2,66.4999979705811,2|0|0,0:0|0:0|0:0,0:0:0:0:
420,117,427441,2,0,P|436:75|432:46,3,66.4999979705811,2|0|2|0,0:0|0:0|0:0|0:0,0:0:0:0:
487,198,428364,5,2,0:0:0:0:
447,251,428595,1,0,0:0:0:0:
388,282,428826,2,0,P|357:309|320:314,1,66.4999979705811,0|2,0:0|0:0,0:0:0:0:
185,297,429287,1,0,0:0:0:0:
230,248,429518,1,0,0:0:0:0:
291,221,429749,2,0,P|344:196|371:191,1,66.4999979705811,2|0,0:0|0:0,0:0:0:0:
465,123,430210,5,0,0:0:0:0:
417,75,430441,1,2,0:0:0:0:
355,50,430672,2,0,P|305:35|270:34,1,66.4999979705811
161,29,431133,2,0,P|149:90|155:117,1,66.4999979705811,10|0,0:0|0:0,0:0:0:0:
216,193,431595,2,0,P|230:155|225:107,1,66.4999979705811,10|0,0:0|0:0,0:0:0:0:
133,227,432056,6,0,P|126:270|141:300,1,66.4999979705811,10|0,0:0|0:0,0:0:0:0:
196,313,432518,1,2,0:0:0:0:
261,324,432749,1,0,0:0:0:0:
364,222,432979,2,0,P|333:252|299:257,1,66.4999979705811,0|2,0:0|0:0,0:0:0:0:
246,239,433441,1,0,0:0:0:0:
198,192,433672,1,0,0:0:0:0:
187,126,433903,6,0,P|218:91|251:80,1,66.4999979705811,2|0,0:0|0:0,0:0:0:0:
322,64,434364,2,0,P|310:111|289:135,1,66.4999979705811,0|2,0:0|0:0,0:0:0:0:
210,196,434826,2,0,P|185:226|186:267,1,66.4999979705811,10|0,0:0|0:0,0:0:0:0:
274,316,435287,2,0,P|295:307|331:275,1,66.4999979705811,10|0,0:0|0:0,0:0:0:0:
372,211,435749,6,0,P|409:190|437:192,2,66.4999979705811,2|0|2,0:0|0:0|0:0,0:0:0:0:
282,273,436441,2,0,P|246:282|209:272,2,66.4999979705811,0|0|2,0:0|0:0|0:0,0:0:0:0:
295,146,437133,2,0,P|307:103|301:75,1,66.4999979705811
208,82,437595,6,0,P|205:115|217:146,1,66.4999979705811,2|0,0:0|0:0,0:0:0:0:
230,273,438056,2,0,P|261:281|294:276,2,66.4999979705811,0|2|10,0:0|0:0|0:0,0:0:0:0:
139,210,438749,2,0,P|112:192|80:190,2,66.4999979705811,0|10|0,0:0|0:0|0:0,0:0:0:0:
100,302,439441,1,10,0:0:0:0:
256,192,439499,12,0,446826,0:0:0:0:
