osu file format v14

[General]
AudioFilename: audio.mp3
AudioLeadIn: 0
PreviewTime: -1
Countdown: 0
SampleSet: Normal
StackLeniency: 0.7
Mode: 3
LetterboxInBreaks: 0
SpecialStyle: 0
WidescreenStoryboard: 1

[Editor]
Bookmarks: 7111,15419,30188,44957,74496,89265,104034,118803,133573,148342,177880
DistanceSpacing: 1.6
BeatDivisor: 4
GridSize: 8
TimelineZoom: 1.7

[Metadata]
Title:THE END
TitleUnicode:THE END
Artist:KITCALIBER
ArtistUnicode:KITCALIBER
Creator:Hlimak
Version:*
Source:
Tags:Renard Lapfox Trax ИΣVΣRLAИD SØUИDGIRL$
BeatmapID:1932505
BeatmapSetID:925112

[Difficulty]
HPDrainRate:8
CircleSize:4
OverallDifficulty:8
ApproachRate:5
SliderMultiplier:1.6
SliderTickRate:1

[Events]
//Background and Video events
0,0,"Kitcaliber Glitch.jpg",0,0
//Break Periods
//Storyboard Layer 0 (Background)
//Storyboard Layer 1 (Fail)
//Storyboard Layer 2 (Pass)
//Storyboard Layer 3 (Foreground)
//Storyboard Sound Samples

[TimingPoints]
650,230.769230769231,4,1,0,40,1,0
148342,-100,4,1,0,60,0,1
177880,-100,4,1,0,40,0,0

[HitObjects]
64,192,650,128,0,7111:0:0:0:0:
192,192,1573,128,0,7111:0:0:0:0:
320,192,2496,128,0,7111:0:0:0:0:
448,192,7111,5,0,0:0:0:0:
192,192,7226,1,0,0:0:0:0:
320,192,7342,1,0,0:0:0:0:
64,192,7457,1,0,0:0:0:0:
192,192,7573,1,0,0:0:0:0:
64,192,7803,1,0,0:0:0:0:
448,192,7919,1,0,0:0:0:0:
192,192,8034,1,0,0:0:0:0:
448,192,8265,1,0,0:0:0:0:
192,192,8380,1,0,0:0:0:0:
320,192,8496,1,0,0:0:0:0:
64,192,8611,1,0,0:0:0:0:
192,192,8726,1,0,0:0:0:0:
64,192,8957,1,0,0:0:0:0:
320,192,9073,1,0,0:0:0:0:
192,192,9188,1,0,0:0:0:0:
448,192,9303,1,0,0:0:0:0:
320,192,9419,1,0,0:0:0:0:
64,192,9650,1,0,0:0:0:0:
448,192,9765,1,0,0:0:0:0:
192,192,9880,1,0,0:0:0:0:
448,192,10111,1,0,0:0:0:0:
192,192,10226,1,0,0:0:0:0:
320,192,10342,1,0,0:0:0:0:
64,192,10457,1,0,0:0:0:0:
192,192,10573,1,0,0:0:0:0:
64,192,10803,1,0,0:0:0:0:
320,192,10919,1,0,0:0:0:0:
192,192,11034,1,0,0:0:0:0:
448,192,11150,1,0,0:0:0:0:
320,192,11265,1,0,0:0:0:0:
64,192,11496,1,0,0:0:0:0:
448,192,11611,1,0,0:0:0:0:
192,192,11726,1,0,0:0:0:0:
448,192,11957,1,0,0:0:0:0:
192,192,12073,1,0,0:0:0:0:
320,192,12188,1,0,0:0:0:0:
64,192,12303,1,0,0:0:0:0:
192,192,12419,1,0,0:0:0:0:
64,192,12650,1,0,0:0:0:0:
320,192,12765,1,0,0:0:0:0:
192,192,12880,1,0,0:0:0:0:
448,192,12996,1,0,0:0:0:0:
320,192,13111,1,0,0:0:0:0:
64,192,13342,1,0,0:0:0:0:
448,192,13457,1,0,0:0:0:0:
192,192,13573,1,0,0:0:0:0:
448,192,13803,1,0,0:0:0:0:
192,192,13919,1,0,0:0:0:0:
320,192,14034,1,0,0:0:0:0:
64,192,14150,1,0,0:0:0:0:
192,192,14265,1,0,0:0:0:0:
64,192,14496,1,0,0:0:0:0:
320,192,14611,1,0,0:0:0:0:
192,192,14726,1,0,0:0:0:0:
448,192,14842,1,0,0:0:0:0:
320,192,14957,1,0,0:0:0:0:
192,192,15188,1,0,0:0:0:0:
320,192,15303,1,0,0:0:0:0:
192,192,15419,1,0,0:0:0:0:
448,192,15419,128,0,15880:0:0:0:0:
64,192,15419,1,0,0:0:0:0:
320,192,15880,1,0,0:0:0:0:
192,192,15880,1,0,0:0:0:0:
64,192,15996,1,0,0:0:0:0:
192,192,16111,1,0,0:0:0:0:
320,192,16342,1,0,0:0:0:0:
192,192,16457,1,0,0:0:0:0:
448,192,16457,1,0,0:0:0:0:
320,192,16573,1,0,0:0:0:0:
64,192,16573,1,0,0:0:0:0:
192,192,16688,1,0,0:0:0:0:
192,192,16803,1,0,0:0:0:0:
448,192,16803,1,0,0:0:0:0:
64,192,17034,1,0,0:0:0:0:
320,192,17150,1,0,0:0:0:0:
448,192,17150,1,0,0:0:0:0:
64,192,17265,1,0,0:0:0:0:
192,192,17265,128,0,17496:0:0:0:0:
320,192,17496,1,0,0:0:0:0:
448,192,17496,128,0,17726:0:0:0:0:
64,192,17726,1,0,0:0:0:0:
320,192,17726,1,0,0:0:0:0:
448,192,17842,1,0,0:0:0:0:
64,192,17957,1,0,0:0:0:0:
192,192,18073,1,0,0:0:0:0:
448,192,18073,1,0,0:0:0:0:
320,192,18188,1,0,0:0:0:0:
448,192,18303,1,0,0:0:0:0:
192,192,18303,1,0,0:0:0:0:
192,192,18419,1,0,0:0:0:0:
64,192,18419,1,0,0:0:0:0:
64,192,18534,1,0,0:0:0:0:
320,192,18534,1,0,0:0:0:0:
192,192,18650,1,0,0:0:0:0:
448,192,18650,1,0,0:0:0:0:
64,192,18880,1,0,0:0:0:0:
192,192,18996,1,0,0:0:0:0:
64,192,19111,128,0,19573:0:0:0:0:
320,192,19111,1,0,0:0:0:0:
448,192,19111,1,0,0:0:0:0:
448,192,19342,1,0,0:0:0:0:
320,192,19573,1,0,0:0:0:0:
192,192,19573,1,0,0:0:0:0:
448,192,19688,1,0,0:0:0:0:
192,192,19803,1,0,0:0:0:0:
320,192,20034,1,0,0:0:0:0:
192,192,20150,1,0,0:0:0:0:
448,192,20150,1,0,0:0:0:0:
320,192,20265,1,0,0:0:0:0:
64,192,20265,1,0,0:0:0:0:
192,192,20380,1,0,0:0:0:0:
192,192,20496,1,0,0:0:0:0:
448,192,20496,1,0,0:0:0:0:
64,192,20726,1,0,0:0:0:0:
320,192,20842,1,0,0:0:0:0:
448,192,20842,1,0,0:0:0:0:
192,192,20957,1,0,0:0:0:0:
64,192,20957,128,0,21188:0:0:0:0:
320,192,21188,1,0,0:0:0:0:
448,192,21188,128,0,21419:0:0:0:0:
64,192,21419,1,0,0:0:0:0:
192,192,21419,1,0,0:0:0:0:
320,192,21534,1,0,0:0:0:0:
64,192,21650,1,0,0:0:0:0:
320,192,21765,1,0,0:0:0:0:
192,192,21765,1,0,0:0:0:0:
448,192,21880,1,0,0:0:0:0:
64,192,21996,1,0,0:0:0:0:
320,192,21996,1,0,0:0:0:0:
192,192,22111,1,0,0:0:0:0:
320,192,22111,1,0,0:0:0:0:
64,192,22226,1,0,0:0:0:0:
320,192,22226,1,0,0:0:0:0:
192,192,22342,1,0,0:0:0:0:
64,192,22342,1,0,0:0:0:0:
448,192,22342,1,0,0:0:0:0:
64,192,22573,1,0,0:0:0:0:
448,192,22573,1,0,0:0:0:0:
192,192,22803,128,0,23265:0:0:0:0:
320,192,22803,128,0,23265:0:0:0:0:
64,192,23265,1,0,0:0:0:0:
448,192,23265,1,0,0:0:0:0:
192,192,23380,1,0,0:0:0:0:
320,192,23496,1,0,0:0:0:0:
448,192,23726,1,0,0:0:0:0:
192,192,23842,1,0,0:0:0:0:
320,192,23842,1,0,0:0:0:0:
64,192,23957,1,0,0:0:0:0:
192,192,23957,1,0,0:0:0:0:
320,192,24073,1,0,0:0:0:0:
192,192,24188,1,0,0:0:0:0:
320,192,24188,1,0,0:0:0:0:
448,192,24419,1,0,0:0:0:0:
320,192,24534,1,0,0:0:0:0:
64,192,24534,1,0,0:0:0:0:
64,192,24650,1,0,0:0:0:0:
192,192,24650,128,0,24880:0:0:0:0:
320,192,24880,1,0,0:0:0:0:
448,192,24880,128,0,25111:0:0:0:0:
320,192,25111,1,0,0:0:0:0:
64,192,25111,1,0,0:0:0:0:
192,192,25342,1,0,0:0:0:0:
448,192,25457,1,0,0:0:0:0:
320,192,25457,1,0,0:0:0:0:
192,192,25688,1,0,0:0:0:0:
448,192,25688,1,0,0:0:0:0:
320,192,25803,1,0,0:0:0:0:
192,192,25803,1,0,0:0:0:0:
320,192,25919,1,0,0:0:0:0:
192,192,25919,1,0,0:0:0:0:
448,192,26034,1,0,0:0:0:0:
320,192,26034,1,0,0:0:0:0:
64,192,26034,1,0,0:0:0:0:
320,192,26265,1,0,0:0:0:0:
64,192,26496,1,0,0:0:0:0:
320,192,26496,1,0,0:0:0:0:
448,192,26496,128,0,26957:0:0:0:0:
320,192,26957,1,0,0:0:0:0:
192,192,26957,1,0,0:0:0:0:
448,192,27188,1,0,0:0:0:0:
64,192,27419,1,0,0:0:0:0:
448,192,27534,1,0,0:0:0:0:
192,192,27534,1,0,0:0:0:0:
320,192,27650,1,0,0:0:0:0:
64,192,27650,1,0,0:0:0:0:
192,192,27880,1,0,0:0:0:0:
320,192,27880,1,0,0:0:0:0:
64,192,28111,1,0,0:0:0:0:
448,192,28226,1,0,0:0:0:0:
320,192,28226,1,0,0:0:0:0:
64,192,28342,128,0,28573:0:0:0:0:
192,192,28342,1,0,0:0:0:0:
320,192,28573,1,0,0:0:0:0:
448,192,28573,128,0,28803:0:0:0:0:
192,192,28803,1,0,0:0:0:0:
320,192,28803,1,0,0:0:0:0:
448,192,29034,1,0,0:0:0:0:
192,192,29150,1,0,0:0:0:0:
448,192,29380,1,0,0:0:0:0:
64,192,29380,1,0,0:0:0:0:
320,192,29438,1,0,0:0:0:0:
192,192,29496,1,0,0:0:0:0:
448,192,29496,1,0,0:0:0:0:
64,192,29496,1,0,0:0:0:0:
192,192,29611,1,0,0:0:0:0:
320,192,29611,1,0,0:0:0:0:
320,192,29726,1,0,0:0:0:0:
64,192,29726,1,0,0:0:0:0:
448,192,29726,1,0,0:0:0:0:
64,192,29842,1,0,0:0:0:0:
320,192,29842,1,0,0:0:0:0:
192,192,29900,1,0,0:0:0:0:
320,192,29957,1,0,0:0:0:0:
448,192,29957,1,0,0:0:0:0:
64,192,29957,1,0,0:0:0:0:
448,192,30073,1,0,0:0:0:0:
320,192,30073,1,0,0:0:0:0:
320,192,30188,1,0,0:0:0:0:
192,192,30188,1,0,0:0:0:0:
64,192,30188,128,0,30419:0:0:0:0:
320,192,30419,1,0,0:0:0:0:
448,192,30419,1,0,0:0:0:0:
192,192,30534,1,0,0:0:0:0:
64,192,30650,1,0,0:0:0:0:
320,192,30650,1,0,0:0:0:0:
192,192,30765,1,0,0:0:0:0:
448,192,30765,1,0,0:0:0:0:
448,192,30880,1,0,0:0:0:0:
320,192,30880,1,0,0:0:0:0:
64,192,30880,1,0,0:0:0:0:
192,192,30996,1,0,0:0:0:0:
64,192,31111,1,0,0:0:0:0:
320,192,31111,1,0,0:0:0:0:
192,192,31226,1,0,0:0:0:0:
64,192,31342,1,0,0:0:0:0:
448,192,31342,1,0,0:0:0:0:
192,192,31457,1,0,0:0:0:0:
320,192,31457,1,0,0:0:0:0:
448,192,31573,1,0,0:0:0:0:
320,192,31688,1,0,0:0:0:0:
64,192,31688,1,0,0:0:0:0:
192,192,31746,1,0,0:0:0:0:
320,192,31803,1,0,0:0:0:0:
448,192,31803,1,0,0:0:0:0:
64,192,31803,1,0,0:0:0:0:
192,192,31919,1,0,0:0:0:0:
448,192,32034,128,0,32265:0:0:0:0:
64,192,32034,1,0,0:0:0:0:
320,192,32034,1,0,0:0:0:0:
320,192,32265,1,0,0:0:0:0:
192,192,32265,1,0,0:0:0:0:
64,192,32380,1,0,0:0:0:0:
192,192,32496,1,0,0:0:0:0:
448,192,32496,1,0,0:0:0:0:
320,192,32611,1,0,0:0:0:0:
64,192,32611,1,0,0:0:0:0:
64,192,32726,1,0,0:0:0:0:
192,192,32726,1,0,0:0:0:0:
448,192,32726,1,0,0:0:0:0:
320,192,32842,1,0,0:0:0:0:
448,192,32957,1,0,0:0:0:0:
192,192,32957,1,0,0:0:0:0:
320,192,33073,1,0,0:0:0:0:
448,192,33188,1,0,0:0:0:0:
64,192,33188,1,0,0:0:0:0:
192,192,33303,1,0,0:0:0:0:
320,192,33303,1,0,0:0:0:0:
64,192,33419,1,0,0:0:0:0:
192,192,33534,1,0,0:0:0:0:
448,192,33534,1,0,0:0:0:0:
320,192,33592,1,0,0:0:0:0:
192,192,33650,1,0,0:0:0:0:
64,192,33650,1,0,0:0:0:0:
448,192,33650,1,0,0:0:0:0:
192,192,33765,1,0,0:0:0:0:
320,192,33765,1,0,0:0:0:0:
64,192,33880,1,0,0:0:0:0:
448,192,33880,1,0,0:0:0:0:
320,192,33880,1,0,0:0:0:0:
192,192,34111,1,0,0:0:0:0:
320,192,34111,1,0,0:0:0:0:
320,192,34342,1,0,0:0:0:0:
64,192,34342,1,0,0:0:0:0:
192,192,34457,1,0,0:0:0:0:
320,192,34573,1,0,0:0:0:0:
448,192,34573,1,0,0:0:0:0:
64,192,34803,1,0,0:0:0:0:
192,192,34803,1,0,0:0:0:0:
448,192,34803,1,0,0:0:0:0:
448,192,35034,1,0,0:0:0:0:
192,192,35034,1,0,0:0:0:0:
64,192,35150,1,0,0:0:0:0:
192,192,35265,1,0,0:0:0:0:
448,192,35380,1,0,0:0:0:0:
64,192,35380,1,0,0:0:0:0:
320,192,35438,1,0,0:0:0:0:
448,192,35496,1,0,0:0:0:0:
64,192,35496,1,0,0:0:0:0:
192,192,35496,1,0,0:0:0:0:
64,192,35726,1,0,0:0:0:0:
448,192,35726,1,0,0:0:0:0:
320,192,35726,1,0,0:0:0:0:
64,192,35957,1,0,0:0:0:0:
320,192,35957,1,0,0:0:0:0:
448,192,36188,1,0,0:0:0:0:
64,192,36188,1,0,0:0:0:0:
320,192,36303,1,0,0:0:0:0:
64,192,36419,1,0,0:0:0:0:
192,192,36419,1,0,0:0:0:0:
64,192,36650,1,0,0:0:0:0:
320,192,36650,1,0,0:0:0:0:
448,192,36650,1,0,0:0:0:0:
320,192,36880,1,0,0:0:0:0:
64,192,36880,1,0,0:0:0:0:
192,192,36996,1,0,0:0:0:0:
448,192,37111,1,0,0:0:0:0:
320,192,37111,1,0,0:0:0:0:
320,192,37226,1,0,0:0:0:0:
64,192,37226,1,0,0:0:0:0:
192,192,37284,1,0,0:0:0:0:
320,192,37342,1,0,0:0:0:0:
64,192,37342,1,0,0:0:0:0:
448,192,37342,1,0,0:0:0:0:
192,192,37457,1,0,0:0:0:0:
448,192,37573,1,0,0:0:0:0:
320,192,37573,1,0,0:0:0:0:
64,192,37573,128,0,37803:0:0:0:0:
192,192,37803,1,0,0:0:0:0:
320,192,37919,1,0,0:0:0:0:
64,192,37919,1,0,0:0:0:0:
320,192,38034,128,0,38265:0:0:0:0:
192,192,38034,1,0,0:0:0:0:
192,192,38265,128,0,38496:0:0:0:0:
448,192,38265,1,0,0:0:0:0:
64,192,38496,1,0,0:0:0:0:
192,192,38611,1,0,0:0:0:0:
320,192,38611,1,0,0:0:0:0:
448,192,38726,1,0,0:0:0:0:
64,192,38726,1,0,0:0:0:0:
320,192,38842,1,0,0:0:0:0:
64,192,38957,1,0,0:0:0:0:
448,192,38957,128,0,39188:0:0:0:0:
320,192,39188,1,0,0:0:0:0:
64,192,39188,1,0,0:0:0:0:
192,192,39303,1,0,0:0:0:0:
448,192,39419,1,0,0:0:0:0:
320,192,39419,1,0,0:0:0:0:
64,192,39419,128,0,39650:0:0:0:0:
192,192,39650,1,0,0:0:0:0:
320,192,39765,1,0,0:0:0:0:
64,192,39765,1,0,0:0:0:0:
320,192,39880,128,0,40111:0:0:0:0:
192,192,39880,1,0,0:0:0:0:
448,192,40111,128,0,40342:0:0:0:0:
64,192,40111,1,0,0:0:0:0:
192,192,40226,1,0,0:0:0:0:
320,192,40226,1,0,0:0:0:0:
64,192,40342,1,0,0:0:0:0:
192,192,40457,1,0,0:0:0:0:
320,192,40457,1,0,0:0:0:0:
448,192,40573,1,0,0:0:0:0:
448,192,40688,1,0,0:0:0:0:
64,192,40803,1,0,0:0:0:0:
320,192,40803,1,0,0:0:0:0:
448,192,40919,1,0,0:0:0:0:
192,192,40919,1,0,0:0:0:0:
320,192,40976,1,0,0:0:0:0:
64,192,41034,1,0,0:0:0:0:
192,192,41034,1,0,0:0:0:0:
448,192,41034,1,0,0:0:0:0:
192,192,41150,1,0,0:0:0:0:
64,192,41150,1,0,0:0:0:0:
320,192,41265,1,0,0:0:0:0:
448,192,41265,128,0,41496:0:0:0:0:
64,192,41496,1,0,0:0:0:0:
192,192,41496,1,0,0:0:0:0:
448,192,41611,1,0,0:0:0:0:
192,192,41726,1,0,0:0:0:0:
320,192,41726,1,0,0:0:0:0:
320,192,41842,1,0,0:0:0:0:
64,192,41842,1,0,0:0:0:0:
448,192,41957,1,0,0:0:0:0:
192,192,41957,1,0,0:0:0:0:
192,192,42073,1,0,0:0:0:0:
64,192,42188,1,0,0:0:0:0:
320,192,42188,1,0,0:0:0:0:
192,192,42303,1,0,0:0:0:0:
64,192,42419,1,0,0:0:0:0:
448,192,42419,1,0,0:0:0:0:
320,192,42534,1,0,0:0:0:0:
192,192,42534,1,0,0:0:0:0:
64,192,42650,1,0,0:0:0:0:
64,192,42765,1,0,0:0:0:0:
320,192,42765,1,0,0:0:0:0:
192,192,42823,1,0,0:0:0:0:
64,192,42880,1,0,0:0:0:0:
448,192,42880,1,0,0:0:0:0:
320,192,42880,1,0,0:0:0:0:
192,192,42996,1,0,0:0:0:0:
64,192,43111,128,0,43342:0:0:0:0:
320,192,43111,1,0,0:0:0:0:
192,192,43342,1,0,0:0:0:0:
448,192,43342,1,0,0:0:0:0:
320,192,43457,1,0,0:0:0:0:
192,192,43573,1,0,0:0:0:0:
448,192,43573,1,0,0:0:0:0:
64,192,43688,1,0,0:0:0:0:
320,192,43688,1,0,0:0:0:0:
320,192,43803,1,0,0:0:0:0:
192,192,43803,1,0,0:0:0:0:
448,192,43919,1,0,0:0:0:0:
64,192,44034,1,0,0:0:0:0:
320,192,44034,1,0,0:0:0:0:
192,192,44150,1,0,0:0:0:0:
320,192,44265,1,0,0:0:0:0:
448,192,44265,1,0,0:0:0:0:
320,192,44380,1,0,0:0:0:0:
192,192,44380,1,0,0:0:0:0:
64,192,44496,1,0,0:0:0:0:
320,192,44496,1,0,0:0:0:0:
448,192,44496,1,0,0:0:0:0:
320,192,44957,128,0,46342:0:0:0:0:
64,192,44957,1,0,0:0:0:0:
192,192,44957,1,0,0:0:0:0:
448,192,44957,1,0,0:0:0:0:
448,192,45188,1,0,0:0:0:0:
192,192,45188,1,0,0:0:0:0:
448,192,45419,1,0,0:0:0:0:
64,192,45534,1,0,0:0:0:0:
192,192,45650,1,0,0:0:0:0:
448,192,45650,1,0,0:0:0:0:
64,192,45880,1,0,0:0:0:0:
448,192,45880,1,0,0:0:0:0:
448,192,46111,1,0,0:0:0:0:
192,192,46111,1,0,0:0:0:0:
64,192,46226,1,0,0:0:0:0:
448,192,46342,128,0,46803:0:0:0:0:
192,192,46342,1,0,0:0:0:0:
192,192,46457,1,0,0:0:0:0:
64,192,46515,1,0,0:0:0:0:
192,192,46573,1,0,0:0:0:0:
320,192,46573,1,0,0:0:0:0:
192,192,46803,128,0,48188:0:0:0:0:
320,192,46803,1,0,0:0:0:0:
64,192,46803,1,0,0:0:0:0:
320,192,47034,1,0,0:0:0:0:
448,192,47034,1,0,0:0:0:0:
320,192,47265,1,0,0:0:0:0:
64,192,47380,1,0,0:0:0:0:
320,192,47496,1,0,0:0:0:0:
448,192,47496,1,0,0:0:0:0:
320,192,47726,1,0,0:0:0:0:
64,192,47726,1,0,0:0:0:0:
320,192,47957,1,0,0:0:0:0:
448,192,47957,1,0,0:0:0:0:
64,192,48073,1,0,0:0:0:0:
448,192,48188,128,0,48419:0:0:0:0:
320,192,48188,1,0,0:0:0:0:
320,192,48303,1,0,0:0:0:0:
192,192,48361,1,0,0:0:0:0:
320,192,48419,128,0,48650:0:0:0:0:
64,192,48419,1,0,0:0:0:0:
192,192,48534,1,0,0:0:0:0:
64,192,48650,128,0,50957:0:0:0:0:
448,192,48650,1,0,0:0:0:0:
192,192,48650,1,0,0:0:0:0:
448,192,48880,1,0,0:0:0:0:
320,192,48880,1,0,0:0:0:0:
320,192,49111,1,0,0:0:0:0:
192,192,49226,1,0,0:0:0:0:
320,192,49342,1,0,0:0:0:0:
448,192,49342,1,0,0:0:0:0:
320,192,49573,1,0,0:0:0:0:
192,192,49573,1,0,0:0:0:0:
320,192,49803,1,0,0:0:0:0:
448,192,49803,1,0,0:0:0:0:
192,192,49919,1,0,0:0:0:0:
320,192,50034,1,0,0:0:0:0:
192,192,50150,1,0,0:0:0:0:
320,192,50207,1,0,0:0:0:0:
448,192,50265,1,0,0:0:0:0:
192,192,50265,1,0,0:0:0:0:
192,192,50496,1,0,0:0:0:0:
320,192,50496,1,0,0:0:0:0:
448,192,50496,1,0,0:0:0:0:
320,192,50726,1,0,0:0:0:0:
448,192,50726,1,0,0:0:0:0:
448,192,50957,1,0,0:0:0:0:
64,192,51073,1,0,0:0:0:0:
192,192,51188,1,0,0:0:0:0:
448,192,51188,1,0,0:0:0:0:
64,192,51419,1,0,0:0:0:0:
448,192,51419,1,0,0:0:0:0:
64,192,51650,128,0,51880:0:0:0:0:
192,192,51650,1,0,0:0:0:0:
448,192,51650,1,0,0:0:0:0:
320,192,51765,1,0,0:0:0:0:
192,192,51880,128,0,52111:0:0:0:0:
448,192,51996,1,0,0:0:0:0:
320,192,52053,1,0,0:0:0:0:
64,192,52111,128,0,52342:0:0:0:0:
448,192,52111,1,0,0:0:0:0:
320,192,52226,1,0,0:0:0:0:
192,192,52342,128,0,52573:0:0:0:0:
448,192,52342,1,0,0:0:0:0:
320,192,52573,128,0,53726:0:0:0:0:
448,192,52573,1,0,0:0:0:0:
64,192,52573,1,0,0:0:0:0:
64,192,52803,1,0,0:0:0:0:
448,192,52919,1,0,0:0:0:0:
64,192,53034,1,0,0:0:0:0:
192,192,53034,1,0,0:0:0:0:
64,192,53265,1,0,0:0:0:0:
448,192,53265,1,0,0:0:0:0:
64,192,53496,1,0,0:0:0:0:
192,192,53496,1,0,0:0:0:0:
448,192,53611,1,0,0:0:0:0:
192,192,53726,128,0,54188:0:0:0:0:
448,192,53842,1,0,0:0:0:0:
320,192,53900,1,0,0:0:0:0:
64,192,53957,1,0,0:0:0:0:
448,192,53957,1,0,0:0:0:0:
448,192,54188,128,0,55573:0:0:0:0:
320,192,54188,1,0,0:0:0:0:
64,192,54188,1,0,0:0:0:0:
320,192,54419,1,0,0:0:0:0:
192,192,54419,1,0,0:0:0:0:
320,192,54650,1,0,0:0:0:0:
64,192,54765,1,0,0:0:0:0:
192,192,54880,1,0,0:0:0:0:
320,192,54880,1,0,0:0:0:0:
320,192,55111,1,0,0:0:0:0:
64,192,55111,1,0,0:0:0:0:
320,192,55342,1,0,0:0:0:0:
192,192,55342,1,0,0:0:0:0:
64,192,55457,1,0,0:0:0:0:
320,192,55573,128,0,55803:0:0:0:0:
192,192,55573,1,0,0:0:0:0:
64,192,55688,1,0,0:0:0:0:
448,192,55746,1,0,0:0:0:0:
192,192,55803,128,0,56265:0:0:0:0:
64,192,55803,1,0,0:0:0:0:
320,192,55919,1,0,0:0:0:0:
448,192,56034,1,0,0:0:0:0:
64,192,56034,1,0,0:0:0:0:
64,192,56265,128,0,57880:0:0:0:0:
448,192,56265,1,0,0:0:0:0:
320,192,56265,1,0,0:0:0:0:
448,192,56496,1,0,0:0:0:0:
192,192,56611,1,0,0:0:0:0:
320,192,56726,1,0,0:0:0:0:
448,192,56726,1,0,0:0:0:0:
448,192,56957,1,0,0:0:0:0:
192,192,56957,1,0,0:0:0:0:
448,192,57188,1,0,0:0:0:0:
320,192,57188,1,0,0:0:0:0:
192,192,57303,1,0,0:0:0:0:
448,192,57419,1,0,0:0:0:0:
192,192,57534,1,0,0:0:0:0:
320,192,57592,1,0,0:0:0:0:
448,192,57650,1,0,0:0:0:0:
192,192,57650,1,0,0:0:0:0:
448,192,57880,1,0,0:0:0:0:
192,192,57880,1,0,0:0:0:0:
320,192,57880,1,0,0:0:0:0:
448,192,58111,1,0,0:0:0:0:
320,192,58111,1,0,0:0:0:0:
192,192,58226,1,0,0:0:0:0:
64,192,58342,1,0,0:0:0:0:
448,192,58342,1,0,0:0:0:0:
320,192,58457,1,0,0:0:0:0:
64,192,58457,1,0,0:0:0:0:
192,192,58573,1,0,0:0:0:0:
448,192,58573,1,0,0:0:0:0:
64,192,58803,1,0,0:0:0:0:
320,192,58803,1,0,0:0:0:0:
448,192,58803,1,0,0:0:0:0:
192,192,58919,1,0,0:0:0:0:
64,192,59034,1,0,0:0:0:0:
320,192,59034,1,0,0:0:0:0:
448,192,59150,1,0,0:0:0:0:
320,192,59150,1,0,0:0:0:0:
64,192,59265,128,0,59726:0:0:0:0:
192,192,59265,1,0,0:0:0:0:
448,192,59380,1,0,0:0:0:0:
320,192,59438,1,0,0:0:0:0:
192,192,59496,1,0,0:0:0:0:
448,192,59496,1,0,0:0:0:0:
320,192,59611,1,0,0:0:0:0:
320,192,59726,128,0,61111:0:0:0:0:
192,192,59726,1,0,0:0:0:0:
448,192,59726,1,0,0:0:0:0:
448,192,59957,1,0,0:0:0:0:
64,192,59957,1,0,0:0:0:0:
448,192,60188,1,0,0:0:0:0:
64,192,60303,1,0,0:0:0:0:
448,192,60419,1,0,0:0:0:0:
192,192,60419,1,0,0:0:0:0:
448,192,60650,1,0,0:0:0:0:
64,192,60650,1,0,0:0:0:0:
448,192,60880,1,0,0:0:0:0:
192,192,60880,1,0,0:0:0:0:
64,192,60996,1,0,0:0:0:0:
448,192,61111,128,0,61573:0:0:0:0:
192,192,61111,1,0,0:0:0:0:
64,192,61226,1,0,0:0:0:0:
192,192,61284,1,0,0:0:0:0:
320,192,61342,1,0,0:0:0:0:
64,192,61342,1,0,0:0:0:0:
192,192,61573,128,0,62957:0:0:0:0:
320,192,61573,1,0,0:0:0:0:
64,192,61573,1,0,0:0:0:0:
64,192,61803,1,0,0:0:0:0:
448,192,61803,1,0,0:0:0:0:
64,192,62034,1,0,0:0:0:0:
448,192,62150,1,0,0:0:0:0:
320,192,62265,1,0,0:0:0:0:
64,192,62265,1,0,0:0:0:0:
64,192,62496,1,0,0:0:0:0:
448,192,62496,1,0,0:0:0:0:
320,192,62726,1,0,0:0:0:0:
64,192,62726,1,0,0:0:0:0:
64,192,62842,1,0,0:0:0:0:
448,192,62957,128,0,63188:0:0:0:0:
320,192,62957,1,0,0:0:0:0:
320,192,63073,1,0,0:0:0:0:
192,192,63130,1,0,0:0:0:0:
320,192,63188,128,0,63419:0:0:0:0:
64,192,63188,1,0,0:0:0:0:
192,192,63303,1,0,0:0:0:0:
192,192,63419,128,0,64342:0:0:0:0:
64,192,63419,1,0,0:0:0:0:
448,192,63650,1,0,0:0:0:0:
320,192,63650,1,0,0:0:0:0:
448,192,63880,1,0,0:0:0:0:
64,192,63996,1,0,0:0:0:0:
320,192,64111,1,0,0:0:0:0:
448,192,64111,1,0,0:0:0:0:
64,192,64342,128,0,65726:0:0:0:0:
448,192,64342,1,0,0:0:0:0:
320,192,64342,1,0,0:0:0:0:
448,192,64573,1,0,0:0:0:0:
192,192,64573,1,0,0:0:0:0:
320,192,64688,1,0,0:0:0:0:
448,192,64803,1,0,0:0:0:0:
192,192,64919,1,0,0:0:0:0:
320,192,64976,1,0,0:0:0:0:
448,192,65034,1,0,0:0:0:0:
192,192,65034,1,0,0:0:0:0:
192,192,65265,1,0,0:0:0:0:
320,192,65265,1,0,0:0:0:0:
448,192,65265,1,0,0:0:0:0:
192,192,65496,1,0,0:0:0:0:
320,192,65496,1,0,0:0:0:0:
320,192,65726,1,0,0:0:0:0:
64,192,65842,1,0,0:0:0:0:
192,192,65957,1,0,0:0:0:0:
448,192,65957,1,0,0:0:0:0:
64,192,66188,1,0,0:0:0:0:
448,192,66188,1,0,0:0:0:0:
64,192,66419,128,0,66650:0:0:0:0:
320,192,66419,1,0,0:0:0:0:
192,192,66419,1,0,0:0:0:0:
448,192,66534,1,0,0:0:0:0:
192,192,66650,128,0,66880:0:0:0:0:
448,192,66765,1,0,0:0:0:0:
320,192,66823,1,0,0:0:0:0:
64,192,66880,128,0,67111:0:0:0:0:
448,192,66880,1,0,0:0:0:0:
320,192,66996,1,0,0:0:0:0:
192,192,67111,128,0,67342:0:0:0:0:
448,192,67111,1,0,0:0:0:0:
320,192,67342,128,0,68496:0:0:0:0:
448,192,67342,1,0,0:0:0:0:
64,192,67342,1,0,0:0:0:0:
448,192,67573,1,0,0:0:0:0:
64,192,67688,1,0,0:0:0:0:
448,192,67803,1,0,0:0:0:0:
192,192,67803,1,0,0:0:0:0:
448,192,68034,1,0,0:0:0:0:
64,192,68034,1,0,0:0:0:0:
448,192,68265,1,0,0:0:0:0:
192,192,68265,1,0,0:0:0:0:
64,192,68380,1,0,0:0:0:0:
448,192,68496,128,0,68957:0:0:0:0:
192,192,68496,1,0,0:0:0:0:
64,192,68611,1,0,0:0:0:0:
192,192,68669,1,0,0:0:0:0:
320,192,68726,1,0,0:0:0:0:
64,192,68726,1,0,0:0:0:0:
320,192,68957,128,0,70342:0:0:0:0:
192,192,68957,1,0,0:0:0:0:
64,192,68957,1,0,0:0:0:0:
192,192,69130,1,0,0:0:0:0:
448,192,69130,1,0,0:0:0:0:
192,192,69419,1,0,0:0:0:0:
64,192,69534,1,0,0:0:0:0:
192,192,69650,1,0,0:0:0:0:
448,192,69650,1,0,0:0:0:0:
192,192,69880,1,0,0:0:0:0:
64,192,69880,1,0,0:0:0:0:
192,192,70111,1,0,0:0:0:0:
448,192,70111,1,0,0:0:0:0:
64,192,70226,1,0,0:0:0:0:
448,192,70342,128,0,70573:0:0:0:0:
192,192,70342,1,0,0:0:0:0:
64,192,70457,1,0,0:0:0:0:
320,192,70515,1,0,0:0:0:0:
192,192,70573,128,0,71034:0:0:0:0:
64,192,70573,1,0,0:0:0:0:
320,192,70688,1,0,0:0:0:0:
448,192,70803,1,0,0:0:0:0:
64,192,70803,1,0,0:0:0:0:
64,192,71034,128,0,72650:0:0:0:0:
448,192,71034,1,0,0:0:0:0:
320,192,71034,1,0,0:0:0:0:
448,192,71265,1,0,0:0:0:0:
192,192,71380,1,0,0:0:0:0:
448,192,71496,1,0,0:0:0:0:
320,192,71496,1,0,0:0:0:0:
448,192,71726,1,0,0:0:0:0:
192,192,71726,1,0,0:0:0:0:
448,192,71957,1,0,0:0:0:0:
320,192,71957,1,0,0:0:0:0:
192,192,72073,1,0,0:0:0:0:
448,192,72188,1,0,0:0:0:0:
192,192,72303,1,0,0:0:0:0:
320,192,72361,1,0,0:0:0:0:
448,192,72419,1,0,0:0:0:0:
192,192,72419,1,0,0:0:0:0:
448,192,72650,1,0,0:0:0:0:
320,192,72650,1,0,0:0:0:0:
192,192,72650,1,0,0:0:0:0:
64,192,72765,1,0,0:0:0:0:
192,192,72880,1,0,0:0:0:0:
448,192,72880,1,0,0:0:0:0:
64,192,72996,1,0,0:0:0:0:
192,192,73111,1,0,0:0:0:0:
320,192,73111,1,0,0:0:0:0:
64,192,73226,1,0,0:0:0:0:
320,192,73226,1,0,0:0:0:0:
192,192,73342,1,0,0:0:0:0:
448,192,73342,1,0,0:0:0:0:
320,192,73573,1,0,0:0:0:0:
64,192,73573,1,0,0:0:0:0:
192,192,73688,1,0,0:0:0:0:
448,192,73803,1,0,0:0:0:0:
64,192,73803,1,0,0:0:0:0:
320,192,73919,1,0,0:0:0:0:
192,192,73919,1,0,0:0:0:0:
192,192,74034,1,0,0:0:0:0:
448,192,74034,1,0,0:0:0:0:
320,192,74150,1,0,0:0:0:0:
64,192,74150,1,0,0:0:0:0:
192,192,74207,1,0,0:0:0:0:
448,192,74265,1,0,0:0:0:0:
64,192,74265,1,0,0:0:0:0:
320,192,74380,1,0,0:0:0:0:
448,192,74496,1,0,0:0:0:0:
192,192,74496,1,0,0:0:0:0:
64,192,74496,128,0,80034:0:0:0:0:
192,192,75419,128,0,80034:0:0:0:0:
320,192,76342,128,0,80034:0:0:0:0:
64,192,80265,1,0,0:0:0:0:
320,192,80380,1,0,0:0:0:0:
192,192,80496,1,0,0:0:0:0:
448,192,80611,1,0,0:0:0:0:
320,192,80726,1,0,0:0:0:0:
448,192,80957,5,0,0:0:0:0:
192,192,81073,1,0,0:0:0:0:
320,192,81188,1,0,0:0:0:0:
64,192,81303,1,0,0:0:0:0:
192,192,81419,1,0,0:0:0:0:
64,192,81650,1,0,0:0:0:0:
448,192,81765,1,0,0:0:0:0:
192,192,81880,1,0,0:0:0:0:
448,192,82111,1,0,0:0:0:0:
192,192,82226,1,0,0:0:0:0:
320,192,82342,1,0,0:0:0:0:
64,192,82457,1,0,0:0:0:0:
192,192,82573,1,0,0:0:0:0:
64,192,82803,1,0,0:0:0:0:
320,192,82919,1,0,0:0:0:0:
192,192,83034,1,0,0:0:0:0:
448,192,83150,1,0,0:0:0:0:
320,192,83265,1,0,0:0:0:0:
64,192,83496,1,0,0:0:0:0:
448,192,83611,1,0,0:0:0:0:
192,192,83726,1,0,0:0:0:0:
448,192,83957,1,0,0:0:0:0:
192,192,84073,1,0,0:0:0:0:
320,192,84188,1,0,0:0:0:0:
64,192,84303,1,0,0:0:0:0:
192,192,84419,1,0,0:0:0:0:
64,192,84650,1,0,0:0:0:0:
320,192,84765,1,0,0:0:0:0:
192,192,84880,1,0,0:0:0:0:
448,192,84996,1,0,0:0:0:0:
320,192,85111,1,0,0:0:0:0:
64,192,85342,1,0,0:0:0:0:
448,192,85457,1,0,0:0:0:0:
192,192,85573,1,0,0:0:0:0:
448,192,85803,1,0,0:0:0:0:
192,192,85919,1,0,0:0:0:0:
320,192,86034,1,0,0:0:0:0:
64,192,86150,1,0,0:0:0:0:
192,192,86265,1,0,0:0:0:0:
64,192,86496,1,0,0:0:0:0:
320,192,86611,1,0,0:0:0:0:
192,192,86726,1,0,0:0:0:0:
448,192,86842,1,0,0:0:0:0:
320,192,86957,1,0,0:0:0:0:
64,192,87188,1,0,0:0:0:0:
448,192,87303,1,0,0:0:0:0:
192,192,87419,1,0,0:0:0:0:
448,192,87650,1,0,0:0:0:0:
192,192,87765,1,0,0:0:0:0:
320,192,87880,1,0,0:0:0:0:
64,192,87996,1,0,0:0:0:0:
192,192,88111,1,0,0:0:0:0:
64,192,88342,1,0,0:0:0:0:
320,192,88457,1,0,0:0:0:0:
192,192,88573,1,0,0:0:0:0:
448,192,88688,1,0,0:0:0:0:
320,192,88803,1,0,0:0:0:0:
192,192,89034,1,0,0:0:0:0:
320,192,89150,1,0,0:0:0:0:
64,192,89265,1,0,0:0:0:0:
448,192,89265,1,0,0:0:0:0:
320,192,89380,1,0,0:0:0:0:
192,192,89496,1,0,0:0:0:0:
448,192,89496,1,0,0:0:0:0:
320,192,89611,1,0,0:0:0:0:
64,192,89611,1,0,0:0:0:0:
192,192,89726,1,0,0:0:0:0:
320,192,89726,1,0,0:0:0:0:
320,192,89842,1,0,0:0:0:0:
64,192,89842,1,0,0:0:0:0:
64,192,89957,1,0,0:0:0:0:
448,192,89957,1,0,0:0:0:0:
320,192,90073,1,0,0:0:0:0:
192,192,90130,1,0,0:0:0:0:
64,192,90188,1,0,0:0:0:0:
448,192,90188,1,0,0:0:0:0:
192,192,90303,1,0,0:0:0:0:
320,192,90303,1,0,0:0:0:0:
448,192,90419,1,0,0:0:0:0:
320,192,90419,1,0,0:0:0:0:
64,192,90534,1,0,0:0:0:0:
192,192,90534,1,0,0:0:0:0:
448,192,90650,1,0,0:0:0:0:
192,192,90650,1,0,0:0:0:0:
64,192,90765,1,0,0:0:0:0:
320,192,90765,1,0,0:0:0:0:
448,192,90880,1,0,0:0:0:0:
320,192,90880,1,0,0:0:0:0:
64,192,90996,1,0,0:0:0:0:
448,192,90996,1,0,0:0:0:0:
192,192,91111,1,0,0:0:0:0:
320,192,91111,1,0,0:0:0:0:
192,192,91226,1,0,0:0:0:0:
64,192,91342,1,0,0:0:0:0:
320,192,91342,1,0,0:0:0:0:
192,192,91457,1,0,0:0:0:0:
448,192,91457,1,0,0:0:0:0:
64,192,91573,1,0,0:0:0:0:
448,192,91573,1,0,0:0:0:0:
192,192,91688,1,0,0:0:0:0:
320,192,91688,1,0,0:0:0:0:
64,192,91803,1,0,0:0:0:0:
448,192,91803,1,0,0:0:0:0:
192,192,91919,1,0,0:0:0:0:
320,192,91976,1,0,0:0:0:0:
448,192,92034,1,0,0:0:0:0:
64,192,92034,1,0,0:0:0:0:
192,192,92150,1,0,0:0:0:0:
448,192,92150,1,0,0:0:0:0:
64,192,92265,1,0,0:0:0:0:
192,192,92265,1,0,0:0:0:0:
448,192,92380,1,0,0:0:0:0:
64,192,92380,1,0,0:0:0:0:
320,192,92496,1,0,0:0:0:0:
192,192,92496,1,0,0:0:0:0:
320,192,92611,1,0,0:0:0:0:
448,192,92611,1,0,0:0:0:0:
192,192,92726,1,0,0:0:0:0:
64,192,92726,1,0,0:0:0:0:
192,192,92842,1,0,0:0:0:0:
448,192,92842,1,0,0:0:0:0:
64,192,92957,1,0,0:0:0:0:
448,192,92957,1,0,0:0:0:0:
192,192,93073,1,0,0:0:0:0:
64,192,93188,1,0,0:0:0:0:
320,192,93188,1,0,0:0:0:0:
448,192,93303,1,0,0:0:0:0:
192,192,93303,1,0,0:0:0:0:
192,192,93419,1,0,0:0:0:0:
320,192,93419,1,0,0:0:0:0:
448,192,93534,1,0,0:0:0:0:
192,192,93534,1,0,0:0:0:0:
64,192,93650,1,0,0:0:0:0:
448,192,93650,1,0,0:0:0:0:
320,192,93765,1,0,0:0:0:0:
192,192,93823,1,0,0:0:0:0:
448,192,93880,1,0,0:0:0:0:
64,192,93880,1,0,0:0:0:0:
320,192,93996,1,0,0:0:0:0:
64,192,93996,1,0,0:0:0:0:
192,192,94111,1,0,0:0:0:0:
320,192,94111,1,0,0:0:0:0:
64,192,94226,1,0,0:0:0:0:
448,192,94226,1,0,0:0:0:0:
192,192,94342,1,0,0:0:0:0:
64,192,94342,1,0,0:0:0:0:
448,192,94457,1,0,0:0:0:0:
320,192,94457,1,0,0:0:0:0:
64,192,94573,1,0,0:0:0:0:
192,192,94573,1,0,0:0:0:0:
192,192,94688,1,0,0:0:0:0:
448,192,94688,1,0,0:0:0:0:
64,192,94803,1,0,0:0:0:0:
448,192,94803,1,0,0:0:0:0:
320,192,94919,1,0,0:0:0:0:
192,192,95034,1,0,0:0:0:0:
448,192,95034,1,0,0:0:0:0:
320,192,95150,1,0,0:0:0:0:
64,192,95150,1,0,0:0:0:0:
192,192,95265,1,0,0:0:0:0:
320,192,95265,1,0,0:0:0:0:
448,192,95380,1,0,0:0:0:0:
192,192,95380,1,0,0:0:0:0:
64,192,95496,1,0,0:0:0:0:
320,192,95496,1,0,0:0:0:0:
192,192,95611,1,0,0:0:0:0:
320,192,95669,1,0,0:0:0:0:
64,192,95726,1,0,0:0:0:0:
448,192,95726,1,0,0:0:0:0:
192,192,95842,1,0,0:0:0:0:
448,192,95842,1,0,0:0:0:0:
448,192,95957,1,0,0:0:0:0:
320,192,95957,1,0,0:0:0:0:
64,192,96073,1,0,0:0:0:0:
320,192,96073,1,0,0:0:0:0:
192,192,96188,1,0,0:0:0:0:
448,192,96188,1,0,0:0:0:0:
192,192,96303,1,0,0:0:0:0:
64,192,96303,1,0,0:0:0:0:
320,192,96419,1,0,0:0:0:0:
448,192,96419,1,0,0:0:0:0:
320,192,96534,1,0,0:0:0:0:
64,192,96534,1,0,0:0:0:0:
64,192,96650,1,0,0:0:0:0:
448,192,96650,1,0,0:0:0:0:
192,192,96765,1,0,0:0:0:0:
448,192,96880,1,0,0:0:0:0:
320,192,96880,1,0,0:0:0:0:
192,192,96996,1,0,0:0:0:0:
64,192,96996,1,0,0:0:0:0:
448,192,97111,1,0,0:0:0:0:
320,192,97111,1,0,0:0:0:0:
320,192,97226,1,0,0:0:0:0:
64,192,97226,1,0,0:0:0:0:
64,192,97342,1,0,0:0:0:0:
192,192,97342,1,0,0:0:0:0:
448,192,97457,1,0,0:0:0:0:
192,192,97457,1,0,0:0:0:0:
320,192,97515,1,0,0:0:0:0:
64,192,97573,1,0,0:0:0:0:
448,192,97573,1,0,0:0:0:0:
448,192,97688,1,0,0:0:0:0:
320,192,97688,1,0,0:0:0:0:
320,192,97803,1,0,0:0:0:0:
192,192,97803,1,0,0:0:0:0:
64,192,97919,1,0,0:0:0:0:
448,192,97919,1,0,0:0:0:0:
64,192,98034,1,0,0:0:0:0:
320,192,98034,1,0,0:0:0:0:
448,192,98150,1,0,0:0:0:0:
320,192,98150,1,0,0:0:0:0:
192,192,98265,1,0,0:0:0:0:
64,192,98265,1,0,0:0:0:0:
64,192,98380,1,0,0:0:0:0:
320,192,98380,1,0,0:0:0:0:
64,192,98496,1,0,0:0:0:0:
448,192,98496,1,0,0:0:0:0:
448,192,98611,1,0,0:0:0:0:
320,192,98611,1,0,0:0:0:0:
448,192,98726,1,0,0:0:0:0:
192,192,98726,1,0,0:0:0:0:
320,192,98842,1,0,0:0:0:0:
64,192,98842,1,0,0:0:0:0:
448,192,98957,1,0,0:0:0:0:
192,192,98957,1,0,0:0:0:0:
320,192,99073,1,0,0:0:0:0:
192,192,99073,1,0,0:0:0:0:
64,192,99188,1,0,0:0:0:0:
448,192,99188,1,0,0:0:0:0:
192,192,99303,1,0,0:0:0:0:
448,192,99303,1,0,0:0:0:0:
320,192,99361,1,0,0:0:0:0:
64,192,99419,1,0,0:0:0:0:
192,192,99419,1,0,0:0:0:0:
192,192,99534,1,0,0:0:0:0:
320,192,99534,1,0,0:0:0:0:
448,192,99650,1,0,0:0:0:0:
320,192,99650,1,0,0:0:0:0:
64,192,99765,1,0,0:0:0:0:
192,192,99765,1,0,0:0:0:0:
448,192,99880,1,0,0:0:0:0:
320,192,99880,1,0,0:0:0:0:
64,192,99996,1,0,0:0:0:0:
320,192,99996,1,0,0:0:0:0:
192,192,100111,1,0,0:0:0:0:
448,192,100111,1,0,0:0:0:0:
192,192,100226,1,0,0:0:0:0:
320,192,100226,1,0,0:0:0:0:
64,192,100342,1,0,0:0:0:0:
448,192,100342,1,0,0:0:0:0:
192,192,100457,1,0,0:0:0:0:
320,192,100573,1,0,0:0:0:0:
448,192,100573,1,0,0:0:0:0:
64,192,100688,1,0,0:0:0:0:
192,192,100688,1,0,0:0:0:0:
448,192,100803,1,0,0:0:0:0:
320,192,100803,1,0,0:0:0:0:
320,192,100919,1,0,0:0:0:0:
64,192,100919,1,0,0:0:0:0:
448,192,101034,1,0,0:0:0:0:
192,192,101034,1,0,0:0:0:0:
64,192,101150,1,0,0:0:0:0:
320,192,101150,1,0,0:0:0:0:
192,192,101207,1,0,0:0:0:0:
448,192,101265,1,0,0:0:0:0:
320,192,101265,1,0,0:0:0:0:
192,192,101380,1,0,0:0:0:0:
448,192,101380,1,0,0:0:0:0:
192,192,101496,1,0,0:0:0:0:
64,192,101496,1,0,0:0:0:0:
64,192,101611,1,0,0:0:0:0:
448,192,101611,1,0,0:0:0:0:
192,192,101726,1,0,0:0:0:0:
320,192,101726,1,0,0:0:0:0:
448,192,101842,1,0,0:0:0:0:
320,192,101842,1,0,0:0:0:0:
320,192,101957,1,0,0:0:0:0:
192,192,101957,1,0,0:0:0:0:
64,192,102073,1,0,0:0:0:0:
192,192,102073,1,0,0:0:0:0:
64,192,102188,1,0,0:0:0:0:
448,192,102188,1,0,0:0:0:0:
192,192,102303,1,0,0:0:0:0:
448,192,102303,1,0,0:0:0:0:
448,192,102419,1,0,0:0:0:0:
64,192,102419,1,0,0:0:0:0:
64,192,102534,1,0,0:0:0:0:
320,192,102534,1,0,0:0:0:0:
448,192,102650,1,0,0:0:0:0:
320,192,102650,1,0,0:0:0:0:
320,192,102765,1,0,0:0:0:0:
192,192,102765,1,0,0:0:0:0:
64,192,102880,1,0,0:0:0:0:
448,192,102880,1,0,0:0:0:0:
192,192,102996,1,0,0:0:0:0:
448,192,102996,1,0,0:0:0:0:
320,192,103053,1,0,0:0:0:0:
448,192,103111,1,0,0:0:0:0:
64,192,103111,1,0,0:0:0:0:
320,192,103226,1,0,0:0:0:0:
192,192,103226,1,0,0:0:0:0:
320,192,103342,1,0,0:0:0:0:
64,192,103342,1,0,0:0:0:0:
192,192,103457,1,0,0:0:0:0:
448,192,103457,1,0,0:0:0:0:
320,192,103515,1,0,0:0:0:0:
192,192,103573,1,0,0:0:0:0:
64,192,103573,1,0,0:0:0:0:
448,192,103573,1,0,0:0:0:0:
64,192,103688,1,0,0:0:0:0:
64,192,104034,128,0,104726:0:0:0:0:
192,192,104034,1,0,0:0:0:0:
448,192,104034,1,0,0:0:0:0:
320,192,104265,1,0,0:0:0:0:
192,192,104265,1,0,0:0:0:0:
448,192,104380,1,0,0:0:0:0:
192,192,104496,1,0,0:0:0:0:
448,192,104496,1,0,0:0:0:0:
320,192,104611,1,0,0:0:0:0:
192,192,104726,1,0,0:0:0:0:
448,192,104726,1,0,0:0:0:0:
320,192,104842,1,0,0:0:0:0:
64,192,104957,1,0,0:0:0:0:
448,192,104957,1,0,0:0:0:0:
320,192,105073,1,0,0:0:0:0:
192,192,105188,1,0,0:0:0:0:
448,192,105188,1,0,0:0:0:0:
64,192,105303,1,0,0:0:0:0:
320,192,105303,1,0,0:0:0:0:
320,192,105419,1,0,0:0:0:0:
192,192,105534,1,0,0:0:0:0:
448,192,105534,1,0,0:0:0:0:
64,192,105592,1,0,0:0:0:0:
320,192,105650,1,0,0:0:0:0:
448,192,105650,1,0,0:0:0:0:
192,192,105765,1,0,0:0:0:0:
64,192,105880,128,0,106111:0:0:0:0:
192,192,105880,1,0,0:0:0:0:
448,192,105880,1,0,0:0:0:0:
320,192,105996,1,0,0:0:0:0:
320,192,106111,128,0,106342:0:0:0:0:
448,192,106111,1,0,0:0:0:0:
64,192,106226,1,0,0:0:0:0:
448,192,106342,1,0,0:0:0:0:
192,192,106342,1,0,0:0:0:0:
320,192,106457,1,0,0:0:0:0:
64,192,106457,1,0,0:0:0:0:
192,192,106573,1,0,0:0:0:0:
320,192,106573,1,0,0:0:0:0:
448,192,106688,1,0,0:0:0:0:
320,192,106803,1,0,0:0:0:0:
64,192,106803,1,0,0:0:0:0:
448,192,106919,1,0,0:0:0:0:
192,192,107034,1,0,0:0:0:0:
320,192,107034,1,0,0:0:0:0:
192,192,107150,1,0,0:0:0:0:
448,192,107150,1,0,0:0:0:0:
64,192,107265,1,0,0:0:0:0:
192,192,107380,1,0,0:0:0:0:
448,192,107380,1,0,0:0:0:0:
320,192,107438,1,0,0:0:0:0:
64,192,107496,1,0,0:0:0:0:
192,192,107496,1,0,0:0:0:0:
320,192,107611,1,0,0:0:0:0:
64,192,107726,128,0,108188:0:0:0:0:
192,192,107726,1,0,0:0:0:0:
448,192,107726,1,0,0:0:0:0:
448,192,107842,1,0,0:0:0:0:
320,192,107957,1,0,0:0:0:0:
192,192,107957,1,0,0:0:0:0:
448,192,108073,1,0,0:0:0:0:
320,192,108188,1,0,0:0:0:0:
192,192,108188,1,0,0:0:0:0:
64,192,108303,1,0,0:0:0:0:
320,192,108303,1,0,0:0:0:0:
192,192,108419,1,0,0:0:0:0:
448,192,108419,1,0,0:0:0:0:
320,192,108534,1,0,0:0:0:0:
192,192,108650,1,0,0:0:0:0:
448,192,108650,1,0,0:0:0:0:
320,192,108765,1,0,0:0:0:0:
64,192,108880,1,0,0:0:0:0:
448,192,108880,1,0,0:0:0:0:
64,192,108996,1,0,0:0:0:0:
320,192,108996,1,0,0:0:0:0:
192,192,109111,1,0,0:0:0:0:
64,192,109226,1,0,0:0:0:0:
320,192,109226,1,0,0:0:0:0:
192,192,109284,1,0,0:0:0:0:
64,192,109342,1,0,0:0:0:0:
448,192,109342,1,0,0:0:0:0:
320,192,109457,1,0,0:0:0:0:
192,192,109573,128,0,109803:0:0:0:0:
64,192,109573,1,0,0:0:0:0:
448,192,109573,1,0,0:0:0:0:
320,192,109688,1,0,0:0:0:0:
448,192,109803,128,0,110034:0:0:0:0:
64,192,109803,1,0,0:0:0:0:
320,192,109919,1,0,0:0:0:0:
192,192,110034,1,0,0:0:0:0:
64,192,110034,1,0,0:0:0:0:
64,192,110150,1,0,0:0:0:0:
192,192,110265,1,0,0:0:0:0:
448,192,110265,1,0,0:0:0:0:
320,192,110380,1,0,0:0:0:0:
64,192,110496,1,0,0:0:0:0:
448,192,110496,1,0,0:0:0:0:
192,192,110611,1,0,0:0:0:0:
320,192,110726,1,0,0:0:0:0:
64,192,110726,1,0,0:0:0:0:
448,192,110842,1,0,0:0:0:0:
192,192,110842,1,0,0:0:0:0:
320,192,110957,1,0,0:0:0:0:
192,192,110957,1,0,0:0:0:0:
320,192,111073,1,0,0:0:0:0:
64,192,111130,1,0,0:0:0:0:
192,192,111188,1,0,0:0:0:0:
448,192,111188,1,0,0:0:0:0:
320,192,111303,1,0,0:0:0:0:
448,192,111419,128,0,112111:0:0:0:0:
192,192,111419,1,0,0:0:0:0:
64,192,111419,1,0,0:0:0:0:
64,192,111534,1,0,0:0:0:0:
320,192,111650,1,0,0:0:0:0:
192,192,111650,1,0,0:0:0:0:
64,192,111765,1,0,0:0:0:0:
320,192,111880,1,0,0:0:0:0:
192,192,111880,1,0,0:0:0:0:
192,192,111996,1,0,0:0:0:0:
64,192,112111,1,0,0:0:0:0:
320,192,112111,1,0,0:0:0:0:
192,192,112226,1,0,0:0:0:0:
64,192,112342,1,0,0:0:0:0:
448,192,112342,1,0,0:0:0:0:
320,192,112457,1,0,0:0:0:0:
192,192,112457,1,0,0:0:0:0:
448,192,112573,1,0,0:0:0:0:
320,192,112573,1,0,0:0:0:0:
64,192,112688,1,0,0:0:0:0:
448,192,112688,1,0,0:0:0:0:
192,192,112803,1,0,0:0:0:0:
320,192,112803,1,0,0:0:0:0:
448,192,112919,1,0,0:0:0:0:
320,192,112976,1,0,0:0:0:0:
64,192,113034,1,0,0:0:0:0:
448,192,113034,1,0,0:0:0:0:
192,192,113150,1,0,0:0:0:0:
64,192,113265,128,0,113496:0:0:0:0:
320,192,113265,1,0,0:0:0:0:
448,192,113265,1,0,0:0:0:0:
320,192,113496,128,0,113726:0:0:0:0:
448,192,113496,1,0,0:0:0:0:
192,192,113611,1,0,0:0:0:0:
192,192,113726,1,0,0:0:0:0:
64,192,113726,1,0,0:0:0:0:
448,192,113842,1,0,0:0:0:0:
64,192,113957,1,0,0:0:0:0:
448,192,113957,1,0,0:0:0:0:
320,192,114073,1,0,0:0:0:0:
192,192,114188,1,0,0:0:0:0:
448,192,114188,1,0,0:0:0:0:
192,192,114303,1,0,0:0:0:0:
64,192,114419,1,0,0:0:0:0:
448,192,114419,1,0,0:0:0:0:
320,192,114534,1,0,0:0:0:0:
192,192,114534,1,0,0:0:0:0:
64,192,114650,1,0,0:0:0:0:
320,192,114650,1,0,0:0:0:0:
192,192,114765,1,0,0:0:0:0:
448,192,114765,1,0,0:0:0:0:
320,192,114823,1,0,0:0:0:0:
64,192,114880,1,0,0:0:0:0:
448,192,114880,1,0,0:0:0:0:
320,192,114996,1,0,0:0:0:0:
64,192,115111,128,0,115573:0:0:0:0:
192,192,115111,1,0,0:0:0:0:
448,192,115111,1,0,0:0:0:0:
448,192,115226,1,0,0:0:0:0:
192,192,115342,1,0,0:0:0:0:
320,192,115342,1,0,0:0:0:0:
448,192,115457,1,0,0:0:0:0:
192,192,115573,1,0,0:0:0:0:
320,192,115573,1,0,0:0:0:0:
192,192,115688,1,0,0:0:0:0:
64,192,115803,1,0,0:0:0:0:
320,192,115803,1,0,0:0:0:0:
192,192,115919,1,0,0:0:0:0:
448,192,116034,1,0,0:0:0:0:
320,192,116034,1,0,0:0:0:0:
448,192,116150,1,0,0:0:0:0:
64,192,116265,1,0,0:0:0:0:
320,192,116265,1,0,0:0:0:0:
64,192,116380,1,0,0:0:0:0:
448,192,116380,1,0,0:0:0:0:
192,192,116496,1,0,0:0:0:0:
320,192,116496,1,0,0:0:0:0:
448,192,116611,1,0,0:0:0:0:
320,192,116669,1,0,0:0:0:0:
64,192,116726,1,0,0:0:0:0:
448,192,116726,1,0,0:0:0:0:
192,192,116842,1,0,0:0:0:0:
64,192,116957,128,0,117188:0:0:0:0:
320,192,116957,1,0,0:0:0:0:
448,192,116957,1,0,0:0:0:0:
192,192,117073,1,0,0:0:0:0:
448,192,117188,128,0,117419:0:0:0:0:
320,192,117188,1,0,0:0:0:0:
320,192,117303,1,0,0:0:0:0:
64,192,117419,1,0,0:0:0:0:
192,192,117419,1,0,0:0:0:0:
192,192,117534,1,0,0:0:0:0:
448,192,117650,1,0,0:0:0:0:
64,192,117650,1,0,0:0:0:0:
320,192,117765,1,0,0:0:0:0:
64,192,117880,1,0,0:0:0:0:
448,192,117880,1,0,0:0:0:0:
448,192,117996,1,0,0:0:0:0:
64,192,118111,1,0,0:0:0:0:
192,192,118111,1,0,0:0:0:0:
192,192,118226,1,0,0:0:0:0:
448,192,118226,1,0,0:0:0:0:
320,192,118342,1,0,0:0:0:0:
64,192,118342,1,0,0:0:0:0:
64,192,118457,1,0,0:0:0:0:
320,192,118457,1,0,0:0:0:0:
192,192,118515,1,0,0:0:0:0:
64,192,118573,1,0,0:0:0:0:
448,192,118573,1,0,0:0:0:0:
192,192,118688,1,0,0:0:0:0:
448,192,118803,128,0,125265:0:0:0:0:
320,192,118803,1,0,0:0:0:0:
64,192,118803,1,0,0:0:0:0:
192,192,118919,1,0,0:0:0:0:
320,192,119034,1,0,0:0:0:0:
64,192,119034,1,0,0:0:0:0:
192,192,119150,1,0,0:0:0:0:
320,192,119150,1,0,0:0:0:0:
64,192,119265,1,0,0:0:0:0:
320,192,119265,1,0,0:0:0:0:
192,192,119380,1,0,0:0:0:0:
64,192,119496,1,0,0:0:0:0:
320,192,119496,1,0,0:0:0:0:
192,192,119611,1,0,0:0:0:0:
64,192,119726,1,0,0:0:0:0:
192,192,119726,1,0,0:0:0:0:
320,192,119842,1,0,0:0:0:0:
192,192,119957,1,0,0:0:0:0:
64,192,119957,1,0,0:0:0:0:
64,192,120073,1,0,0:0:0:0:
320,192,120073,1,0,0:0:0:0:
320,192,120188,1,0,0:0:0:0:
192,192,120188,1,0,0:0:0:0:
64,192,120303,1,0,0:0:0:0:
320,192,120303,1,0,0:0:0:0:
192,192,120361,1,0,0:0:0:0:
64,192,120419,1,0,0:0:0:0:
320,192,120419,1,0,0:0:0:0:
192,192,120534,1,0,0:0:0:0:
64,192,120650,1,0,0:0:0:0:
320,192,120650,1,0,0:0:0:0:
192,192,120765,1,0,0:0:0:0:
320,192,120880,1,0,0:0:0:0:
192,192,120880,1,0,0:0:0:0:
64,192,120996,1,0,0:0:0:0:
320,192,120996,1,0,0:0:0:0:
192,192,121111,1,0,0:0:0:0:
64,192,121111,1,0,0:0:0:0:
192,192,121226,1,0,0:0:0:0:
320,192,121226,1,0,0:0:0:0:
64,192,121342,1,0,0:0:0:0:
320,192,121342,1,0,0:0:0:0:
192,192,121457,1,0,0:0:0:0:
64,192,121573,1,0,0:0:0:0:
320,192,121573,1,0,0:0:0:0:
192,192,121688,1,0,0:0:0:0:
64,192,121803,1,0,0:0:0:0:
192,192,121803,1,0,0:0:0:0:
320,192,121919,1,0,0:0:0:0:
192,192,121919,1,0,0:0:0:0:
192,192,122034,1,0,0:0:0:0:
64,192,122034,1,0,0:0:0:0:
320,192,122150,1,0,0:0:0:0:
64,192,122150,1,0,0:0:0:0:
192,192,122207,1,0,0:0:0:0:
64,192,122265,1,0,0:0:0:0:
320,192,122265,1,0,0:0:0:0:
320,192,122380,1,0,0:0:0:0:
64,192,122496,1,0,0:0:0:0:
192,192,122496,1,0,0:0:0:0:
320,192,122611,1,0,0:0:0:0:
64,192,122726,1,0,0:0:0:0:
320,192,122726,1,0,0:0:0:0:
192,192,122842,1,0,0:0:0:0:
64,192,122842,1,0,0:0:0:0:
320,192,122957,1,0,0:0:0:0:
192,192,122957,1,0,0:0:0:0:
192,192,123073,1,0,0:0:0:0:
64,192,123188,1,0,0:0:0:0:
320,192,123188,1,0,0:0:0:0:
192,192,123303,1,0,0:0:0:0:
64,192,123419,1,0,0:0:0:0:
192,192,123419,1,0,0:0:0:0:
320,192,123534,1,0,0:0:0:0:
320,192,123650,1,0,0:0:0:0:
192,192,123650,1,0,0:0:0:0:
64,192,123765,1,0,0:0:0:0:
192,192,123765,1,0,0:0:0:0:
320,192,123880,1,0,0:0:0:0:
192,192,123880,1,0,0:0:0:0:
64,192,123996,1,0,0:0:0:0:
320,192,123996,1,0,0:0:0:0:
192,192,124053,1,0,0:0:0:0:
64,192,124111,1,0,0:0:0:0:
320,192,124111,1,0,0:0:0:0:
192,192,124226,1,0,0:0:0:0:
64,192,124342,1,0,0:0:0:0:
320,192,124342,1,0,0:0:0:0:
192,192,124457,1,0,0:0:0:0:
320,192,124573,1,0,0:0:0:0:
64,192,124573,1,0,0:0:0:0:
320,192,124688,1,0,0:0:0:0:
192,192,124688,1,0,0:0:0:0:
192,192,124803,1,0,0:0:0:0:
64,192,124803,1,0,0:0:0:0:
320,192,124919,1,0,0:0:0:0:
192,192,124919,1,0,0:0:0:0:
64,192,125034,1,0,0:0:0:0:
192,192,125034,1,0,0:0:0:0:
192,192,125150,1,0,0:0:0:0:
320,192,125265,128,0,126073:0:0:0:0:
64,192,125265,1,0,0:0:0:0:
448,192,125380,1,0,0:0:0:0:
192,192,125380,1,0,0:0:0:0:
64,192,125496,1,0,0:0:0:0:
448,192,125496,1,0,0:0:0:0:
192,192,125611,1,0,0:0:0:0:
64,192,125611,1,0,0:0:0:0:
192,192,125726,1,0,0:0:0:0:
64,192,125842,1,0,0:0:0:0:
448,192,125842,1,0,0:0:0:0:
192,192,125900,1,0,0:0:0:0:
64,192,125957,1,0,0:0:0:0:
448,192,125957,1,0,0:0:0:0:
192,192,126073,1,0,0:0:0:0:
448,192,126130,1,0,0:0:0:0:
64,192,126188,128,0,133573:0:0:0:0:
192,192,126188,1,0,0:0:0:0:
320,192,126188,1,0,0:0:0:0:
448,192,126303,1,0,0:0:0:0:
192,192,126419,1,0,0:0:0:0:
448,192,126419,1,0,0:0:0:0:
320,192,126534,1,0,0:0:0:0:
192,192,126650,1,0,0:0:0:0:
320,192,126650,1,0,0:0:0:0:
448,192,126765,1,0,0:0:0:0:
192,192,126880,1,0,0:0:0:0:
320,192,126880,1,0,0:0:0:0:
448,192,126996,1,0,0:0:0:0:
192,192,127111,1,0,0:0:0:0:
448,192,127111,1,0,0:0:0:0:
320,192,127226,1,0,0:0:0:0:
192,192,127342,1,0,0:0:0:0:
448,192,127342,1,0,0:0:0:0:
192,192,127457,1,0,0:0:0:0:
320,192,127457,1,0,0:0:0:0:
448,192,127573,1,0,0:0:0:0:
320,192,127573,1,0,0:0:0:0:
192,192,127688,1,0,0:0:0:0:
448,192,127688,1,0,0:0:0:0:
320,192,127746,1,0,0:0:0:0:
192,192,127803,1,0,0:0:0:0:
448,192,127803,1,0,0:0:0:0:
320,192,127919,1,0,0:0:0:0:
192,192,128034,1,0,0:0:0:0:
448,192,128034,1,0,0:0:0:0:
448,192,128150,1,0,0:0:0:0:
320,192,128265,1,0,0:0:0:0:
192,192,128265,1,0,0:0:0:0:
448,192,128380,1,0,0:0:0:0:
192,192,128380,1,0,0:0:0:0:
448,192,128496,1,0,0:0:0:0:
320,192,128496,1,0,0:0:0:0:
320,192,128611,1,0,0:0:0:0:
192,192,128611,1,0,0:0:0:0:
192,192,128726,1,0,0:0:0:0:
448,192,128726,1,0,0:0:0:0:
320,192,128842,1,0,0:0:0:0:
192,192,128957,1,0,0:0:0:0:
320,192,128957,1,0,0:0:0:0:
448,192,129073,1,0,0:0:0:0:
192,192,129188,1,0,0:0:0:0:
448,192,129188,1,0,0:0:0:0:
320,192,129303,1,0,0:0:0:0:
192,192,129303,1,0,0:0:0:0:
320,192,129419,1,0,0:0:0:0:
448,192,129419,1,0,0:0:0:0:
192,192,129534,1,0,0:0:0:0:
448,192,129534,1,0,0:0:0:0:
320,192,129592,1,0,0:0:0:0:
192,192,129650,1,0,0:0:0:0:
448,192,129650,1,0,0:0:0:0:
192,192,129765,1,0,0:0:0:0:
320,192,129880,1,0,0:0:0:0:
448,192,129880,1,0,0:0:0:0:
320,192,129996,1,0,0:0:0:0:
192,192,130111,1,0,0:0:0:0:
448,192,130111,1,0,0:0:0:0:
448,192,130226,1,0,0:0:0:0:
320,192,130226,1,0,0:0:0:0:
192,192,130342,1,0,0:0:0:0:
320,192,130342,1,0,0:0:0:0:
320,192,130457,1,0,0:0:0:0:
448,192,130457,1,0,0:0:0:0:
192,192,130573,1,0,0:0:0:0:
320,192,130573,1,0,0:0:0:0:
448,192,130688,1,0,0:0:0:0:
192,192,130803,1,0,0:0:0:0:
448,192,130803,1,0,0:0:0:0:
192,192,130919,1,0,0:0:0:0:
448,192,131034,1,0,0:0:0:0:
320,192,131034,1,0,0:0:0:0:
192,192,131150,1,0,0:0:0:0:
448,192,131150,1,0,0:0:0:0:
320,192,131265,1,0,0:0:0:0:
192,192,131265,1,0,0:0:0:0:
192,192,131380,1,0,0:0:0:0:
448,192,131380,1,0,0:0:0:0:
320,192,131438,1,0,0:0:0:0:
192,192,131496,1,0,0:0:0:0:
448,192,131496,1,0,0:0:0:0:
320,192,131611,1,0,0:0:0:0:
192,192,131726,1,0,0:0:0:0:
448,192,131726,1,0,0:0:0:0:
320,192,131842,1,0,0:0:0:0:
192,192,131957,1,0,0:0:0:0:
448,192,131957,1,0,0:0:0:0:
192,192,132073,1,0,0:0:0:0:
320,192,132073,1,0,0:0:0:0:
320,192,132188,1,0,0:0:0:0:
448,192,132188,1,0,0:0:0:0:
320,192,132303,1,0,0:0:0:0:
192,192,132303,1,0,0:0:0:0:
192,192,132419,1,0,0:0:0:0:
448,192,132419,1,0,0:0:0:0:
320,192,132534,1,0,0:0:0:0:
448,192,132650,1,0,0:0:0:0:
192,192,132650,1,0,0:0:0:0:
448,192,132765,1,0,0:0:0:0:
320,192,132880,1,0,0:0:0:0:
192,192,132880,1,0,0:0:0:0:
192,192,132996,1,0,0:0:0:0:
448,192,132996,1,0,0:0:0:0:
320,192,133111,1,0,0:0:0:0:
448,192,133226,1,0,0:0:0:0:
192,192,133226,1,0,0:0:0:0:
320,192,133284,1,0,0:0:0:0:
192,192,133342,1,0,0:0:0:0:
448,192,133342,1,0,0:0:0:0:
320,192,133457,1,0,0:0:0:0:
192,192,133573,1,0,0:0:0:0:
448,192,133573,1,0,0:0:0:0:
64,192,133803,1,0,0:0:0:0:
448,192,133919,1,0,0:0:0:0:
192,192,134034,1,0,0:0:0:0:
320,192,134150,1,0,0:0:0:0:
64,192,134265,1,0,0:0:0:0:
448,192,134496,1,0,0:0:0:0:
64,192,134611,1,0,0:0:0:0:
320,192,134726,1,0,0:0:0:0:
192,192,134842,1,0,0:0:0:0:
448,192,134957,1,0,0:0:0:0:
64,192,134957,128,0,135188:0:0:0:0:
192,192,135188,128,0,135419:0:0:0:0:
320,192,135188,1,0,0:0:0:0:
448,192,135303,1,0,0:0:0:0:
320,192,135419,128,0,136342:0:0:0:0:
64,192,135419,1,0,0:0:0:0:
64,192,135650,1,0,0:0:0:0:
448,192,135765,1,0,0:0:0:0:
192,192,135880,1,0,0:0:0:0:
448,192,135996,1,0,0:0:0:0:
64,192,136111,1,0,0:0:0:0:
448,192,136342,128,0,137150:0:0:0:0:
192,192,136342,1,0,0:0:0:0:
64,192,136457,1,0,0:0:0:0:
320,192,136573,1,0,0:0:0:0:
192,192,136688,1,0,0:0:0:0:
320,192,136803,1,0,0:0:0:0:
64,192,137034,1,0,0:0:0:0:
320,192,137150,1,0,0:0:0:0:
448,192,137265,128,0,137957:0:0:0:0:
192,192,137265,1,0,0:0:0:0:
320,192,137496,1,0,0:0:0:0:
64,192,137611,1,0,0:0:0:0:
320,192,137726,1,0,0:0:0:0:
192,192,137842,1,0,0:0:0:0:
320,192,137957,1,0,0:0:0:0:
448,192,138188,1,0,0:0:0:0:
192,192,138303,1,0,0:0:0:0:
320,192,138419,1,0,0:0:0:0:
192,192,138534,1,0,0:0:0:0:
320,192,138650,128,0,138880:0:0:0:0:
64,192,138650,1,0,0:0:0:0:
448,192,138880,1,0,0:0:0:0:
320,192,138996,128,0,139342:0:0:0:0:
64,192,138996,1,0,0:0:0:0:
192,192,139111,1,0,0:0:0:0:
192,192,139342,128,0,139573:0:0:0:0:
64,192,139342,1,0,0:0:0:0:
448,192,139457,1,0,0:0:0:0:
64,192,139573,128,0,140380:0:0:0:0:
320,192,139573,1,0,0:0:0:0:
448,192,139688,1,0,0:0:0:0:
192,192,139803,1,0,0:0:0:0:
320,192,140034,1,0,0:0:0:0:
192,192,140150,1,0,0:0:0:0:
448,192,140265,1,0,0:0:0:0:
192,192,140380,1,0,0:0:0:0:
448,192,140496,1,0,0:0:0:0:
64,192,140726,1,0,0:0:0:0:
320,192,140842,1,0,0:0:0:0:
192,192,140957,1,0,0:0:0:0:
320,192,141188,1,0,0:0:0:0:
192,192,141303,1,0,0:0:0:0:
320,192,141419,1,0,0:0:0:0:
64,192,141534,1,0,0:0:0:0:
448,192,141650,1,0,0:0:0:0:
64,192,141880,1,0,0:0:0:0:
448,192,141996,1,0,0:0:0:0:
192,192,142111,1,0,0:0:0:0:
320,192,142226,1,0,0:0:0:0:
64,192,142342,128,0,142573:0:0:0:0:
192,192,142342,1,0,0:0:0:0:
192,192,142573,128,0,142803:0:0:0:0:
320,192,142573,1,0,0:0:0:0:
448,192,142688,1,0,0:0:0:0:
320,192,142803,128,0,143726:0:0:0:0:
64,192,142803,1,0,0:0:0:0:
192,192,143034,1,0,0:0:0:0:
448,192,143150,1,0,0:0:0:0:
64,192,143265,1,0,0:0:0:0:
448,192,143380,1,0,0:0:0:0:
192,192,143496,1,0,0:0:0:0:
448,192,143726,128,0,144534:0:0:0:0:
192,192,143726,1,0,0:0:0:0:
64,192,143842,1,0,0:0:0:0:
320,192,143957,1,0,0:0:0:0:
192,192,144073,1,0,0:0:0:0:
320,192,144188,1,0,0:0:0:0:
64,192,144419,1,0,0:0:0:0:
320,192,144534,1,0,0:0:0:0:
448,192,144650,128,0,145342:0:0:0:0:
192,192,144650,1,0,0:0:0:0:
320,192,144880,1,0,0:0:0:0:
64,192,144996,1,0,0:0:0:0:
320,192,145111,1,0,0:0:0:0:
192,192,145226,1,0,0:0:0:0:
320,192,145342,1,0,0:0:0:0:
448,192,145573,1,0,0:0:0:0:
192,192,145688,1,0,0:0:0:0:
320,192,145803,1,0,0:0:0:0:
64,192,145919,1,0,0:0:0:0:
64,192,146034,128,0,146265:0:0:0:0:
448,192,146034,1,0,0:0:0:0:
192,192,146265,128,0,146496:0:0:0:0:
320,192,146265,1,0,0:0:0:0:
64,192,146380,1,0,0:0:0:0:
320,192,146496,128,0,146726:0:0:0:0:
448,192,146496,1,0,0:0:0:0:
448,192,146726,128,0,147880:0:0:0:0:
64,192,146726,1,0,0:0:0:0:
320,192,146842,1,0,0:0:0:0:
192,192,146957,1,0,0:0:0:0:
320,192,147073,1,0,0:0:0:0:
64,192,147188,1,0,0:0:0:0:
192,192,147419,1,0,0:0:0:0:
64,192,147534,1,0,0:0:0:0:
320,192,147650,1,0,0:0:0:0:
192,192,147765,1,0,0:0:0:0:
64,192,147880,1,0,0:0:0:0:
320,192,147880,1,0,0:0:0:0:
64,192,148342,1,0,0:0:0:0:
320,192,148342,1,0,0:0:0:0:
448,192,148342,1,0,0:0:0:0:
192,192,148457,1,0,0:0:0:0:
448,192,148573,1,0,0:0:0:0:
320,192,148573,1,0,0:0:0:0:
64,192,148573,1,0,0:0:0:0:
64,192,148688,1,0,0:0:0:0:
192,192,148688,1,0,0:0:0:0:
192,192,148803,1,0,0:0:0:0:
320,192,148803,1,0,0:0:0:0:
448,192,148803,1,0,0:0:0:0:
64,192,148919,1,0,0:0:0:0:
448,192,149034,1,0,0:0:0:0:
64,192,149034,1,0,0:0:0:0:
192,192,149034,1,0,0:0:0:0:
320,192,149092,1,0,0:0:0:0:
192,192,149150,1,0,0:0:0:0:
448,192,149150,1,0,0:0:0:0:
64,192,149265,1,0,0:0:0:0:
320,192,149265,1,0,0:0:0:0:
448,192,149265,1,0,0:0:0:0:
192,192,149380,1,0,0:0:0:0:
192,192,149496,1,0,0:0:0:0:
320,192,149496,1,0,0:0:0:0:
448,192,149496,1,0,0:0:0:0:
64,192,149611,1,0,0:0:0:0:
320,192,149726,1,0,0:0:0:0:
448,192,149726,1,0,0:0:0:0:
192,192,149784,1,0,0:0:0:0:
320,192,149842,1,0,0:0:0:0:
64,192,149842,1,0,0:0:0:0:
192,192,149900,1,0,0:0:0:0:
64,192,149957,1,0,0:0:0:0:
448,192,149957,1,0,0:0:0:0:
320,192,150015,1,0,0:0:0:0:
192,192,150073,1,0,0:0:0:0:
448,192,150073,1,0,0:0:0:0:
320,192,150130,1,0,0:0:0:0:
448,192,150188,1,0,0:0:0:0:
64,192,150188,1,0,0:0:0:0:
192,192,150303,1,0,0:0:0:0:
64,192,150419,1,0,0:0:0:0:
448,192,150419,1,0,0:0:0:0:
320,192,150419,1,0,0:0:0:0:
320,192,150534,1,0,0:0:0:0:
64,192,150650,1,0,0:0:0:0:
192,192,150650,1,0,0:0:0:0:
448,192,150650,1,0,0:0:0:0:
192,192,150765,1,0,0:0:0:0:
64,192,150880,1,0,0:0:0:0:
320,192,150880,1,0,0:0:0:0:
448,192,150880,1,0,0:0:0:0:
192,192,150938,1,0,0:0:0:0:
320,192,150996,1,0,0:0:0:0:
448,192,150996,1,0,0:0:0:0:
64,192,151111,1,0,0:0:0:0:
192,192,151111,1,0,0:0:0:0:
448,192,151111,1,0,0:0:0:0:
320,192,151226,1,0,0:0:0:0:
64,192,151342,1,0,0:0:0:0:
192,192,151342,1,0,0:0:0:0:
448,192,151342,1,0,0:0:0:0:
64,192,151457,1,0,0:0:0:0:
192,192,151573,1,0,0:0:0:0:
320,192,151573,1,0,0:0:0:0:
448,192,151573,1,0,0:0:0:0:
320,192,151688,1,0,0:0:0:0:
64,192,151688,1,0,0:0:0:0:
192,192,151803,1,0,0:0:0:0:
64,192,151803,1,0,0:0:0:0:
320,192,151861,1,0,0:0:0:0:
448,192,151919,1,0,0:0:0:0:
64,192,151919,1,0,0:0:0:0:
320,192,151976,1,0,0:0:0:0:
192,192,152034,1,0,0:0:0:0:
448,192,152034,1,0,0:0:0:0:
320,192,152150,1,0,0:0:0:0:
64,192,152150,1,0,0:0:0:0:
192,192,152265,1,0,0:0:0:0:
320,192,152265,1,0,0:0:0:0:
448,192,152265,1,0,0:0:0:0:
64,192,152380,1,0,0:0:0:0:
192,192,152380,1,0,0:0:0:0:
192,192,152496,1,0,0:0:0:0:
448,192,152496,1,0,0:0:0:0:
320,192,152611,1,0,0:0:0:0:
448,192,152611,1,0,0:0:0:0:
448,192,152726,1,0,0:0:0:0:
64,192,152726,1,0,0:0:0:0:
192,192,152726,1,0,0:0:0:0:
320,192,152842,1,0,0:0:0:0:
64,192,152842,1,0,0:0:0:0:
192,192,152900,1,0,0:0:0:0:
64,192,152957,1,0,0:0:0:0:
448,192,152957,1,0,0:0:0:0:
320,192,153073,1,0,0:0:0:0:
192,192,153073,1,0,0:0:0:0:
448,192,153188,1,0,0:0:0:0:
64,192,153188,1,0,0:0:0:0:
320,192,153188,1,0,0:0:0:0:
64,192,153303,1,0,0:0:0:0:
320,192,153303,1,0,0:0:0:0:
192,192,153419,1,0,0:0:0:0:
448,192,153419,1,0,0:0:0:0:
320,192,153534,1,0,0:0:0:0:
64,192,153534,1,0,0:0:0:0:
192,192,153592,1,0,0:0:0:0:
64,192,153650,1,0,0:0:0:0:
448,192,153650,1,0,0:0:0:0:
192,192,153707,1,0,0:0:0:0:
320,192,153765,1,0,0:0:0:0:
448,192,153765,1,0,0:0:0:0:
64,192,153880,1,0,0:0:0:0:
448,192,153880,1,0,0:0:0:0:
192,192,153996,1,0,0:0:0:0:
64,192,153996,1,0,0:0:0:0:
320,192,153996,1,0,0:0:0:0:
64,192,154111,1,0,0:0:0:0:
320,192,154111,1,0,0:0:0:0:
448,192,154111,1,0,0:0:0:0:
448,192,154226,1,0,0:0:0:0:
192,192,154226,1,0,0:0:0:0:
320,192,154342,1,0,0:0:0:0:
64,192,154342,1,0,0:0:0:0:
320,192,154457,1,0,0:0:0:0:
448,192,154457,1,0,0:0:0:0:
192,192,154573,1,0,0:0:0:0:
64,192,154573,1,0,0:0:0:0:
448,192,154573,1,0,0:0:0:0:
320,192,154688,1,0,0:0:0:0:
192,192,154688,1,0,0:0:0:0:
64,192,154746,1,0,0:0:0:0:
192,192,154803,1,0,0:0:0:0:
448,192,154803,1,0,0:0:0:0:
64,192,154919,1,0,0:0:0:0:
320,192,154919,1,0,0:0:0:0:
192,192,155034,1,0,0:0:0:0:
320,192,155034,1,0,0:0:0:0:
448,192,155034,1,0,0:0:0:0:
320,192,155150,1,0,0:0:0:0:
192,192,155150,1,0,0:0:0:0:
448,192,155265,1,0,0:0:0:0:
192,192,155265,1,0,0:0:0:0:
320,192,155380,1,0,0:0:0:0:
64,192,155380,1,0,0:0:0:0:
192,192,155438,1,0,0:0:0:0:
320,192,155496,1,0,0:0:0:0:
64,192,155496,1,0,0:0:0:0:
448,192,155496,1,0,0:0:0:0:
192,192,155553,1,0,0:0:0:0:
64,192,155611,1,0,0:0:0:0:
320,192,155726,1,0,0:0:0:0:
448,192,155726,1,0,0:0:0:0:
192,192,155726,1,0,0:0:0:0:
320,192,155842,1,0,0:0:0:0:
192,192,155957,1,0,0:0:0:0:
64,192,155957,1,0,0:0:0:0:
448,192,155957,1,0,0:0:0:0:
192,192,156073,1,0,0:0:0:0:
448,192,156073,1,0,0:0:0:0:
320,192,156188,1,0,0:0:0:0:
192,192,156188,1,0,0:0:0:0:
64,192,156188,1,0,0:0:0:0:
320,192,156303,1,0,0:0:0:0:
64,192,156419,1,0,0:0:0:0:
448,192,156419,1,0,0:0:0:0:
320,192,156419,1,0,0:0:0:0:
192,192,156476,1,0,0:0:0:0:
448,192,156534,1,0,0:0:0:0:
320,192,156534,1,0,0:0:0:0:
64,192,156650,1,0,0:0:0:0:
192,192,156650,1,0,0:0:0:0:
448,192,156650,1,0,0:0:0:0:
320,192,156765,1,0,0:0:0:0:
64,192,156880,1,0,0:0:0:0:
192,192,156880,1,0,0:0:0:0:
448,192,156880,1,0,0:0:0:0:
320,192,156996,1,0,0:0:0:0:
448,192,157111,1,0,0:0:0:0:
192,192,157111,1,0,0:0:0:0:
320,192,157169,1,0,0:0:0:0:
192,192,157226,1,0,0:0:0:0:
64,192,157226,1,0,0:0:0:0:
320,192,157284,1,0,0:0:0:0:
448,192,157342,1,0,0:0:0:0:
192,192,157342,1,0,0:0:0:0:
64,192,157400,1,0,0:0:0:0:
192,192,157457,1,0,0:0:0:0:
320,192,157515,1,0,0:0:0:0:
448,192,157573,1,0,0:0:0:0:
192,192,157573,1,0,0:0:0:0:
64,192,157573,1,0,0:0:0:0:
320,192,157688,1,0,0:0:0:0:
448,192,157803,1,0,0:0:0:0:
192,192,157803,1,0,0:0:0:0:
64,192,157803,1,0,0:0:0:0:
192,192,157919,1,0,0:0:0:0:
448,192,158034,1,0,0:0:0:0:
320,192,158034,1,0,0:0:0:0:
64,192,158034,1,0,0:0:0:0:
320,192,158150,1,0,0:0:0:0:
64,192,158265,1,0,0:0:0:0:
448,192,158265,1,0,0:0:0:0:
320,192,158265,1,0,0:0:0:0:
192,192,158323,1,0,0:0:0:0:
320,192,158380,1,0,0:0:0:0:
64,192,158380,1,0,0:0:0:0:
64,192,158496,1,0,0:0:0:0:
448,192,158496,1,0,0:0:0:0:
192,192,158496,1,0,0:0:0:0:
192,192,158611,1,0,0:0:0:0:
64,192,158726,1,0,0:0:0:0:
320,192,158726,1,0,0:0:0:0:
448,192,158726,1,0,0:0:0:0:
448,192,158842,1,0,0:0:0:0:
64,192,158957,1,0,0:0:0:0:
192,192,158957,1,0,0:0:0:0:
320,192,158957,1,0,0:0:0:0:
192,192,159073,1,0,0:0:0:0:
448,192,159073,1,0,0:0:0:0:
320,192,159188,1,0,0:0:0:0:
448,192,159188,1,0,0:0:0:0:
192,192,159246,1,0,0:0:0:0:
320,192,159303,1,0,0:0:0:0:
64,192,159303,1,0,0:0:0:0:
192,192,159361,1,0,0:0:0:0:
64,192,159419,1,0,0:0:0:0:
448,192,159419,1,0,0:0:0:0:
448,192,159534,1,0,0:0:0:0:
192,192,159534,1,0,0:0:0:0:
320,192,159650,1,0,0:0:0:0:
192,192,159650,1,0,0:0:0:0:
64,192,159650,1,0,0:0:0:0:
192,192,159765,1,0,0:0:0:0:
448,192,159765,1,0,0:0:0:0:
64,192,159880,1,0,0:0:0:0:
320,192,159880,1,0,0:0:0:0:
320,192,159996,1,0,0:0:0:0:
192,192,159996,1,0,0:0:0:0:
64,192,160111,1,0,0:0:0:0:
192,192,160111,1,0,0:0:0:0:
448,192,160111,1,0,0:0:0:0:
448,192,160226,1,0,0:0:0:0:
192,192,160226,1,0,0:0:0:0:
320,192,160284,1,0,0:0:0:0:
64,192,160342,1,0,0:0:0:0:
448,192,160342,1,0,0:0:0:0:
320,192,160457,1,0,0:0:0:0:
192,192,160457,1,0,0:0:0:0:
64,192,160573,1,0,0:0:0:0:
192,192,160573,1,0,0:0:0:0:
448,192,160573,1,0,0:0:0:0:
192,192,160688,1,0,0:0:0:0:
448,192,160688,1,0,0:0:0:0:
64,192,160803,1,0,0:0:0:0:
320,192,160803,1,0,0:0:0:0:
192,192,160919,1,0,0:0:0:0:
448,192,160919,1,0,0:0:0:0:
320,192,160976,1,0,0:0:0:0:
64,192,161034,1,0,0:0:0:0:
448,192,161034,1,0,0:0:0:0:
320,192,161092,1,0,0:0:0:0:
192,192,161150,1,0,0:0:0:0:
64,192,161150,1,0,0:0:0:0:
64,192,161265,1,0,0:0:0:0:
448,192,161265,1,0,0:0:0:0:
192,192,161380,1,0,0:0:0:0:
448,192,161380,1,0,0:0:0:0:
64,192,161496,1,0,0:0:0:0:
192,192,161496,1,0,0:0:0:0:
448,192,161496,1,0,0:0:0:0:
64,192,161611,1,0,0:0:0:0:
320,192,161611,1,0,0:0:0:0:
192,192,161726,1,0,0:0:0:0:
448,192,161726,1,0,0:0:0:0:
64,192,161842,1,0,0:0:0:0:
448,192,161842,1,0,0:0:0:0:
320,192,161957,1,0,0:0:0:0:
192,192,161957,1,0,0:0:0:0:
64,192,161957,1,0,0:0:0:0:
192,192,162073,1,0,0:0:0:0:
448,192,162073,1,0,0:0:0:0:
320,192,162130,1,0,0:0:0:0:
64,192,162188,1,0,0:0:0:0:
192,192,162188,1,0,0:0:0:0:
448,192,162303,1,0,0:0:0:0:
320,192,162303,1,0,0:0:0:0:
320,192,162419,1,0,0:0:0:0:
192,192,162419,1,0,0:0:0:0:
64,192,162419,1,0,0:0:0:0:
320,192,162534,1,0,0:0:0:0:
448,192,162534,1,0,0:0:0:0:
64,192,162650,1,0,0:0:0:0:
448,192,162650,1,0,0:0:0:0:
320,192,162765,1,0,0:0:0:0:
64,192,162765,1,0,0:0:0:0:
192,192,162823,1,0,0:0:0:0:
320,192,162880,1,0,0:0:0:0:
448,192,162880,1,0,0:0:0:0:
64,192,162880,1,0,0:0:0:0:
192,192,162938,1,0,0:0:0:0:
320,192,162996,1,0,0:0:0:0:
64,192,163111,1,0,0:0:0:0:
192,192,163111,1,0,0:0:0:0:
448,192,163111,1,0,0:0:0:0:
192,192,163226,1,0,0:0:0:0:
448,192,163226,1,0,0:0:0:0:
320,192,163342,1,0,0:0:0:0:
192,192,163342,1,0,0:0:0:0:
64,192,163457,1,0,0:0:0:0:
448,192,163457,1,0,0:0:0:0:
64,192,163573,1,0,0:0:0:0:
192,192,163573,1,0,0:0:0:0:
448,192,163573,1,0,0:0:0:0:
192,192,163688,1,0,0:0:0:0:
448,192,163803,1,0,0:0:0:0:
64,192,163803,1,0,0:0:0:0:
320,192,163803,1,0,0:0:0:0:
192,192,163861,1,0,0:0:0:0:
320,192,163919,1,0,0:0:0:0:
448,192,163919,1,0,0:0:0:0:
192,192,164034,1,0,0:0:0:0:
64,192,164034,1,0,0:0:0:0:
448,192,164034,1,0,0:0:0:0:
192,192,164150,1,0,0:0:0:0:
64,192,164265,1,0,0:0:0:0:
320,192,164265,1,0,0:0:0:0:
448,192,164265,1,0,0:0:0:0:
448,192,164380,1,0,0:0:0:0:
448,192,164496,1,0,0:0:0:0:
64,192,164496,1,0,0:0:0:0:
320,192,164496,1,0,0:0:0:0:
192,192,164553,1,0,0:0:0:0:
320,192,164611,1,0,0:0:0:0:
192,192,164669,1,0,0:0:0:0:
64,192,164726,1,0,0:0:0:0:
320,192,164726,1,0,0:0:0:0:
448,192,164784,1,0,0:0:0:0:
320,192,164842,1,0,0:0:0:0:
192,192,164842,1,0,0:0:0:0:
64,192,164900,1,0,0:0:0:0:
192,192,164957,1,0,0:0:0:0:
320,192,164957,1,0,0:0:0:0:
448,192,164957,1,0,0:0:0:0:
448,192,165073,1,0,0:0:0:0:
320,192,165073,1,0,0:0:0:0:
64,192,165188,1,0,0:0:0:0:
192,192,165188,1,0,0:0:0:0:
448,192,165188,1,0,0:0:0:0:
64,192,165303,1,0,0:0:0:0:
192,192,165419,1,0,0:0:0:0:
320,192,165419,1,0,0:0:0:0:
448,192,165419,1,0,0:0:0:0:
320,192,165534,1,0,0:0:0:0:
448,192,165650,1,0,0:0:0:0:
64,192,165650,1,0,0:0:0:0:
192,192,165650,1,0,0:0:0:0:
320,192,165707,1,0,0:0:0:0:
64,192,165765,1,0,0:0:0:0:
192,192,165765,1,0,0:0:0:0:
64,192,165880,1,0,0:0:0:0:
320,192,165880,1,0,0:0:0:0:
448,192,165880,1,0,0:0:0:0:
320,192,165996,1,0,0:0:0:0:
192,192,165996,1,0,0:0:0:0:
192,192,166111,1,0,0:0:0:0:
320,192,166111,1,0,0:0:0:0:
448,192,166111,1,0,0:0:0:0:
448,192,166226,1,0,0:0:0:0:
64,192,166226,1,0,0:0:0:0:
192,192,166342,1,0,0:0:0:0:
320,192,166342,1,0,0:0:0:0:
64,192,166457,1,0,0:0:0:0:
320,192,166457,1,0,0:0:0:0:
448,192,166457,1,0,0:0:0:0:
64,192,166573,1,0,0:0:0:0:
320,192,166573,1,0,0:0:0:0:
192,192,166630,1,0,0:0:0:0:
448,192,166688,1,0,0:0:0:0:
320,192,166688,1,0,0:0:0:0:
192,192,166746,1,0,0:0:0:0:
64,192,166803,1,0,0:0:0:0:
448,192,166803,1,0,0:0:0:0:
64,192,166919,1,0,0:0:0:0:
320,192,166919,1,0,0:0:0:0:
192,192,167034,1,0,0:0:0:0:
320,192,167034,1,0,0:0:0:0:
448,192,167034,1,0,0:0:0:0:
64,192,167150,1,0,0:0:0:0:
320,192,167150,1,0,0:0:0:0:
448,192,167265,1,0,0:0:0:0:
192,192,167265,1,0,0:0:0:0:
320,192,167380,1,0,0:0:0:0:
192,192,167380,1,0,0:0:0:0:
64,192,167496,1,0,0:0:0:0:
320,192,167496,1,0,0:0:0:0:
448,192,167496,1,0,0:0:0:0:
64,192,167611,1,0,0:0:0:0:
320,192,167611,1,0,0:0:0:0:
192,192,167669,1,0,0:0:0:0:
64,192,167726,1,0,0:0:0:0:
448,192,167726,1,0,0:0:0:0:
192,192,167842,1,0,0:0:0:0:
320,192,167842,1,0,0:0:0:0:
448,192,167957,1,0,0:0:0:0:
320,192,167957,1,0,0:0:0:0:
64,192,167957,1,0,0:0:0:0:
64,192,168073,1,0,0:0:0:0:
320,192,168073,1,0,0:0:0:0:
192,192,168188,1,0,0:0:0:0:
448,192,168188,1,0,0:0:0:0:
320,192,168303,1,0,0:0:0:0:
64,192,168303,1,0,0:0:0:0:
448,192,168419,1,0,0:0:0:0:
64,192,168419,1,0,0:0:0:0:
192,192,168419,1,0,0:0:0:0:
320,192,168476,1,0,0:0:0:0:
192,192,168534,1,0,0:0:0:0:
448,192,168534,1,0,0:0:0:0:
64,192,168650,1,0,0:0:0:0:
320,192,168650,1,0,0:0:0:0:
320,192,168765,1,0,0:0:0:0:
192,192,168765,1,0,0:0:0:0:
448,192,168765,1,0,0:0:0:0:
64,192,168880,1,0,0:0:0:0:
192,192,168880,1,0,0:0:0:0:
448,192,168880,1,0,0:0:0:0:
448,192,168996,1,0,0:0:0:0:
320,192,168996,1,0,0:0:0:0:
320,192,169111,1,0,0:0:0:0:
64,192,169111,1,0,0:0:0:0:
64,192,169226,1,0,0:0:0:0:
448,192,169226,1,0,0:0:0:0:
320,192,169342,1,0,0:0:0:0:
192,192,169342,1,0,0:0:0:0:
448,192,169342,1,0,0:0:0:0:
192,192,169457,1,0,0:0:0:0:
448,192,169457,1,0,0:0:0:0:
64,192,169515,1,0,0:0:0:0:
192,192,169573,1,0,0:0:0:0:
320,192,169573,1,0,0:0:0:0:
64,192,169688,1,0,0:0:0:0:
320,192,169688,1,0,0:0:0:0:
192,192,169803,1,0,0:0:0:0:
320,192,169803,1,0,0:0:0:0:
448,192,169803,1,0,0:0:0:0:
320,192,169919,1,0,0:0:0:0:
192,192,169919,1,0,0:0:0:0:
64,192,170034,1,0,0:0:0:0:
448,192,170034,1,0,0:0:0:0:
192,192,170150,1,0,0:0:0:0:
448,192,170150,1,0,0:0:0:0:
320,192,170207,1,0,0:0:0:0:
64,192,170265,1,0,0:0:0:0:
448,192,170265,1,0,0:0:0:0:
192,192,170265,1,0,0:0:0:0:
320,192,170323,1,0,0:0:0:0:
192,192,170380,1,0,0:0:0:0:
64,192,170496,1,0,0:0:0:0:
320,192,170496,1,0,0:0:0:0:
448,192,170496,1,0,0:0:0:0:
64,192,170611,1,0,0:0:0:0:
320,192,170611,1,0,0:0:0:0:
192,192,170726,1,0,0:0:0:0:
320,192,170726,1,0,0:0:0:0:
448,192,170842,1,0,0:0:0:0:
192,192,170842,1,0,0:0:0:0:
320,192,170957,1,0,0:0:0:0:
448,192,170957,1,0,0:0:0:0:
64,192,170957,1,0,0:0:0:0:
320,192,171073,1,0,0:0:0:0:
64,192,171188,1,0,0:0:0:0:
320,192,171188,1,0,0:0:0:0:
448,192,171188,1,0,0:0:0:0:
192,192,171246,1,0,0:0:0:0:
448,192,171303,1,0,0:0:0:0:
64,192,171303,1,0,0:0:0:0:
448,192,171419,1,0,0:0:0:0:
320,192,171419,1,0,0:0:0:0:
64,192,171419,1,0,0:0:0:0:
320,192,171534,1,0,0:0:0:0:
64,192,171650,1,0,0:0:0:0:
448,192,171650,1,0,0:0:0:0:
192,192,171650,1,0,0:0:0:0:
64,192,171765,1,0,0:0:0:0:
64,192,171880,1,0,0:0:0:0:
192,192,171880,1,0,0:0:0:0:
448,192,171880,1,0,0:0:0:0:
320,192,171938,1,0,0:0:0:0:
192,192,171996,1,0,0:0:0:0:
320,192,172053,1,0,0:0:0:0:
192,192,172111,1,0,0:0:0:0:
64,192,172111,1,0,0:0:0:0:
320,192,172169,1,0,0:0:0:0:
448,192,172226,1,0,0:0:0:0:
320,192,172284,1,0,0:0:0:0:
192,192,172342,1,0,0:0:0:0:
64,192,172342,1,0,0:0:0:0:
448,192,172342,1,0,0:0:0:0:
64,192,172457,1,0,0:0:0:0:
320,192,172457,1,0,0:0:0:0:
192,192,172573,1,0,0:0:0:0:
448,192,172573,1,0,0:0:0:0:
64,192,172573,1,0,0:0:0:0:
320,192,172688,1,0,0:0:0:0:
64,192,172803,1,0,0:0:0:0:
320,192,172803,1,0,0:0:0:0:
448,192,172803,1,0,0:0:0:0:
64,192,172919,1,0,0:0:0:0:
192,192,173034,1,0,0:0:0:0:
448,192,173034,1,0,0:0:0:0:
64,192,173034,1,0,0:0:0:0:
320,192,173092,1,0,0:0:0:0:
192,192,173150,1,0,0:0:0:0:
448,192,173150,1,0,0:0:0:0:
64,192,173265,1,0,0:0:0:0:
320,192,173265,1,0,0:0:0:0:
448,192,173265,1,0,0:0:0:0:
192,192,173380,1,0,0:0:0:0:
448,192,173380,1,0,0:0:0:0:
64,192,173496,1,0,0:0:0:0:
192,192,173496,1,0,0:0:0:0:
320,192,173496,1,0,0:0:0:0:
64,192,173611,1,0,0:0:0:0:
448,192,173611,1,0,0:0:0:0:
320,192,173726,1,0,0:0:0:0:
192,192,173726,1,0,0:0:0:0:
64,192,173842,1,0,0:0:0:0:
192,192,173842,1,0,0:0:0:0:
448,192,173842,1,0,0:0:0:0:
192,192,173957,1,0,0:0:0:0:
320,192,173957,1,0,0:0:0:0:
448,192,174015,1,0,0:0:0:0:
320,192,174073,1,0,0:0:0:0:
64,192,174073,1,0,0:0:0:0:
448,192,174130,1,0,0:0:0:0:
64,192,174188,1,0,0:0:0:0:
320,192,174188,1,0,0:0:0:0:
192,192,174303,1,0,0:0:0:0:
448,192,174303,1,0,0:0:0:0:
64,192,174419,1,0,0:0:0:0:
192,192,174419,1,0,0:0:0:0:
448,192,174419,1,0,0:0:0:0:
192,192,174534,1,0,0:0:0:0:
320,192,174534,1,0,0:0:0:0:
64,192,174650,1,0,0:0:0:0:
448,192,174650,1,0,0:0:0:0:
320,192,174765,1,0,0:0:0:0:
192,192,174765,1,0,0:0:0:0:
64,192,174880,1,0,0:0:0:0:
192,192,174880,1,0,0:0:0:0:
448,192,174880,1,0,0:0:0:0:
448,192,174996,1,0,0:0:0:0:
192,192,174996,1,0,0:0:0:0:
320,192,175053,1,0,0:0:0:0:
64,192,175111,1,0,0:0:0:0:
448,192,175111,1,0,0:0:0:0:
320,192,175226,1,0,0:0:0:0:
192,192,175226,1,0,0:0:0:0:
64,192,175342,1,0,0:0:0:0:
192,192,175342,1,0,0:0:0:0:
448,192,175342,1,0,0:0:0:0:
192,192,175457,1,0,0:0:0:0:
448,192,175457,1,0,0:0:0:0:
64,192,175573,1,0,0:0:0:0:
320,192,175573,1,0,0:0:0:0:
192,192,175688,1,0,0:0:0:0:
448,192,175688,1,0,0:0:0:0:
64,192,175803,1,0,0:0:0:0:
192,192,175803,1,0,0:0:0:0:
448,192,175803,1,0,0:0:0:0:
320,192,175861,1,0,0:0:0:0:
64,192,175919,1,0,0:0:0:0:
448,192,175919,1,0,0:0:0:0:
192,192,176034,1,0,0:0:0:0:
320,192,176034,1,0,0:0:0:0:
320,192,176150,1,0,0:0:0:0:
448,192,176150,1,0,0:0:0:0:
64,192,176265,1,0,0:0:0:0:
192,192,176265,1,0,0:0:0:0:
448,192,176265,1,0,0:0:0:0:
192,192,176380,1,0,0:0:0:0:
320,192,176380,1,0,0:0:0:0:
320,192,176496,1,0,0:0:0:0:
448,192,176496,1,0,0:0:0:0:
448,192,176611,1,0,0:0:0:0:
192,192,176611,1,0,0:0:0:0:
64,192,176726,1,0,0:0:0:0:
192,192,176726,1,0,0:0:0:0:
448,192,176726,1,0,0:0:0:0:
192,192,176842,1,0,0:0:0:0:
320,192,176842,1,0,0:0:0:0:
448,192,176900,1,0,0:0:0:0:
320,192,176957,1,0,0:0:0:0:
64,192,176957,1,0,0:0:0:0:
320,192,177073,1,0,0:0:0:0:
192,192,177073,1,0,0:0:0:0:
64,192,177188,1,0,0:0:0:0:
192,192,177188,1,0,0:0:0:0:
448,192,177188,1,0,0:0:0:0:
320,192,177303,1,0,0:0:0:0:
64,192,177303,1,0,0:0:0:0:
448,192,177419,1,0,0:0:0:0:
192,192,177419,1,0,0:0:0:0:
320,192,177534,1,0,0:0:0:0:
64,192,177534,1,0,0:0:0:0:
192,192,177592,1,0,0:0:0:0:
320,192,177650,1,0,0:0:0:0:
64,192,177650,1,0,0:0:0:0:
448,192,177650,1,0,0:0:0:0:
192,192,177707,1,0,0:0:0:0:
320,192,177765,1,0,0:0:0:0:
64,192,177880,1,0,0:0:0:0:
192,192,177880,1,0,0:0:0:0:
320,192,177880,1,0,0:0:0:0:
448,192,177880,128,0,183419:0:0:0:0:
192,192,178803,128,0,183419:0:0:0:0:
320,192,179726,128,0,183419:0:0:0:0:
448,192,183650,1,0,0:0:0:0:
192,192,183765,1,0,0:0:0:0:
320,192,183880,1,0,0:0:0:0:
64,192,183996,1,0,0:0:0:0:
192,192,184111,1,0,0:0:0:0:
64,192,184342,1,0,0:0:0:0:
320,192,184457,1,0,0:0:0:0:
192,192,184573,1,0,0:0:0:0:
448,192,184688,1,0,0:0:0:0:
320,192,184803,1,0,0:0:0:0:
64,192,185034,1,0,0:0:0:0:
448,192,185150,1,0,0:0:0:0:
192,192,185265,1,0,0:0:0:0:
64,192,185496,1,0,0:0:0:0:
320,192,185611,1,0,0:0:0:0:
192,192,185726,1,0,0:0:0:0:
448,192,185842,1,0,0:0:0:0:
320,192,185957,1,0,0:0:0:0:
448,192,186188,1,0,0:0:0:0:
192,192,186303,1,0,0:0:0:0:
320,192,186419,1,0,0:0:0:0:
64,192,186534,1,0,0:0:0:0:
192,192,186650,1,0,0:0:0:0:
64,192,186880,1,0,0:0:0:0:
448,192,186996,1,0,0:0:0:0:
192,192,187111,1,0,0:0:0:0:
64,192,187342,1,0,0:0:0:0:
320,192,187457,1,0,0:0:0:0:
192,192,187573,1,0,0:0:0:0:
448,192,187688,1,0,0:0:0:0:
320,192,187803,1,0,0:0:0:0:
448,192,188034,1,0,0:0:0:0:
192,192,188150,1,0,0:0:0:0:
320,192,188265,1,0,0:0:0:0:
64,192,188380,1,0,0:0:0:0:
192,192,188496,1,0,0:0:0:0:
64,192,188726,1,0,0:0:0:0:
448,192,188842,1,0,0:0:0:0:
192,192,188957,1,0,0:0:0:0:
64,192,189188,1,0,0:0:0:0:
320,192,189303,1,0,0:0:0:0:
192,192,189419,1,0,0:0:0:0:
448,192,189534,1,0,0:0:0:0:
320,192,189650,1,0,0:0:0:0:
448,192,189880,1,0,0:0:0:0:
192,192,189996,1,0,0:0:0:0:
320,192,190111,1,0,0:0:0:0:
64,192,190226,1,0,0:0:0:0:
192,192,190342,1,0,0:0:0:0:
64,192,190573,1,0,0:0:0:0:
448,192,190688,1,0,0:0:0:0:
192,192,190803,1,0,0:0:0:0:
64,192,191034,1,0,0:0:0:0:
320,192,191150,1,0,0:0:0:0:
192,192,191265,1,0,0:0:0:0:
448,192,191380,1,0,0:0:0:0:
320,192,191496,1,0,0:0:0:0:
448,192,191726,1,0,0:0:0:0:
192,192,191842,1,0,0:0:0:0:
320,192,191957,1,0,0:0:0:0:
64,192,192073,1,0,0:0:0:0:
192,192,192188,1,0,0:0:0:0:
64,192,192419,1,0,0:0:0:0:
448,192,192534,1,0,0:0:0:0:
192,192,192650,1,0,0:0:0:0:
448,192,192880,1,0,0:0:0:0:
192,192,192996,1,0,0:0:0:0:
320,192,193111,1,0,0:0:0:0:
64,192,193226,1,0,0:0:0:0:
192,192,193342,1,0,0:0:0:0:
64,192,193573,1,0,0:0:0:0:
320,192,193688,1,0,0:0:0:0:
192,192,193803,1,0,0:0:0:0:
448,192,193919,1,0,0:0:0:0:
320,192,194034,1,0,0:0:0:0:
64,192,194265,1,0,0:0:0:0:
448,192,194380,1,0,0:0:0:0:
192,192,194496,1,0,0:0:0:0:
