osu file format v14

[General]
AudioFilename: audio.mp3
AudioLeadIn: 0
PreviewTime: 51496
Countdown: 0
SampleSet: Soft
StackLeniency: 0.3
Mode: 0
LetterboxInBreaks: 0
EpilepsyWarning: 1
WidescreenStoryboard: 1

[Editor]
DistanceSpacing: 0.2
BeatDivisor: 4
GridSize: 4
TimelineZoom: 1.5

[Metadata]
Title:Hoshi to Tsuki no Sentence
TitleUnicode:星と月のセンテンス
Artist:KITAKORE
ArtistUnicode:キタコレ
Creator:Otosaka-Yu
Version:Extra
Source:B-PROJECT~鼓動*アンビシャス~
Tags:北門 倫毘沙 Kitakado Tomohisa 小野 大輔 Ono Daisuke 是国 竜持 Korekuni Ryuuji 岸尾 だいすけ Kishio Daisuke 1112deng Suzuki_1112 Sandrew Prophecy Lobelia [ Abhor ] Ryuusei Aika Sun Rainbow
BeatmapID:1447048
BeatmapSetID:673803

[Difficulty]
HPDrainRate:6
CircleSize:4
OverallDifficulty:8
ApproachRate:9.3
SliderMultiplier:2
SliderTickRate:1

[Events]
//Background and Video events
0,0,"50159602_p0.jpg",0,0
//Break Periods
//Storyboard Layer 0 (Background)
//Storyboard Layer 1 (Fail)
//Storyboard Layer 2 (Pass)
//Storyboard Layer 3 (Foreground)
//Storyboard Sound Samples

[TimingPoints]
-196,461.538461538462,4,1,1,50,1,0
496,-133.333333333333,4,2,1,50,0,0
1650,-66.6666666666667,4,1,1,50,0,0
2573,-100,4,1,1,50,0,0
3496,-66.6666666666667,4,1,1,50,0,0
3957,-133.333333333333,4,1,1,50,0,0
4419,-133.333333333333,4,1,1,50,0,0
5342,-66.6666666666667,4,1,1,50,0,0
6265,-100,4,1,1,50,0,0
7188,-66.6666666666667,4,1,1,50,0,0
8111,-100,4,1,1,50,0,0
8342,-66.6666666666667,4,1,1,50,0,0
9034,-100,4,1,1,50,0,0
9188,-100,4,1,1,5,0,0
9265,-100,4,1,1,50,0,0
9419,-100,4,1,1,5,0,0
9496,-100,4,1,1,50,0,0
9650,-100,4,1,1,5,0,0
9727,-100,4,1,1,50,0,0
9880,-100,4,1,1,5,0,0
9957,-100,4,1,1,50,0,0
10111,-100,4,1,1,5,0,0
10188,-100,4,1,1,50,0,0
10342,-100,4,1,1,5,0,0
10419,-100,4,1,1,50,0,0
10765,-100,4,1,1,5,0,0
10880,-100,4,1,1,50,0,0
11034,-100,4,1,1,5,0,0
11111,-100,4,1,1,50,0,0
11265,-100,4,1,1,5,0,0
11342,-100,4,1,1,50,0,0
11496,-100,4,1,1,5,0,0
11573,-100,4,1,1,50,0,0
11727,-100,4,1,1,5,0,0
11804,-100,4,1,1,60,0,0
11957,-100,4,1,1,5,0,0
12034,-100,4,1,1,60,0,0
12188,-100,4,1,1,5,0,0
12265,-100,4,1,1,60,0,0
12611,-100,4,1,1,5,0,0
12727,-83.3333333333333,4,1,1,60,0,0
14573,-66.6666666666667,4,1,1,60,0,0
18265,-83.3333333333333,4,1,1,60,0,0
20111,-100,4,1,1,60,0,0
21957,-66.6666666666667,4,1,1,60,0,0
22419,-71.4285714285714,4,1,1,60,0,0
22880,-76.9230769230769,4,1,1,60,0,0
23342,-83.3333333333333,4,1,1,60,0,0
23804,-100,4,1,1,60,0,0
25650,-58.8235294117647,4,1,1,60,0,0
25996,-62.5,4,1,1,60,0,0
26573,-100,4,1,1,60,0,0
29342,-76.9230769230769,4,1,1,60,0,0
29804,-83.3333333333333,4,1,1,60,0,0
30265,-90.9090909090909,4,1,1,60,0,0
30727,-100,4,1,1,60,0,0
33957,-66.6666666666667,4,1,1,60,0,0
34880,-100,4,1,1,60,0,0
36265,-200,4,1,1,60,0,0
36323,-200,4,1,1,5,0,0
36496,-66.6666666666667,4,1,1,60,0,0
37188,-71.4285714285714,4,1,1,60,0,0
37650,-76.9230769230769,4,1,1,60,0,0
38111,-66.6666666666667,4,1,1,60,0,0
38573,-100,4,1,1,60,0,0
39265,-83.3333333333333,4,1,1,60,0,0
39957,-71.4285714285714,4,1,1,60,0,0
40419,-66.6666666666667,4,1,1,60,0,0
41111,-58.8235294117647,4,1,1,60,0,0
41804,-66.6666666666667,4,1,1,60,0,0
42265,-76.9230769230769,4,1,1,60,0,0
45034,-58.8235294117647,4,1,1,60,0,0
45957,-66.6666666666667,4,1,1,60,0,0
49650,-100,4,1,1,60,0,0
51496,-133.333333333333,4,1,1,80,0,0
52880,-50,4,1,1,60,0,0
53342,-58.8235294117647,4,1,1,70,0,1
58880,-50,4,1,1,70,0,1
60265,-66.6666666666667,4,1,1,70,0,1
60727,-58.8235294117647,4,1,1,70,0,1
62573,-50,4,1,1,70,0,1
63034,-62.5,4,1,1,70,0,1
63496,-76.9230769230769,4,1,1,70,0,1
63957,-90.9090909090909,4,1,1,70,0,1
64419,-58.8235294117647,4,1,1,70,0,1
68111,-58.8235294117647,4,1,1,70,0,1
73650,-50,4,1,1,70,0,1
75496,-55.5555555555556,4,1,1,70,0,1
79188,-100,4,1,1,70,0,1
79419,-90.9090909090909,4,1,1,70,0,1
79650,-83.3333333333333,4,1,1,70,0,1
79880,-76.9230769230769,4,1,1,70,0,1
80111,-71.4285714285714,4,1,1,70,0,1
80342,-66.6666666666667,4,1,1,70,0,1
80573,-62.5,4,1,1,70,0,1
80804,-58.8235294117647,4,1,1,70,0,1
81034,-133.333333333333,4,1,1,70,0,1
82880,-76.9230769230769,4,1,1,70,0,0
83034,-76.9230769230769,4,1,1,5,0,0
83111,-76.9230769230769,4,1,1,70,0,0
83265,-76.9230769230769,4,1,1,5,0,0
83342,-76.9230769230769,4,1,1,70,0,0
83496,-76.9230769230769,4,1,1,5,0,0
83573,-76.9230769230769,4,1,1,70,0,0
84727,-76.9230769230769,4,1,1,70,0,0
84880,-76.9230769230769,4,1,1,5,0,0
84957,-76.9230769230769,4,1,1,70,0,0
85111,-76.9230769230769,4,1,1,5,0,0
85188,-76.9230769230769,4,1,1,70,0,0
85342,-76.9230769230769,4,1,1,5,0,0
85419,-76.9230769230769,4,1,1,70,0,0
87265,-66.6666666666667,4,1,1,70,0,0
88419,-66.6666666666667,4,1,1,70,0,0
88573,-66.6666666666667,4,1,1,5,0,0
88650,-66.6666666666667,4,1,1,70,0,0
88804,-66.6666666666667,4,1,1,5,0,0
88880,-66.6666666666667,4,1,1,70,0,0
89034,-66.6666666666667,4,1,1,5,0,0
89111,-66.6666666666667,4,1,1,70,0,0
89265,-66.6666666666667,4,1,1,5,0,0
89342,-66.6666666666667,4,1,1,70,0,0
89496,-66.6666666666667,4,1,1,5,0,0
89573,-66.6666666666667,4,1,1,70,0,0
89727,-66.6666666666667,4,1,1,5,0,0
89804,-66.6666666666667,4,1,1,70,0,0
97188,-50,4,1,1,70,0,0
97650,-153.846153846154,4,1,1,50,0,0
101111,-153.846153846154,4,1,1,5,0,0
101342,-200,4,2,0,50,0,0
101804,-200,4,2,0,5,0,0
102034,-200,4,2,0,50,0,0
102265,-200,4,2,0,5,0,0
102496,-200,4,2,0,50,0,0
102611,-200,4,2,0,5,0,0
102842,-200,4,2,0,50,0,0
102957,-200,4,2,0,5,0,0

[Colours]
Combo1 : 0,128,192
Combo2 : 128,255,255
Combo3 : 18,124,255
Combo4 : 0,64,128

[HitObjects]
118,59,496,5,0,0:0:0:0:
44,186,727,2,0,L|52:97,1,75.0000028610231,2|0,0:0|0:0,0:0:0:0:
176,125,1188,2,0,L|168:214,1,75.0000028610231,2|0,0:0|0:0,0:0:0:0:
165,312,1650,6,0,B|113:312|83:266|83:266|148:193|252:243|269:346,1,300.000011444092,6|0,0:0|0:0,0:0:0:0:
401,314,2342,2,0,L|409:213,1,75.0000028610231,2|0,0:0|0:0,0:0:0:0:
378,160,2573,6,0,B|351:187|351:187|409:214|409:214|471:198|471:198|435:148,1,200,8|0,0:0|0:0,0:0:0:0:
424,94,3150,1,0,0:0:0:0:
425,76,3265,1,0,0:0:0:0:
426,62,3380,1,0,0:0:0:0:
330,58,3496,6,0,B|248:65|248:65|213:108|160:96,1,150.000005722046,6|0,0:0|0:0,0:0:0:0:
179,18,3842,1,0,0:0:0:0:
106,64,3957,6,0,L|98:28,1,37.5000014305115
21,43,4188,2,0,L|30:80,1,37.5000014305115
62,230,4419,6,0,B|98:237|125:199|125:199|137:245|194:247,1,150.000005722046,8|0,0:0|0:0,0:0:0:0:
318,224,4996,5,0,0:0:0:0:
313,255,5111,1,0,0:0:0:0:
318,282,5227,1,0,0:0:0:0:
373,336,5342,6,0,B|456:329|485:251|456:192|456:192|397:214|397:214|399:245|381:275,1,300.000011444092,6|0,0:0|0:0,0:0:0:0:
238,294,6034,2,0,B|228:255|228:255|246:193,1,75.0000028610231,2|0,0:0|0:0,0:0:0:0:
288,135,6265,6,0,B|216:82|146:154|146:154|171:179|166:226,1,200,8|0,0:0|0:0,0:0:0:0:
82,327,6842,1,0,0:0:0:0:
87,309,6957,1,0,0:0:0:0:
85,289,7073,1,0,0:0:0:0:
20,173,7188,6,0,P|58:206|107:196,1,75.0000028610231,6|0,0:0|0:0,0:0:0:0:
200,104,7419,2,0,L|195:17,1,75.0000028610231,8|0,0:3|0:0,0:0:0:0:
71,65,7650,5,0,0:0:0:0:
74,88,7765,1,0,0:0:0:0:
235,123,7880,2,0,L|230:36,1,75.0000028610231,8|0,0:3|0:0,0:0:0:0:
336,38,8111,6,0,L|393:33,1,50,8|0,0:0|0:0,0:0:0:0:
482,70,8342,1,0,0:0:0:0:
482,152,8457,1,0,0:0:0:0:
356,67,8573,5,8,0:2:0:0:
414,112,8688,1,8,0:2:0:0:
482,152,8804,2,0,L|441:279,1,75.0000028610231,2|0,0:0|0:0,0:0:0:0:
342,354,9034,6,0,P|335:302|345:269,1,66.6666666666667,6|0,0:0|0:0,0:0:0:0:
347,274,9265,2,0,L|253:268,1,66.6666666666667,0|0,0:0|0:0,0:0:0:0:
129,263,9496,6,0,P|136:211|126:178,1,66.6666666666667,2|0,0:3|0:0,0:0:0:0:
124,183,9727,2,0,L|218:177,1,66.6666666666667,0|0,0:0|0:0,0:0:0:0:
255,57,9957,6,0,P|281:109|316:121,1,66.6666666666667,8|0,0:0|0:0,0:0:0:0:
246,120,10188,2,0,P|301:138|334:122,1,66.6666666666667,0|0,0:0|0:0,0:0:0:0:
404,194,10419,1,2,0:3:0:0:
324,238,10534,2,0,P|372:195|425:202,1,100,8|0,0:0|0:0,0:0:0:0:
480,281,10880,6,0,L|391:289,1,66.6666666666667,2|0,0:0|0:0,0:0:0:0:
395,309,11111,2,0,L|461:303,1,66.6666666666667,0|0,0:0|0:0,0:0:0:0:
324,238,11342,6,0,L|242:276,1,66.6666666666667,2|0,0:3|0:0,0:0:0:0:
252,293,11573,2,0,L|311:264,1,66.6666666666667,0|0,0:0|0:0,0:0:0:0:
148,227,11804,6,0,L|87:294,1,66.6666666666667,8|0,0:0|0:0,0:0:0:0:
103,304,12035,2,0,L|146:254,1,66.6666666666667,0|0,0:0|0:0,0:0:0:0:
215,190,12265,1,2,0:3:0:0:
131,152,12380,2,0,P|184:159|225:221,1,100,8|0,0:0|0:0,0:0:0:0:
296,190,12727,6,0,P|266:124|174:85,1,119.999996337891,6|0,0:0|0:0,0:0:0:0:
131,152,13073,1,2,0:0:0:0:
172,80,13188,2,0,P|221:91|246:110,1,59.9999981689454,2|0,0:3|0:0,0:0:0:0:
292,248,13419,2,0,P|299:204|280:165,1,59.9999981689454,0|0,0:0|0:0,0:0:0:0:
461,72,13650,6,0,P|359:79|329:137,1,119.999996337891,8|0,0:0|0:0,0:0:0:0:
295,189,13996,1,8,0:2:0:0:
498,118,14111,2,0,P|468:78|429:55,1,59.9999981689454,8|0,0:0|0:0,0:0:0:0:
397,262,14342,2,0,P|444:261|473:240,1,59.9999981689454,8|0,0:2|0:0,0:0:0:0:
217,71,14573,6,0,P|281:106|351:86,1,150.000005722046,6|0,0:0|0:0,0:0:0:0:
290,16,14919,2,0,P|225:-18|155:3,1,150.000005722046,2|0,0:0|0:0,0:0:0:0:
60,26,15265,1,8,0:0:0:0:
11,106,15380,1,8,0:0:0:0:
34,191,15496,5,8,0:2:0:0:
113,222,15611,1,8,0:2:0:0:
190,182,15727,2,0,P|232:181|268:166,1,75.0000028610231,8|8,0:0|0:0,0:0:0:0:
290,16,15957,1,8,0:3:0:0:
311,100,16073,1,8,0:3:0:0:
262,169,16188,1,8,0:3:0:0:
287,257,16304,1,8,0:3:0:0:
247,339,16419,5,6,0:0:0:0:
256,192,16534,12,0,18150,0:0:0:0:
103,314,18265,5,2,0:0:0:0:
103,314,18496,2,0,L|94:207,1,59.9999981689454,8|0,0:0|0:0,0:0:0:0:
157,169,18727,1,2,0:0:0:0:
157,169,18842,2,0,L|145:73,1,59.9999981689454,8|0,0:0|0:0,0:0:0:0:
85,32,19073,1,0,0:0:0:0:
85,32,19188,2,0,P|45:24|8:40,1,59.9999981689454,8|8,0:2|0:2,0:0:0:0:
149,109,19419,2,0,P|189:117|226:101,1,59.9999981689454,8|8,0:2|0:2,0:0:0:0:
358,60,19650,2,0,B|251:80|290:10|187:29,1,179.999994506836,8|0,0:0|0:0,0:0:0:0:
393,125,20111,6,0,P|426:92|432:55,1,50,6|0,0:0|0:0,0:0:0:0:
358,60,20342,1,8,0:3:0:0:
352,188,20457,2,0,P|360:233|386:260,1,50,8|8,0:3|0:0,0:0:0:0:
427,194,20688,1,0,0:0:0:0:
315,126,20804,2,0,P|272:106|235:113,1,50
264,177,21034,5,2,0:0:0:0:
133,173,21265,2,0,L|55:166,1,50,8|8,0:3|0:3,0:0:0:0:
209,251,21496,2,0,L|66:240,1,100,8|0,0:0|0:0,0:0:0:0:
264,306,21957,6,0,B|250:267|250:267|275:197|275:197|349:184,1,150.000005722046,2|8,0:0|0:3,0:0:0:0:
368,262,22304,1,8,0:3:0:0:
380,142,22419,6,0,B|405:172|405:172|397:228|397:228|359:272,1,139.999995727539,8|0,0:0|0:0,0:0:0:0:
285,93,22880,6,0,P|342:97|407:41,1,129.999994049073,2|8,0:0|0:3,0:0:0:0:
322,17,23227,1,8,0:3:0:0:
214,39,23342,6,0,P|261:8|342:32,1,119.999996337891,8|0,0:0|0:0,0:0:0:0:
137,229,23804,6,0,P|104:196|98:159,1,50,2|0,0:0|0:0,0:0:0:0:
172,164,24035,1,8,0:3:0:0:
178,292,24150,2,0,P|170:337|144:364,1,50,8|8,0:3|0:0,0:0:0:0:
103,298,24381,1,0,0:0:0:0:
215,230,24497,2,0,P|258:210|295:217,1,50,0|0,0:0|0:0,0:0:0:0:
266,281,24727,5,2,0:0:0:0:
248,136,24957,2,0,P|289:139|328:176,1,50,8|8,0:3|0:3,0:0:0:0:
248,63,25188,2,0,P|298:66|344:86,1,100,8|0,0:0|0:0,0:0:0:0:
453,187,25650,6,0,B|416:248|340:226|340:226|396:158,1,170.000003242493,2|8,0:0|0:3,0:0:0:0:
455,103,25996,1,8,0:3:0:0:
453,187,26111,2,0,P|449:226|416:269,1,80,8|0,0:0|0:0,0:0:0:0:
362,318,26342,1,0,0:0:0:0:
455,103,26573,5,2,0:0:0:0:
436,110,26804,2,0,L|448:42,1,50,8|8,0:3|0:3,0:0:0:0:
365,195,27034,2,0,L|345:73,1,100,8|2,0:0|0:2,0:0:0:0:
184,28,27496,5,6,0:0:0:0:
166,17,27727,2,0,L|181:98,1,50,8|8,0:3|0:3,0:0:0:0:
253,154,27957,2,0,L|238:281,1,100,8|0,0:0|0:0,0:0:0:0:
179,317,28304,1,0,0:0:0:0:
164,311,28419,6,0,B|221:303|221:303|246:311|246:311|317:303,1,150,2|8,0:0|0:3,0:0:0:0:
331,311,28880,2,0,P|323:270|331:247,1,50,8|0,0:0|0:0,0:0:0:0:
401,211,29111,2,0,L|390:138,1,50,2|0,0:0|0:0,0:0:0:0:
323,1,29342,6,0,B|287:57|333:120|333:120|362:77|418:87,1,194.999991073609,2|2,0:0|0:2,0:0:0:0:
393,161,29804,2,0,B|251:163|251:163|311:192,1,179.999994506836,8|2,0:0|0:2,0:0:0:0:
186,248,30265,2,0,B|217:207|217:207|198:93,1,165.000005035401,2|8,0:0|0:3,0:0:0:0:
121,293,30727,2,0,P|170:291|221:339,1,100,8|2,0:0|0:2,0:0:0:0:
210,319,31188,6,0,L|353:324,1,100,6|0,0:0|0:0,0:0:0:0:
396,282,31534,1,0,0:0:0:0:
379,293,31650,2,0,P|370:235|400:193,1,100,8|0,0:0|0:0,0:0:0:0:
482,137,32111,5,2,0:0:0:0:
494,123,32342,2,0,L|413:134,1,50,8|8,0:3|0:3,0:0:0:0:
282,35,32573,2,0,L|331:28,1,50,8|0,0:0|0:0,0:0:0:0:
472,157,32804,1,0,0:0:0:0:
455,177,33034,5,2,0:0:0:0:
439,194,33265,2,0,L|358:205,1,50,8|0,0:0|0:0,0:0:0:0:
282,35,33496,2,0,L|232:41,1,50,8|0,0:0|0:0,0:0:0:0:
182,219,33727,2,0,L|101:230,1,50,8|2,0:0|0:0,0:0:0:0:
41,164,33900,1,2,0:0:0:0:
41,164,33957,6,0,L|57:17,1,100.000003814697,8|0,0:0|0:0,0:0:0:0:
139,33,34188,2,0,L|128:132,1,100.000003814697,8|0,0:0|0:0,0:0:0:0:
81,359,34419,1,8,0:2:0:0:
62,258,34534,1,8,0:2:0:0:
41,164,34650,1,8,0:0:0:0:
41,164,34880,6,0,P|94:218|129:133,1,200,6|10,0:0|0:3,0:0:0:0:
41,164,35573,2,0,B|118:141|118:141|151:111|151:111|251:82,1,200,2|2,0:0|0:0,0:0:0:0:
354,308,36265,6,0,L|351:330,1,12.5,10|0,3:0|0:0,0:0:0:0:
262,329,36496,1,0,0:3:0:0:
167,344,36727,6,0,P|170:271|115:223,1,150,2|2,0:2|0:0,0:0:0:0:
233,261,37188,6,0,P|194:220|113:224,1,139.999995727539,10|2,0:3|0:0,0:0:0:0:
219,175,37650,6,0,P|167:171|112:231,1,129.999994049073,2|2,0:2|0:0,0:0:0:0:
103,374,38111,1,10,0:3:0:0:
103,374,38227,6,0,B|75:326|75:326|217:353,1,150.000005722046
289,369,38573,6,0,B|315:318|294:260|275:292|249:223|287:174,1,200,2|10,0:0|0:3,0:0:0:0:
284,180,39265,2,0,P|293:133|259:87,1,59.9999981689454,2|0,0:0|0:0,0:0:0:0:
256,102,39496,5,8,0:3:0:0:
245,56,39611,1,8,0:3:0:0:
258,11,39727,1,2,0:0:0:0:
303,31,39842,1,2,0:0:0:0:
415,43,39957,6,0,L|301:51,1,69.9999978637696,10|0,0:3|0:0,0:0:0:0:
110,25,40188,1,2,0:0:0:0:
110,25,40304,1,8,0:2:0:0:
110,25,40419,6,0,B|16:93|16:93|159:117,1,225.000008583069,6|0,0:0|0:0,0:0:0:0:
123,111,40880,1,2,0:0:0:0:
324,210,41111,2,0,B|359:191|359:191|292:168,1,85.0000016212464,8|0,0:0|0:0,0:0:0:0:
206,32,41342,5,2,0:0:0:0:
203,113,41457,1,8,0:0:0:0:
203,198,41573,1,0,0:0:0:0:
202,280,41688,1,2,0:0:0:0:
196,363,41804,2,0,P|232:359|267:343,1,75.0000028610231,8|8,0:3|0:3,0:0:0:0:
400,300,42034,1,2,0:0:0:0:
456,71,42265,5,6,0:0:0:0:
456,71,42496,2,0,P|434:106|427:134,2,64.9999970245363,2|0|8,0:2|0:0|0:0,0:0:0:0:
235,85,42957,2,0,P|259:93|314:199,1,129.999994049073,2|2,0:2|0:0,0:0:0:0:
400,300,43419,5,2,0:2:0:0:
397,288,43534,1,0,0:0:0:0:
394,276,43650,1,8,0:0:0:0:
221,349,43880,6,0,P|270:353|303:333,1,64.9999970245363,2|0,0:2|0:0,0:0:0:0:
394,276,44111,5,2,0:0:0:0:
174,249,44342,2,0,B|130:259|130:259|106:284|106:284|20:308,2,129.999994049073,2|8|2,0:2|0:0|0:2,0:0:0:0:
368,216,45034,6,0,P|383:167|421:112,1,85.0000016212464,2|0,0:0|0:0,0:0:0:0:
132,40,45265,2,0,P|152:77|163:118,1,85.0000016212464,8|0,0:0|0:0,0:0:0:0:
256,248,45496,1,8,0:3:0:0:
256,268,45611,1,8,0:2:0:0:
256,286,45727,1,8,0:0:0:0:
430,19,45957,6,0,P|352:32|316:148,1,150.000005722046,12|0,0:0|0:0,0:0:0:0:
427,155,46419,2,0,P|455:81|376:-14,1,150.000005722046,8|0,0:0|0:0,0:0:0:0:
312,86,46880,2,0,P|361:147|480:123,1,150.000005722046,8|0,0:0|0:0,0:0:0:0:
495,279,47227,1,8,0:2:0:0:
504,189,47342,2,0,B|411:178|468:255|335:226,1,150.000005722046,8|8,0:0|0:3,0:0:0:0:
81,363,47804,6,0,B|26:321|26:321|31:230,1,150.000005722046,12|8,0:0|0:3,0:0:0:0:
156,251,48265,2,0,B|143:329|143:329|71:369,1,150.000005722046,8|8,0:0|0:3,0:0:0:0:
30,240,48727,2,0,B|96:206|96:206|161:255,1,150.000005722046,8|8,0:0|0:3,0:0:0:0:
264,304,49073,1,8,0:2:0:0:
207,181,49188,2,0,B|203:248|203:248|188:263|188:263|183:351,1,150.000005722046,8|8,0:0|0:3,0:0:0:0:
393,358,49650,6,0,L|376:297,1,50,8|8,0:0|0:0,0:0:0:0:
432,136,49880,2,0,L|445:184,1,50,2|2,0:0|0:0,0:0:0:0:
367,358,50111,6,0,L|379:309,1,50,8|8,0:0|0:0,0:0:0:0:
458,136,50341,2,0,L|445:184,1,50,2|2,0:0|0:0,0:0:0:0:
250,275,50573,5,8,0:0:0:0:
216,287,50688,1,2,0:0:0:0:
136,255,50804,5,8,0:0:0:0:
116,211,50919,1,2,0:0:0:0:
144,114,51034,5,8,0:0:0:0:
225,89,51150,1,8,0:0:0:0:
310,159,51265,5,8,0:0:0:0:
281,265,51380,1,8,0:0:0:0:
385,318,51496,6,2,B|402:272|402:272|382:236|382:236|441:183|443:93|360:42,1,300.000011444092,2|0,2:0|2:0,2:0:0:0:
378,54,52880,6,0,B|442:69|442:69|373:142|270:140|183:97,1,300,8|0,0:0|0:0,0:0:0:0:
196,34,53342,6,0,L|66:47,1,85.0000016212464,6|0,0:0|0:0,0:0:0:0:
36,118,53573,1,0,0:0:0:0:
59,189,53688,1,0,0:0:0:0:
78,266,53804,6,0,L|208:279,1,85.0000016212464,8|0,0:0|0:0,0:0:0:0:
238,198,54034,1,0,0:0:0:0:
215,127,54149,1,0,0:0:0:0:
196,50,54265,6,0,L|66:37,1,85.0000016212464,2|0,0:0|0:0,0:0:0:0:
78,266,54496,2,0,L|208:279,1,85.0000016212464
161,363,54727,1,8,0:0:0:0:
239,353,54842,1,0,0:0:0:0:
318,382,54957,1,0,0:0:0:0:
393,375,55072,1,0,0:0:0:0:
426,300,55188,6,0,L|296:287,1,85.0000016212464,2|0,0:0|0:0,0:0:0:0:
266,216,55419,1,0,0:0:0:0:
289,145,55534,1,0,0:0:0:0:
308,68,55650,6,0,L|438:55,1,85.0000016212464,8|0,0:0|0:0,0:0:0:0:
468,136,55880,1,0,0:0:0:0:
445,207,55995,1,0,0:0:0:0:
426,284,56111,6,0,L|296:297,1,85.0000016212464,2|0,0:0|0:0,0:0:0:0:
308,68,56342,2,0,L|438:55,1,85.0000016212464,0|0,0:0|0:0,0:0:0:0:
468,136,56573,1,8,0:0:0:0:
385,149,56688,1,0,0:0:0:0:
289,145,56804,1,0,0:0:0:0:
206,158,56919,1,0,0:0:0:0:
137,212,57034,6,0,P|119:141|217:73,1,170.000003242493,2|0,0:0|0:0,0:0:0:0:
206,158,57380,1,0,0:0:0:0:
137,212,57496,6,0,P|74:174|95:57,1,170.000003242493,8|0,0:0|0:0,0:0:0:0:
120,20,57842,1,0,0:0:0:0:
272,99,57957,6,0,P|295:155|267:216,1,85.0000016212464,2|0,0:0|0:0,0:0:0:0:
175,338,58188,1,0,0:0:0:0:
175,338,58304,6,0,P|207:287|273:274,1,85.0000016212464,8|8,0:2|0:0,0:0:0:0:
426,293,58534,1,0,0:0:0:0:
426,293,58650,6,0,P|365:295|317:248,1,85.0000016212464,8|0,0:2|0:0,0:0:0:0:
271,350,58880,6,0,B|314:329|314:329|398:353,1,100,2|0,0:0|0:0,0:0:0:0:
451,361,59111,2,0,B|466:315|466:315|542:273,1,100,2|0,0:2|0:0,0:0:0:0:
464,211,59342,2,0,B|443:167|443:167|467:83,1,100,10|0,0:3|0:0,0:0:0:0:
377,102,59573,2,0,B|331:86|331:86|289:10,1,100,2|0,0:2|0:3,0:0:0:0:
228,81,59804,2,0,B|184:102|184:102|100:78,1,100,2|0,0:0|0:0,0:0:0:0:
119,168,60035,2,0,B|103:213|103:213|27:255,1,100,2|0,0:2|0:0,0:0:0:0:
12,157,60265,5,10,0:3:0:0:
16,127,60380,1,0,0:0:0:0:
22,98,60496,1,2,0:2:0:0:
27,68,60611,1,0,0:0:0:0:
110,35,60727,5,6,0:0:0:0:
200,60,60842,1,0,0:0:0:0:
261,139,60957,1,0,0:0:0:0:
346,157,61072,1,0,0:0:0:0:
344,277,61188,2,0,L|439:301,1,85.0000016212464,8|0,0:0|0:0,0:0:0:0:
430,144,61419,2,0,L|328:159,1,85.0000016212464
264,228,61650,5,2,0:0:0:0:
264,228,61765,1,0,0:0:0:0:
161,259,61880,2,0,P|178:316|159:371,1,85.0000016212464,0|0,0:0|0:0,0:0:0:0:
191,179,62111,2,0,P|225:147|272:140,1,85.0000016212464,8|0,0:0|0:0,0:0:0:0:
110,194,62342,2,0,P|64:184|31:150,1,85.0000016212464
262,140,62573,6,0,L|281:371,1,200,2|0,0:0|0:0,0:0:0:0:
355,339,62919,1,2,0:0:0:0:
341,179,63034,6,0,L|359:391,1,160,8|0,0:0|0:0,0:0:0:0:
432,341,63380,1,2,0:0:0:0:
420,211,63496,6,0,L|435:382,1,129.999994049073,2|0,0:0|0:0,0:0:0:0:
510,344,63842,1,2,0:0:0:0:
498,234,63957,6,0,L|513:383,1,110.000003356934,8|0,0:0|0:0,0:0:0:0:
284,169,64419,5,2,0:0:0:0:
310,145,64534,1,0,0:0:0:0:
346,135,64650,1,2,0:2:0:0:
263,355,64880,5,8,0:0:0:0:
229,344,64995,1,0,0:0:0:0:
205,318,65111,1,2,0:2:0:0:
447,300,65342,5,2,0:0:0:0:
454,334,65457,1,0,0:0:0:0:
447,367,65573,1,2,0:2:0:0:
429,135,65804,6,0,B|407:245|467:191|443:320,1,170.000003242493,8|2,0:0|0:2,0:3:0:0:
227,359,66265,6,0,B|269:353|293:310|293:310|317:261|384:261,1,170.000003242493,2|2,0:0|0:2,0:0:0:0:
447,300,66611,1,2,0:2:0:0:
355,363,66727,2,0,B|314:357|290:314|290:314|266:265|224:267,1,170.000003242493,10|2,0:3|0:2,0:0:0:0:
91,384,67188,6,0,P|75:323|88:282,1,85.0000016212464,2|0,0:0|0:0,0:0:0:0:
160,149,67419,2,0,L|155:271,1,85.0000016212464,8|0,0:0|0:0,0:0:0:0:
78,302,67650,5,10,0:3:0:0:
202,329,67765,1,8,0:2:0:0:
316,350,67880,1,8,0:0:0:0:
316,350,68111,6,0,L|446:337,1,85.0000016212464,6|0,0:0|0:0,0:0:0:0:
476,266,68342,1,0,0:0:0:0:
453,195,68457,1,0,0:0:0:0:
434,118,68573,6,0,L|304:105,1,85.0000016212464,8|0,0:0|0:0,0:0:0:0:
274,186,68803,1,0,0:0:0:0:
297,257,68918,1,0,0:0:0:0:
316,334,69034,6,0,L|446:347,1,85.0000016212464,2|0,0:0|0:0,0:0:0:0:
434,118,69265,2,0,L|304:105,1,85.0000016212464,0|0,0:0|0:0,0:0:0:0:
360,32,69496,1,8,0:0:0:0:
286,40,69611,1,0,0:0:0:0:
216,0,69726,1,0,0:0:0:0:
139,9,69841,1,0,0:0:0:0:
86,84,69957,6,0,L|216:97,1,85.0000016212464,2|0,0:0|0:0,0:0:0:0:
246,168,70188,1,0,0:0:0:0:
223,239,70303,1,0,0:0:0:0:
204,316,70419,6,0,L|74:329,1,85.0000016212464,8|0,0:0|0:0,0:0:0:0:
44,248,70649,1,0,0:0:0:0:
67,177,70764,1,0,0:0:0:0:
86,100,70880,6,0,L|216:87,1,85.0000016212464,2|0,0:0|0:0,0:0:0:0:
204,316,71111,2,0,L|74:329,1,85.0000016212464,0|0,0:0|0:0,0:0:0:0:
44,248,71342,1,8,0:0:0:0:
127,235,71457,1,0,0:0:0:0:
223,239,71573,1,0,0:0:0:0:
306,226,71688,1,0,0:0:0:0:
375,172,71804,6,0,P|393:243|295:311,1,170.000003242493,2|0,0:0|0:0,0:0:0:0:
306,226,72150,1,0,0:0:0:0:
375,172,72266,6,0,P|438:210|417:327,1,170.000003242493,8|0,0:0|0:0,0:0:0:0:
392,364,72612,1,0,0:0:0:0:
240,285,72727,6,0,P|217:229|245:168,1,85.0000016212464,2|0,0:0|0:0,0:0:0:0:
337,46,72958,1,0,0:0:0:0:
337,46,73074,6,0,P|305:97|239:110,1,85.0000016212464,8|8,0:2|0:0,0:0:0:0:
86,91,73304,1,0,0:0:0:0:
86,91,73420,6,0,P|147:89|195:136,1,85.0000016212464,8|0,0:2|0:0,0:0:0:0:
241,34,73650,6,0,B|198:55|198:55|114:31,1,100,2|0,0:0|0:0,0:0:0:0:
61,23,73880,2,0,B|46:69|46:69|-30:111,1,100,2|0,0:2|0:0,0:0:0:0:
48,173,74111,2,0,B|69:217|69:217|45:301,1,100,10|0,0:3|0:0,0:0:0:0:
140,289,74342,2,0,B|186:305|186:305|228:381,1,100,2|0,0:2|0:3,0:0:0:0:
284,303,74573,2,0,B|328:282|328:282|412:306,1,100,2|0,0:0|0:0,0:0:0:0:
393,216,74804,2,0,B|409:171|409:171|485:129,1,100,2|2,0:2|0:0,0:0:0:0:
500,227,75034,5,10,0:3:0:0:
496,257,75149,1,0,0:0:0:0:
490,286,75265,1,2,0:2:0:0:
485,316,75380,1,0,0:0:0:0:
366,356,75496,6,0,B|413:346|413:346|384:158,1,179.999994506836,12|0,0:0|0:0,0:0:0:0:
251,75,75842,1,0,0:0:0:0:
251,75,75957,2,0,B|204:85|204:85|233:273,1,179.999994506836,8|0,0:0|0:0,0:0:0:0:
489,197,76304,1,0,0:0:0:0:
489,197,76419,6,0,B|432:186|432:186|410:170|410:170|383:175|383:175|282:158,1,179.999994506836,8|0,0:0|0:0,0:0:0:0:
181,285,76765,1,8,0:2:0:0:
181,285,76880,2,0,P|221:247|202:176,1,89.9999972534181,8|0,0:0|0:0,0:0:0:0:
108,19,77111,2,0,L|126:148,1,89.9999972534181,8|0,0:3|0:0,0:0:0:0:
28,311,77342,6,0,B|92:309|127:356|127:356|234:366,1,179.999994506836,8|0,0:0|0:0,0:0:0:0:
396,197,77688,1,0,0:0:0:0:
396,197,77804,2,0,B|337:223|287:194|287:194|184:226,1,179.999994506836,8|0,0:0|0:0,0:0:0:0:
393,342,78150,1,0,0:0:0:0:
393,342,78265,6,0,B|424:307|424:307|423:285|423:285|439:271|439:271|424:255|424:255|423:233|423:233|392:192,1,179.999994506836,8|0,0:0|0:0,0:0:0:0:
225,67,78611,1,8,0:2:0:0:
225,67,78726,2,0,B|194:102|194:102|195:124|195:124|179:138|179:138|194:154|194:154|195:176|195:176|226:217,1,179.999994506836,8|8,0:0|0:3,0:0:0:0:
223,213,79188,6,0,L|131:197,1,50,8|0,0:0|0:0,0:0:0:0:
349,379,79419,6,0,L|343:324,1,55.0000016784668,8|0,0:0|0:0,0:0:0:0:
277,180,79650,6,0,L|168:163,1,59.9999981689454,8|0,0:0|0:0,0:0:0:0:
386,354,79880,6,0,L|379:289,1,64.9999970245363,8|0,0:0|0:0,0:0:0:0:
329,152,80111,6,0,L|202:131,1,69.9999978637696,8|0,0:0|0:0,0:0:0:0:
431,333,80342,6,0,L|424:258,1,75.0000028610231,8|0,0:0|0:0,0:0:0:0:
377,116,80573,6,0,L|235:91,1,80,8|0,0:0|0:0,0:0:0:0:
482,319,80804,6,0,L|472:227,1,85.0000016212464,8|0,0:0|0:0,0:0:0:0:
439,32,81034,5,8,0:3:0:0:
355,17,81150,1,8,0:3:0:0:
272,31,81265,1,8,0:3:0:0:
212,83,81380,1,8,0:3:0:0:
245,174,81496,6,0,L|220:171,1,18.7500007152558,2|0,0:0|0:0,0:0:0:0:
200,250,81611,2,0,L|184:230,1,18.7500007152558
119,275,81727,2,0,L|122:250,1,18.7500007152558,2|0,0:0|0:0,0:0:0:0:
39,243,81842,2,0,L|58:227,1,18.7500007152558
6,152,81957,6,0,L|31:155,1,18.7500007152558,2|0,0:0|0:0,0:0:0:0:
51,76,82072,2,0,L|67:96,1,18.7500007152558
132,51,82188,2,0,L|129:76,1,18.7500007152558,2|0,0:0|0:0,0:0:0:0:
212,83,82303,2,0,L|193:99,1,18.7500007152558
245,174,82419,5,10,0:2:0:0:
200,250,82534,1,2,0:2:0:0:
237,334,82650,1,10,0:2:0:0:
324,356,82765,1,2,0:2:0:0:
399,303,82880,6,0,P|407:253|429:212,1,86.6666626993817,6|0,0:0|0:0,0:0:0:0:
365,216,83111,2,0,P|406:186|450:172,1,86.6666626993817,2|0,0:3|0:0,0:0:0:0:
385,125,83342,2,0,P|434:133|476:155,1,86.6666626993817,8|0,0:0|0:0,0:0:0:0:
463,82,83573,1,2,0:3:0:0:
233,64,83804,6,0,P|207:88|163:91,1,64.9999970245363,2|0,0:0|0:0,0:0:0:0:
177,274,84034,1,2,0:3:0:0:
182,184,84150,6,0,P|216:191|244:225,1,64.9999970245363,8|8,0:3|0:0,0:0:0:0:
385,125,84380,1,0,0:0:0:0:
312,167,84496,6,0,P|298:134|310:91,1,64.9999970245363,10|0,0:3|0:0,0:0:0:0:
233,64,84727,6,0,L|108:43,1,86.6666626993817,2|0,0:0|0:0,0:0:0:0:
134,65,84957,2,0,L|219:79,1,86.6666626993817,2|0,0:3|0:0,0:0:0:0:
203,92,85188,2,0,L|78:71,1,86.6666626993817,8|0,0:0|0:0,0:0:0:0:
184,108,85419,5,2,0:3:0:0:
80,196,85650,2,0,P|89:231|93:261,1,64.9999970245363,2|0,0:0|0:0,0:0:0:0:
218,374,85880,2,0,P|222:341|230:310,1,64.9999970245363,2|0,0:2|0:0,0:0:0:0:
60,187,86111,2,0,P|69:222|73:252,1,64.9999970245363,8|0,0:0|0:0,0:0:0:0:
235,380,86342,2,0,P|239:347|247:316,1,64.9999970245363,2|0,0:2|0:0,0:0:0:0:
406,220,86573,6,0,B|359:210|359:210|342:193|342:193|268:181,1,129.999994049073,6|0,0:0|0:0,0:0:0:0:
216,230,86919,1,2,0:0:0:0:
216,230,87034,1,8,0:0:0:0:
108,110,87265,6,0,B|194:129|252:78|252:78|219:59|118:85,1,225.000008583069,6|0,0:0|0:0,0:0:0:0:
24,83,87727,1,2,0:0:0:0:
269,372,87957,5,8,0:0:0:0:
278,277,88073,1,8,0:0:0:0:
284,183,88188,1,8,0:2:0:0:
405,120,88419,6,0,P|385:97|399:28,1,100.000003814697,6|0,0:0|0:0,0:0:0:0:
505,116,88650,2,0,L|359:122,1,100.000003814697,2|0,0:3|0:0,0:0:0:0:
494,203,88880,2,0,P|519:161|504:115,1,100.000003814697,8|0,0:0|0:0,0:0:0:0:
394,207,89111,2,0,L|493:202,1,100.000003814697,2|0,0:3|0:0,0:0:0:0:
404,294,89342,2,0,P|384:271|398:202,1,100.000003814697,2|0,0:0|0:0,0:0:0:0:
504,290,89573,2,0,L|358:296,1,100.000003814697,2|0,0:3|0:0,0:0:0:0:
322,368,89804,5,8,0:0:0:0:
309,305,89919,1,2,0:2:0:0:
295,244,90034,1,2,0:2:0:0:
284,183,90150,1,2,0:2:0:0:
161,310,90265,6,0,B|193:321|193:321|370:296,1,150.000005722046,12|0,0:0|0:0,0:0:0:0:
431,177,90727,2,0,B|399:166|399:166|222:191,1,150.000005722046,8|0,0:0|0:0,0:0:0:0:
84,350,91188,6,0,B|68:236|68:236|96:279,1,150.000005722046,8|0,0:0|0:0,0:0:0:0:
87,265,91534,1,8,0:2:0:0:
15,177,91650,2,0,P|83:162|140:222,1,150.000005722046,8|8,0:0|0:3,0:0:0:0:
351,74,92111,6,0,B|319:63|319:63|142:88,1,150.000005722046,12|0,0:0|0:0,0:0:0:0:
81,207,92573,2,0,B|113:218|113:218|290:193,1,150.000005722046,8|0,0:0|0:0,0:0:0:0:
428,34,93034,6,0,B|444:148|444:148|416:105,1,150.000005722046,8|0,0:0|0:0,0:0:0:0:
425,119,93380,1,8,0:2:0:0:
497,207,93496,2,0,P|429:222|372:162,1,150.000005722046,8|8,0:0|0:3,0:0:0:0:
58,31,93957,5,8,0:0:0:0:
97,287,94188,1,8,0:0:0:0:
134,79,94419,1,8,0:0:0:0:
175,254,94649,1,8,0:0:0:0:
215,104,94880,1,8,0:0:0:0:
251,234,95111,1,8,0:0:0:0:
302,117,95342,1,8,0:0:0:0:
336,229,95573,1,8,0:0:0:0:
336,229,95804,5,8,0:0:0:0:
353,226,95919,1,2,0:0:0:0:
302,117,96035,5,8,0:0:0:0:
286,115,96150,1,2,0:0:0:0:
268,230,96265,5,8,0:0:0:0:
286,225,96380,1,2,0:0:0:0:
215,104,96497,5,8,0:0:0:0:
195,101,96611,1,2,0:0:0:0:
175,254,96728,5,8,0:0:0:0:
196,248,96842,1,8,0:0:0:0:
134,79,96958,5,2,0:0:0:0:
112,76,97073,1,2,0:0:0:0:
29,298,97188,6,0,B|111:338|176:285|176:285|200:177|348:206,1,300,8|0,0:0|0:0,0:0:0:0:
357,122,97650,6,0,B|398:120|429:153|421:236|350:244|290:214|302:140|340:126|340:126|305:22|305:22|268:137|152:97|152:97|228:179|146:317|30:299|30:299|21:223|99:202,1,974.999955368044,6|0,0:0|0:0,2:0:0:0:
152,97,101342,6,0,P|177:141|181:190,1,100,2|0,0:0|0:0,0:0:0:0:
176,216,102034,2,0,L|229:220,1,50,2|0,0:0|0:0,0:0:0:0:
258,292,102496,2,0,L|212:297,1,25,2|0,0:0|0:0,0:0:0:0:
200,300,102842,2,0,L|154:305,1,25,2|0,0:0|0:0,0:0:0:0:
