osu file format v14

[General]
AudioFilename: audio.mp3
AudioLeadIn: 0
PreviewTime: 57557
Countdown: 0
SampleSet: Soft
StackLeniency: 0.4
Mode: 0
LetterboxInBreaks: 0
WidescreenStoryboard: 0

[Editor]
DistanceSpacing: 2.5
BeatDivisor: 6
GridSize: 32
TimelineZoom: 1.900004

[Metadata]
Title:secret philosophy
TitleUnicode:secret philosophy
Artist:KISIDA KYODAN & THE AKEBOSI ROCKETS
ArtistUnicode:岸田教団&THE明星ロケッツ
Creator:SMOKELIND
Version:iljaaz's lunatic
Source:東方地霊殿 ~ Subterranean Animism.
Tags:Japanese J-Rock Rock Ichigo TH ZUN Touhou Reitaisai 14 ラストリモート Last Remote ハルトマンの妖怪少女 Hartmann's Youkai Girl 古明地 こいし Koishi Komeiji ANCIENT FLOWER KISHIDA KYOUDAN AND AKEBOSHI iljaaz kowari atalanta glaceon talulah Video Game
BeatmapID:2039680
BeatmapSetID:974435

[Difficulty]
HPDrainRate:5.2
CircleSize:3.8
OverallDifficulty:8
ApproachRate:9
SliderMultiplier:1.64
SliderTickRate:1

[Events]
//Background and Video events
0,0,"Sweet77777.jpg",0,0
//Break Periods
2,20117,28887
//Storyboard Layer 0 (Background)
//Storyboard Layer 1 (Fail)
//Storyboard Layer 2 (Pass)
//Storyboard Layer 3 (Foreground)
//Storyboard Layer 4 (Overlay)
//Storyboard Sound Samples

[TimingPoints]
-474,300,4,2,7,47,1,0
576,-119.047619047619,4,2,7,47,0,0
1026,285.714285714286,4,2,7,47,1,0
1026,-119.047619047619,4,2,7,47,0,0
1454,344.827586206897,4,2,7,47,1,0
1454,-119.047619047619,4,2,7,47,0,0
1626,300,4,2,7,47,1,0
1626,-119.047619047619,4,2,7,47,0,0
1926,285.714285714286,4,2,7,47,1,0
1926,-119.047619047619,4,2,7,47,0,0
2640,315.789473684211,4,2,7,47,1,0
2640,-119.047619047619,4,2,7,47,0,0
2955,300,4,2,7,47,1,0
2955,-119.047619047619,4,2,7,47,0,0
4005,342.857142857143,4,2,7,47,1,0
4005,-119.047619047619,4,2,7,47,0,0
4176,300,4,2,7,47,1,0
4176,-119.047619047619,4,2,7,47,0,0
4326,292.682926829268,4,2,7,47,1,0
4326,-119.047619047619,4,2,7,47,0,0
5789,312.5,4,2,7,47,1,0
5789,-119.047619047619,4,2,7,47,0,0
6726,292.682926829268,4,2,7,47,1,0
6726,-119.047619047619,4,2,7,47,0,0
8189,303.030303030303,4,2,7,47,1,0
8189,-119.047619047619,4,2,7,47,0,0
8946,320,4,2,7,47,1,0
8946,-119.047619047619,4,2,7,47,0,0
9426,375,4,2,7,47,1,0
9426,-119.047619047619,4,2,7,47,0,0
9613,245.901639344262,4,2,7,47,1,0
9613,-119.047619047619,4,2,7,47,0,0
9720,298.507462686567,4,2,7,47,1,0
9720,-119.047619047619,4,2,7,47,0,0
10317,300,4,2,7,77,1,0
10317,-96.1538461538461,4,2,7,77,0,0
19917,-100,4,2,7,47,0,0
28317,292.682926829268,4,2,7,47,1,0
29487,315.374507227332,4,2,7,47,1,0
29487,-185.185185185185,4,2,7,47,0,0
30117,300,4,2,7,47,1,0
30117,-185.185185185185,4,2,7,47,0,0
30717,300,4,2,7,47,1,0
30717,-185.185185185185,4,2,7,47,0,0
34917,-135.135135135135,4,2,7,47,0,0
35517,-106.382978723404,4,2,7,57,0,0
36117,-87.7192982456139,4,2,7,57,0,0
36717,-87.7192982456139,4,2,7,67,0,0
39407,300,4,2,7,67,1,0
39407,-87.7192982456139,4,2,7,67,0,0
40307,300,4,2,7,67,1,0
40307,-87.7192982456139,4,2,7,67,0,0
48707,-106.382978723404,4,2,7,57,0,0
53357,-87.7192982456139,4,2,7,67,0,0
57707,-87.7192982456139,4,2,7,47,0,0
58307,-156.25,4,2,7,47,0,0
60107,-87.7192982456139,4,2,7,57,0,0
60724,300,4,2,7,57,1,0
60724,-87.7192982456139,4,2,7,57,0,0
63124,-106.382978723404,4,2,7,87,0,0
87124,-80.6451612903224,4,2,7,87,0,0
99124,-156.25,4,2,7,57,0,0
99224,-119.047619047619,4,2,7,57,0,0
99724,-119.047619047619,4,2,7,67,0,0
100324,-119.047619047619,4,2,7,77,0,0
100924,-119.047619047619,4,2,7,87,0,0
101224,-80.6451612903224,4,2,7,87,0,0
110824,263.157894736842,4,2,7,87,1,0
111087,307.692307692308,4,2,7,87,1,0
112625,300,4,2,7,87,1,0
113525,300,4,2,7,87,1,0
120725,-666.666666666667,4,2,7,77,0,0
120875,-666.666666666667,4,2,7,7,0,0

[Colours]
Combo1 : 255,255,121
Combo2 : 255,165,121
Combo3 : 121,255,121

[HitObjects]
56,372,576,6,0,P|27:310|39:243,1,137.759995795899,6|0,1:0|0:0,0:0:0:0:
197,281,1026,2,0,P|163:288|130:297,1,68.8799978979493,10|2,0:0|0:0,0:0:0:0:
117,305,1240,1,0,3:0:0:0:
121,309,1311,1,2,1:0:0:0:
230,384,1454,1,0,1:0:0:0:
320,295,1626,1,10,0:0:0:0:
320,295,1776,1,2,1:0:0:0:
217,175,1926,6,0,P|211:217|200:267,1,68.8799978979493,2|0,0:0|0:0,0:0:0:0:
349,180,2211,1,10,0:0:0:0:
349,180,2354,2,0,P|338:147|329:94,1,68.8799978979493,2|2,3:0|3:0,0:0:0:0:
196,182,2640,2,0,P|190:224|179:274,1,68.8799978979493,2|8,1:0|0:0,0:0:0:0:
88,79,2955,6,0,P|142:38|210:37,1,137.759995795899,6|0,1:0|1:0,0:0:0:0:
329,86,3405,1,10,0:0:0:0:
341,91,3705,1,2,1:0:0:0:
431,19,3855,1,2,1:0:0:0:
431,19,4005,1,10,0:0:0:0:
510,160,4176,6,0,P|471:167|425:184,1,68.8799978979493,2|0,1:0|0:0,0:0:0:0:
340,282,4472,1,2,1:0:0:0:
340,282,4618,2,0,P|376:288|425:304,1,68.8799978979493,10|0,0:0|1:0,0:0:0:0:
351,186,4911,1,10,0:0:0:0:
243,265,5057,1,0,1:0:0:0:
351,186,5204,1,10,0:0:0:0:
237,358,5350,6,0,P|218:291|182:233,1,137.759995795899,6|0,1:0|1:0,0:0:0:0:
40,301,5789,2,0,P|74:304|107:311,1,68.8799978979493,10|2,0:0|0:0,0:0:0:0:
122,329,6023,1,0,3:0:0:0:
122,329,6101,1,2,1:0:0:0:
76,210,6257,1,0,1:0:0:0:
143,137,6414,1,10,0:0:0:0:
143,137,6570,1,2,1:0:0:0:
44,48,6726,6,0,P|52:90|56:140,1,68.8799978979493,2|0,0:0|0:0,0:0:0:0:
159,23,7018,1,10,0:0:0:0:
233,94,7165,2,0,P|251:100|276:106,2,34.4399989489746,2|2|2,3:0|3:0|1:0,0:0:0:0:
348,39,7457,2,0,P|382:28|429:19,1,68.8799978979493,0|8,1:0|0:0,0:0:0:0:
479,179,7750,6,0,P|421:141|354:131,1,137.759995795899,6|0,1:0|1:0,0:0:0:0:
260,254,8189,2,0,P|295:242|351:233,1,68.8799978979493,10|0,0:0|1:0,0:0:0:0:
349,248,8416,1,0,1:0:0:0:
349,248,8492,2,0,L|362:295,3,34.4399989489746,8|8|8|8,0:0|3:0|3:0|3:0,0:0:0:0:
352,321,8795,1,8,0:0:0:0:
315,348,8870,1,8,0:0:0:0:
275,345,8946,1,2,1:0:0:0:
151,7,9426,6,0,L|59:24,1,68.8799978979493,2|0,0:0|1:2,0:0:0:0:
77,32,9674,1,0,1:0:0:0:
77,32,9720,2,0,P|70:52|68:63,1,17.2199994744873,8|8,0:0|0:0,0:0:0:0:
117,146,9869,1,0,1:0:0:0:
117,146,10317,6,0,P|185:93|268:74,1,170.559998958984,6|2,1:0|0:0,0:0:0:0:
352,177,10767,1,2,1:0:0:0:
352,177,10917,2,0,P|312:162|262:158,2,85.2799994794922,10|2|2,0:0|0:0|1:0,0:0:0:0:
466,154,11367,1,2,1:0:0:0:
466,154,11517,6,0,P|454:117|442:64,1,85.2799994794922,0|10,0:0|0:0,0:0:0:0:
323,0,11817,2,0,P|313:41|300:82,1,85.2799994794922,2|2,1:0|1:0,0:0:0:0:
352,177,12117,1,10,0:0:0:0:
373,268,12267,1,2,1:0:0:0:
233,305,12417,2,0,P|274:258|336:254,1,127.919999219238,10|0,0:0|0:0,0:0:0:0:
373,268,12717,6,0,P|383:310|389:372,1,85.2799994794922,6|0,1:0|0:0,0:0:0:0:
233,305,13017,2,0,P|238:262|248:221,1,85.2799994794922,2|2,0:0|1:0,0:0:0:0:
89,292,13317,2,0,P|100:333|108:374,2,85.2799994794922,10|0|2,0:0|0:0|1:0,0:0:0:0:
17,219,13767,1,2,1:0:0:0:
138,172,13917,6,0,P|159:134|165:92,1,85.2799994794922,0|10,0:0|0:0,0:0:0:0:
26,23,14217,2,0,P|5:60|0:102,1,85.2799994794922,2|2,1:0|1:0,0:0:0:0:
218,20,14517,2,0,P|171:15|113:4,1,85.2799994794922,10|2,0:0|1:0,0:0:0:0:
260,99,14817,2,0,P|302:91|344:87,1,85.2799994794922,10|0,3:0|0:0,0:0:0:0:
486,180,15117,6,0,P|461:261|457:346,1,170.559998958984,6|2,1:0|0:0,0:0:0:0:
335,384,15567,1,2,1:0:0:0:
335,384,15717,2,0,P|326:342|308:291,1,85.2799994794922,10|2,0:0|0:0,0:0:0:0:
440,178,16017,2,0,P|426:218|417:260,1,85.2799994794922,2|0,1:0|1:0,0:0:0:0:
249,236,16317,6,0,P|296:224|348:200,1,85.2799994794922,0|10,0:0|0:0,0:0:0:0:
227,320,16617,2,0,P|187:303|146:293,1,85.2799994794922,2|2,1:0|1:0,0:0:0:0:
63,358,16917,1,10,0:0:0:0:
63,358,17067,1,2,1:0:0:0:
7,286,17217,2,0,P|15:246|23:189,1,85.2799994794922,10|0,0:0|0:0,0:0:0:0:
118,107,17517,6,0,P|127:191|145:274,1,170.559998958984,6|2,1:0|0:0,0:0:0:0:
233,144,17967,1,2,1:0:0:0:
233,144,18117,2,0,P|191:134|135:112,1,85.2799994794922,14|0,0:0|0:0,0:0:0:0:
345,184,18417,1,2,1:0:0:0:
345,184,18567,6,0,P|387:174|443:152,1,85.2799994794922,2|0,1:0|0:0,0:0:0:0:
308,93,18867,1,10,0:0:0:0:
265,228,19017,2,0,P|276:274|284:331,1,85.2799994794922,2|0,1:0|3:0,0:0:0:0:
278,342,19242,1,8,0:0:0:0:
278,341,19317,1,8,0:0:0:0:
117,188,19467,5,8,3:0:0:0:
40,231,19617,1,8,3:0:0:0:
32,278,19767,1,0,0:0:0:0:
42,305,19917,5,6,1:0:0:0:
469,78,29487,6,0,B|390:81|407:137|310:158,1,177.120004324219,6|0,1:0|0:0,0:0:0:0:
239,126,30267,1,2,0:0:0:0:
239,126,30417,1,2,0:0:0:0:
177,190,30567,2,0,P|199:284|214:365,1,177.120004324219,2|0,0:0|3:0,0:0:0:0:
213,363,31617,5,2,0:0:0:0:
110,327,31767,1,2,0:0:0:0:
277,317,31917,2,0,B|177:308|227:372|95:356,1,177.120004324219,2|0,1:0|0:0,0:0:0:0:
22,323,32667,1,2,0:0:0:0:
22,323,32817,1,2,0:0:0:0:
87,248,32967,6,0,P|100:161|134:80,1,177.120004324219,2|0,3:0|0:0,0:0:0:0:
209,51,33717,1,0,0:0:0:0:
209,51,34017,1,2,0:0:0:0:
276,102,34167,1,0,0:0:0:0:
337,10,34317,6,0,P|325:58|317:112,1,88.5600021621094,2|0,1:0|1:0,0:0:0:0:
374,25,34917,2,0,P|359:81|350:144,1,121.360002962891,0|2,1:0|1:0,0:0:0:0:
405,35,35517,2,0,P|387:105|375:185,1,154.159997647705,0|0,1:0|1:0,0:0:0:0:
434,46,36117,2,0,P|412:132|398:229,1,186.959997717773,0|2,1:0|1:0,0:0:0:0:
485,347,36717,5,14,0:0:0:0:
344,308,36867,1,0,1:0:0:0:
401,370,37017,1,0,1:0:0:0:
348,287,37167,5,8,3:0:0:0:
262,340,37317,1,0,1:0:0:0:
182,281,37467,1,0,1:0:0:0:
254,160,37617,5,10,0:0:0:0:
263,366,37767,1,2,1:0:0:0:
116,211,37917,6,0,P|97:168|78:111,1,93.4799988588867,8|0,0:0|1:0,0:0:0:0:
266,46,38217,2,0,P|247:89|228:146,1,93.4799988588867,8|2,0:0|3:0,0:0:0:0:
233,164,38442,1,0,3:0:0:0:
233,164,38517,1,10,0:0:0:0:
374,58,38667,2,0,P|384:82|391:110,1,46.7399994294434,10|8,0:0|0:0,0:0:0:0:
474,191,38817,1,8,0:0:0:0:
497,229,38892,1,8,0:0:0:0:
502,271,38967,6,0,B|408:268|446:331|318:346,1,186.959997717773,6|0,1:0|1:0,0:0:0:0:
227,284,39407,2,0,P|172:238|121:236,1,93.4799988588867,8|2,0:0|1:0,0:0:0:0:
37,142,39707,2,0,P|51:187|56:248,1,93.4799988588867,0|0,1:2|1:2,0:0:0:0:
25,332,40007,1,10,0:0:0:0:
227,284,40157,6,0,P|183:201|175:109,1,186.959997717773,6|0,1:0|1:0,0:0:0:0:
249,32,40607,1,8,0:0:0:0:
409,75,40757,1,6,1:0:0:0:
299,136,40907,2,0,P|295:92|289:21,2,93.4799988588867,2|0|10,0:0|1:0|0:0,0:0:0:0:
391,268,41357,6,0,P|408:176|443:89,1,186.959997717773,6|0,1:0|1:0,0:0:0:0:
511,237,41807,2,0,P|463:244|398:266,1,93.4799988588867,10|0,0:0|0:0,0:0:0:0:
280,304,42107,1,2,1:0:0:0:
371,354,42257,1,0,1:0:0:0:
271,276,42407,1,10,0:0:0:0:
170,365,42557,6,0,P|104:302|102:211,1,186.959997717773,2|0,1:0|1:0,0:0:0:0:
266,153,43007,2,0,P|253:205|246:272,1,93.4799988588867,8|0,0:0|0:0,0:0:0:0:
122,181,43307,2,0,P|115:134|104:89,2,93.4799988588867,2|2|8,1:0|1:0|0:0,0:0:0:0:
309,55,43757,6,0,B|204:36|228:105|106:76,1,186.959997717773,6|0,1:0|1:0,0:0:0:0:
269,154,44207,2,0,P|310:134|390:138,1,93.4799988588867,8|2,0:0|0:0,0:0:0:0:
482,35,44507,2,0,P|491:82|507:134,1,93.4799988588867,2|0,1:2|1:2,0:0:0:0:
322,225,44807,1,10,0:0:0:0:
396,341,44957,6,0,P|423:251|427:158,1,186.959997717773,6|0,1:0|1:0,0:0:0:0:
207,227,45407,2,0,P|253:232|298:243,1,93.4799988588867,8|4,0:0|1:0,0:0:0:0:
232,353,45707,1,2,0:0:0:0:
144,318,45857,2,0,P|98:304|41:299,1,93.4799988588867,2|8,1:0|0:0,0:0:0:0:
207,227,46157,6,0,P|275:170|259:82,1,186.959997717773,6|0,1:0|1:0,0:0:0:0:
90,83,46607,2,0,P|135:96|190:121,1,93.4799988588867,10|0,0:0|3:0,0:0:0:0:
294,5,46907,1,2,1:0:0:0:
193,28,47057,1,0,1:0:0:0:
290,13,47207,1,10,0:0:0:0:
359,107,47357,6,0,P|416:35|505:11,1,186.959997717773,6|0,1:0|1:0,0:0:0:0:
501,193,47807,2,0,P|491:147|476:103,1,93.4799988588867,8|0,0:0|1:0,0:0:0:0:
359,107,48107,1,8,0:0:0:0:
336,213,48257,1,0,1:0:0:0:
318,292,48407,1,0,3:0:0:0:
318,292,48707,6,0,P|243:288|186:337,1,154.159997647705,6|0,1:0|0:0,0:0:0:0:
74,371,49157,2,0,P|83:334|87:296,1,77.0799988238526,2|0,1:0|0:0,0:0:0:0:
53,157,49457,1,0,1:0:0:0:
164,215,49607,2,0,P|169:176|180:140,1,77.0799988238526,10|0,0:0|0:0,0:0:0:0:
290,24,49907,6,0,P|220:55|143:54,1,154.159997647705,6|0,1:0|0:0,0:0:0:0:
310,40,50357,2,0,P|328:75|341:111,1,77.0799988238526,2|0,1:0|0:0,0:0:0:0:
418,203,50657,1,0,1:0:0:0:
326,156,50807,2,0,P|322:194|316:232,1,77.0799988238526,10|0,0:0|0:0,0:0:0:0:
447,352,51107,6,0,B|385:342|385:342|360:352|360:352|295:340,1,154.159997647705,6|2,1:0|3:0,0:0:0:0:
168,275,51557,2,0,P|203:261|242:259,1,77.0799988238526,2|0,1:0|0:0,0:0:0:0:
217,353,51857,1,0,1:0:0:0:
105,347,52007,2,0,P|140:360|179:362,1,77.0799988238526,10|0,0:0|1:0,0:0:0:0:
83,180,52307,6,0,P|75:217|67:255,1,77.0799988238526,10|0,0:0|1:0,0:0:0:0:
261,126,52607,2,0,P|252:88|245:50,1,77.0799988238526,8|0,0:0|0:0,0:0:0:0:
259,27,52832,1,0,0:0:0:0:
259,27,52907,2,0,P|277:23|317:22,3,38.5399994119263,8|8|8|8,3:0|0:0|0:0|0:0,0:0:0:0:
338,41,53207,1,10,0:0:0:0:
371,52,53282,1,8,0:0:0:0:
402,37,53357,6,0,P|375:125|372:219,1,186.959997717773,6|0,1:0|1:0,0:0:0:0:
510,311,53807,2,0,P|489:269|477:224,1,93.4799988588867,8|0,0:0|0:0,0:0:0:0:
483,206,54032,1,0,0:0:0:0:
483,206,54107,1,0,1:0:0:0:
407,324,54257,1,0,1:0:0:0:
313,283,54407,1,10,0:0:0:0:
313,283,54557,6,0,B|212:271|251:356|127:348,1,186.959997717773,2|0,1:0|1:0,0:0:0:0:
77,220,55007,1,8,0:0:0:0:
159,259,55157,1,2,0:0:0:0:
60,334,55307,1,2,3:2:0:0:
180,242,55457,1,2,3:2:0:0:
42,116,55607,1,10,0:0:0:0:
46,10,55757,6,0,P|79:104|89:205,1,186.959997717773,6|0,1:0|1:0,0:0:0:0:
159,259,56207,1,8,0:0:0:0:
256,187,56357,1,2,1:0:0:0:
256,187,56432,1,0,1:0:0:0:
256,187,56507,1,10,0:0:0:0:
166,30,56657,1,8,3:0:0:0:
166,30,56732,1,8,3:0:0:0:
166,30,56807,2,0,P|159:57|154:93,1,46.7399994294434,8|8,0:0|0:0,0:0:0:0:
250,273,56957,1,0,1:0:0:0:
434,121,58307,6,0,B|483:63|463:-3|374:-71|275:26|236:89|412:170|388:208|442:260|407:337,1,524.8,6|2,1:0|0:0,0:0:0:0:
408,345,60107,5,10,0:0:0:0:
305,384,60257,2,0,P|283:372|257:364,1,46.7399994294434,0|0,1:0|1:0,0:0:0:0:
304,235,60407,2,0,P|326:223|352:215,1,46.7399994294434,10|0,0:0|1:0,0:0:0:0:
221,288,60557,1,2,1:0:0:0:
120,105,60724,5,10,0:0:0:0:
122,112,61324,1,0,0:0:0:0:
124,126,61774,2,0,P|118:153|115:183,1,46.7399994294434,0|0,1:0|1:0,0:0:0:0:
210,65,61924,5,10,0:0:0:0:
288,210,62074,1,0,1:0:0:0:
377,21,62224,1,8,0:0:0:0:
403,38,62524,5,10,0:0:0:0:
403,38,62624,2,0,P|409:70|413:119,1,62.3199992392578,8|8,0:0|3:0,0:0:0:0:
309,119,62824,1,8,3:0:0:0:
309,119,62924,2,0,P|302:151|299:200,1,62.3199992392578,8|8,3:0|3:0,0:0:0:0:
378,234,63124,6,0,P|389:270|397:308,1,77.0799988238526,6|0,1:0|0:0,0:0:0:0:
283,372,63424,2,0,P|294:335|302:297,1,77.0799988238526,2|0,0:0|1:0,0:0:0:0:
162,204,63724,2,0,P|164:249|175:306,1,77.0799988238526,10|0,0:0|0:0,0:0:0:0:
67,331,64024,2,0,P|72:292|73:254,1,77.0799988238526,2|0,1:0|1:0,0:0:0:0:
9,182,64324,5,2,0:0:0:0:
73,108,64474,1,8,0:0:0:0:
27,19,64624,2,0,P|35:62|41:110,1,77.0799988238526,2|0,1:0|1:0,0:0:0:0:
150,174,64924,1,10,0:0:0:0:
174,45,65074,1,0,1:0:0:0:
150,174,65224,1,10,0:0:0:0:
224,120,65374,1,0,0:0:0:0:
335,214,65524,6,0,P|413:133|395:23,1,231.239996471558,6|0,1:0|1:0,0:0:0:0:
311,55,66124,2,0,P|382:65|484:100,1,154.159997647705,10|0,0:0|1:0,0:0:0:0:
512,162,66574,1,0,1:0:0:0:
446,237,66724,6,0,P|450:285|461:345,1,77.0799988238526,2|8,0:0|0:0,0:0:0:0:
361,384,67024,2,0,P|355:345|352:307,1,77.0799988238526,0|0,0:0|1:0,0:0:0:0:
316,199,67324,1,8,0:0:0:0:
220,289,67474,1,0,1:0:0:0:
272,371,67624,5,10,3:0:0:0:
228,203,67774,1,0,0:0:0:0:
72,368,67924,6,0,P|98:306|119:210,1,154.159997647705,6|2,1:0|0:0,0:0:0:0:
42,109,68374,1,0,1:0:0:0:
7,211,68524,2,0,P|44:202|105:195,1,77.0799988238526,10|0,0:0|0:0,0:0:0:0:
197,92,68824,2,0,P|158:86|121:77,1,77.0799988238526,2|0,1:0|1:0,0:0:0:0:
275,189,69124,5,2,0:0:0:0:
318,79,69274,1,8,0:0:0:0:
268,15,69424,2,0,P|280:98|297:185,1,154.159997647705,2|10,1:0|0:0,0:0:0:0:
392,242,69874,1,0,1:0:0:0:
501,135,70024,2,0,P|492:179|488:235,1,77.0799988238526,10|0,0:0|0:0,0:0:0:0:
452,375,70324,6,0,P|420:352|384:340,1,77.0799988238526,6|0,1:0|0:0,0:0:0:0:
244,317,70624,2,0,P|280:304|311:282,1,77.0799988238526,2|0,0:0|1:0,0:0:0:0:
151,297,70924,2,0,P|162:336|170:393,1,77.0799988238526,10|0,0:0|0:0,0:0:0:0:
211,235,71224,1,2,1:0:0:0:
211,235,71374,1,0,1:0:0:0:
81,154,71524,5,2,0:0:0:0:
81,154,71674,1,8,0:0:0:0:
0,258,71824,2,0,P|36:248|98:240,1,77.0799988238526,0|0,0:0|1:0,0:0:0:0:
165,117,72124,1,10,0:0:0:0:
62,67,72274,1,0,1:0:0:0:
171,9,72424,2,0,P|172:50|181:113,1,77.0799988238526,8|0,0:0|0:0,0:0:0:0:
305,176,72724,6,0,B|347:186|347:186|374:166,1,77.0799988238526,6|0,1:0|0:0,0:0:0:0:
360,61,73024,2,0,B|318:51|318:51|291:71,1,77.0799988238526,2|0,0:0|1:0,0:0:0:0:
444,108,73324,2,0,P|448:74|459:28,1,77.0799988238526,10|0,0:0|0:0,0:0:0:0:
318,251,73624,2,0,P|313:217|303:171,1,77.0799988238526,2|0,1:0|1:0,0:0:0:0:
444,275,73924,5,2,0:0:0:0:
366,336,74074,1,8,0:0:0:0:
222,273,74224,1,2,1:0:0:0:
318,251,74374,1,0,1:0:0:0:
244,361,74524,2,0,P|207:352|148:346,1,77.0799988238526,10|0,0:0|0:0,0:0:0:0:
71,226,74824,2,0,P|109:221|147:213,1,77.0799988238526,2|8,1:0|0:0,0:0:0:0:
274,100,75124,6,0,P|238:55|183:44,1,115.619998235779,2|0,0:0|1:0,0:0:0:0:
176,50,75424,2,0,P|215:43|265:27,1,77.0799988238526,14|0,0:0|0:0,0:0:0:0:
344,0,75724,1,2,1:0:0:0:
437,85,75874,1,8,0:0:0:0:
368,118,76024,2,0,L|357:23,1,77.0799988238526,2|0,0:0|1:0,0:0:0:0:
466,161,76324,5,14,0:0:0:0:
439,266,76474,1,0,1:0:0:0:
316,215,76624,2,0,L|410:199,1,77.0799988238526,8|0,0:0|0:0,0:0:0:0:
337,319,76924,1,0,1:0:0:0:
225,268,77074,5,8,0:0:0:0:
201,250,77149,1,8,0:0:0:0:
159,247,77224,1,8,0:0:0:0:
124,260,77299,1,8,0:0:0:0:
108,291,77374,1,8,0:0:0:0:
75,328,77449,1,8,0:0:0:0:
22,319,77524,6,0,P|13:279|8:220,1,77.0799988238526,6|0,1:0|0:0,0:0:0:0:
124,60,77824,2,0,P|115:99|110:159,1,77.0799988238526,10|0,0:0|0:0,0:0:0:0:
274,207,78124,1,2,1:0:0:0:
237,108,78274,1,0,1:0:0:0:
353,231,78424,2,0,L|331:339,1,77.0799988238526,10|0,0:0|0:0,0:0:0:0:
316,135,78724,5,2,1:0:0:0:
450,106,78874,1,0,1:0:0:0:
326,119,79024,2,0,P|320:82|299:31,1,77.0799988238526,10|0,0:0|1:0,0:0:0:0:
466,133,79324,2,0,P|452:169|446:207,1,77.0799988238526,2|0,0:0|1:0,0:0:0:0:
338,307,79624,2,0,P|351:343|357:381,1,77.0799988238526,10|2,0:0|0:0,0:0:0:0:
414,272,79924,6,0,B|323:238|329:321|247:298,1,154.159997647705,6|8,1:0|0:0,0:0:0:0:
154,367,80374,1,0,1:0:0:0:
206,166,80524,2,0,P|226:198|231:236,1,77.0799988238526,2|0,0:0|1:0,0:0:0:0:
64,275,80824,2,0,P|62:198|87:136,1,115.619998235779,8|0,0:0|0:0,0:0:0:0:
96,135,81124,5,2,1:0:0:0:
175,27,81274,1,0,1:0:0:0:
270,103,81424,2,0,P|308:118|356:119,1,77.0799988238526,8|0,0:0|1:0,0:0:0:0:
432,0,81724,1,2,0:0:0:0:
366,31,81874,1,0,1:0:0:0:
474,117,82024,2,0,P|458:180|454:249,1,115.619998235779,8|0,0:0|0:0,0:0:0:0:
465,251,82324,6,0,L|481:356,1,77.0799988238526,6|0,1:0|0:0,0:0:0:0:
372,282,82624,1,10,0:0:0:0:
352,359,82774,1,0,1:0:0:0:
277,235,82924,2,0,P|285:272|292:320,1,77.0799988238526,2|0,0:0|1:0,0:0:0:0:
172,251,83224,2,0,P|180:213|187:166,1,77.0799988238526,10|0,0:0|0:0,0:0:0:0:
60,241,83524,5,2,1:0:0:0:
107,322,83674,1,0,1:0:0:0:
47,217,83824,2,0,P|40:175|23:118,1,77.0799988238526,10|0,0:0|1:0,0:0:0:0:
185,3,84124,1,2,0:0:0:0:
113,29,84274,1,0,0:0:0:0:
287,98,84424,2,0,P|326:104|389:116,1,77.0799988238526,10|0,0:0|1:0,0:0:0:0:
479,85,84724,6,0,P|413:120|400:194,1,154.159997647705,6|8,1:0|0:0,0:0:0:0:
466,301,85174,1,0,1:0:0:0:
511,228,85324,2,0,L|413:217,1,77.0799988238526,2|0,0:0|0:0,0:0:0:0:
376,342,85624,2,0,L|278:353,1,77.0799988238526,8|0,0:0|3:0,0:0:0:0:
265,353,85849,1,8,0:0:0:0:
265,353,85924,5,2,1:0:0:0:
163,236,86074,1,0,1:0:0:0:
219,136,86224,1,8,0:0:0:0:
219,136,86524,6,0,P|224:159|231:180,3,38.5399994119263,8|8|8|8,0:0|0:0|0:0|0:0,0:0:0:0:
253,58,86824,2,0,P|270:51|291:45,1,38.5399994119263,10|8,0:0|0:0,0:0:0:0:
147,94,86974,2,0,P|129:87|109:81,1,38.5399994119263,10|8,0:0|0:0,0:0:0:0:
0,194,87124,6,0,P|48:180|99:171,1,101.679995966065,6|0,1:0|0:0,0:0:0:0:
229,282,87424,1,10,0:0:0:0:
96,248,87574,1,0,1:0:0:0:
291,240,87724,2,0,P|278:293|269:355,1,101.679995966065,2|0,0:0|1:0,0:0:0:0:
118,382,88024,2,0,P|109:331|98:282,1,101.679995966065,10|0,0:0|0:0,0:0:0:0:
190,205,88324,5,2,1:0:0:0:
221,81,88474,1,0,1:0:0:0:
367,184,88624,2,0,P|323:169|254:162,1,101.679995966065,10|0,0:0|1:0,0:0:0:0:
354,78,88924,2,0,P|401:64|465:58,1,101.679995966065,2|0,0:0|1:0,0:0:0:0:
456,238,89224,2,0,P|483:198|503:132,1,101.679995966065,10|0,0:0|0:0,0:0:0:0:
298,245,89524,6,0,P|312:290|320:355,1,101.679995966065,6|0,1:0|0:0,0:0:0:0:
161,198,89824,2,0,P|146:243|139:308,1,101.679995966065,10|0,0:0|1:0,0:0:0:0:
230,364,90124,1,2,0:0:0:0:
139,296,90274,1,0,1:0:0:0:
50,383,90424,2,0,L|162:374,1,101.679995966065,10|0,0:0|0:0,0:0:0:0:
250,250,90724,6,0,P|261:180|149:93,1,203.359991932129,2|8,1:0|0:0,0:0:0:0:
29,162,91174,1,0,1:0:0:0:
74,225,91324,2,0,P|120:226|179:216,1,101.679995966065,2|0,0:0|1:0,0:0:0:0:
273,102,91624,2,0,P|226:92|171:93,1,101.679995966065,8|0,0:0|0:0,0:0:0:0:
367,214,91924,6,0,B|358:104|420:133|388:3,1,203.359991932129,6|10,1:0|0:0,0:0:0:0:
307,78,92374,1,0,1:0:0:0:
449,168,92524,2,0,P|466:219|438:283,1,101.679995966065,2|0,0:0|1:0,0:0:0:0:
359,338,92824,2,0,P|306:340|251:354,1,101.679995966065,10|0,0:0|0:0,0:0:0:0:
148,267,93124,5,6,0:0:0:0:
42,225,93274,1,0,1:0:0:0:
155,367,93424,2,0,P|161:326|174:254,1,101.679995966065,10|0,0:0|1:0,0:0:0:0:
3,131,93724,2,0,P|11:181|19:231,1,101.679995966065,2|0,0:0|1:0,0:0:0:0:
245,194,94024,2,0,P|195:182|146:168,1,101.679995966065,10|0,0:0|0:0,0:0:0:0:
87,55,94324,6,0,P|157:27|232:29,1,152.519993949097,6|0,1:0|0:0,0:0:0:0:
248,39,94624,2,0,P|298:60|366:53,1,101.679995966065,10|0,0:0|1:0,0:0:0:0:
479,0,94924,1,2,0:0:0:0:
421,67,95074,1,0,1:0:0:0:
482,172,95224,2,0,L|506:66,1,101.679995966065,10|0,0:0|0:0,0:0:0:0:
383,160,95524,5,2,1:0:0:0:
435,253,95674,1,0,0:0:0:0:
398,323,95824,2,0,L|292:309,1,101.679995966065,8|8,0:0|0:0,0:0:0:0:
268,319,96049,1,8,0:0:0:0:
268,319,96124,2,0,L|197:336,2,67.7866639773764,8|8|8,0:0|0:0|3:0,0:0:0:0:
212,243,96424,1,8,3:0:0:0:
212,243,96524,2,0,L|136:230,1,67.7866639773764,8|8,3:0|3:0,0:0:0:0:
56,288,96724,5,6,1:0:0:0:
56,288,97924,1,6,1:0:0:0:
71,217,99124,6,0,P|75:189|80:146,1,52.48,2|0,1:0|3:0,0:0:0:0:
192,164,99424,2,0,P|185:130|185:81,1,68.8799978979493,2|0,1:0|3:0,0:0:0:0:
250,46,99724,1,10,0:0:0:0:
326,32,99874,1,8,0:0:0:0:
394,95,100024,5,10,0:0:0:0:
473,121,100174,1,8,0:0:0:0:
488,245,100324,5,10,0:0:0:0:
373,273,100474,1,10,0:0:0:0:
405,384,100624,1,10,0:0:0:0:
510,356,100774,1,10,0:0:0:0:
412,194,100924,5,10,0:0:0:0:
231,2,101149,5,0,1:0:0:0:
242,24,101224,2,0,P|181:67|106:73,1,152.519993949097,8|0,0:0|0:0,0:0:0:0:
84,51,101524,6,0,B|106:63|120:85|120:85|91:183,1,152.519993949097,6|0,1:0|0:0,0:0:0:0:
84,203,101824,1,0,0:0:0:0:
130,327,101974,1,0,1:0:0:0:
225,238,102124,2,0,B|338:197|317:296|426:265,1,203.359991932129,8|0,0:0|1:0,0:0:0:0:
493,169,102574,1,0,1:0:0:0:
386,71,102724,6,0,P|420:165|415:266,1,203.359991932129,2|0,0:0|1:0,0:0:0:0:
275,307,103174,1,0,1:0:0:0:
225,238,103324,2,0,P|220:137|254:42,1,203.359991932129,8|10,0:0|0:0,0:0:0:0:
323,206,103774,1,2,0:0:0:0:
201,260,103924,6,0,L|92:270,1,101.679995966065,6|0,1:0|0:0,0:0:0:0:
40,153,104224,2,0,L|149:163,1,101.679995966065,0|0,0:0|1:0,0:0:0:0:
68,352,104524,2,0,P|66:264|36:144,1,203.359991932129,8|0,0:0|1:0,0:0:0:0:
129,18,104974,1,0,1:0:0:0:
176,95,105124,6,0,P|221:117|279:117,1,101.679995966065,2|8,0:0|0:0,0:0:0:0:
372,51,105424,1,0,1:0:0:0:
372,51,105574,1,0,1:0:0:0:
425,135,105724,2,0,L|408:252,1,101.679995966065,8|2,0:0|0:0,0:0:0:0:
412,256,105949,1,0,0:0:0:0:
412,256,106024,1,2,0:0:0:0:
477,346,106174,1,0,0:0:0:0:
324,225,106324,6,0,B|218:193|247:297|123:297,1,203.359991932129,6|2,1:0|0:0,0:0:0:0:
52,249,106774,1,2,1:0:0:0:
138,131,106924,1,10,0:0:0:0:
161,206,107074,1,2,0:0:0:0:
31,87,107224,1,2,1:0:0:0:
196,33,107374,1,2,1:0:0:0:
251,92,107524,6,0,B|361:61|339:161|455:134,1,203.359991932129,0|0,0:0|1:0,0:0:0:0:
494,77,107974,1,2,1:0:0:0:
350,154,108124,2,0,P|338:209|333:269,1,101.679995966065,10|0,0:0|1:0,0:0:0:0:
487,339,108424,2,0,P|481:288|470:238,1,101.679995966065,10|2,0:0|0:0,0:0:0:0:
239,322,108724,6,0,P|307:292|405:368,1,203.359991932129,6|2,1:0|0:0,0:0:0:0:
389,380,109099,1,2,0:0:0:0:
389,380,109174,1,2,1:0:0:0:
239,322,109324,2,0,P|193:304|138:302,1,101.679995966065,10|2,0:0|0:0,0:0:0:0:
61,208,109624,2,0,P|111:205|158:187,1,101.679995966065,2|2,1:0|1:0,0:0:0:0:
261,72,109924,6,0,B|151:28|169:131|43:95,1,203.359991932129,2|0,0:0|0:0,0:0:0:0:
96,18,110374,1,0,0:0:0:0:
325,182,110524,2,0,P|374:168|452:155,1,101.679995966065,10|0,0:0|1:0,0:0:0:0:
370,62,110824,1,2,0:0:0:0:
370,62,110955,1,2,0:0:0:0:
227,170,111087,6,0,P|244:228|253:289,1,123,6|0,1:0|0:0,0:0:0:0:
251,301,111394,1,2,0:0:0:0:
316,366,111548,1,2,1:0:0:0:
416,303,111702,2,0,P|372:296|308:269,1,82,8|0,0:0|0:0,0:0:0:0:
222,384,112010,1,2,1:0:0:0:
113,275,112163,6,0,P|188:251|250:300,1,164,2|8,1:0|0:0,0:0:0:0:
33,331,112625,2,0,P|27:290|18:250,1,82,2|2,1:0|1:0,0:0:0:0:
130,177,112925,1,10,0:0:0:0:
178,77,113075,1,0,1:0:0:0:
37,141,113225,2,0,P|31:99|20:38,1,82,10|0,0:0|0:0,0:0:0:0:
220,154,113525,6,0,P|290:118|398:119,1,164,6|2,1:0|0:0,0:0:0:0:
480,211,113975,1,2,1:0:0:0:
386,275,114125,2,0,L|399:184,1,82,10|2,0:0|0:0,0:0:0:0:
406,190,114350,1,2,0:0:0:0:
406,190,114425,1,2,1:0:0:0:
472,304,114575,1,2,1:0:0:0:
379,378,114725,6,0,P|312:347|211:370,1,164
92,305,115175,1,0,1:0:0:0:
165,258,115325,5,10,0:0:0:0:
198,144,115475,1,0,0:0:0:0:
66,125,115625,5,10,3:0:0:0:
89,194,115775,1,2,0:0:0:0:
275,92,115925,5,6,1:0:0:0:
143,51,116075,1,2,0:0:0:0:
275,92,116225,1,2,0:0:0:0:
359,47,116375,1,2,1:0:0:0:
409,114,116525,2,0,P|399:159|394:229,1,82,10|2,0:0|0:0,0:0:0:0:
291,259,116825,2,0,P|286:218|277:178,1,82,2|2,1:0|1:0,0:0:0:0:
386,289,117125,5,2,0:0:0:0:
386,289,117275,1,10,0:0:0:0:
223,329,117425,1,2,1:0:0:0:
223,329,117575,1,2,1:0:0:0:
314,366,117725,2,0,P|293:287|231:236,1,164,8|10,0:0|0:0,0:0:0:0:
64,269,118175,1,2,0:0:0:0:
141,315,118325,6,0,P|143:277|159:212,1,82,6|2,1:0|0:0,0:0:0:0:
71,103,118625,2,0,P|79:143|81:184,1,82,2|0,0:0|0:0,0:0:0:0:
198,57,118925,2,0,P|156:50|111:29,1,82,10|2,0:0|0:0,0:0:0:0:
237,146,119225,1,2,1:0:0:0:
295,85,119375,6,0,B|386:43|374:121|488:63,1,164,10|2,0:0|1:0,0:0:0:0:
512,3,119825,2,0,P|487:81|481:162,1,164,10|10,0:0|3:0,0:0:0:0:
488,188,120200,1,2,0:0:0:0:
488,188,120275,2,0,L|496:251,1,41,10|2,3:0|3:0,0:0:0:0:
453,307,120425,2,0,L|448:361,3,41,10|10|10|10,0:0|3:0|3:0|3:0,0:0:0:0:
369,358,120725,6,0,B|353:315|325:281|243:268|167:304|134:390|35:389|-8:394|-73:290|-26:185|73:173|137:254,1,633.449980668641,6|0,1:0|0:0,0:0:0:0:
