osu file format v14

[General]
AudioFilename: audio.mp3
AudioLeadIn: 0
PreviewTime: 57557
Countdown: 0
SampleSet: Soft
StackLeniency: 0.7
Mode: 0
LetterboxInBreaks: 0
WidescreenStoryboard: 0

[Editor]
DistanceSpacing: 2.5
BeatDivisor: 4
GridSize: 32
TimelineZoom: 1.900004

[Metadata]
Title:secret philosophy
TitleUnicode:secret philosophy
Artist:KISIDA KYODAN & THE AKEBOSI ROCKETS
ArtistUnicode:岸田教団&THE明星ロケッツ
Creator:SMOKELIND
Version:hard
Source:東方地霊殿 ~ Subterranean Animism.
Tags:Japanese J-Rock Rock Ichigo TH ZUN Touhou Reitaisai 14 ラストリモート Last Remote ハルトマンの妖怪少女 Hartmann's Youkai Girl 古明地 こいし Koishi Komeiji ANCIENT FLOWER KISHIDA KYOUDAN AND AKEBOSHI iljaaz kowari atalanta glaceon talulah Video Game
BeatmapID:2039679
BeatmapSetID:974435

[Difficulty]
HPDrainRate:4.2
CircleSize:3.5
OverallDifficulty:5.7
ApproachRate:8
SliderMultiplier:1.27
SliderTickRate:1

[Events]
//Background and Video events
0,0,"Sweet7777.jpg",0,0
//Break Periods
2,58507,59357
//Storyboard Layer 0 (Background)
//Storyboard Layer 1 (Fail)
//Storyboard Layer 2 (Pass)
//Storyboard Layer 3 (Foreground)
//Storyboard Layer 4 (Overlay)
//Storyboard Sound Samples

[TimingPoints]
-474,300,4,2,7,47,1,0
576,-149.253731343284,4,2,7,47,0,0
1026,285.714285714286,4,2,7,47,1,0
1026,-149.253731343284,4,2,7,47,0,0
1454,344.827586206897,4,2,7,47,1,0
1454,-149.253731343284,4,2,7,47,0,0
1626,300,4,2,7,47,1,0
1626,-149.253731343284,4,2,7,47,0,0
1926,285.714285714286,4,2,7,47,1,0
1926,-149.253731343284,4,2,7,47,0,0
2640,315.789473684211,4,2,7,47,1,0
2640,-149.253731343284,4,2,7,47,0,0
2955,300,4,2,7,47,1,0
2955,-149.253731343284,4,2,7,47,0,0
4005,342.857142857143,4,2,7,47,1,0
4005,-149.253731343284,4,2,7,47,0,0
4176,300,4,2,7,47,1,0
4176,-149.253731343284,4,2,7,47,0,0
4326,292.682926829268,4,2,7,47,1,0
4326,-149.253731343284,4,2,7,47,0,0
5789,312.5,4,2,7,47,1,0
5789,-149.253731343284,4,2,7,47,0,0
6726,292.682926829268,4,2,7,47,1,0
6726,-149.253731343284,4,2,7,47,0,0
8189,303.030303030303,4,2,7,47,1,0
8189,-149.253731343284,4,2,7,47,0,0
8492,-129.87012987013,4,2,7,47,0,0
8946,320,4,2,7,47,1,0
8946,-149.253731343284,4,2,7,47,0,0
9426,375,4,2,7,47,1,0
9426,-129.87012987013,4,2,7,47,0,0
9613,245.901639344262,4,2,7,47,1,0
9613,-129.87012987013,4,2,7,47,0,0
9720,298.507462686567,4,2,7,47,1,0
9720,-129.87012987013,4,2,7,47,0,0
10317,300,4,2,7,77,1,0
10317,-114.942528735633,4,2,7,77,0,0
19917,-149.253731343284,4,2,7,47,0,0
28317,292.682926829268,4,2,7,47,1,0
28317,-149.253731343284,4,2,7,47,0,0
29487,315.374507227332,4,2,7,47,1,0
29487,-149.253731343284,4,2,7,47,0,0
30117,300,4,2,7,47,1,0
30117,-149.253731343284,4,2,7,47,0,0
30717,300,4,2,7,47,1,0
30717,-149.253731343284,4,2,7,47,0,0
35517,-149.253731343284,4,2,7,57,0,0
36717,-114.942528735633,4,2,7,67,0,0
38967,-114.942528735633,4,2,7,67,0,0
39407,300,4,2,7,67,1,0
39407,-114.942528735633,4,2,7,67,0,0
40307,300,4,2,7,67,1,0
40307,-114.942528735633,4,2,7,67,0,0
48707,-149.253731343285,4,2,7,57,0,0
53357,-129.870129870131,4,2,7,67,0,0
57707,-212.765957446809,4,2,7,47,0,0
60107,-129.87012987013,4,2,7,57,0,0
60724,300,4,2,7,57,1,0
60724,-129.87012987013,4,2,7,57,0,0
63124,-103.092783505155,4,2,7,87,0,0
77524,-93.4579439252336,4,2,7,87,0,0
99124,-129.87012987013,4,2,7,57,0,0
99724,-114.942528735632,4,2,7,67,0,0
100324,-114.942528735632,4,2,7,77,0,0
100924,-114.942528735632,4,2,7,87,0,0
101524,-114.942528735632,4,2,7,87,0,0
110824,263.157894736842,4,2,7,87,1,0
110824,-114.942528735632,4,2,7,87,0,0
111087,307.692307692308,4,2,7,87,1,0
111087,-114.942528735632,4,2,7,87,0,0
112625,300,4,2,7,87,1,0
112625,-114.942528735632,4,2,7,87,0,0
113525,300,4,2,7,87,1,0
113525,-114.942528735632,4,2,7,87,0,0
120724,-114.942528735632,4,2,7,77,0,0
120800,-833.333333333333,4,2,7,77,0,0
120875,-833.333333333333,4,2,7,7,0,0

[Colours]
Combo1 : 255,255,121
Combo2 : 255,165,121
Combo3 : 121,255,121

[HitObjects]
60,8,576,6,0,L|146:19,1,85.0899959750521,6|0,1:0|0:0,0:0:0:0:
191,89,1026,2,0,L|245:83,1,42.544997987526,10|2,0:0|0:0,0:0:0:0:
294,24,1311,2,0,L|336:28,1,42.544997987526,2|0,1:0|1:0,0:0:0:0:
404,78,1626,2,0,L|399:120,1,42.544997987526,10|2,0:0|1:0,0:0:0:0:
332,173,1926,2,0,P|317:198|305:229,1,42.544997987526,2|0,0:0|0:0,0:0:0:0:
309,295,2211,1,10,0:0:0:0:
309,295,2354,2,0,P|281:286|248:282,1,42.544997987526,2|2,3:0|3:0,0:0:0:0:
188,315,2640,1,2,1:0:0:0:
188,315,2797,1,8,0:0:0:0:
132,250,2955,6,0,P|127:196|117:152,1,85.0899959750521,6|0,1:0|1:0,0:0:0:0:
100,82,3405,2,0,P|127:89|160:92,1,42.544997987526,10|0,0:0|0:0,0:0:0:0:
211,43,3705,2,0,P|231:36|252:33,1,42.544997987526,2|2,1:0|1:0,0:0:0:0:
332,62,4005,1,10,0:0:0:0:
332,62,4176,2,0,P|322:88|315:117,1,42.544997987526,2|0,1:0|0:0,0:0:0:0:
363,174,4472,1,2,1:0:0:0:
363,174,4618,2,0,P|346:184|321:190,1,42.544997987526,10|0,0:0|1:0,0:0:0:0:
261,131,4911,2,0,P|242:120|222:115,1,42.544997987526,10|0,0:0|1:0,0:0:0:0:
163,177,5204,1,10,0:0:0:0:
235,221,5350,6,0,P|261:271|270:308,1,85.0899959750521,6|0,1:0|1:0,0:0:0:0:
347,331,5789,2,0,P|354:301|365:272,1,42.544997987526,10|2,0:0|0:0,0:0:0:0:
429,242,6101,2,0,P|421:212|411:183,1,42.544997987526,2|0,1:0|1:0,0:0:0:0:
420,115,6414,2,0,P|399:121|378:125,1,42.544997987526,10|2,0:0|1:0,0:0:0:0:
298,96,6726,2,0,L|289:37,2,42.544997987526,2|0|10,0:0|0:0|0:0,0:0:0:0:
242,161,7165,1,2,3:0:0:0:
242,161,7238,1,2,3:0:0:0:
242,161,7311,2,0,P|223:168|186:170,1,42.544997987526,2|0,1:0|1:0,0:0:0:0:
136,115,7604,1,8,0:0:0:0:
80,179,7750,6,0,P|68:222|59:271,1,85.0899959750521,6|0,1:0|1:0,0:0:0:0:
119,323,8189,2,0,P|139:314|169:312,1,42.544997987526,10|0,0:0|1:0,0:0:0:0:
198,328,8416,1,0,1:0:0:0:
198,328,8492,2,0,L|239:325,3,24.447499515049,8|8|8|8,0:0|3:0|3:0|3:0,0:0:0:0:
248,294,8795,2,0,L|255:256,2,24.447499515049,8|8|2,0:0|0:0|1:0,0:0:0:0:
434,81,9426,6,0,L|371:97,1,48.894999030098,2|0,0:0|1:0,0:0:0:0:
354,133,9720,2,0,L|288:124,1,48.894999030098,8|0,0:0|1:0,0:0:0:0:
305,126,10317,6,0,P|257:155|197:160,1,110.490000927269,6|2,1:0|0:0,0:0:0:0:
108,128,10767,1,2,1:0:0:0:
109,127,10917,2,0,P|119:153|125:190,1,55.2450004636345,10|2,0:0|0:0,0:0:0:0:
46,242,11217,2,0,P|35:267|30:294,1,55.2450004636345,2|2,1:0|1:0,0:0:0:0:
109,356,11517,6,0,L|172:340,1,55.2450004636345,0|10,0:0|0:0,0:0:0:0:
243,285,11817,1,2,1:0:0:0:
243,285,11967,1,2,1:0:0:0:
329,333,12117,2,0,L|382:346,1,55.2450004636345,10|2,0:0|1:0,0:0:0:0:
452,275,12417,2,0,L|465:221,1,55.2450004636345,10|0,0:0|0:0,0:0:0:0:
494,126,12717,6,0,P|464:134|434:134,1,55.2450004636345,6|0,1:0|0:0,0:0:0:0:
342,112,13017,1,2,0:0:0:0:
342,112,13167,1,2,1:0:0:0:
252,156,13317,2,0,P|221:151|193:138,1,55.2450004636345,10|0,0:0|0:0,0:0:0:0:
127,72,13617,2,0,P|122:102|109:130,1,55.2450004636345,2|2,1:0|1:0,0:0:0:0:
28,178,13917,6,0,P|52:213|62:238,1,55.2450004636345,0|10,0:0|0:0,0:0:0:0:
37,321,14217,1,2,1:0:0:0:
37,321,14367,1,2,1:0:0:0:
130,285,14517,2,0,P|156:291|182:302,1,55.2450004636345,10|2,0:0|1:0,0:0:0:0:
265,357,14817,2,0,P|290:346|317:339,1,55.2450004636345,10|0,3:0|0:0,0:0:0:0:
415,356,15117,6,0,B|426:291|397:309|406:242,1,110.490000927269,6|2,1:0|0:0,0:0:0:0:
458,162,15567,1,2,1:0:0:0:
458,162,15717,2,0,P|442:118|430:101,1,55.2450004636345,10|2,0:0|0:0,0:0:0:0:
356,53,16017,2,0,P|329:67|294:73,1,55.2450004636345,2|0,1:0|1:0,0:0:0:0:
218,21,16317,6,0,L|202:84,1,55.2450004636345,0|10,0:0|0:0,0:0:0:0:
147,155,16617,1,2,1:0:0:0:
147,155,16767,1,2,1:0:0:0:
195,241,16917,2,0,L|208:294,1,55.2450004636345,10|2,0:0|1:0,0:0:0:0:
137,364,17217,2,0,L|83:377,1,55.2450004636345,10|0,0:0|0:0,0:0:0:0:
23,298,17517,6,0,P|13:263|13:233,1,55.2450004636345,6|0,1:0|0:0,0:0:0:0:
38,148,17817,1,2,0:0:0:0:
38,148,17967,1,2,1:0:0:0:
131,181,18117,2,0,P|158:178|184:170,1,55.2450004636345,14|0,0:0|0:0,0:0:0:0:
253,97,18417,2,0,P|280:99|306:107,1,55.2450004636345,2|2,1:0|1:0,0:0:0:0:
349,197,18717,5,0,0:0:0:0:
349,197,18867,1,10,0:0:0:0:
274,262,19017,2,0,P|291:289|301:319,1,55.2450004636345,2|0,1:0|3:0,0:0:0:0:
334,346,19242,1,8,0:0:0:0:
334,346,19317,2,0,P|364:335|395:333,1,55.2450004636345,8|8,0:0|3:0,0:0:0:0:
460,264,19617,2,0,P|465:232|475:199,1,55.2450004636345,10|0,3:0|0:0,0:0:0:0:
438,131,19917,6,0,P|471:92|518:84,2,85.0899959750521,6|0|0,1:0|0:0|0:0,0:0:0:0:
370,183,20667,1,2,0:0:0:0:
370,183,20817,1,2,0:0:0:0:
295,142,20967,2,0,P|268:125|167:103,1,127.634993962578,2|0,0:0|0:0,0:0:0:0:
95,131,21567,1,0,0:0:0:0:
95,131,21717,2,0,P|105:154|111:183,1,42.544997987526,0|0,3:0|0:0,0:0:0:0:
56,237,22017,1,2,0:0:0:0:
56,237,22167,1,2,1:0:0:0:
106,305,22317,6,0,P|72:346|29:361,2,85.0899959750521,2|0|0,1:0|0:0|0:0,0:0:0:0:
172,251,23067,1,2,0:0:0:0:
172,251,23217,1,2,0:0:0:0:
239,302,23367,2,0,B|315:303|275:342|363:339,1,127.634993962578,2|0,0:0|0:0,0:0:0:0:
436,307,23967,2,0,P|443:276|452:246,1,42.544997987526,0|0,3:0|0:0,0:0:0:0:
483,188,24267,2,0,P|475:157|466:127,1,42.544997987526,0|2,3:0|0:0,0:0:0:0:
420,79,24567,1,2,0:0:0:0:
369,147,24717,6,0,P|371:191|378:240,2,85.0899959750521,2|0|0,1:0|0:0|3:0,0:0:0:0:
313,81,25467,1,0,0:0:0:0:
313,81,25617,1,2,0:0:0:0:
258,146,25767,2,0,P|207:180|130:179,1,127.634993962578,2|0,0:0|0:0,0:0:0:0:
57,182,26367,2,0,P|65:215|76:271,1,85.0899959750521,0|2,3:0|0:0,0:0:0:0:
92,349,26817,2,0,P|105:358|130:353,1,42.544997987526
168,276,27117,6,0,L|180:190,2,85.0899959750521,2|0|0,1:0|0:0|0:0,0:0:0:0:
222,341,27867,1,0,0:0:0:0:
222,341,28017,1,2,0:0:0:0:
287,287,28167,2,0,L|343:274,1,42.544997987526,2|0,3:0|0:0,0:0:0:0:
366,201,28463,2,0,L|310:188,1,42.544997987526,0|0,3:0|0:0,0:0:0:0:
277,120,28756,2,0,L|369:103,1,85.0899959750521,0|0,3:0|0:0,0:0:0:0:
408,33,29195,2,0,L|352:20,1,42.544997987526,2|2,0:0|0:0,0:0:0:0:
283,0,29487,5,6,1:0:0:0:
120,361,30267,6,0,L|139:316,1,42.544997987526,2|2,0:0|0:0,0:0:0:0:
126,241,30567,2,0,P|155:202|270:205,1,170.179991950104,2|0,0:0|3:0,0:0:0:0:
268,203,31617,1,2,0:0:0:0:
268,203,31767,1,2,0:0:0:0:
316,133,31917,6,0,L|403:153,2,85.0899959750521,2|0|0,1:0|0:0|0:0,0:0:0:0:
265,66,32667,1,2,0:0:0:0:
265,66,32817,1,2,0:0:0:0:
193,112,32967,2,0,L|140:122,1,42.544997987526,2|0,3:0|0:0,0:0:0:0:
69,102,33267,2,0,L|80:57,2,42.544997987526,0|0|0,3:0|0:0|0:0,0:0:0:0:
0,151,33717,2,0,L|11:193,1,42.544997987526
60,262,34017,2,0,L|102:252,1,42.544997987526,2|0,0:0|0:0,0:0:0:0:
187,251,34317,6,0,L|207:349,2,85.0899959750521,2|0|0,1:0|1:0|1:0,0:0:0:0:
205,174,35067,1,2,0:0:0:0:
205,174,35217,2,0,P|229:158|260:147,1,42.544997987526,2|2,1:0|0:0,0:0:0:0:
332,146,35517,6,0,L|325:105,1,42.544997987526,0|0,1:0|0:0,0:0:0:0:
416,80,35817,2,0,L|408:121,1,42.544997987526,0|0,1:0|0:0,0:0:0:0:
450,186,36117,2,0,L|491:178,1,42.544997987526,0|0,1:0|0:0,0:0:0:0:
512,274,36417,2,0,L|462:265,1,42.544997987526,2|0,1:0|0:0,0:0:0:0:
392,294,36717,6,0,P|382:319|375:346,1,55.2450004636345,14|0,0:0|1:0,0:0:0:0:
297,293,37017,1,0,1:0:0:0:
297,293,37167,2,0,P|290:266|280:240,1,55.2450004636345,8|0,3:0|1:0,0:0:0:0:
234,152,37467,1,0,1:0:0:0:
234,152,37617,2,0,P|207:146|181:136,1,55.2450004636345,10|2,0:0|1:0,0:0:0:0:
179,40,37917,5,8,0:0:0:0:
179,40,38067,1,0,1:0:0:0:
82,62,38217,2,0,P|52:50|16:46,1,55.2450004636345,8|2,0:0|3:0,0:0:0:0:
23,92,38442,1,0,3:0:0:0:
23,92,38517,2,0,L|38:162,1,55.2450004636345,10|10,0:0|0:0,0:0:0:0:
52,198,38742,2,0,L|7:208,2,27.6225002318172,8|8|8,0:0|0:0|0:0,0:0:0:0:
97,227,38967,6,0,B|162:238|131:261|201:273,1,110.490000927269,6|0,1:0|1:0,0:0:0:0:
302,258,39407,1,8,0:0:0:0:
302,258,39557,1,2,0:0:0:0:
386,205,39707,2,0,P|393:167|395:139,1,55.2450004636345,2|0,1:0|1:0,0:0:0:0:
328,75,40007,1,10,0:0:0:0:
259,146,40157,6,0,B|193:154|221:123|133:131,1,110.490000927269,6|0,1:0|1:0,0:0:0:0:
56,161,40607,1,8,0:0:0:0:
56,161,40757,1,6,1:0:0:0:
131,225,40907,2,0,P|146:252|155:293,1,55.2450004636345,2|0,0:0|1:0,0:0:0:0:
121,369,41207,1,10,0:0:0:0:
213,333,41357,6,0,P|270:316|335:300,1,110.490000927269,6|0,1:0|1:0,0:0:0:0:
414,334,41807,2,0,P|424:304|428:273,1,55.2450004636345,10|0,0:0|0:0,0:0:0:0:
357,210,42107,2,0,P|346:180|343:149,1,55.2450004636345,2|0,1:0|1:0,0:0:0:0:
389,68,42407,1,10,0:0:0:0:
299,24,42557,6,0,P|247:47|171:65,1,110.490000927269,2|0,1:0|1:0,0:0:0:0:
96,53,43007,2,0,P|106:78|115:111,1,55.2450004636345,8|0,0:0|0:0,0:0:0:0:
100,153,43232,1,8,0:0:0:0:
100,153,43307,2,0,P|89:178|81:211,1,55.2450004636345,2|2,1:0|1:0,0:0:0:0:
129,293,43607,1,8,0:0:0:0:
201,224,43757,6,0,P|272:194|322:212,1,110.490000927269,6|0,1:0|1:0,0:0:0:0:
331,296,44207,1,8,0:0:0:0:
331,296,44357,1,2,0:0:0:0:
249,352,44507,2,0,P|209:365|174:367,1,55.2450004636345,2|0,1:0|1:0,0:0:0:0:
129,293,44807,1,10,0:0:0:0:
67,215,44957,6,0,P|86:157|100:83,1,110.490000927269,6|0,1:0|1:0,0:0:0:0:
165,36,45407,2,0,P|203:38|226:56,1,55.2450004636345,8|4,0:0|1:0,0:0:0:0:
306,103,45707,1,2,0:0:0:0:
306,103,45857,2,0,P|330:89|356:83,1,55.2450004636345,2|8,1:0|0:0,0:0:0:0:
452,114,46157,6,0,P|431:170|413:243,1,110.490000927269,6|0,1:0|1:0,0:0:0:0:
343,285,46607,2,0,P|332:256|316:227,1,55.2450004636345,10|0,0:0|3:0,0:0:0:0:
277,209,46832,1,0,3:0:0:0:
277,209,46907,2,0,P|249:203|223:195,1,55.2450004636345,2|0,1:0|1:0,0:0:0:0:
145,133,47207,1,10,0:0:0:0:
76,205,47357,6,0,P|92:260|109:328,1,110.490000927269,6|0,1:0|1:0,0:0:0:0:
189,365,47807,1,8,0:0:0:0:
189,365,47957,1,0,1:0:0:0:
255,291,48107,1,8,0:0:0:0:
255,291,48257,1,0,1:0:0:0:
327,359,48407,2,0,L|412:331,1,82.8675006954518,0|0,3:0|0:0,0:0:0:0:
429,289,48707,5,6,1:0:0:0:
392,62,49157,1,2,1:0:0:0:
242,236,49607,2,0,L|184:222,1,42.544997987526,10|0,0:0|0:0,0:0:0:0:
126,207,49907,5,6,1:0:0:0:
328,98,50357,1,2,1:0:0:0:
90,49,50807,1,10,0:0:0:0:
89,202,51107,6,0,L|130:216,1,42.544997987526,6|2,1:0|0:0,0:0:0:0:
205,192,51407,1,2,3:0:0:0:
205,192,51557,2,0,P|236:181|293:192,1,85.0899959750521,2|0,1:0|1:0,0:0:0:0:
332,260,52007,2,0,P|361:258|389:247,1,42.544997987526,10|0,0:0|1:0,0:0:0:0:
416,180,52307,5,10,0:0:0:0:
416,180,52457,1,0,1:0:0:0:
404,95,52607,1,8,0:0:0:0:
404,95,52757,1,2,0:0:0:0:
329,54,52907,2,0,P|299:64|273:72,1,42.544997987526,8|8,3:0|0:0,0:0:0:0:
250,47,53132,2,0,L|245:11,2,21.272498993763,8|10|8,0:0|0:0|0:0,0:0:0:0:
232,85,53357,6,0,P|201:138|183:171,1,97.789998060196,6|0,1:0|1:0,0:0:0:0:
173,256,53807,2,0,P|149:266|119:267,1,48.894999030098,8|0,0:0|0:0,0:0:0:0:
44,212,54107,2,0,P|34:189|32:165,1,48.894999030098,0|0,1:0|1:0,0:0:0:0:
67,74,54407,1,10,0:0:0:0:
111,161,54557,6,0,P|158:181|211:166,1,97.789998060196,2|0,1:0|1:0,0:0:0:0:
253,87,55007,2,0,P|294:71|312:70,1,48.894999030098,8|2,0:0|0:0,0:0:0:0:
387,112,55307,1,2,1:0:0:0:
387,112,55457,1,2,1:0:0:0:
341,198,55607,1,10,0:0:0:0:
386,284,55757,6,0,P|350:329|298:345,1,97.789998060196,6|0,1:0|1:0,0:0:0:0:
231,291,56207,2,0,P|203:279|168:274,1,48.894999030098,8|2,0:0|1:0,0:0:0:0:
137,288,56432,1,0,1:0:0:0:
137,288,56507,2,0,L|127:331,3,24.447499515049,10|8|8|8,0:0|3:0|3:0|3:0,0:0:0:0:
102,344,56807,1,8,0:0:0:0:
102,344,56882,1,8,0:0:0:0:
102,344,56957,1,0,1:0:0:0:
159,28,58307,5,6,1:0:0:0:
159,28,60107,6,0,L|154:71,3,24.447499515049,10|0|0|0,0:0|1:0|1:0|1:0,0:0:0:0:
193,85,60407,2,0,L|198:128,3,24.447499515049,10|0|2|0,0:0|1:0|1:0|1:0,0:0:0:0:
170,151,60724,1,10,0:0:0:0:
170,151,61774,5,0,1:0:0:0:
170,151,61849,1,0,1:0:0:0:
170,151,61924,2,0,L|231:142,2,48.894999030098,10|0|8,0:0|1:0|0:0,0:0:0:0:
361,112,62524,6,0,L|369:68,2,32.5966660200653,10|8|8,0:0|0:0|3:0,0:0:0:0:
379,175,62824,2,0,L|420:178,2,32.5966660200653,8|8|8,3:0|3:0|3:0,0:0:0:0:
319,219,63124,6,0,L|246:231,1,61.595001456791,6|0,1:0|0:0,0:0:0:0:
194,319,63424,2,0,L|254:328,1,61.595001456791,2|0,0:0|1:0,0:0:0:0:
363,302,63724,2,0,L|436:290,1,61.595001456791,10|0,0:0|0:0,0:0:0:0:
488,202,64024,2,0,L|427:192,1,61.595001456791,2|0,1:0|1:0,0:0:0:0:
331,136,64324,6,0,P|308:155|269:164,1,61.595001456791,2|8,0:0|0:0,0:0:0:0:
202,82,64624,2,0,P|178:62|148:54,1,61.595001456791,2|0,1:0|1:0,0:0:0:0:
43,87,64924,2,0,P|24:110|15:149,1,61.595001456791,10|0,0:0|1:0,0:0:0:0:
97,216,65224,2,0,P|116:239|124:269,1,61.595001456791,10|0,0:0|0:0,0:0:0:0:
115,380,65524,6,0,P|171:332|232:339,1,123.190002913582,6|0,1:0|0:0,0:0:0:0:
318,377,65974,1,0,1:0:0:0:
318,377,66124,2,0,P|338:343|344:305,1,61.595001456791,10|0,0:0|0:0,0:0:0:0:
268,239,66424,2,0,P|248:205|242:167,1,61.595001456791,0|0,1:0|1:0,0:0:0:0:
273,77,66724,6,0,B|357:72|317:113|423:101,1,123.190002913582,2|0,0:0|0:0,0:0:0:0:
478,171,67174,1,0,1:0:0:0:
478,171,67324,2,0,P|462:196|453:233,1,61.595001456791,8|0,0:0|1:0,0:0:0:0:
481,335,67624,1,10,3:0:0:0:
481,335,67774,1,0,0:0:0:0:
385,278,67924,6,0,P|357:295|312:304,1,61.595001456791,6|0,1:0|0:0,0:0:0:0:
244,230,68224,2,0,P|217:213|188:205,1,61.595001456791,2|0,0:0|1:0,0:0:0:0:
99,271,68524,2,0,P|82:243|73:198,1,61.595001456791,10|0,0:0|0:0,0:0:0:0:
147,130,68824,2,0,P|163:103|171:74,1,61.595001456791,2|0,1:0|1:0,0:0:0:0:
267,18,69124,6,0,P|300:35|354:43,1,61.595001456791,2|8,0:0|0:0,0:0:0:0:
389,131,69424,2,0,P|359:139|332:154,1,61.595001456791,2|0,1:0|1:0,0:0:0:0:
259,237,69724,2,0,P|292:254|346:262,1,61.595001456791,10|0,0:0|1:0,0:0:0:0:
381,350,70024,1,10,0:0:0:0:
381,350,70174,1,0,0:0:0:0:
452,269,70324,6,0,P|467:230|465:194,1,61.595001456791,6|0,1:0|0:0,0:0:0:0:
389,131,70624,2,0,P|376:103|373:72,1,61.595001456791,2|0,0:0|1:0,0:0:0:0:
277,16,70924,2,0,P|274:46|261:74,1,61.595001456791,10|0,0:0|0:0,0:0:0:0:
183,154,71224,2,0,P|185:184|198:212,1,61.595001456791,2|0,1:0|1:0,0:0:0:0:
237,317,71524,6,0,P|175:284|103:275,1,123.190002913582,2|0,0:0|0:0,0:0:0:0:
28,331,71974,1,0,1:0:0:0:
28,331,72124,2,0,P|22:293|13:255,1,61.595001456791,10|0,0:0|1:0,0:0:0:0:
79,179,72424,2,0,P|85:141|94:103,1,61.595001456791,8|0,0:0|0:0,0:0:0:0:
127,13,72724,6,0,P|153:37|192:52,1,61.595001456791,6|0,1:0|0:0,0:0:0:0:
263,117,73024,2,0,P|289:101|319:94,1,61.595001456791,2|0,0:0|1:0,0:0:0:0:
428,117,73324,2,0,P|403:143|388:182,1,61.595001456791,10|0,0:0|0:0,0:0:0:0:
324,253,73624,2,0,P|339:279|346:309,1,61.595001456791,2|0,1:0|1:0,0:0:0:0:
254,372,73924,2,0,P|219:374|186:355,1,61.595001456791,2|8,0:0|0:0,0:0:0:0:
188,251,74224,2,0,P|185:213|173:178,1,61.595001456791,2|0,1:0|1:0,0:0:0:0:
89,124,74524,2,0,P|100:92|139:52,1,61.595001456791,10|0,0:0|0:0,0:0:0:0:
226,54,74824,2,0,P|262:69|302:74,1,61.595001456791,2|8,1:0|0:0,0:0:0:0:
389,35,75124,6,0,L|371:120,1,61.595001456791,2|0,0:0|1:0,0:0:0:0:
397,147,75349,1,0,1:0:0:0:
397,147,75424,2,0,L|415:232,1,61.595001456791,14|0,0:0|0:0,0:0:0:0:
456,308,75724,2,0,L|371:290,1,61.595001456791,2|8,1:0|0:0,0:0:0:0:
300,352,76024,2,0,L|215:370,1,61.595001456791,2|0,0:0|1:0,0:0:0:0:
137,320,76324,5,14,0:0:0:0:
137,320,76474,1,0,1:0:0:0:
229,259,76624,2,0,P|242:225|250:187,1,61.595001456791,8|0,0:0|0:0,0:0:0:0:
150,147,76924,2,0,P|138:118|131:88,1,61.595001456791,0|8,1:0|0:0,0:0:0:0:
163,42,77149,1,8,0:0:0:0:
163,42,77224,2,0,P|184:49|215:54,3,30.7975007283955,8|8|8|8,0:0|0:0|0:0|0:0,0:0:0:0:
266,41,77524,6,0,L|340:28,1,67.9449979264832,6|0,1:0|0:0,0:0:0:0:
379,143,77824,2,0,L|312:131,1,67.9449979264832,10|0,0:0|0:0,0:0:0:0:
190,109,78124,1,2,1:0:0:0:
190,109,78274,1,0,1:0:0:0:
106,198,78424,2,0,L|121:276,1,67.9449979264832,10|0,0:0|0:0,0:0:0:0:
184,368,78724,6,0,L|264:346,1,67.9449979264832,2|0,1:0|1:0,0:0:0:0:
285,233,79024,2,0,L|350:214,1,67.9449979264832,10|0,0:0|1:0,0:0:0:0:
456,275,79324,2,0,L|474:209,1,67.9449979264832,2|0,0:0|1:0,0:0:0:0:
462,87,79624,1,10,0:0:0:0:
462,87,79774,1,2,0:0:0:0:
348,131,79924,6,0,L|213:164,1,135.889995852966,6|8,1:0|0:0,0:0:0:0:
130,76,80374,1,0,1:0:0:0:
130,76,80524,2,0,L|117:162,1,67.9449979264832,2|0,0:0|1:0,0:0:0:0:
32,228,80824,2,0,L|45:314,1,67.9449979264832,8|0,0:0|0:0,0:0:0:0:
145,360,81124,6,0,L|166:274,1,67.9449979264832,2|0,1:0|1:0,0:0:0:0:
275,250,81424,2,0,L|254:164,1,67.9449979264832,8|0,0:0|1:0,0:0:0:0:
243,62,81724,2,0,L|329:83,1,67.9449979264832,2|0,0:0|1:0,0:0:0:0:
353,192,82024,2,0,L|439:171,1,67.9449979264832,8|0,0:0|0:0,0:0:0:0:
468,63,82324,6,0,L|382:42,1,67.9449979264832,6|0,1:0|0:0,0:0:0:0:
280,30,82624,1,10,0:0:0:0:
280,30,82774,1,0,1:0:0:0:
260,150,82924,2,0,L|193:166,1,67.9449979264832,2|0,0:0|1:0,0:0:0:0:
75,195,83224,2,0,L|91:128,1,67.9449979264832,10|0,0:0|0:0,0:0:0:0:
117,9,83524,5,2,1:0:0:0:
117,9,83674,1,0,1:0:0:0:
227,60,83824,2,0,L|293:43,1,67.9449979264832,10|0,0:0|1:0,0:0:0:0:
412,18,84124,2,0,L|428:84,1,67.9449979264832,2|0,0:0|0:0,0:0:0:0:
352,180,84424,2,0,L|335:246,1,67.9449979264832,10|0,0:0|1:0,0:0:0:0:
385,357,84724,6,0,L|224:317,1,135.889995852966,6|8,1:0|0:0,0:0:0:0:
135,356,85174,1,0,1:0:0:0:
135,356,85324,2,0,L|121:275,1,67.9449979264832,2|0,0:0|0:0,0:0:0:0:
58,184,85624,2,0,L|77:75,1,101.917496889725,8|8,0:0|0:0,0:0:0:0:
107,30,85924,6,0,P|145:46|196:55,1,67.9449979264832,2|0,1:0|1:0,0:0:0:0:
219,165,86224,2,0,P|250:151|282:142,1,67.9449979264832,8|0,0:0|0:0,0:0:0:0:
401,111,86524,2,0,L|449:104,3,33.9724989632416,8|8|8|8,0:0|0:0|0:0|0:0,0:0:0:0:
398,155,86824,2,0,L|446:148,3,33.9724989632416,10|8|10|8,0:0|0:0|0:0|0:0,0:0:0:0:
391,196,87124,6,0,P|372:223|356:266,1,67.9449979264832,6|0,1:0|0:0,0:0:0:0:
385,375,87424,1,10,0:0:0:0:
385,375,87574,1,0,1:0:0:0:
285,303,87724,2,0,P|251:302|217:308,1,67.9449979264832,2|0,0:0|1:0,0:0:0:0:
106,358,88024,2,0,P|89:319|87:272,1,67.9449979264832,10|0,0:0|0:0,0:0:0:0:
99,171,88324,6,0,P|129:192|167:201,1,67.9449979264832,2|0,1:0|1:0,0:0:0:0:
233,102,88624,2,0,P|260:82|292:72,1,67.9449979264832,10|0,0:0|1:0,0:0:0:0:
410,106,88924,2,0,P|396:141|390:187,1,67.9449979264832,2|0,0:0|1:0,0:0:0:0:
274,208,89224,2,0,P|287:243|294:289,1,67.9449979264832,10|0,0:0|0:0,0:0:0:0:
387,350,89524,6,0,P|393:316|406:285,1,67.9449979264832,6|0,1:0|0:0,0:0:0:0:
497,202,89824,2,0,P|490:168|477:137,1,67.9449979264832,10|0,0:0|1:0,0:0:0:0:
419,29,90124,2,0,P|387:16|354:9,1,67.9449979264832,2|0,0:0|1:0,0:0:0:0:
271,100,90424,2,0,P|239:112|206:119,1,67.9449979264832,10|0,0:0|0:0,0:0:0:0:
95,67,90724,6,0,P|117:125|138:211,1,135.889995852966,2|8,1:0|0:0,0:0:0:0:
67,297,91174,1,0,1:0:0:0:
67,297,91324,2,0,P|102:304|143:321,1,67.9449979264832,2|0,0:0|1:0,0:0:0:0:
224,235,91624,2,0,P|255:223|289:216,1,67.9449979264832,8|0,0:0|0:0,0:0:0:0:
397,274,91924,6,0,P|411:237|414:186,1,67.9449979264832,6|0,1:0|0:0,0:0:0:0:
376,91,92224,1,10,0:0:0:0:
376,91,92374,1,0,1:0:0:0:
304,190,92524,2,0,P|267:176|216:173,1,67.9449979264832,2|0,0:0|1:0,0:0:0:0:
167,73,92824,2,0,P|130:87|79:90,1,67.9449979264832,10|0,0:0|0:0,0:0:0:0:
4,17,93124,6,0,P|18:47|25:90,1,67.9449979264832,6|0,0:0|1:0,0:0:0:0:
10,203,93424,1,10,0:0:0:0:
10,203,93574,1,0,1:0:0:0:
65,311,93724,2,0,P|104:308|134:291,1,67.9449979264832,2|0,0:0|1:0,0:0:0:0:
218,211,94024,2,0,P|257:214|287:231,1,67.9449979264832,10|0,0:0|0:0,0:0:0:0:
352,327,94324,6,0,L|373:246,1,67.9449979264832,6|0,1:0|0:0,0:0:0:0:
474,197,94624,2,0,L|453:116,1,67.9449979264832,10|0,0:0|1:0,0:0:0:0:
361,53,94924,2,0,L|295:35,1,67.9449979264832,2|0,0:0|1:0,0:0:0:0:
231,141,95224,2,0,L|165:158,1,67.9449979264832,10|0,0:0|0:0,0:0:0:0:
60,94,95524,5,2,1:0:0:0:
60,94,95674,1,0,0:0:0:0:
171,43,95824,2,0,L|264:21,1,67.9449979264832,8|8,0:0|0:0,0:0:0:0:
293,51,96049,1,8,0:0:0:0:
293,51,96124,2,0,L|286:109,2,45.2966652843222,8|8|8,0:0|0:0|3:0,0:0:0:0:
373,34,96424,2,0,L|380:92,2,45.2966652843222,8|8|8,3:0|3:0|3:0,0:0:0:0:
450,7,96724,5,6,1:0:0:0:
450,7,97924,5,6,1:0:0:0:
450,7,99124,6,0,P|439:50|431:102,1,97.789998060196,2|2,1:0|1:0,0:0:0:0:
467,193,99574,1,0,3:0:0:0:
411,288,99724,2,0,P|386:302|345:309,1,55.2450004636345,10|8,0:0|0:0,0:0:0:0:
280,231,100024,1,10,0:0:0:0:
280,231,100174,1,8,0:0:0:0:
199,307,100324,6,0,P|195:271|186:228,1,55.2450004636345,10|10,0:0|0:0,0:0:0:0:
124,163,100624,1,10,0:0:0:0:
124,163,100774,1,10,0:0:0:0:
149,55,100924,2,0,P|198:35|238:40,1,82.8675006954518,10|0,0:0|1:0,0:0:0:0:
258,82,101224,2,0,P|309:101|343:99,1,82.8675006954518,8|0,0:0|0:0,0:0:0:0:
378,73,101524,6,0,P|360:137|349:203,1,110.490000927269,6|0,1:0|0:0,0:0:0:0:
389,272,101974,1,0,1:0:0:0:
389,272,102124,2,0,P|328:277|272:293,1,110.490000927269,8|0,0:0|1:0,0:0:0:0:
196,342,102574,1,0,1:0:0:0:
196,342,102724,2,0,P|179:317|167:276,1,55.2450004636345,2|8,0:0|0:0,0:0:0:0:
202,199,103024,2,0,P|217:165|219:132,1,55.2450004636345,0|0,1:0|1:0,0:0:0:0:
171,59,103324,2,0,P|205:45|237:44,1,55.2450004636345,8|2,0:0|1:0,0:0:0:0:
294,113,103624,2,0,P|328:127|360:128,1,55.2450004636345,10|2,0:0|0:0,0:0:0:0:
392,111,103849,5,0,0:0:0:0:
392,111,103924,2,0,P|368:177|354:236,1,110.490000927269,6|0,1:0|0:0,0:0:0:0:
367,314,104374,1,0,1:0:0:0:
367,314,104524,2,0,P|327:275|257:264,1,110.490000927269,8|0,0:0|1:0,0:0:0:0:
190,315,104974,5,0,1:0:0:0:
190,315,105124,2,0,P|184:275|171:240,1,55.2450004636345,2|8,0:0|0:0,0:0:0:0:
118,181,105424,1,0,1:0:0:0:
118,181,105574,1,0,1:0:0:0:
57,101,105724,2,0,P|88:75|116:63,1,55.2450004636345,8|2,0:0|0:0,0:0:0:0:
199,88,106024,2,0,P|237:99|268:98,1,55.2450004636345,2|0,0:0|0:0,0:0:0:0:
332,41,106324,6,0,P|377:34|421:78,1,110.490000927269,6|2,1:0|0:0,0:0:0:0:
405,174,106774,1,2,1:0:0:0:
405,174,106924,2,0,P|391:203|379:251,1,55.2450004636345,10|2,0:0|0:0,0:0:0:0:
405,321,107224,1,2,1:0:0:0:
323,377,107374,6,0,P|287:375|237:315,1,110.490000927269,2|8,1:0|0:0,0:0:0:0:
257,224,107824,2,0,P|269:193|273:156,1,55.2450004636345,0|2,1:0|1:0,0:0:0:0:
289,73,108124,2,0,P|258:85|221:89,1,55.2450004636345,10|0,0:0|1:0,0:0:0:0:
142,56,108424,1,10,0:0:0:0:
142,56,108574,1,2,0:0:0:0:
84,137,108724,5,6,1:0:0:0:
84,137,108874,2,0,P|94:176|104:211,1,55.2450004636345,8|2,3:0|0:0,0:0:0:0:
93,290,109174,1,2,1:0:0:0:
93,290,109324,2,0,P|142:269|165:263,1,55.2450004636345,10|2,0:0|0:0,0:0:0:0:
236,305,109624,1,2,1:0:0:0:
236,305,109774,1,2,1:0:0:0:
312,241,109924,6,0,P|338:229|371:223,1,55.2450004636345,2|8,0:0|0:0,0:0:0:0:
413,136,110224,2,0,P|386:130|361:118,1,55.2450004636345
294,44,110524,2,0,P|267:49|242:61,1,55.2450004636345,10|0,0:0|1:0,0:0:0:0:
180,157,110824,2,0,P|153:151|128:139,1,55.2450004636345,2|2,0:0|0:0,0:0:0:0:
43,127,111087,6,0,P|58:180|63:249,1,110.490000927269,6|2,1:0|0:0,0:0:0:0:
31,329,111548,1,2,1:0:0:0:
31,329,111702,2,0,P|54:350|90:360,1,55.2450004636345,8|0,0:0|0:0,0:0:0:0:
152,292,112010,1,2,1:0:0:0:
152,292,112163,2,0,P|212:295|285:308,1,110.490000927269,2|8,1:0|0:0,0:0:0:0:
349,356,112625,5,2,1:0:0:0:
349,356,112775,1,2,1:0:0:0:
426,293,112925,2,0,P|433:255|440:222,1,55.2450004636345,10|0,0:0|1:0,0:0:0:0:
499,160,113225,2,0,P|492:122|485:89,1,55.2450004636345,10|0,0:0|0:0,0:0:0:0:
424,28,113525,6,0,P|368:75|315:85,1,110.490000927269,6|2,1:0|0:0,0:0:0:0:
244,39,113975,1,2,1:0:0:0:
244,39,114125,2,0,P|214:26|174:24,1,55.2450004636345,10|2,0:0|0:0,0:0:0:0:
108,78,114425,1,2,1:0:0:0:
108,78,114575,6,0,P|123:120|127:142,1,55.2450004636345,2|0,1:0|0:0,0:0:0:0:
64,209,114875,1,8,0:0:0:0:
64,209,115025,2,0,P|49:251|45:273,1,55.2450004636345,0|0,0:0|1:0,0:0:0:0:
98,346,115325,2,0,P|135:331|170:327,1,55.2450004636345,10|0,0:0|0:0,0:0:0:0:
245,357,115625,1,10,3:0:0:0:
245,357,115775,1,2,0:0:0:0:
331,308,115925,6,0,L|344:238,1,55.2450004636345,6|2,1:0|0:0,0:0:0:0:
354,155,116225,1,2,0:0:0:0:
354,155,116375,1,2,1:0:0:0:
256,133,116525,2,0,L|245:78,1,55.2450004636345,10|2,0:0|0:0,0:0:0:0:
324,16,116825,1,2,1:0:0:0:
411,62,116975,6,0,L|389:178,1,110.490000927269,2|10,1:0|0:0,0:0:0:0:
428,263,117425,1,2,1:0:0:0:
428,263,117575,2,0,L|363:292,1,55.2450004636345,2|8,1:0|0:0,0:0:0:0:
282,252,117875,1,0,1:0:0:0:
214,324,118025,2,0,L|144:306,1,55.2450004636345,10|2,0:0|0:0,0:0:0:0:
99,232,118325,6,0,P|89:183|77:129,1,82.8675006954518,6|2,1:0|0:0,0:0:0:0:
47,114,118625,2,0,P|77:123|110:128,1,55.2450004636345,2|0,0:0|0:0,0:0:0:0:
172,57,118925,2,0,P|198:48|225:43,1,55.2450004636345,10|2,0:0|0:0,0:0:0:0:
290,119,119225,1,2,1:0:0:0:
388,107,119375,2,0,P|376:141|363:181,1,55.2450004636345,10|0,0:0|0:0,0:0:0:0:
412,248,119675,1,2,1:0:0:0:
412,248,119825,2,0,P|390:268|327:290,1,82.8675006954518,10|10,0:0|3:0,0:0:0:0:
293,274,120125,2,0,P|270:262|229:254,1,55.2450004636345,10|10,3:0|3:0,0:0:0:0:
161,314,120425,2,0,P|129:324|92:324,1,55.2450004636345,10|10,0:0|3:0,0:0:0:0:
44,248,120725,21,6,1:0:0:0:
256,192,120800,12,0,128450,0:0:0:0:
