osu file format v14

[General]
AudioFilename: audio.mp3
AudioLeadIn: 0
PreviewTime: 57557
Countdown: 0
SampleSet: Soft
StackLeniency: 0.3
Mode: 0
LetterboxInBreaks: 0
WidescreenStoryboard: 0

[Editor]
DistanceSpacing: 2.5
BeatDivisor: 8
GridSize: 8
TimelineZoom: 4.500002

[Metadata]
Title:secret philosophy
TitleUnicode:secret philosophy
Artist:KISIDA KYODAN & THE AKEBOSI ROCKETS
ArtistUnicode:岸田教団&THE明星ロケッツ
Creator:SMOKELIND
Version:atalanta's colorful underworld
Source:東方地霊殿 ~ Subterranean Animism.
Tags:Japanese J-Rock Rock Ichigo TH ZUN Touhou Reitaisai 14 ラストリモート Last Remote ハルトマンの妖怪少女 Hartmann's Youkai Girl 古明地 こいし Koishi Komeiji ANCIENT FLOWER KISHIDA KYOUDAN AND AKEBOSHI iljaaz kowari atalanta glaceon talulah Video Game
BeatmapID:2039676
BeatmapSetID:974435

[Difficulty]
HPDrainRate:5.2
CircleSize:3.8
OverallDifficulty:9
ApproachRate:9.2
SliderMultiplier:2.2
SliderTickRate:1

[Events]
//Background and Video events
0,0,"Sweet777.jpg",0,0
//Break Periods
//Storyboard Layer 0 (Background)
//Storyboard Layer 1 (Fail)
//Storyboard Layer 2 (Pass)
//Storyboard Layer 3 (Foreground)
//Storyboard Layer 4 (Overlay)
//Storyboard Sound Samples

[TimingPoints]
-474,300,4,2,7,47,1,0
576,-125,4,2,7,47,0,0
1026,285.714285714286,4,2,7,47,1,0
1026,-125,4,2,7,47,0,0
1454,344.827586206897,4,2,7,47,1,0
1454,-125,4,2,7,47,0,0
1626,300,4,2,7,47,1,0
1626,-125,4,2,7,47,0,0
1926,285.714285714286,4,2,7,47,1,0
1926,-125,4,2,7,47,0,0
2640,315.789473684211,4,2,7,47,1,0
2640,-125,4,2,7,47,0,0
2955,300,4,2,7,47,1,0
2955,-125,4,2,7,47,0,0
4005,342.857142857143,4,2,7,47,1,0
4005,-125,4,2,7,47,0,0
4176,300,4,2,7,47,1,0
4176,-125,4,2,7,47,0,0
4326,292.682926829268,4,2,7,47,1,0
4326,-125,4,2,7,47,0,0
5789,312.5,4,2,7,47,1,0
5789,-125,4,2,7,47,0,0
6726,292.682926829268,4,2,7,47,1,0
6726,-125,4,2,7,47,0,0
8189,303.030303030303,4,2,7,47,1,0
8189,-125,4,2,7,47,0,0
8946,320,4,2,7,47,1,0
8946,-125,4,2,7,47,0,0
9426,375,4,2,7,47,1,0
9426,-125,4,2,7,47,0,0
9613,245.901639344262,4,2,7,47,1,0
9613,-125,4,2,7,47,0,0
9720,298.507462686567,4,2,7,47,1,0
9720,-250,4,2,7,47,0,0
10317,300,4,2,7,77,1,0
10317,-100,4,2,7,77,0,0
14817,-250,4,2,7,77,0,0
15117,-100,4,2,7,77,0,0
19617,-250,4,2,7,77,0,0
19917,-166.666666666667,4,2,7,47,0,0
28317,292.682926829268,4,2,7,47,1,0
28317,-166.666666666667,4,2,7,47,0,0
29487,315.374507227332,4,2,7,47,1,0
29487,-166.666666666667,4,2,7,47,0,0
30117,300,4,2,7,47,1,0
30117,-166.666666666667,4,2,7,47,0,0
30717,300,4,2,7,47,1,0
30717,-166.666666666667,4,2,7,47,0,0
35517,-125,4,2,7,57,0,0
36717,-100,4,2,7,67,0,0
39407,300,4,2,7,67,1,0
39407,-100,4,2,7,67,0,0
40307,300,4,2,7,67,1,0
40307,-100,4,2,7,67,0,0
48407,-250,4,2,7,67,0,0
48707,-100,4,2,7,57,0,0
53375,-100,4,2,7,67,0,0
57724,-100,4,2,7,47,0,0
60124,-100,4,2,7,57,0,0
60724,300,4,2,7,57,1,0
63124,-100,4,2,7,87,0,0
99124,-100,4,2,7,57,0,0
99724,-100,4,2,7,67,0,0
100324,-100,4,2,7,77,0,0
100924,-100,4,2,7,87,0,0
101224,-200,4,2,7,87,0,0
101524,-100,4,2,7,87,0,0
110824,263.157894736842,4,2,7,87,1,0
110824,-100,4,2,7,87,0,0
111087,307.692307692308,4,2,7,87,1,0
111087,-100,4,2,7,87,0,0
112625,300,4,2,7,87,1,0
112625,-100,4,2,7,87,0,0
113525,300,4,2,7,87,1,0
113525,-100,4,2,7,87,0,0
120724,-100,4,2,7,77,0,0
120875,-100,4,2,7,7,0,0

[Colours]
Combo1 : 255,255,121
Combo2 : 255,165,121
Combo3 : 121,255,121

[HitObjects]
96,360,576,6,0,P|60:305|54:240,1,132,6|0,1:0|0:0,0:0:0:0:
93,170,876,1,0,0:0:0:0:
272,160,1026,2,0,L|264:203,1,44,10|0,0:0|0:0,0:0:0:0:
176,240,1168,2,0,L|148:273,1,44,2|0,0:0|3:0,0:0:0:0:
93,170,1311,2,0,P|53:153|33:114,1,88,2|0,1:0|1:0,0:0:0:0:
136,0,1626,1,10,0:0:0:0:
122,82,1776,1,2,1:0:0:0:
274,15,1926,6,0,B|306:55|306:55|285:133,1,132,2|0,0:0|0:0,0:0:0:0:
264,203,2211,1,10,0:0:0:0:
352,296,2354,1,2,3:0:0:0:
352,296,2426,1,2,3:0:0:0:
352,296,2497,1,2,3:0:0:0:
432,184,2640,2,0,L|438:271,1,88,2|8,1:0|0:0,0:0:0:0:
264,288,2955,6,0,P|226:363|142:373,1,176,6|0,1:0|1:0,0:0:0:0:
96,168,3405,2,0,P|136:151|179:159,1,88,10|0,0:0|0:0,0:0:0:0:
48,304,3705,1,2,1:0:0:0:
0,200,3855,1,2,1:0:0:0:
32,328,4005,1,10,0:0:0:0:
187,242,4176,6,0,P|194:199|178:158,1,88,2|0,1:0|0:0,0:0:0:0:
70,86,4472,1,2,1:0:0:0:
256,24,4618,2,0,B|277:62|277:62|267:105,1,88,10|0,0:0|1:0,0:0:0:0:
425,209,4911,2,0,B|402:246|402:246|360:259,1,88,10|0,0:0|1:0,0:0:0:0:
271,324,5204,1,10,0:0:0:0:
94,177,5350,6,0,P|122:259|111:346,1,176,6|0,1:0|1:0,0:0:0:0:
9,192,5789,2,0,P|7:170|11:148,1,44,10|0,0:0|0:0,0:0:0:0:
75,92,5945,2,0,P|84:72|98:55,1,44,2|0,0:0|3:0,0:0:0:0:
182,37,6101,2,0,P|221:19|264:24,1,88,2|0,1:0|1:0,0:0:0:0:
306,167,6414,1,10,0:0:0:0:
237,105,6570,1,2,1:0:0:0:
422,43,6726,6,0,P|406:83|397:126,1,88,2|0,0:0|1:0,0:0:0:0:
456,240,7018,1,10,0:0:0:0:
286,303,7165,1,2,3:0:0:0:
286,303,7238,1,2,3:0:0:0:
286,303,7311,1,2,1:0:0:0:
389,368,7457,2,0,P|387:325|373:283,1,88,0|8,1:0|0:0,0:0:0:0:
166,369,7750,6,0,P|95:323|11:342,1,176,6|0,1:0|1:0,0:0:0:0:
223,222,8189,2,0,P|236:180|240:136,1,88,10|0,0:0|1:0,0:0:0:0:
207,73,8416,1,0,1:0:0:0:
207,73,8492,2,0,L|164:62,1,44,8|8,0:0|3:0,0:0:0:0:
95,154,8643,2,0,L|52:164,1,44,8|8,3:0|3:0,0:0:0:0:
27,270,8795,1,8,0:0:0:0:
11,302,8870,1,8,0:0:0:0:
11,342,8946,1,2,1:0:0:0:
11,342,9613,6,0,L|52:328,1,44,0|0,1:0|1:0,0:0:0:0:
88,368,9720,2,0,L|98:369,1,11,8|8,0:0|0:0,0:0:0:0:
219,262,9869,6,0,L|110:241,1,110,0|0,1:0|0:0,0:0:0:0:
52,328,10317,6,0,B|116:264|92:184|92:184|31:199,1,220,6|2,1:0|0:0,0:0:0:0:
31,199,10767,1,2,1:0:0:0:
135,68,10917,2,0,P|186:48|240:50,1,110,10|2,0:0|0:0,0:0:0:0:
200,150,11217,1,2,1:0:0:0:
393,155,11367,6,0,P|466:186|473:264,1,165,2|0,1:0|0:0,0:0:0:0:
417,319,11667,1,10,0:0:0:0:
280,313,11817,1,2,1:0:0:0:
350,241,11967,1,2,1:0:0:0:
203,257,12117,2,0,P|191:203|199:149,1,110,10|2,0:0|1:0,0:0:0:0:
27,278,12417,2,0,P|47:328|84:369,1,110,10|0,0:0|0:0,0:0:0:0:
18,67,12717,6,0,P|114:103|181:24,1,220,6|2,1:0|0:0,0:0:0:0:
181,24,13167,1,2,1:0:0:0:
349,19,13317,2,0,L|364:127,1,110,10|0,0:0|0:0,0:0:0:0:
449,195,13617,1,2,1:0:0:0:
279,211,13767,6,0,B|243:347|243:347|232:324,1,165,2|0,1:0|0:0,0:0:0:0:
182,263,14067,1,10,0:0:0:0:
213,146,14217,1,2,1:0:0:0:
360,248,14367,1,2,1:0:0:0:
201,173,14517,2,0,P|146:169|93:185,1,110,10|2,0:0|1:0,0:0:0:0:
106,384,14817,6,0,B|122:346|122:346|117:321,1,66,10|0,3:0|0:0,0:0:0:0:
49,286,15117,6,0,P|7:186|43:85,1,220,6|2,1:0|0:0,0:0:0:0:
42,85,15567,1,2,1:0:0:0:
235,181,15717,2,0,P|241:235|230:289,1,110,10|2,0:0|0:0,0:0:0:0:
139,228,16017,1,2,1:0:0:0:
224,67,16167,6,0,P|299:102|380:116,1,165,0|0,1:0|0:0,0:0:0:0:
453,100,16467,1,10,0:0:0:0:
512,0,16617,1,2,1:0:0:0:
398,37,16767,1,2,1:0:0:0:
496,165,16917,2,0,P|512:218|508:273,1,110,10|2,0:0|1:0,0:0:0:0:
264,198,17217,2,0,P|313:173|351:134,1,110,10|0,0:0|0:0,0:0:0:0:
454,384,17517,6,0,P|393:296|287:292,1,220,6|2,1:0|0:0,0:0:0:0:
287,292,17967,1,2,1:0:0:0:
97,289,18117,2,0,P|157:201|263:197,1,220,14|2,0:0|1:0,0:0:0:0:
454,194,18567,6,0,P|393:106|287:102,1,220,2|10,1:0|0:0,0:0:0:0:
159,7,19017,2,0,P|166:34|166:62,1,55,2|0,1:0|0:0,0:0:0:0:
97,121,19167,1,0,3:0:0:0:
97,121,19242,1,8,0:0:0:0:
97,121,19317,1,8,0:0:0:0:
0,77,19467,1,8,3:0:0:0:
98,138,19617,6,0,P|91:170|96:202,1,66,8|0,3:0|0:0,0:0:0:0:
160,256,19917,5,6,1:0:0:0:
176,248,20217,1,0,0:0:0:0:
192,240,20517,1,0,0:0:0:0:
256,288,20667,2,0,L|243:352,1,65.9999979858399,2|2,0:0|0:0,0:0:0:0:
328,336,20967,1,2,0:0:0:0:
336,256,21117,5,0,0:0:0:0:
328,232,21417,1,0,0:0:0:0:
368,168,21567,1,0,0:0:0:0:
448,176,21717,1,0,3:0:0:0:
440,192,22017,2,0,L|375:204,1,65.9999979858399,2|2,0:0|1:0,0:0:0:0:
240,112,22317,5,2,1:0:0:0:
248,96,22617,1,0,0:0:0:0:
256,80,22917,1,0,0:0:0:0:
208,16,23067,2,0,L|142:10,1,65.9999979858399,2|2,0:0|0:0,0:0:0:0:
32,72,23367,1,2,0:0:0:0:
48,144,23517,5,0,0:0:0:0:
64,152,23817,1,0,0:0:0:0:
127,199,23967,2,0,P|135:232|136:265,1,65.9999979858399,0|0,3:0|0:0,0:0:0:0:
40,296,24267,2,0,P|30:327|14:356,1,65.9999979858399,0|2,3:0|0:0,0:0:0:0:
120,368,24567,1,2,0:0:0:0:
200,336,24717,5,2,1:0:0:0:
216,328,25017,1,0,0:0:0:0:
288,352,25167,1,0,0:0:0:0:
360,376,25317,1,0,3:0:0:0:
368,368,25617,1,2,0:0:0:0:
352,288,25767,1,2,0:0:0:0:
400,224,25917,5,0,0:0:0:0:
416,232,26217,1,0,0:0:0:0:
498,297,26367,2,0,B|509:264|509:264|502:233,1,65.9999979858399,0|0,3:0|0:0,0:0:0:0:
401,141,26667,1,2,0:0:0:0:
319,206,26817,2,0,B|308:173|308:173|314:142,1,65.9999979858399,0|0,0:0|0:0,0:0:0:0:
445,64,27117,5,2,1:0:0:0:
448,42,27417,1,0,0:0:0:0:
372,18,27567,1,0,0:0:0:0:
302,52,27717,1,0,0:0:0:0:
280,35,28017,1,2,0:0:0:0:
204,59,28167,1,2,3:0:0:0:
134,25,28317,5,0,0:0:0:0:
62,64,28463,2,0,P|47:92|43:125,1,65.9999979858399,0|0,3:0|0:0,0:0:0:0:
148,167,28756,2,0,P|148:199|161:230,1,65.9999979858399,0|0,3:0|0:0,0:0:0:0:
279,308,29048,1,0,0:0:0:0:
252,224,29195,1,2,0:0:0:0:
252,224,29341,1,2,0:0:0:0:
99,292,29487,5,6,1:0:0:0:
82,297,30117,2,0,L|74:362,1,65.9999979858399,0|2,0:0|0:0,0:0:0:0:
186,381,30417,1,2,0:0:0:0:
251,333,30567,1,2,0:0:0:0:
328,360,30717,5,0,0:0:0:0:
339,349,31017,1,0,0:0:0:0:
401,297,31167,2,0,L|404:231,1,65.9999979858399,0|0,3:0|0:0,0:0:0:0:
308,199,31467,1,0,0:0:0:0:
306,191,31542,1,0,0:0:0:0:
305,183,31617,1,2,0:0:0:0:
356,119,31767,1,2,0:0:0:0:
436,135,31917,5,2,1:0:0:0:
428,159,32217,1,0,0:0:0:0:
404,231,32367,1,0,0:0:0:0:
444,295,32517,2,0,L|508:280,1,65.9999979858399,0|2,0:0|0:0,0:0:0:0:
320,320,32817,1,2,0:0:0:0:
255,367,32967,6,0,P|227:351|195:344,1,65.9999979858399,2|0,3:0|0:0,0:0:0:0:
136,256,33267,2,0,P|103:255|71:265,1,65.9999979858399,0|0,3:0|0:0,0:0:0:0:
0,376,33567,1,0,0:0:0:0:
80,360,33717,1,0,0:0:0:0:
0,216,33867,1,0,0:0:0:0:
0,296,34017,1,2,0:0:0:0:
72,184,34167,1,0,0:0:0:0:
16,96,34317,6,0,P|4:65|0:32,1,65.9999979858399,2|0,1:0|0:0,0:0:0:0:
104,104,34617,2,0,P|92:134|86:167,1,65.9999979858399,0|0,1:0|0:0,0:0:0:0:
232,64,34917,2,0,P|204:47|171:46,1,65.9999979858399,0|2,1:0|0:0,0:0:0:0:
184,208,35217,1,2,1:0:0:0:
256,168,35367,1,2,0:0:0:0:
352,240,35517,6,0,L|366:326,1,88,0|0,1:0|0:0,0:0:0:0:
240,384,35817,2,0,L|254:297,1,88,0|0,1:0|0:0,0:0:0:0:
330,127,36117,2,0,P|298:156|255:167,1,88,0|0,1:0|0:0,0:0:0:0:
78,263,36417,2,0,P|109:292|152:303,1,88,2|0,1:0|0:0,0:0:0:0:
136,24,36717,5,14,0:0:0:0:
12,103,36867,1,0,1:0:0:0:
32,249,37017,1,0,1:0:0:0:
208,240,37167,5,8,3:0:0:0:
84,161,37317,1,0,1:0:0:0:
106,27,37467,2,0,P|140:39|176:44,1,73.3333333333333,0|8,1:0|0:0,0:0:0:0:
192,32,37617,5,10,0:0:0:0:
120,288,37767,1,2,1:0:0:0:
176,128,37917,5,8,0:0:0:0:
344,184,38067,1,0,1:0:0:0:
192,384,38217,6,0,P|190:356|194:329,1,55,8|0,0:0|0:0,0:0:0:0:
300,262,38367,1,2,3:0:0:0:
300,262,38442,1,0,3:0:0:0:
300,262,38517,5,10,0:0:0:0:
343,274,38592,1,8,0:0:0:0:
387,263,38667,1,10,0:0:0:0:
420,231,38742,1,8,0:0:0:0:
433,188,38817,1,8,0:0:0:0:
422,144,38892,1,8,0:0:0:0:
391,111,38967,6,0,B|323:168|226:109|226:109|266:98,1,220,6|0,1:0|1:0,0:0:0:0:
484,289,39407,1,8,0:0:0:0:
300,262,39557,1,2,0:0:0:0:
479,144,39707,2,0,P|489:90|475:37,1,110,2|0,1:0|1:0,0:0:0:0:
385,92,40007,1,10,0:0:0:0:
163,221,40157,6,0,P|250:174|299:261,1,220,6|0,1:0|1:0,0:0:0:0:
146,384,40607,1,8,0:0:0:0:
2,255,40757,2,0,P|56:260|101:292,1,110,6|2,1:0|0:0,0:0:0:0:
25,349,41057,1,0,1:0:0:0:
0,150,41207,1,10,0:0:0:0:
129,293,41357,6,0,P|157:215|152:134,1,165,6|0,1:0|0:0,0:0:0:0:
94,85,41657,1,0,1:0:0:0:
280,11,41807,2,0,P|323:43|377:49,1,110,10|0,0:0|0:0,0:0:0:0:
227,254,42107,2,0,P|183:286|129:292,1,110,2|0,1:0|1:0,0:0:0:0:
227,88,42407,1,10,0:0:0:0:
480,216,42557,6,0,B|448:104|520:104|472:1,1,220,2|0,1:0|1:0,0:0:0:0:
344,191,43007,2,0,P|352:246|377:294,1,110,8|0,0:0|0:0,0:0:0:0:
458,296,43232,1,8,0:0:0:0:
458,296,43307,1,2,1:0:0:0:
363,175,43457,1,2,1:0:0:0:
256,360,43607,1,8,0:0:0:0:
128,118,43757,6,0,P|168:217|125:315,1,220,6|0,1:0|1:0,0:0:0:0:
23,129,44207,1,8,0:0:0:0:
184,35,44357,1,2,0:0:0:0:
47,0,44507,2,0,P|31:52|36:106,1,110,2|0,1:0|1:0,0:0:0:0:
189,194,44807,1,10,0:0:0:0:
22,361,44957,6,0,B|178:317|178:317|230:341,1,220,6|0,1:0|1:0,0:0:0:0:
92,188,45407,1,8,0:0:0:0:
261,126,45557,2,0,P|280:177|273:231,1,110,4|2,1:0|0:0,0:0:0:0:
161,279,45857,1,2,1:0:0:0:
202,50,46007,1,8,0:0:0:0:
361,278,46157,6,0,P|435:251|500:297,1,165,6|0,1:0|0:0,0:0:0:0:
490,373,46457,1,0,1:0:0:0:
279,334,46607,2,0,B|258:281|258:281|273:230,1,110,10|0,0:0|3:0,0:0:0:0:
306,161,46832,1,0,3:0:0:0:
306,161,46907,1,2,1:0:0:0:
435,228,47057,1,0,1:0:0:0:
292,342,47207,1,10,0:0:0:0:
435,199,47357,6,0,L|424:89,1,110,6|0,1:0|0:0,0:0:0:0:
226,35,47657,1,0,1:0:0:0:
237,226,47807,2,0,P|287:246|342:252,1,110,8|0,0:0|1:0,0:0:0:0:
512,38,48107,2,0,P|461:58|406:64,1,110,8|0,0:0|1:0,0:0:0:0:
135,0,48407,6,0,L|143:65,1,66,0|0,3:0|0:0,0:0:0:0:
64,72,48707,6,0,B|24:144|24:144|48:184|48:184|34:273,1,220,6|0,1:0|0:0,0:0:0:0:
192,184,49157,2,0,B|120:144|120:144|155:277,1,220,2|0,1:0|1:0,0:0:0:0:
240,360,49607,1,10,0:0:0:0:
352,208,49907,6,0,B|424:216|424:216|480:184|480:184|528:208|528:208|499:213,1,220,6|0,1:0|0:0,0:0:0:0:
392,120,50357,2,0,B|320:104|320:104|272:160|272:160|245:113|245:113|251:95,1,220,2|0,1:0|1:0,0:0:0:0:
440,32,50807,1,10,0:0:0:0:
174,39,51107,6,0,B|150:95|150:95|164:142,1,110,6|2,1:0|3:0,0:0:0:0:
74,198,51407,1,2,3:0:0:0:
165,332,51557,2,0,B|219:299|219:299|306:335|306:335|367:329,1,220,2|0,1:0|1:0,0:0:0:0:
492,236,52007,2,0,P|468:285|477:339,1,110,10|0,0:0|1:0,0:0:0:0:
266,197,52307,6,0,P|274:143|251:94,1,110,10|0,0:0|1:0,0:0:0:0:
347,356,52607,2,0,B|313:245|399:261|380:146,1,220,8|8,0:0|3:0,0:0:0:0:
340,77,52982,1,8,0:0:0:0:
342,58,53057,1,8,0:0:0:0:
345,40,53132,1,8,0:0:0:0:
347,22,53207,2,0,L|399:4,1,55,10|8,0:0|0:0,0:0:0:0:
251,209,53357,6,0,P|145:182|36:170,1,220,6|0,1:0|1:0,0:0:0:0:
184,381,53807,2,0,P|290:353|399:341,1,220,8|0,0:0|1:0,0:0:0:0:
509,384,54257,1,0,1:0:0:0:
399,237,54407,1,10,0:0:0:0:
498,190,54557,6,0,P|500:244|487:298,1,110,2|0,1:0|0:0,0:0:0:0:
389,346,54857,1,0,1:0:0:0:
315,184,55007,1,8,0:0:0:0:
402,216,55157,1,2,0:0:0:0:
300,278,55307,1,2,1:0:0:0:
213,310,55457,1,2,1:0:0:0:
313,300,55607,1,10,0:0:0:0:
132,125,55757,6,0,P|108:232|100:341,1,220,6|0,1:0|1:0,0:0:0:0:
21,111,56207,2,0,P|45:62|85:25,1,110,8|2,0:0|1:0,0:0:0:0:
166,16,56432,1,0,1:0:0:0:
166,16,56507,2,0,L|219:27,1,55,10|8,0:0|3:0,0:0:0:0:
251,135,56657,2,0,L|292:171,1,55,8|8,3:0|3:0,0:0:0:0:
220,268,56807,1,8,0:0:0:0:
228,308,56882,1,8,0:0:0:0:
212,348,56957,1,0,1:0:0:0:
212,348,58307,5,6,1:0:0:0:
169,259,58607,1,2,0:0:0:0:
217,172,58907,1,2,0:0:0:0:
208,74,59207,1,2,0:0:0:0:
424,245,59507,5,2,0:0:0:0:
325,291,59807,2,0,P|250:257|168:258,1,165,2|0,0:0|0:0,0:0:0:0:
102,301,60107,2,0,L|91:355,1,55,10|0,0:0|1:0,0:0:0:0:
16,191,60257,1,0,1:0:0:0:
16,191,60332,1,0,1:0:0:0:
16,191,60407,1,10,0:0:0:0:
49,167,60482,1,0,1:0:0:0:
69,131,60557,1,2,1:0:0:0:
69,91,60632,1,0,1:0:0:0:
51,54,60724,5,10,0:0:0:0:
51,54,61774,5,0,1:0:0:0:
72,71,61849,1,0,1:0:0:0:
94,73,61924,2,0,P|146:54|200:57,1,110,10|0,0:0|1:0,0:0:0:0:
167,224,62224,2,0,P|222:281|206:358,1,165,8|0,0:0|0:0,0:0:0:0:
127,366,62524,5,10,0:0:0:0:
81,300,62624,5,8,0:0:0:0:
101,226,62724,5,8,3:0:0:0:
177,198,62824,5,8,3:0:0:0:
238,143,62924,5,8,3:0:0:0:
219,63,63024,5,8,3:0:0:0:
146,25,63124,6,0,L|39:50,1,110,6|0,1:0|0:0,0:0:0:0:
177,198,63424,2,0,L|283:223,1,110,2|0,0:0|1:0,0:0:0:0:
360,3,63724,2,0,P|321:41|309:94,1,110,10|0,0:0|0:0,0:0:0:0:
500,209,64024,2,0,P|483:157|498:104,1,110,2|0,1:0|1:0,0:0:0:0:
355,301,64324,6,0,B|408:290|408:290|458:314,1,110,2|8,0:0|0:0,0:0:0:0:
160,376,64624,2,0,B|107:387|107:387|56:362,1,110,2|0,1:0|1:0,0:0:0:0:
232,176,64924,1,10,0:0:0:0:
264,288,65074,1,0,1:0:0:0:
415,100,65224,1,10,0:0:0:0:
415,100,65524,6,0,P|449:204|457:313,1,220,6|0,1:0|0:0,0:0:0:0:
336,160,65974,1,0,1:0:0:0:
200,368,66124,2,0,P|234:263|242:154,1,220,10|0,0:0|1:0,0:0:0:0:
120,56,66574,1,0,1:0:0:0:
48,152,66724,5,2,0:0:0:0:
111,31,66874,2,0,P|166:40|220:31,1,110,8|0,0:0|0:0,0:0:0:0:
296,232,67174,1,0,1:0:0:0:
344,136,67324,2,0,P|378:93|397:42,1,110,8|0,0:0|1:0,0:0:0:0:
488,272,67624,1,10,3:0:0:0:
488,272,67924,6,0,B|463:316|463:316|473:374,1,110,6|0,1:0|0:0,0:0:0:0:
280,217,68224,2,0,B|300:161|300:161|343:135,1,110,2|0,0:0|1:0,0:0:0:0:
376,355,68524,2,0,P|328:331|274:336,1,110,10|0,0:0|0:0,0:0:0:0:
76,188,68824,2,0,P|124:163|178:168,1,110,2|0,1:0|1:0,0:0:0:0:
438,16,69124,6,0,P|419:66|424:121,1,110,2|8,0:0|0:0,0:0:0:0:
164,63,69424,2,0,P|183:113|178:168,1,110,2|0,1:0|1:0,0:0:0:0:
400,232,69724,2,0,P|380:282|385:337,1,110,10|0,0:0|1:0,0:0:0:0:
76,188,70024,2,0,P|95:238|90:293,1,110,10|0,0:0|0:0,0:0:0:0:
321,149,70324,6,0,P|253:190|177:167,1,165,6|0,1:0|0:0,0:0:0:0:
116,114,70624,2,0,P|132:62|117:10,1,110,2|0,0:0|1:0,0:0:0:0:
360,0,70924,2,0,P|322:39|270:51,1,110,10|0,0:0|0:0,0:0:0:0:
400,151,71224,2,0,P|437:191|490:204,1,110,2|0,1:0|1:0,0:0:0:0:
240,320,71524,5,2,0:0:0:0:
283,163,71674,2,0,P|322:260|255:340,1,220,8|0,0:0|1:0,0:0:0:0:
72,211,72124,2,0,L|180:195,1,110,10|0,0:0|1:0,0:0:0:0:
400,48,72424,2,0,L|291:32,1,110,8|0,0:0|0:0,0:0:0:0:
111,112,72724,6,0,P|134:62|128:8,1,110,6|0,1:0|0:0,0:0:0:0:
282,162,73024,2,0,P|276:216|299:266,1,110,2|0,0:0|1:0,0:0:0:0:
28,312,73324,2,0,P|82:317|128:345,1,110,10|0,0:0|0:0,0:0:0:0:
282,162,73624,2,0,P|227:167|181:195,1,110,2|0,1:0|1:0,0:0:0:0:
400,384,73924,6,0,P|415:331|405:278,1,110,2|8,0:0|0:0,0:0:0:0:
453,85,74224,2,0,P|415:45|364:27,1,110,2|0,1:0|1:0,0:0:0:0:
184,138,74524,2,0,B|231:172|231:172|281:161,1,110,10|0,0:0|0:0,0:0:0:0:
405,278,74824,2,0,B|457:254|457:254|473:204,1,110,2|8,1:0|0:0,0:0:0:0:
177,243,75124,6,0,P|178:297|195:350,1,110,2|0,0:0|1:0,0:0:0:0:
288,286,75349,1,0,1:0:0:0:
300,268,75424,2,0,P|298:213|281:160,1,110,14|0,0:0|0:0,0:0:0:0:
8,95,75724,2,0,P|42:137|92:157,1,110,2|8,1:0|0:0,0:0:0:0:
281,15,76024,2,0,P|227:23|184:56,1,110,2|0,0:0|1:0,0:0:0:0:
385,209,76324,5,14,0:0:0:0:
398,87,76474,1,0,1:0:0:0:
248,168,76624,5,8,0:0:0:0:
261,290,76774,1,0,0:0:0:0:
430,362,76924,6,0,L|445:309,1,55,0|0,1:0|0:0,0:0:0:0:
385,209,77074,1,8,0:0:0:0:
406,179,77149,1,8,0:0:0:0:
422,145,77224,1,8,0:0:0:0:
429,109,77299,1,8,0:0:0:0:
428,74,77374,1,8,0:0:0:0:
419,38,77449,1,8,0:0:0:0:
402,5,77524,6,0,L|293:22,1,110,6|0,1:0|0:0,0:0:0:0:
150,198,77824,2,0,P|192:130|171:52,1,165,10|0,0:0|0:0,0:0:0:0:
105,17,78124,1,2,1:0:0:0:
279,148,78274,1,0,1:0:0:0:
106,276,78424,2,0,P|56:252|1:247,1,110,10|0,0:0|0:0,0:0:0:0:
316,384,78724,5,2,1:0:0:0:
248,272,78874,1,0,1:0:0:0:
416,152,79024,1,10,0:0:0:0:
368,320,79174,2,0,P|346:269|345:215,1,110,0|2,1:0|0:0,0:0:0:0:
192,48,79474,1,0,1:0:0:0:
344,16,79624,1,10,0:0:0:0:
224,64,79774,1,2,0:0:0:0:
397,136,79924,6,0,L|506:123,1,110,6|0,1:0|0:0,0:0:0:0:
263,321,80224,2,0,L|153:308,1,110,8|0,0:0|1:0,0:0:0:0:
232,80,80524,1,2,0:0:0:0:
312,216,80674,1,0,1:0:0:0:
88,128,80824,2,0,P|72:75|76:20,1,110,8|0,0:0|0:0,0:0:0:0:
280,208,81124,5,2,1:0:0:0:
112,128,81274,1,0,1:0:0:0:
154,345,81424,1,8,0:0:0:0:
17,235,81574,2,0,P|69:221|124:227,1,110,0|2,1:0|0:0,0:0:0:0:
185,370,81874,1,0,1:0:0:0:
376,288,82024,2,0,P|387:234|382:179,1,110,8|0,0:0|0:0,0:0:0:0:
172,26,82324,6,0,P|239:71|320:69,1,165,6|0,1:0|0:0,0:0:0:0:
386,31,82624,1,10,0:0:0:0:
152,48,82774,1,0,1:0:0:0:
248,192,82925,2,0,P|260:245|263:300,1,110,2|0,0:0|1:0,0:0:0:0:
0,275,83224,2,0,P|22:325|23:380,1,110,10|0,0:0|0:0,0:0:0:0:
184,129,83524,6,0,P|198:75|197:21,1,110,2|0,1:0|1:0,0:0:0:0:
380,232,83824,2,0,P|354:280|315:319,1,110,10|0,0:0|1:0,0:0:0:0:
308,64,84124,2,0,P|379:24|456:47,1,165,2|0,0:0|0:0,0:0:0:0:
500,115,84424,2,0,L|512:224,1,110,10|0,0:0|1:0,0:0:0:0:
236,360,84724,6,0,P|280:260|270:152,1,220,6|8,1:0|0:0,0:0:0:0:
150,200,85174,1,0,1:0:0:0:
67,16,85324,2,0,P|22:115|32:223,1,220,2|8,0:0|0:0,0:0:0:0:
101,379,85774,1,0,3:0:0:0:
125,371,85849,1,8,0:0:0:0:
141,347,85924,6,0,P|94:318|40:311,1,110,2|0,1:0|1:0,0:0:0:0:
185,109,86224,2,0,P|262:82|342:96,1,165,8|0,0:0|0:0,0:0:0:0:
401,151,86524,2,0,L|406:205,1,55,8|8,0:0|0:0,0:0:0:0:
485,356,86674,1,8,0:0:0:0:
461,327,86749,1,8,0:0:0:0:
432,306,86824,1,10,0:0:0:0:
397,294,86899,1,8,0:0:0:0:
361,291,86974,1,10,0:0:0:0:
325,299,87049,1,8,0:0:0:0:
293,316,87124,6,0,P|280:262|287:208,1,110,6|0,1:0|0:0,0:0:0:0:
95,271,87424,2,0,P|107:324|100:378,1,110,10|0,0:0|1:0,0:0:0:0:
13,140,87724,2,0,B|69:127|69:127|118:144,1,110,2|0,0:0|1:0,0:0:0:0:
329,21,88024,2,0,B|273:8|273:8|223:25,1,110,10|0,0:0|0:0,0:0:0:0:
320,200,88324,5,2,1:0:0:0:
440,64,88474,1,0,1:0:0:0:
232,136,88624,1,10,0:0:0:0:
415,264,88774,2,0,P|424:209|413:156,1,110,0|2,1:0|0:0,0:0:0:0:
208,360,89074,1,0,1:0:0:0:
120,280,89224,2,0,L|140:171,1,110,10|0,0:0|0:0,0:0:0:0:
336,327,89524,6,0,P|286:350|231:346,1,110,6|0,1:0|0:0,0:0:0:0:
128,144,89824,2,0,P|173:174|227:179,1,110,10|0,0:0|1:0,0:0:0:0:
368,8,90124,2,0,P|348:59|342:113,1,110,2|0,0:0|1:0,0:0:0:0:
512,208,90424,2,0,P|490:157|480:103,1,110,10|0,0:0|0:0,0:0:0:0:
264,264,90724,6,0,P|364:233|443:303,1,220,2|8,1:0|0:0,0:0:0:0:
231,346,91174,1,0,1:0:0:0:
227,179,91324,2,0,P|126:148|47:218,1,220,2|8,0:0|0:0,0:0:0:0:
264,264,91774,1,0,0:0:0:0:
324,13,91924,6,0,P|293:59|289:113,1,110,6|0,1:0|0:0,0:0:0:0:
419,225,92224,2,0,P|414:170|384:125,1,110,10|0,0:0|1:0,0:0:0:0:
155,243,92524,2,0,L|263:263,1,110,2|0,0:0|1:0,0:0:0:0:
131,0,92824,2,0,L|22:20,1,110,10|0,0:0|0:0,0:0:0:0:
0,285,93124,6,0,P|23:235|33:181,1,110,6|0,0:0|1:0,0:0:0:0:
189,67,93424,2,0,P|199:120|222:170,1,110,10|0,0:0|1:0,0:0:0:0:
376,337,93724,2,0,P|323:351|276:380,1,110,2|0,0:0|1:0,0:0:0:0:
123,245,94024,2,0,P|175:259|222:288,1,110,10|0,0:0|0:0,0:0:0:0:
430,151,94324,6,0,B|412:205|412:205|427:255,1,110,6|0,1:0|0:0,0:0:0:0:
210,75,94624,2,0,B|228:129|228:129|212:179,1,110,10|0,0:0|1:0,0:0:0:0:
343,22,94924,2,0,B|325:76|325:76|340:126,1,110,2|0,0:0|1:0,0:0:0:0:
97,180,95224,2,0,B|115:234|115:234|99:284,1,110,10|0,0:0|0:0,0:0:0:0:
391,317,95524,6,0,P|323:271|242:278,1,165,2|0,1:0|0:0,0:0:0:0:
174,324,95824,2,0,L|162:377,1,55,8|0,0:0|0:0,0:0:0:0:
27,324,95974,2,0,L|15:270,1,55,8|8,0:0|0:0,0:0:0:0:
25,133,96124,5,8,0:0:0:0:
109,145,96224,5,8,0:0:0:0:
177,106,96324,5,8,3:0:0:0:
189,57,96424,5,8,3:0:0:0:
167,21,96524,5,8,3:0:0:0:
147,13,96624,5,8,3:0:0:0:
124,16,96724,5,6,1:0:0:0:
408,336,97924,1,6,1:0:0:0:
360,65,99124,5,2,1:0:0:0:
353,92,99274,1,0,3:0:0:0:
414,119,99424,1,2,1:0:0:0:
366,45,99574,1,0,3:0:0:0:
360,160,99724,5,10,0:0:0:0:
434,58,99874,1,8,0:0:0:0:
264,85,100024,1,10,0:0:0:0:
428,194,100174,1,8,0:0:0:0:
237,228,100324,5,10,0:0:0:0:
366,17,100474,1,10,0:0:0:0:
387,276,100624,1,10,0:0:0:0:
237,65,100774,1,10,0:0:0:0:
482,133,100924,5,10,0:0:0:0:
496,128,101224,6,0,P|481:166|482:207,1,82.5,8|0,0:0|0:0,0:0:0:0:
504,304,101524,6,0,B|472:304|450:280|450:280|434:328|434:328|394:312|378:288|378:288|322:328|291:314,1,275,6|0,1:0|0:0,0:0:0:0:
240,256,101974,1,0,1:0:0:0:
88,272,102124,2,0,P|74:326|70:381,1,110,8|0,0:0|0:0,0:0:0:0:
160,208,102424,1,0,1:0:0:0:
40,160,102574,6,0,P|18:85|83:42,1,165,0|0,1:0|0:0,0:0:0:0:
144,96,102874,1,8,0:0:0:0:
224,32,103024,1,0,1:0:0:0:
320,88,103174,1,0,1:0:0:0:
432,8,103324,2,0,P|417:60|414:115,1,110,8|2,0:0|1:0,0:0:0:0:
320,184,103624,2,0,P|333:237|359:285,1,110,10|2,0:0|0:0,0:0:0:0:
104,319,103924,6,0,P|203:291|263:375,1,220,6|0,1:0|0:0,0:0:0:0:
88,336,104374,1,0,1:0:0:0:
184,256,104524,2,0,P|202:175|204:93,1,165,8|0,0:0|0:0,0:0:0:0:
160,32,104824,1,0,1:0:0:0:
311,55,104974,6,0,P|327:108|335:163,1,110,0|2,1:0|0:0,0:0:0:0:
168,232,105274,1,8,0:0:0:0:
216,120,105424,1,0,1:0:0:0:
72,40,105574,1,0,1:0:0:0:
120,152,105724,2,0,P|70:129|16:135,1,110,8|2,0:0|0:0,0:0:0:0:
11,322,106024,2,0,P|60:299|114:305,1,110,2|0,0:0|0:0,0:0:0:0:
275,239,106324,6,0,L|263:292,1,55,6|0,1:0|0:0,0:0:0:0:
376,317,106474,2,0,L|393:370,1,55,2|0,0:0|0:0,0:0:0:0:
463,231,106624,2,0,P|488:182|475:130,1,110,2|2,0:0|1:0,0:0:0:0:
412,57,106849,1,0,0:0:0:0:
394,43,106924,2,0,L|339:50,1,55,10|0,0:0|0:0,0:0:0:0:
270,127,107074,2,0,L|215:119,1,55,2|0,0:0|0:0,0:0:0:0:
131,39,107224,1,2,1:0:0:0:
12,171,107374,6,0,B|12:208|41:230|41:230|14:270|14:270|23:284|25:312|25:312|55:318|80:334,1,220,2|8,1:0|0:0,0:0:0:0:
129,258,107824,1,0,1:0:0:0:
216,318,107974,1,2,1:0:0:0:
370,268,108124,1,10,0:0:0:0:
361,373,108274,1,0,1:0:0:0:
275,248,108424,1,10,0:0:0:0:
432,335,108574,1,2,0:0:0:0:
284,228,108724,6,0,P|267:175|266:120,1,110,6|8,1:0|3:0,0:0:0:0:
326,58,108949,1,0,3:0:0:0:
339,49,109024,2,0,L|393:41,1,55,2|2,0:0|0:0,0:0:0:0:
490,154,109174,2,0,L|436:146,1,55,2|0,1:0|0:0,0:0:0:0:
386,241,109324,1,10,0:0:0:0:
284,228,109474,1,2,0:0:0:0:
206,289,109624,1,2,1:0:0:0:
182,384,109774,1,2,1:0:0:0:
58,243,109924,6,0,P|28:137|35:28,1,220,2|0,0:0|0:0,0:0:0:0:
35,28,110524,2,0,L|88:40,1,55,10|0,0:0|0:0,0:0:0:0:
141,95,110674,2,0,L|194:82,1,55,0|0,1:0|0:0,0:0:0:0:
252,27,110824,1,2,0:0:0:0:
252,27,110955,1,2,0:0:0:0:
435,145,111087,6,0,B|436:211|376:273|376:273|397:310|438:308,1,220,6|2,1:0|0:0,0:0:0:0:
321,168,111548,1,2,1:0:0:0:
252,319,111702,1,8,0:0:0:0:
205,169,111856,1,0,0:0:0:0:
288,245,112010,1,2,1:0:0:0:
161,341,112163,6,0,P|95:383|29:341,1,165,2|0,1:0|0:0,0:0:0:0:
17,268,112471,1,8,0:0:0:0:
88,155,112625,2,0,P|91:100|82:46,1,110,2|2,1:0|1:0,0:0:0:0:
310,4,112925,2,0,P|290:55|260:101,1,110,10|0,0:0|1:0,0:0:0:0:
107,264,113225,2,0,P|179:228|258:246,1,165,10|2,0:0|0:0,0:0:0:0:
299,378,113525,6,0,B|282:338|313:318|313:318|286:278|299:225,1,165,6|0,1:0|0:0,0:0:0:0:
372,190,113825,2,0,P|423:207|478:211,1,110,2|2,0:0|1:0,0:0:0:0:
310,4,114125,2,0,P|258:21|203:25,1,110,10|2,0:0|0:0,0:0:0:0:
128,4,114350,1,2,0:0:0:0:
128,4,114425,1,2,1:0:0:0:
10,97,114575,1,2,1:0:0:0:
117,221,114725,5,0,0:0:0:0:
117,221,114875,2,0,P|124:166|122:111,1,110,8|0,0:0|0:0,0:0:0:0:
249,244,115175,1,0,1:0:0:0:
224,384,115325,2,0,P|167:325|87:307,1,165,10|0,0:0|0:0,0:0:0:0:
14,324,115625,2,0,L|7:378,1,55,10|0,3:0|0:0,0:0:0:0:
119,218,115775,2,0,L|126:164,1,55,2|0,0:0|0:0,0:0:0:0:
285,31,115925,5,6,1:0:0:0:
338,106,116075,1,2,0:0:0:0:
311,195,116225,1,2,0:0:0:0:
168,72,116375,5,2,1:0:0:0:
126,163,116525,1,10,0:0:0:0:
25,186,116675,1,2,0:0:0:0:
214,324,116825,5,2,1:0:0:0:
215,175,116975,1,2,1:0:0:0:
187,309,117125,1,2,0:0:0:0:
320,384,117275,5,10,0:0:0:0:
328,208,117425,1,2,1:0:0:0:
363,372,117575,1,2,1:0:0:0:
464,232,117725,2,0,P|477:178|479:123,1,110,8|0,0:0|1:0,0:0:0:0:
281,138,118025,2,0,P|259:121|234:110,1,55,10|0,0:0|0:0,0:0:0:0:
144,166,118175,2,0,P|116:162|89:165,1,55,2|0,0:0|0:0,0:0:0:0:
104,352,118325,5,6,1:0:0:0:
112,328,118400,1,0,0:0:0:0:
96,304,118475,2,0,L|41:296,1,55,2|2,0:0|0:0,0:0:0:0:
223,223,118625,2,0,P|246:273|242:328,1,110,2|0,0:0|0:0,0:0:0:0:
320,384,118850,1,0,0:0:0:0:
335,368,118925,6,0,P|346:342|351:315,1,55,10|0,0:0|0:0,0:0:0:0:
423,239,119075,1,2,0:0:0:0:
397,215,119150,1,2,0:0:0:0:
383,181,119225,1,2,1:0:0:0:
386,145,119300,1,2,0:0:0:0:
403,113,119375,1,10,0:0:0:0:
433,91,119450,1,2,0:0:0:0:
469,85,119525,6,0,P|418:107|364:114,1,110,0|2,0:0|1:0,0:0:0:0:
240,48,119750,1,2,0:0:0:0:
248,40,119825,1,10,0:0:0:0:
272,80,119900,1,2,0:0:0:0:
272,128,119975,1,2,0:0:0:0:
248,160,120050,1,10,3:0:0:0:
208,160,120125,5,10,3:0:0:0:
192,144,120200,1,2,3:0:0:0:
192,128,120275,1,10,3:0:0:0:
200,120,120350,1,2,3:0:0:0:
207,122,120425,1,10,0:0:0:0:
211,130,120500,1,10,3:0:0:0:
211,139,120575,1,10,3:0:0:0:
205,149,120650,1,10,3:0:0:0:
200,157,120725,5,6,1:0:0:0:
256,192,120800,12,0,128450,0:0:0:0:
