osu file format v14

[General]
AudioFilename: audio.mp3
AudioLeadIn: 0
PreviewTime: 57557
Countdown: 0
SampleSet: Soft
StackLeniency: 0.5
Mode: 0
LetterboxInBreaks: 0
WidescreenStoryboard: 1

[Editor]
Bookmarks: 124015
DistanceSpacing: 1
BeatDivisor: 4
GridSize: 8
TimelineZoom: 2.4

[Metadata]
Title:secret philosophy (Cut Ver.)
TitleUnicode:secret philosophy (Cut Ver.)
Artist:KISIDA KYODAN & THE AKEBOSI ROCKETS
ArtistUnicode:岸田教団& THE明星ロケッツ
Creator:Serafeim
Version:tycani's lunatic
Source:東方地霊殿 ~ Subterranean Animism.
Tags:Japanese J-Rock Rock Ichigo TH ZUN Touhou Reitaisai 14 ラストリモート Last Remote ハルトマンの妖怪少女 Hartmann's Youkai Girl 古明地 こいし Koishi Komeiji ANCIENT FLOWER KISHIDA KYOUDAN AND AKEBOSHI Tycani SpokenAway reiSevia Roda_Totsuki Video Game
BeatmapID:2687614
BeatmapSetID:1285290

[Difficulty]
HPDrainRate:6
CircleSize:4
OverallDifficulty:7.2
ApproachRate:9
SliderMultiplier:1.8
SliderTickRate:1

[Events]
//Background and Video events
0,0,"yep.png",0,0
//Break Periods
//Storyboard Layer 0 (Background)
//Storyboard Layer 1 (Fail)
//Storyboard Layer 2 (Pass)
//Storyboard Layer 3 (Foreground)
//Storyboard Layer 4 (Overlay)
//Storyboard Sound Samples

[TimingPoints]
-484,300,4,2,7,47,1,0
566,-125,4,2,7,47,0,0
1016,285.714285714286,4,2,7,47,1,0
1016,-125,4,2,7,47,0,0
1444,344.827586206897,4,2,7,47,1,0
1444,-125,4,2,7,47,0,0
1616,300,4,2,7,47,1,0
1616,-125,4,2,7,47,0,0
1916,285.714285714286,4,2,7,47,1,0
1916,-125,4,2,7,47,0,0
2630,315.789473684211,4,2,7,47,1,0
2630,-125,4,2,7,47,0,0
2945,300,4,2,7,47,1,0
2945,-125,4,2,7,47,0,0
3995,342.857142857143,4,2,7,47,1,0
3995,-125,4,2,7,47,0,0
4166,300,4,2,7,47,1,0
4166,-125,4,2,7,47,0,0
4316,292.682926829268,4,2,7,47,1,0
4316,-125,4,2,7,47,0,0
5779,312.5,4,2,7,47,1,0
5779,-125,4,2,7,47,0,0
6716,292.682926829268,4,2,7,47,1,0
6716,-125,4,2,7,47,0,0
8179,303.030303030303,4,2,7,47,1,0
8179,-125,4,2,7,47,0,0
8936,320,4,2,7,47,1,0
8936,-125,4,2,7,47,0,0
9416,375,4,2,7,47,1,0
9416,-125,4,2,7,47,0,0
9603,245.901639344262,4,2,7,47,1,0
9603,-125,4,2,7,47,0,0
9710,298.507462686567,4,2,7,47,1,0
9859,-250,4,2,7,47,0,0
10232,-250,4,2,7,5,0,0
10307,300,4,2,7,77,1,0
10307,-100,4,2,7,77,0,0
10532,-100,4,2,7,5,0,0
10607,-100,4,2,7,77,0,0
14807,-250,4,2,7,77,0,0
15032,-250,4,2,7,77,0,0
15107,-100,4,2,7,77,0,0
17432,-100,4,2,7,5,0,0
17507,-100,4,2,7,77,0,0
19607,-250,4,2,7,77,0,0
19907,-250,4,2,7,47,0,0
27107,-166.666666666667,4,2,7,47,0,0
28307,292.682926829268,4,2,7,47,1,0
28307,-250,4,2,7,47,0,0
29477,315.374507227332,4,2,7,47,1,0
29477,-250,4,2,7,47,0,0
30107,300,4,2,7,47,1,0
30107,-250,4,2,7,47,0,0
30707,300,4,2,7,47,1,0
30707,-250,4,2,7,47,0,0
35507,-142.857142857143,4,2,7,57,0,0
36707,-100,4,2,7,67,0,0
39397,300,4,2,7,67,1,0
39397,-100,4,2,7,67,0,0
40297,300,4,2,7,67,1,0
40297,-100,4,2,7,67,0,0
41347,-105.263157894737,4,2,7,67,0,0
44947,-100,4,2,7,67,0,0
46147,-105.263157894737,4,2,7,67,0,0
48397,-250,4,2,7,67,0,0
48622,-250,4,2,7,5,0,0
48697,-100,4,2,7,57,0,0
50797,-133.333333333333,4,2,7,57,0,0
51022,-133.333333333333,4,2,7,5,0,0
51097,-100,4,2,7,57,0,0
51547,-105.263157894737,4,2,7,57,0,0
53077,271.493212669683,4,2,7,57,1,0
53347,-105.263157894737,4,2,7,57,0,0
53348,300,4,2,7,57,1,0
53348,-105.263157894737,4,2,7,57,0,0
53498,300,4,2,7,57,1,0
53498,-105.263157894737,4,2,7,57,0,0
56947,-250,4,2,7,57,0,0
57697,-250,4,2,7,47,0,0
58222,-500,4,2,7,5,0,0
58297,-192.307692307692,4,2,7,47,0,0
60097,-100,4,2,7,47,0,0
60114,-100,4,2,7,57,0,0
60714,300,4,2,7,57,1,0
62439,-100,4,2,7,5,0,0
62514,-100,4,2,7,57,0,0
63114,-95.2380952380952,4,2,7,87,0,0
63939,-95.2380952380952,4,2,7,5,0,0
64014,-95.2380952380952,4,2,7,87,0,0
67614,-133.333333333333,4,2,7,87,0,0
67914,-95.2380952380952,4,2,7,87,0,0
68139,-95.2380952380952,4,2,7,5,0,0
68214,-95.2380952380952,4,2,7,87,0,0
70539,-95.2380952380952,4,2,7,5,0,0
70614,-95.2380952380952,4,2,7,87,0,0
72939,-95.2380952380952,4,2,7,5,0,0
73014,-95.2380952380952,4,2,7,87,0,0
75339,-95.2380952380952,4,2,7,87,0,0
75414,-95.2380952380952,4,2,7,87,0,0
77739,-95.2380952380952,4,2,7,5,0,0
77814,-95.2380952380952,4,2,7,87,0,0
82539,-95.2380952380952,4,2,7,5,0,0
82614,-95.2380952380952,4,2,7,87,0,0
83739,-95.2380952380952,4,2,7,5,0,0
83814,-95.2380952380952,4,2,7,87,0,0
88539,-95.2380952380952,4,2,7,5,0,0
88614,-95.2380952380952,4,2,7,87,0,0
89439,-95.2380952380952,4,2,7,5,0,0
89514,-95.2380952380952,4,2,7,87,0,0
90339,-95.2380952380952,4,2,7,5,0,0
90414,-95.2380952380952,4,2,7,87,0,0
91839,-95.2380952380952,4,2,7,5,0,0
91914,-95.2380952380952,4,2,7,87,0,0
93039,-95.2380952380952,4,2,7,5,0,0
93114,-95.2380952380952,4,2,7,87,0,0
94539,-95.2380952380952,4,2,7,5,0,0
94614,-95.2380952380952,4,2,7,87,0,0
96714,-133.333333333333,4,2,7,87,0,0
97839,-133.333333333333,4,2,7,5,0,0
97914,-133.333333333333,4,2,7,87,0,0
99039,-133.333333333333,4,2,7,5,0,0
99114,-133.333333333333,4,2,7,57,0,0
99714,-111.111111111111,4,2,7,67,0,0
100314,-95.2380952380952,4,2,7,77,0,0
100914,-95.2380952380952,4,2,7,87,0,0
101214,-200,4,2,7,87,0,0
101439,-200,4,2,7,5,0,0
101514,-100,4,2,7,87,0,0
110814,263.157894736842,4,2,7,87,1,0
110814,-100,4,2,7,87,0,0
111077,307.692307692308,4,2,7,87,1,0
111077,-100,4,2,7,87,0,0
112615,300,4,2,7,87,1,0
112615,-100,4,2,7,87,0,0
113515,300,4,2,7,87,1,0
113515,-100,4,2,7,87,0,0
120714,-200,4,2,7,77,0,0
120865,-100,4,2,7,7,0,0

[Colours]
Combo1 : 204,132,60
Combo2 : 90,157,79
Combo3 : 200,190,79
Combo4 : 138,197,73

[HitObjects]
68,55,566,6,0,L|80:211,1,144,6|2,1:2|1:2,0:0:0:0:
49,328,1016,1,10,0:0:0:0:
144,273,1158,1,0,1:2:0:0:
144,273,1230,1,8,0:0:0:0:
144,273,1301,1,2,1:2:0:0:
191,354,1444,1,2,1:2:0:0:
191,354,1616,1,10,0:0:0:0:
235,288,1766,1,2,1:2:0:0:
320,368,1916,6,0,L|395:362,2,72,2|0|8,0:0|1:2|0:0,0:0:0:0:
370,283,2344,2,0,L|445:289,1,72,2|0,0:0|1:2,0:0:0:0:
492,227,2630,2,0,P|501:176|490:142,1,72,2|8,1:2|0:0,0:0:0:0:
407,73,2945,6,0,B|375:103|375:103|270:95,1,144,6|2,1:2|1:2,0:0:0:0:
177,44,3395,2,0,L|187:125,1,72,10|0,0:0|1:2,0:0:0:0:
90,195,3695,1,2,1:2:0:0:
90,195,3845,2,0,L|100:114,1,72,2|8,1:2|0:0,0:0:0:0:
11,232,4166,6,0,L|20:331,1,72,2|0,1:2|0:0,0:0:0:0:
91,367,4462,1,0,1:2:0:0:
189,223,4608,2,0,L|178:299,1,72,10|0,0:0|1:2,0:0:0:0:
275,95,4901,2,0,L|286:171,2,72,10|2|8,0:0|1:2|0:0,0:0:0:0:
459,39,5340,6,0,B|406:43|402:91|402:91|436:120|422:172,1,144,6|2,1:2|1:2,0:0:0:0:
393,221,5779,1,10,0:0:0:0:
450,295,5935,1,0,1:2:0:0:
450,295,6013,1,8,0:0:0:0:
450,295,6091,1,0,1:2:0:0:
393,353,6247,1,0,1:2:0:0:
393,353,6404,1,8,0:0:0:0:
468,377,6560,1,0,1:2:0:0:
345,286,6716,6,0,L|270:298,2,72,0|0|8,0:0|1:2|0:0,0:0:0:0:
290,216,7155,2,0,L|215:204,1,72,0|0,1:2|1:2,0:0:0:0:
131,164,7447,2,0,P|141:188|133:251,1,72,0|8,1:2|0:0,0:0:0:0:
45,357,7740,6,0,B|66:322|66:322|170:334,1,144,4|0,1:2|1:2,0:0:0:0:
273,297,8179,2,0,L|284:379,1,72,8|0,0:0|1:2,0:0:0:0:
298,384,8406,1,0,1:2:0:0:
298,384,8482,1,8,0:0:0:0:
363,336,8633,2,0,L|408:343,3,36,0|0|8|8,1:2|1:2|0:0|0:0,0:0:0:0:
472,313,8936,5,2,1:2:0:0:
370,193,9416,5,0,0:0:0:0:
370,193,9603,2,0,L|374:139,1,36,0|0,1:2|1:2,0:0:0:0:
285,170,9710,6,0,L|295:265,1,90,8|0,0:0|1:2,0:0:0:0:
33,42,10307,6,0,B|77:21|120:49|112:62|142:89|203:77,1,180,6|2,1:2|0:0,0:0:0:0:
200,77,10757,1,2,1:2:0:0:
280,11,10907,2,0,B|268:38|268:38|286:104,1,90,10|2,0:0|0:0,0:0:0:0:
358,159,11207,2,0,L|369:59,1,90,2|2,1:2|1:2,0:0:0:0:
278,179,11507,5,0,0:0:0:0:
450,42,11657,2,0,L|461:147,2,90,10|2|2,0:0|1:2|1:2,0:0:0:0:
362,163,12107,1,10,0:0:0:0:
362,163,12257,1,2,1:2:0:0:
463,135,12407,1,10,0:0:0:0:
463,135,12557,1,0,0:0:0:0:
278,179,12707,6,0,B|332:166|367:193|359:200|390:230|455:223,1,180,6|2,1:2|0:0,0:0:0:0:
446,223,13157,1,2,1:2:0:0:
505,310,13307,2,0,L|407:322,1,90,10|2,0:0|0:0,0:0:0:0:
337,368,13607,2,0,L|239:356,1,90,2|2,1:2|1:2,0:0:0:0:
136,284,13907,5,0,0:0:0:0:
136,284,14057,2,0,P|148:311|153:383,2,90,10|2|2,0:0|1:2|1:2,0:0:0:0:
56,236,14507,1,10,0:0:0:0:
56,236,14657,1,2,1:2:0:0:
100,143,14807,6,0,L|45:150,1,54,10|0,0:3|0:0,0:0:0:0:
35,126,15107,6,0,B|84:100|84:100|124:151|124:151|194:143,1,180,6|2,1:2|0:0,0:0:0:0:
183,144,15557,1,2,1:2:0:0:
259,70,15707,2,0,L|162:60,1,90,10|2,0:0|0:0,0:0:0:0:
95,17,16007,2,0,L|-2:27,1,90,2|2,1:2|1:2,0:0:0:0:
89,107,16307,5,0,0:0:0:0:
89,107,16457,2,0,L|78:211,2,90,10|2|2,0:0|1:2|1:2,0:0:0:0:
173,64,16907,1,10,0:0:0:0:
173,64,17057,1,2,1:2:0:0:
241,119,17207,1,10,0:0:0:0:
241,119,17357,1,0,0:0:0:0:
306,28,17507,6,0,B|277:77|277:77|302:197,1,180,6|2,1:2|0:0,0:0:0:0:
302,197,17957,1,2,1:2:0:0:
399,75,18107,2,0,L|390:168,1,90,14|2,0:0|0:0,0:0:0:0:
492,227,18407,2,0,L|483:134,1,90,2|2,1:2|1:2,0:0:0:0:
402,253,18707,5,0,0:0:0:0:
402,253,18857,2,0,B|414:289|414:289|406:350,2,90,10|2|8,0:0|0:0|0:0,0:0:0:0:
377,264,19232,1,8,0:0:0:0:
352,276,19307,2,0,L|247:271,1,90,8|8,0:0|0:3,0:0:0:0:
182,205,19607,1,2,1:2:0:0:
182,205,19757,1,2,0:0:0:0:
120,351,19907,6,0,B|129:310|92:276|92:276|78:245|92:206|92:206|106:231,1,180,6|2,1:2|0:0,0:0:0:0:
103,226,20807,1,2,3:2:0:0:
165,168,20957,2,0,B|185:152|209:153|209:153|232:182|265:181|265:181|272:152|318:125,1,180,2|0,0:0|3:2,0:0:0:0:
198,69,22007,1,2,3:2:0:0:
198,69,22157,1,2,1:2:0:0:
94,33,22307,6,0,B|114:34|134:19|134:19|164:52|223:41|223:41|237:28|270:21,1,180,2|2,1:2|0:0,0:0:0:0:
330,62,23207,1,2,0:0:0:0:
397,10,23357,2,0,B|367:42|367:42|394:145,1,144,2|0,0:0|3:2,0:0:0:0:
491,100,24257,1,0,3:2:0:0:
463,171,24407,1,2,0:0:0:0:
496,239,24557,1,2,3:0:0:0:
437,331,24707,6,0,B|408:331|387:310|387:310|374:331|352:338|352:338|335:326|298:325,1,144,2|0,1:2|3:2,0:0:0:0:
217,368,25607,1,2,0:0:0:0:
158,321,25757,2,0,B|121:313|121:313|72:322|72:322|86:293|76:258,1,144,2|0,0:0|3:2,0:0:0:0:
20,172,26657,1,0,3:2:0:0:
20,172,26807,2,0,L|65:167,1,36,2|0,0:0|0:0,0:0:0:0:
129,97,27107,6,0,B|169:121|216:106|216:106|220:138|261:162|261:162|302:121|302:121|286:105|283:70|283:70|301:87|333:88,1,323.999990112305,2|2,1:2|0:0,0:0:0:0:
404,41,28157,1,2,3:2:0:0:
376,169,28453,1,0,3:2:0:0:
489,103,28746,2,0,L|495:181,1,72,0|0,3:2|3:2,0:0:0:0:
453,252,29185,1,2,3:2:0:0:
453,252,29331,1,2,0:0:0:0:
257,119,29477,6,0,B|282:105|326:120|326:120|337:160|381:170,1,144,6|0,1:2|3:2,0:0:0:0:
339,232,30257,2,0,L|344:271,1,36,2|2,0:0|0:0,0:0:0:0:
415,329,30557,2,0,P|370:304|272:329,1,144,2|0,0:0|3:2,0:0:0:0:
153,215,31607,1,2,3:2:0:0:
153,215,31757,1,2,0:0:0:0:
85,280,31907,6,0,B|112:248|112:248|92:147,1,144,2|0,1:2|3:2,0:0:0:0:
71,68,32657,1,2,0:0:0:0:
71,68,32807,1,2,0:0:0:0:
146,22,32957,6,0,P|180:15|226:27,1,72,2|0,3:2|3:2,0:0:0:0:
277,98,33557,1,0,3:2:0:0:
275,107,33632,1,0,3:2:0:0:
273,117,33707,2,0,L|266:69,1,36,0|0,3:2|3:2,0:0:0:0:
353,42,34007,2,0,L|346:90,1,36,2|0,3:2|3:2,0:0:0:0:
446,19,34307,6,0,L|457:98,3,72,2|0|0|2,1:2|1:2|1:2|1:2,0:0:0:0:
347,305,35507,2,0,L|360:179,3,125.999996154785,0|0|0|2,1:2|1:2|1:2|1:2,0:0:0:0:
100,22,36707,6,0,L|123:205,1,180,10|0,0:0|1:2,0:0:0:0:
37,269,37157,2,0,P|86:233|164:324,1,180,8|0,0:3|1:2,0:0:0:0:
136,373,37607,1,6,0:3:0:0:
243,277,37757,1,2,1:2:0:0:
37,269,37907,6,0,L|26:167,1,90,12|0,0:0|1:2,0:0:0:0:
95,35,38207,1,12,0:0:0:0:
134,149,38357,1,10,0:0:0:0:
222,38,38507,1,2,1:2:0:0:
123,227,38657,2,0,L|193:216,3,45,10|8|8|8,0:0|0:0|0:0|0:0,0:0:0:0:
229,172,38957,6,0,B|273:151|273:151|311:227|311:227|379:245,1,180,6|0,1:2|1:2,0:0:0:0:
476,180,39397,1,8,0:0:0:0:
476,180,39547,1,2,0:0:0:0:
425,338,39697,2,0,L|434:242,1,90,2|0,1:2|1:2,0:0:0:0:
365,156,39997,1,10,0:0:0:0:
308,304,40147,6,0,L|116:291,1,180,6|0,1:2|1:2,0:0:0:0:
25,374,40597,1,8,0:0:0:0:
25,374,40747,1,6,1:2:0:0:
63,235,40897,2,0,B|74:184|30:144|30:144|65:167|121:157,1,180,2|10,0:0|0:0,0:0:0:0:
198,42,41347,6,0,B|182:86|182:86|214:236,1,170.999995433807,6|0,1:2|1:2,0:0:0:0:
351,119,41797,2,0,L|259:111,1,85.4999977169037,10|0,0:0|0:0,0:0:0:0:
397,217,42097,2,0,B|418:165|383:115|383:115|403:84|447:85,1,170.999995433807,2|10,1:2|0:0,0:0:0:0:
482,270,42547,6,0,P|434:241|353:318,1,170.999995433807,2|0,1:2|1:2,0:0:0:0:
263,182,42997,1,8,0:0:0:0:
228,264,43147,1,0,1:2:0:0:
228,264,43222,1,8,0:0:0:0:
228,264,43297,1,2,1:2:0:0:
286,366,43447,2,0,L|191:348,1,85.4999977169037,2|8,1:2|0:0,0:0:0:0:
7,372,43747,6,0,B|39:333|39:333|19:197,1,170.999995433807,6|0,1:2|1:2,0:0:0:0:
115,348,44197,1,8,0:0:0:0:
146,247,44347,1,2,0:0:0:0:
3,139,44497,2,0,B|50:124|81:164|81:164|101:125|163:132,1,170.999995433807,2|10,1:2|0:0,0:0:0:0:
6,23,44947,6,0,L|196:40,1,180,6|0,1:2|1:2,0:0:0:0:
321,0,45397,1,8,0:0:0:0:
280,141,45547,1,6,1:2:0:0:
375,89,45697,1,2,0:0:0:0:
470,218,45847,2,0,L|478:118,1,90,0|10,1:2|0:0,0:0:0:0:
367,197,46147,6,0,L|387:371,1,170.999995433807,6|0,1:2|1:2,0:0:0:0:
512,285,46597,2,0,L|503:381,1,85.4999977169037,10|0,0:0|1:2,0:0:0:0:
281,320,46897,2,0,L|188:331,2,85.4999977169037,2|0|10,1:2|1:2|0:0,0:0:0:0:
112,204,47347,6,0,B|82:250|82:250|110:368,1,170.999995433807,6|0,1:2|1:2,0:0:0:0:
206,244,47797,2,0,L|214:154,1,85.4999977169037,8|0,0:0|1:2,0:0:0:0:
78,82,48097,1,8,0:0:0:0:
78,82,48247,1,0,1:2:0:0:
146,174,48397,6,0,L|201:179,1,54,4|0,0:3|0:0,0:0:0:0:
213,158,48697,6,0,L|25:185,1,180,6|0,1:2|0:0,0:0:0:0:
0,279,49147,2,0,L|188:306,1,180,2|0,1:2|1:2,0:0:0:0:
291,360,49597,2,0,L|278:266,1,90,10|0,0:0|0:0,0:0:0:0:
478,200,49897,6,0,P|416:199|383:319,1,180,6|0,1:2|0:0,0:0:0:0:
431,384,50347,2,0,P|457:338|360:325,1,180,2|0,1:2|1:2,0:0:0:0:
269,371,50797,2,0,L|279:255,1,101.250003862381,6|0,0:3|0:0,0:0:0:0:
261,246,51097,6,0,L|253:152,1,90,6|2,1:2|0:0,0:0:0:0:
144,213,51397,1,2,0:0:0:0:
78,110,51547,2,0,B|119:92|164:111|153:125|187:150|247:138,1,170.999995433807,2|2,1:2|1:2,0:0:0:0:
315,6,51997,2,0,P|299:32|301:93,1,85.4999977169037,8|0,0:0|1:2,0:0:0:0:
502,104,52297,6,0,L|487:6,1,85.4999977169037,10|0,0:0|1:2,0:0:0:0:
431,166,52597,1,8,0:0:0:0:
306,93,52747,1,2,1:2:0:0:
306,93,52822,1,0,1:2:0:0:
306,93,52897,2,0,L|299:192,1,103,8|8,0:3|0:0,0:0:0:0:
298,291,53144,1,8,0:0:0:0:
298,291,53212,1,10,0:0:0:0:
298,291,53280,1,8,0:0:0:0:
298,291,53348,6,0,B|262:280|233:294|233:294|206:294|196:274|196:274|172:290|128:286,1,170.999995433807,6|0,1:2|1:2,0:0:0:0:
58,127,53798,2,0,L|69:224,1,85.4999977169037,8|0,0:0|0:0,0:0:0:0:
139,287,54098,2,0,L|150:190,1,85.4999977169037,0|0,1:2|1:2,0:0:0:0:
73,343,54397,1,10,0:0:0:0:
220,296,54548,6,0,B|259:327|259:327|385:310,1,170.999995433807,2|0,1:2|1:2,0:0:0:0:
502,383,54997,1,8,0:0:0:0:
463,285,55147,2,0,L|476:194,2,85.4999977169037,2|2|2,0:0|1:2|1:2,0:0:0:0:
463,285,55597,1,10,0:0:0:0:
350,92,55748,6,0,B|309:134|309:134|343:246,1,170.999995433807,6|0,1:2|1:2,0:0:0:0:
434,125,56197,1,8,0:0:0:0:
361,15,56347,1,2,1:2:0:0:
361,15,56422,1,0,1:2:0:0:
361,15,56498,2,0,L|310:9,3,42.7499988584519,10|8|0|0,0:0|0:3|1:2|1:2,0:0:0:0:
285,32,56798,2,0,L|226:44,1,42.7499988584519,8|8,0:0|0:0,0:0:0:0:
101,17,56948,6,0,B|97:80|130:111|130:111|98:151|116:203|116:203|159:210|192:175|192:175|154:172,1,306,2|0,1:2|0:0,0:0:0:0:
164,157,58298,6,0,B|103:123|59:178|65:257|131:303|131:303|177:263|237:274|237:274|232:317|267:340|267:340|264:313|282:283,1,467.999997143555,6|2,1:2|0:0,0:0:0:0:
386,242,60097,6,0,L|452:253,1,45,8|8,0:0|0:3,0:0:0:0:
328,182,60247,2,0,L|262:193,1,45,0|0,1:2|1:2,0:0:0:0:
391,111,60397,1,4,3:0:0:0:
391,111,60472,1,0,1:2:0:0:
391,111,60547,2,0,L|383:62,1,45,0|0,1:2|1:2,0:0:0:0:
470,149,60714,5,12,0:0:0:0:
159,60,61764,5,0,1:2:0:0:
159,60,61839,1,0,1:2:0:0:
159,60,61914,2,0,B|177:89|177:89|161:158,1,90,14|0,0:0|1:2,0:0:0:0:
88,216,62214,2,0,P|136:192|228:211,1,135,8|0,0:0|0:0,0:0:0:0:
229,226,62514,6,0,L|223:297,2,60,8|8|8,0:0|0:0|0:0,0:0:0:0:
299,167,62814,2,0,L|293:96,2,60,8|4|0,0:3|0:3|1:2,0:0:0:0:
377,336,63114,6,0,L|387:231,1,94.499997116089,6|0,1:2|0:0,0:0:0:0:
493,189,63414,2,0,L|503:294,1,94.499997116089,2|0,0:0|1:2,0:0:0:0:
420,131,63714,2,0,B|373:119|373:119|337:159|337:159|287:169,1,141.749995674133,10|0,0:0|0:0,0:0:0:0:
279,149,64014,2,0,L|172:142,1,94.499997116089,2|0,1:2|1:2,0:0:0:0:
104,52,64314,5,2,0:0:0:0:
44,209,64464,1,8,0:0:0:0:
184,142,64614,2,0,L|192:240,1,94.499997116089,2|0,1:2|1:2,0:0:0:0:
36,307,64914,6,0,B|60:289|60:289|131:297,1,94.499997116089,10|0,0:0|1:2,0:0:0:0:
234,376,65214,1,10,0:0:0:0:
191,236,65364,1,0,0:0:0:0:
325,337,65514,6,0,B|375:367|430:344|430:344|411:290|411:290|459:253|446:168,1,283.499991348267,6|0,1:2|1:2,0:0:0:0:
373,105,66114,2,0,B|321:92|298:146|308:183|308:183|267:147|211:157|211:157|235:133|235:100,1,283.499991348267,10|0,0:0|1:2,0:0:0:0:
139,24,66714,5,2,0:0:0:0:
19,99,66864,2,0,L|34:295,1,188.999994232178,8|0,0:0|1:2,0:0:0:0:
1,382,67314,2,0,L|104:368,1,94.499997116089,8|0,0:0|1:2,0:0:0:0:
190,277,67614,1,10,0:3:0:0:
190,277,67764,1,2,0:0:0:0:
235,364,67914,6,0,L|249:197,1,141.749995674133,6|0,1:2|0:0,0:0:0:0:
241,199,68214,2,0,B|272:214|272:214|343:201,1,94.499997116089,2|0,0:0|1:2,0:0:0:0:
419,135,68514,2,0,P|406:168|417:250,1,94.499997116089,10|0,0:0|0:0,0:0:0:0:
490,314,68814,2,0,B|443:305|443:305|394:322,1,94.499997116089,2|0,1:2|1:2,0:0:0:0:
324,370,69114,5,2,0:0:0:0:
199,322,69264,1,8,0:0:0:0:
113,370,69414,2,0,L|124:264,1,94.499997116089,2|0,1:2|1:2,0:0:0:0:
24,136,69714,2,0,B|10:182|10:182|28:232,1,94.499997116089,10|0,0:0|1:2,0:0:0:0:
141,178,70014,2,0,B|155:132|155:132|137:82,1,94.499997116089,10|0,0:0|0:0,0:0:0:0:
1,1,70314,6,0,L|151:10,1,141.749995674133,6|0,1:2|0:0,0:0:0:0:
171,23,70614,2,0,L|271:14,1,94.499997116089,2|0,0:0|1:2,0:0:0:0:
407,0,70914,2,0,B|387:27|387:27|412:104,1,94.499997116089,10|0,0:0|0:0,0:0:0:0:
491,143,71214,2,0,L|500:38,1,94.499997116089,2|0,1:2|1:2,0:0:0:0:
390,173,71514,5,2,0:0:0:0:
458,246,71664,2,0,P|415:214|275:243,1,188.999994232178,8|0,0:0|1:2,0:0:0:0:
366,309,72114,2,0,L|253:324,1,94.499997116089,10|0,0:0|1:2,0:0:0:0:
443,368,72414,1,8,0:0:0:0:
153,210,72714,6,0,P|182:263|161:353,1,141.749995674133,6|0,1:2|0:0,0:0:0:0:
156,358,73014,2,0,B|111:342|111:342|51:350,1,94.499997116089,2|0,0:0|1:2,0:0:0:0:
14,210,73314,2,0,L|4:321,1,94.499997116089,10|0,0:0|0:0,0:0:0:0:
98,257,73614,2,0,L|88:146,1,94.499997116089,2|0,1:2|1:2,0:0:0:0:
41,59,73914,5,2,0:0:0:0:
169,113,74064,1,8,0:0:0:0:
239,44,74214,2,0,L|352:55,1,94.499997116089,2|0,1:2|1:2,0:0:0:0:
256,224,74514,2,0,L|245:118,1,94.499997116089,10|0,0:0|0:0,0:0:0:0:
349,183,74814,2,0,L|338:289,1,94.499997116089,2|8,1:2|0:0,0:0:0:0:
505,180,75114,6,0,L|492:20,1,141.749995674133,2|0,0:0|1:2,0:0:0:0:
493,18,75414,2,0,B|463:40|463:40|401:33,1,94.499997116089,14|0,0:0|0:0,0:0:0:0:
314,10,75714,1,2,1:2:0:0:
403,127,75864,1,8,0:0:0:0:
269,79,76014,2,0,L|169:91,1,94.499997116089,2|0,0:0|1:2,0:0:0:0:
16,28,76314,6,0,B|46:50|46:50|35:133,1,94.499997116089,14|0,0:0|1:2,0:0:0:0:
118,225,76614,2,0,L|109:125,1,94.499997116089,8|0,0:0|0:0,0:0:0:0:
197,202,76914,1,0,1:2:0:0:
35,236,77064,1,8,0:0:0:0:
35,236,77139,1,8,0:0:0:0:
35,236,77214,2,0,L|42:177,1,47.2499985580445,8|8,0:0|0:0,0:0:0:0:
67,313,77364,2,0,L|74:372,1,47.2499985580445,8|8,0:0|0:0,0:0:0:0:
269,251,77514,6,0,L|123:238,1,141.749995674133,6|0,1:2|0:0,0:0:0:0:
118,225,77814,2,0,P|120:160|137:128,1,94.499997116089,10|0,0:0|1:2,0:0:0:0:
201,71,78114,2,0,P|269:61|308:79,1,94.499997116089,2|0,1:2|1:2,0:0:0:0:
400,160,78414,1,10,0:0:0:0:
400,160,78564,1,0,0:0:0:0:
490,135,78714,6,0,L|479:238,1,94.499997116089,2|0,1:2|1:2,0:0:0:0:
365,314,79014,2,0,L|354:211,1,94.499997116089,10|0,0:0|1:2,0:0:0:0:
461,352,79314,2,0,L|269:332,1,188.999994232178,2|10,0:0|0:0,0:0:0:0:
354,220,79764,1,0,0:0:0:0:
224,265,79914,6,0,B|268:259|284:206|249:168|249:168|275:144|264:109,1,188.999994232178,2|10,1:2|0:0,0:0:0:0:
265,109,80364,1,0,1:2:0:0:
115,280,80514,2,0,B|34:291|13:220|13:220|38:244|76:248,1,188.999994232178,2|10,0:0|0:0,0:0:0:0:
159,194,80964,1,0,0:0:0:0:
193,71,81114,6,0,B|246:53|284:89|274:102|306:142|371:134,1,188.999994232178,2|8,1:2|0:0,0:0:0:0:
361,135,81564,1,0,1:2:0:0:
458,17,81714,2,0,L|473:133,1,94.499997116089,2|0,0:0|1:2,0:0:0:0:
352,232,82014,2,0,L|367:116,1,94.499997116089,8|0,0:0|0:0,0:0:0:0:
230,10,82314,6,0,B|237:54|237:54|224:87|224:87|245:152,1,141.749995674133,6|0,1:2|0:0,0:0:0:0:
264,167,82614,2,0,P|247:225|241:284,1,94.499997116089,10|0,0:0|1:2,0:0:0:0:
160,151,82914,1,2,0:0:0:0:
160,151,83064,1,0,1:2:0:0:
54,93,83214,2,0,P|63:68|71:-24,1,94.499997116089,10|0,0:0|0:0,0:0:0:0:
0,204,83514,6,0,B|62:192|99:209|99:209|95:248|75:262,1,141.749995674133,2|0,1:2|0:0,0:0:0:0:
70,262,83814,2,0,P|67:197|78:152,1,94.499997116089,10|0,0:0|1:2,0:0:0:0:
149,62,84114,1,2,0:0:0:0:
149,62,84264,1,0,1:2:0:0:
184,169,84414,2,0,L|177:277,1,94.499997116089,10|0,0:0|0:0,0:0:0:0:
319,359,84714,6,0,B|365:323|356:266|283:248|267:284|267:284|285:288|301:304,1,188.999994232178,6|8,1:2|0:0,0:0:0:0:
289,294,85164,1,0,1:2:0:0:
361,167,85314,2,0,L|349:60,1,94.499997116089,2|0,0:0|1:2,0:0:0:0:
447,134,85614,2,0,L|435:241,1,94.499997116089,8|0,0:0|1:2,0:0:0:0:
480,363,85914,6,0,P|429:324|314:364,1,188.999994232178,0|8,1:2|0:0,0:0:0:0:
222,305,86364,1,0,0:0:0:0:
151,353,86514,1,8,0:0:0:0:
151,353,86589,1,8,0:0:0:0:
151,353,86664,2,0,L|95:347,1,47.2499985580445,8|8,0:0|0:0,0:0:0:0:
222,305,86814,2,0,L|278:299,1,47.2499985580445,10|8,0:0|0:0,0:0:0:0:
153,248,86964,2,0,L|97:242,1,47.2499985580445,10|8,0:0|0:0,0:0:0:0:
223,159,87114,6,0,B|248:177|248:177|329:167,1,94.499997116089,6|0,1:2|0:0,0:0:0:0:
441,41,87414,2,0,P|451:91|433:130,1,94.499997116089,10|0,0:0|1:2,0:0:0:0:
311,169,87714,2,0,P|325:104|323:63,1,94.499997116089,2|0,0:0|1:2,0:0:0:0:
193,18,88014,1,10,0:0:0:0:
223,159,88164,1,0,0:0:0:0:
76,5,88314,6,0,L|86:160,1,141.749995674133,2|0,1:2|0:0,0:0:0:0:
73,165,88614,2,0,L|66:268,1,94.499997116089,10|0,0:0|1:2,0:0:0:0:
15,369,88914,2,0,P|65:337|109:346,1,94.499997116089,2|0,0:0|1:2,0:0:0:0:
191,376,89214,2,0,B|337:358,1,141.749995674133,10|0,0:0|0:0,0:0:0:0:
354,373,89514,6,0,P|346:328|352:246,1,94.499997116089,2|0,1:2|0:0,0:0:0:0:
392,199,89814,2,0,P|400:154|394:72,1,94.499997116089,10|0,0:0|1:2,0:0:0:0:
296,29,90114,2,0,P|240:25|206:98,1,141.749995674133,2|0,0:0|0:0,0:0:0:0:
232,83,90414,6,0,L|128:70,1,94.499997116089,10|0,0:0|0:0,0:0:0:0:
36,99,90714,2,0,B|92:82|118:107|118:107|94:159|131:214,1,188.999994232178,2|8,1:2|0:0,0:0:0:0:
125,204,91164,1,0,1:2:0:0:
45,327,91314,2,0,B|25:278|25:278|77:257|108:293|108:293|130:320|162:315,1,188.999994232178,2|8,0:0|0:0,0:0:0:0:
144,315,91764,1,0,0:0:0:0:
247,198,91914,6,0,B|230:230|230:230|248:287,1,94.499997116089,6|0,1:2|0:0,0:0:0:0:
336,365,92214,2,0,L|344:265,1,94.499997116089,10|0,0:0|1:2,0:0:0:0:
424,164,92514,1,2,0:0:0:0:
442,271,92664,1,0,1:2:0:0:
345,139,92814,2,0,P|398:88|477:99,1,141.749995674133,10|0,0:0|0:0,0:0:0:0:
480,102,93114,6,0,B|459:78|459:78|475:2,1,94.499997116089,6|0,1:2|1:2,0:0:0:0:
337,44,93414,2,0,L|346:151,1,94.499997116089,10|0,0:0|1:2,0:0:0:0:
246,43,93714,2,0,P|181:27|154:44,1,94.499997116089,2|0,0:0|1:2,0:0:0:0:
53,141,94014,1,10,0:0:0:0:
21,12,94164,1,0,0:0:0:0:
174,116,94314,6,0,B|148:150|148:150|174:254,1,141.749995674133,6|0,1:2|0:0,0:0:0:0:
162,274,94614,2,0,P|119:252|60:261,1,94.499997116089,8|0,0:0|1:2,0:0:0:0:
16,369,94914,2,0,L|118:355,1,94.499997116089,2|0,0:0|1:2,0:0:0:0:
162,274,95214,2,0,L|264:288,1,94.499997116089,8|0,0:0|0:0,0:0:0:0:
369,361,95514,5,0,1:2:0:0:
344,228,95664,1,0,1:2:0:0:
479,382,95814,2,0,L|485:275,1,94.499997116089,8|8,0:0|0:0,0:0:0:0:
479,263,96039,1,8,0:0:0:0:
479,263,96114,6,0,L|401:276,2,62.9999980773926,8|8|8,0:0|0:0|0:3,0:0:0:0:
450,180,96414,2,0,L|528:193,2,62.9999980773926,4|0|0,0:3|1:2|1:2,0:0:0:0:
350,118,96714,6,0,B|290:92|249:165|266:171|228:228|143:214|143:214|177:158|108:93|108:93|24:147|79:215,1,506.250019311906,6|0,1:2|0:0,0:0:0:0:
31,274,97914,6,0,B|77:271|103:312|65:374|65:374|155:332|200:357|200:357|246:382|300:347|300:347|274:318|287:285|287:285|294:318|332:330,1,506.250019311906,6|0,1:2|0:0,0:0:0:0:
388,288,99114,6,0,L|470:282,1,67.5000025749208,2|0,1:2|1:2,0:0:0:0:
353,215,99414,2,0,L|271:209,1,67.5000025749208,2|0,1:2|1:2,0:0:0:0:
416,149,99714,2,0,L|502:144,1,80.9999975280763,10|8,0:0|0:0,0:0:0:0:
351,82,100014,2,0,L|265:77,1,80.9999975280763,10|8,0:0|0:0,0:0:0:0:
188,18,100314,5,10,0:0:0:0:
209,133,100464,1,8,0:0:0:0:
88,12,100614,1,10,0:0:0:0:
62,155,100764,1,8,0:0:0:0:
188,18,100914,2,0,B|219:32|219:32|281:22,1,94.499997116089,8|0,0:0|1:2,0:0:0:0:
138,93,101214,2,0,P|184:112|192:141,1,67.5,12|0,0:0|0:0,0:0:0:0:
209,133,101514,6,0,L|193:336,1,180,6|0,1:0|0:0,0:0:0:0:
119,246,101964,1,0,1:2:0:0:
266,359,102114,2,0,B|327:376|354:341|347:335|378:302|437:319,1,180,8|0,0:0|1:2,0:0:0:0:
491,371,102564,1,0,1:2:0:0:
361,245,102714,5,2,0:1:0:0:
432,317,102864,2,0,L|441:227,2,90,8|0|0,0:0|1:2|1:2,0:0:0:0:
361,245,103314,2,0,L|351:149,1,90,10|0,0:1|1:2,0:0:0:0:
494,71,103614,2,0,L|484:167,1,90,8|0,0:0|0:0,0:0:0:0:
370,45,103914,6,0,B|311:23|284:76|284:76|339:130|339:130|306:174|244:158,1,270,6|0,1:0|1:2,0:0:0:0:
124,102,104514,2,0,L|153:302,1,180,8|0,0:0|1:2,0:0:0:0:
218,225,104964,1,0,1:2:0:0:
50,211,105114,5,2,0:1:0:0:
93,345,105264,2,0,B|124:316|124:316|270:335,1,180,8|0,0:0|1:2,0:0:0:0:
370,352,105714,1,10,0:0:0:0:
337,278,105864,2,0,L|347:226,2,45,2|0|2,1:2|0:0|0:0,0:0:0:0:
370,352,106164,1,2,0:1:0:0:
473,237,106314,6,0,L|484:340,1,90,4|2,1:2|0:0,0:0:0:0:
337,278,106614,2,0,L|348:175,1,90,2|2,1:0|1:2,0:0:0:0:
225,93,106914,1,10,0:1:0:0:
271,213,107064,1,2,0:0:0:0:
335,66,107214,1,2,1:2:0:0:
159,149,107364,6,0,B|125:103|142:54|170:30|170:30|140:32|117:71,1,180,2|8,1:0|0:0,0:0:0:0:
129,53,107814,1,0,1:2:0:0:
19,14,107964,1,2,1:2:0:0:
91,198,108114,1,10,0:1:0:0:
9,97,108264,1,2,0:0:0:0:
0,246,108414,1,10,0:0:0:0:
91,198,108564,1,2,0:1:0:0:
18,354,108714,6,0,L|8:258,1,90,6|10,1:2|0:0,0:0:0:0:
4,250,108939,1,0,0:0:0:0:
4,250,109014,2,0,L|57:253,3,45,2|2|2|0,0:0|0:0|1:2|0:0,0:0:0:0:
85,272,109314,2,0,L|195:257,2,90,10|2|2,0:1|0:0|1:2,0:0:0:0:
169,336,109764,6,0,B|205:354|266:348|245:294|299:272|338:333|289:342,1,180,2|8,1:2|0:0,0:0:0:0:
279,227,110214,2,0,P|337:237|365:265,1,90,0|0,0:0|1:2,0:0:0:0:
444,359,110514,1,10,0:0:0:0:
446,336,110589,1,2,0:0:0:0:
449,314,110664,1,2,0:0:0:0:
421,182,110814,2,0,L|429:237,2,45,2|0|2,0:0|0:0|0:1,0:0:0:0:
442,54,111077,6,0,B|391:37|391:37|362:87|362:87|322:108|322:108|338:64,1,180,4|2,1:2|0:0,0:0:0:0:
279,23,111538,1,2,1:2:0:0:
179,64,111692,2,0,L|193:168,2,90,10|2|2,0:0|0:0|1:2,0:0:0:0:
35,25,112153,2,0,B|71:64|71:64|43:204,1,180,2|10,1:0|0:0,0:0:0:0:
140,247,112615,5,2,1:2:0:0:
140,247,112765,1,2,1:2:0:0:
20,357,112915,2,0,P|46:349|116:338,2,90,10|2|10,0:0|1:2|0:0,0:0:0:0:
148,255,113365,1,2,0:1:0:0:
148,255,113440,1,2,0:0:0:0:
148,255,113515,6,0,B|193:223|244:240|265:289|265:289|278:311|326:324,1,180,4|2,1:2|0:0,0:0:0:0:
371,227,113965,1,2,1:2:0:0:
447,320,114115,2,0,L|441:380,3,45,10|0|2|0,0:1|0:0|0:0|0:0,0:0:0:0:
459,380,114415,1,2,1:2:0:0:
371,227,114565,1,2,1:2:0:0:
282,366,114715,5,2,0:1:0:0:
282,366,114865,2,0,B|297:320|275:292|275:292|279:255|279:255|262:220|262:220|271:197|271:175,1,180,10|0,0:0|1:2,0:0:0:0:
190,80,115315,2,0,L|199:177,1,90,10|2,0:0|1:0,0:0:0:0:
286,102,115615,2,0,L|295:5,1,90,10|2,0:3|0:0,0:0:0:0:
95,105,115915,6,0,L|104:13,2,90,6|2|2,1:0|0:0|0:0,0:0:0:0:
49,185,116365,1,2,1:0:0:0:
152,249,116515,2,0,L|143:341,2,90,10|2|2,0:0|0:0|1:0,0:0:0:0:
198,169,116965,1,2,1:2:0:0:
230,374,117115,1,2,0:0:0:0:
152,249,117265,1,10,0:1:0:0:
287,311,117415,1,2,1:2:0:0:
375,213,117565,1,2,1:0:0:0:
375,213,117715,2,0,L|368:316,1,90,8|0,0:0|1:2,0:0:0:0:
444,159,118015,1,10,0:1:0:0:
488,274,118165,1,2,0:0:0:0:
300,142,118315,5,6,1:0:0:0:
282,248,118465,1,2,0:0:0:0:
282,248,118540,2,0,P|229:233|171:279,1,135,0|2,0:0|0:0,0:0:0:0:
108,320,118840,1,0,0:0:0:0:
108,320,118915,2,0,L|115:222,1,90,10|0,0:1|0:0,0:0:0:0:
30,122,119215,1,0,1:2:0:0:
1,260,119365,1,10,0:1:0:0:
130,153,119515,6,0,L|120:45,1,90,0|0,0:0|1:2,0:0:0:0:
133,38,119740,1,0,0:0:0:0:
133,38,119815,2,0,L|183:33,3,45,12|2|2|8,0:0|0:0|0:0|0:3,0:0:0:0:
196,46,120115,1,4,0:3:0:0:
217,53,120190,1,2,0:0:0:0:
239,52,120265,1,0,1:2:0:0:
260,45,120340,1,2,0:0:0:0:
280,35,120415,6,0,L|274:146,1,90,8|0,0:0|0:0,0:0:0:0:
290,154,120640,1,2,0:0:0:0:
290,154,120715,6,0,B|356:121|427:186|427:186|420:259|320:249|320:249|237:364|96:290|96:290|131:183|42:128|42:128|74:186|55:240|55:240|67:229|67:229|81:234|81:234|128:200|166:206|166:206|149:213|138:230,1,990,6|0,1:0|0:0,0:0:0:0:
256,192,124090,12,0,128365,0:0:0:0:
