osu file format v14

[General]
AudioFilename: audio.mp3
AudioLeadIn: 0
PreviewTime: 57557
Countdown: 0
SampleSet: Soft
StackLeniency: 0.3
Mode: 0
LetterboxInBreaks: 0
WidescreenStoryboard: 1

[Editor]
DistanceSpacing: 1.5
BeatDivisor: 4
GridSize: 8
TimelineZoom: 3

[Metadata]
Title:secret philosophy (Cut Ver.)
TitleUnicode:secret philosophy (Cut Ver.)
Artist:KISIDA KYODAN & THE AKEBOSI ROCKETS
ArtistUnicode:岸田教団& THE明星ロケッツ
Creator:Serafeim
Version:spoken's hard
Source:東方地霊殿 ~ Subterranean Animism.
Tags:Japanese J-Rock Rock Ichigo TH ZUN Touhou Reitaisai 14 ラストリモート Last Remote ハルトマンの妖怪少女 Hartmann's Youkai Girl 古明地 こいし Koishi Komeiji ANCIENT FLOWER KISHIDA KYOUDAN AND AKEBOSHI Tycani SpokenAway reiSevia Roda_Totsuki Video Game
BeatmapID:2687615
BeatmapSetID:1285290

[Difficulty]
HPDrainRate:4.6
CircleSize:3.5
OverallDifficulty:6
ApproachRate:8
SliderMultiplier:1.38
SliderTickRate:1

[Events]
//Background and Video events
0,0,"yep.png",0,0
//Break Periods
//Storyboard Layer 0 (Background)
//Storyboard Layer 1 (Fail)
//Storyboard Layer 2 (Pass)
//Storyboard Layer 3 (Foreground)
//Storyboard Layer 4 (Overlay)
//Storyboard Sound Samples

[TimingPoints]
-484,300,4,2,7,47,1,0
566,-133.333333333333,4,2,7,47,0,0
1016,285.714285714286,4,2,7,47,1,0
1016,-133.333333333333,4,2,7,47,0,0
1444,344.827586206897,4,2,7,47,1,0
1444,-133.333333333333,4,2,7,47,0,0
1616,300,4,2,7,47,1,0
1616,-133.333333333333,4,2,7,47,0,0
1916,285.714285714286,4,2,7,47,1,0
1916,-133.333333333333,4,2,7,47,0,0
2630,315.789473684211,4,2,7,47,1,0
2630,-133.333333333333,4,2,7,47,0,0
2945,300,4,2,7,47,1,0
2945,-133.333333333333,4,2,7,47,0,0
3995,342.857142857143,4,2,7,47,1,0
3995,-133.333333333333,4,2,7,47,0,0
4166,300,4,2,7,47,1,0
4166,-133.333333333333,4,2,7,47,0,0
4316,292.682926829268,4,2,7,47,1,0
4316,-133.333333333333,4,2,7,47,0,0
5779,312.5,4,2,7,47,1,0
5779,-133.333333333333,4,2,7,47,0,0
6716,292.682926829268,4,2,7,47,1,0
6716,-133.333333333333,4,2,7,47,0,0
8179,303.030303030303,4,2,7,47,1,0
8179,-133.333333333333,4,2,7,47,0,0
8936,320,4,2,7,47,1,0
8936,-133.333333333333,4,2,7,47,0,0
9416,375,4,2,7,47,1,0
9416,-133.333333333333,4,2,7,47,0,0
9603,245.901639344262,4,2,7,47,1,0
9603,-133.333333333333,4,2,7,47,0,0
9710,298.507462686567,4,2,7,47,1,0
9710,-133.333333333333,4,2,7,47,0,0
9859,-250,4,2,7,47,0,0
10232,-250,4,2,7,5,0,0
10307,300,4,2,7,77,1,0
10307,-105.263157894737,4,2,7,77,0,0
10532,-105.263157894737,4,2,7,5,0,0
10607,-105.263157894737,4,2,7,77,0,0
14807,-250,4,2,7,77,0,0
15107,-105.263157894737,4,2,7,77,0,0
17432,-105.263157894737,4,2,7,5,0,0
17507,-105.263157894737,4,2,7,77,0,0
19907,-133.333333333333,4,2,7,47,0,0
28307,292.682926829268,4,2,7,47,1,0
28307,-133.333333333333,4,2,7,47,0,0
29477,315.374507227332,4,2,7,47,1,0
29477,-166.666666666667,4,2,7,47,0,0
30107,300,4,2,7,47,1,0
30107,-133.333333333333,4,2,7,47,0,0
30707,300,4,2,7,47,1,0
30707,-133.333333333333,4,2,7,47,0,0
35507,-117.647058823529,4,2,7,57,0,0
36707,-100,4,2,7,67,0,0
39397,300,4,2,7,67,1,0
39397,-100,4,2,7,67,0,0
40297,300,4,2,7,67,1,0
40297,-100,4,2,7,67,0,0
41347,-105.263157894737,4,2,7,67,0,0
44947,-100,4,2,7,67,0,0
46147,-105.263157894737,4,2,7,67,0,0
48622,-105.263157894737,4,2,7,5,0,0
48697,-100,4,2,7,57,0,0
50797,-133.333333333333,4,2,7,57,0,0
51022,-133.333333333333,4,2,7,5,0,0
51097,-100,4,2,7,57,0,0
51547,-105.263157894737,4,2,7,57,0,0
53077,271.493212669683,4,2,7,57,1,0
53348,300,4,2,7,57,1,0
53348,-105.263157894737,4,2,7,57,0,0
53498,300,4,2,7,57,1,0
53498,-105.263157894737,4,2,7,57,0,0
57697,-500,4,2,7,47,0,0
57714,-500,4,2,7,47,0,0
58222,-500,4,2,7,5,0,0
58297,-192.307692307692,4,2,7,47,0,0
60097,-100,4,2,7,47,0,0
60114,-100,4,2,7,57,0,0
60714,300,4,2,7,57,1,0
63114,-95.2380952380952,4,2,7,87,0,0
77514,-90.9090909090909,4,2,7,87,0,0
91839,-90.9090909090909,4,2,7,5,0,0
91914,-90.9090909090909,4,2,7,87,0,0
99114,-90.9090909090909,4,2,7,57,0,0
99714,-90.9090909090909,4,2,7,67,0,0
100314,-90.9090909090909,4,2,7,77,0,0
100914,-90.9090909090909,4,2,7,87,0,0
101214,-200,4,2,7,87,0,0
101514,-100,4,2,7,87,0,0
110814,263.157894736842,4,2,7,87,1,0
110814,-105.263157894737,4,2,7,87,0,0
111077,307.692307692308,4,2,7,87,1,0
111077,-100,4,2,7,87,0,0
112615,300,4,2,7,87,1,0
112615,-100,4,2,7,87,0,0
113515,300,4,2,7,87,1,0
113515,-100,4,2,7,87,0,0
120714,-100,4,2,7,77,0,0
120865,-100,4,2,7,7,0,0

[Colours]
Combo1 : 204,132,60
Combo2 : 90,157,79
Combo3 : 200,190,79
Combo4 : 138,197,73

[HitObjects]
30,33,566,6,0,P|42:96|51:148,1,103.500003948212,6|2,1:2|1:2,0:0:0:0:
98,209,1016,2,0,L|165:196,1,51.7500019741059,10|0,0:0|1:2,0:0:0:0:
194,129,1301,2,0,L|262:142,1,51.7500019741059,2|2,1:2|1:2,0:0:0:0:
295,220,1616,2,0,L|362:204,1,51.7500019741059,10|2,0:0|1:2,0:0:0:0:
419,159,1916,5,2,0:0:0:0:
419,159,2058,1,0,1:2:0:0:
441,237,2201,2,0,L|427:308,1,51.7500019741059,8|2,0:0|0:0,0:0:0:0:
424,334,2416,1,8,0:0:0:0:
424,334,2487,2,0,L|354:348,1,51.7500019741059,0|2,1:2|1:2,0:0:0:0:
300,292,2787,1,8,0:0:0:0:
226,370,2945,6,0,P|180:335|173:277,1,103.500003948212,6|2,1:2|1:2,0:0:0:0:
229,223,3395,1,10,0:0:0:0:
172,99,3695,1,2,1:2:0:0:
172,99,3845,2,0,L|185:32,1,51.7500019741059,2|8,1:2|0:0,0:0:0:0:
76,52,4166,2,0,L|62:122,1,51.7500019741059,2|0,1:2|0:0,0:0:0:0:
13,175,4462,5,0,1:2:0:0:
13,175,4608,2,0,L|25:245,1,51.7500019741059,10|0,0:0|1:2,0:0:0:0:
106,257,4901,2,0,L|94:326,1,51.7500019741059,10|2,0:0|1:2,0:0:0:0:
167,368,5194,1,8,0:0:0:0:
167,368,5340,6,0,P|228:359|275:352,1,103.500003948212,6|2,1:2|1:2,0:0:0:0:
309,277,5779,2,0,P|339:281|377:293,1,51.7500019741059,10|0,0:0|1:2,0:0:0:0:
448,298,6091,2,0,P|444:268|435:229,1,51.7500019741059,0|0,1:2|1:2,0:0:0:0:
364,198,6404,2,0,P|368:168|378:132,1,51.7500019741059,8|0,0:0|1:2,0:0:0:0:
283,94,6716,6,0,P|290:125|298:161,1,51.7500019741059,0|0,0:0|1:2,0:0:0:0:
243,217,7008,1,8,0:0:0:0:
180,156,7155,1,0,1:2:0:0:
180,156,7228,1,8,0:0:0:0:
180,156,7301,2,0,P|149:149|113:144,1,51.7500019741059,0|0,1:2|1:2,0:0:0:0:
74,75,7594,1,8,0:0:0:0:
164,11,7740,6,0,P|209:48|256:38,1,103.500003948212,4|0,1:2|1:2,0:0:0:0:
341,11,8179,2,0,L|392:25,1,51.7500019741059,8|0,0:0|1:2,0:0:0:0:
437,43,8406,1,0,1:2:0:0:
437,42,8482,2,0,L|432:69,3,25.875000987053,8|8|0|0,0:0|0:3|1:2|1:2,0:0:0:0:
405,95,8785,2,0,L|409:121,2,25.875000987053,8|8|2,0:0|0:0|1:2,0:0:0:0:
495,336,9416,6,0,L|421:322,1,51.7500019741059,0|0,0:0|1:2,0:0:0:0:
386,257,9710,2,0,L|319:273,1,51.7500019741059,8|0,0:0|1:2,0:0:0:0:
146,352,10307,6,0,L|118:209,1,131.099996499252,6|2,1:2|0:0,0:0:0:0:
34,147,10757,1,2,1:2:0:0:
34,147,10907,2,0,P|75:136|114:132,1,65.5499982496262,10|2,0:0|0:0,0:0:0:0:
192,172,11207,2,0,P|233:183|275:182,1,65.5499982496262,2|2,1:2|1:2,0:0:0:0:
323,113,11507,6,0,L|404:98,1,65.5499982496262,0|10,0:0|0:0,0:0:0:0:
474,50,11807,1,2,1:2:0:0:
474,50,11957,1,2,1:2:0:0:
494,144,12107,2,0,L|482:224,1,65.5499982496262,10|2,0:0|1:2,0:0:0:0:
405,270,12407,2,0,L|391:188,1,65.5499982496262,10|0,0:0|0:0,0:0:0:0:
313,119,12707,6,0,P|312:192|272:256,1,131.099996499252,6|2,1:2|0:0,0:0:0:0:
192,248,13157,1,2,1:2:0:0:
192,248,13307,2,0,P|154:238|111:231,1,65.5499982496262,10|2,0:0|0:0,0:0:0:0:
33,222,13607,2,0,L|49:304,1,65.5499982496262,2|2,1:2|1:2,0:0:0:0:
125,349,13907,6,0,P|163:359|206:363,1,65.5499982496262,0|10,0:0|0:0,0:0:0:0:
240,285,14207,1,2,1:2:0:0:
240,285,14357,1,2,1:2:0:0:
310,350,14507,2,0,L|386:337,1,65.5499982496262,10|2,0:0|1:2,0:0:0:0:
443,260,14807,1,10,0:3:0:0:
443,260,15107,6,0,P|437:212|354:172,1,131.099996499252,6|2,1:2|0:0,0:0:0:0:
291,231,15557,1,2,1:2:0:0:
291,231,15707,2,0,L|210:218,1,65.5499982496262,10|2,0:0|0:0,0:0:0:0:
185,130,16007,2,0,L|102:146,1,65.5499982496262,2|2,1:2|1:2,0:0:0:0:
49,210,16307,6,0,L|33:127,1,65.5499982496262,0|10,0:0|0:0,0:0:0:0:
6,55,16607,1,2,1:2:0:0:
6,55,16757,1,2,1:2:0:0:
100,35,16907,2,0,P|138:25|180:20,1,65.5499982496262,10|2,0:0|1:2,0:0:0:0:
250,71,17207,2,0,P|288:81|334:85,1,65.5499982496262,10|0,0:0|0:0,0:0:0:0:
422,32,17507,6,0,P|436:107|449:186,1,131.099996499252,6|2,1:2|0:0,0:0:0:0:
411,258,17957,1,2,1:2:0:0:
411,258,18107,2,0,L|330:245,1,65.5499982496262,14|2,0:0|0:0,0:0:0:0:
299,159,18407,2,0,L|219:173,1,65.5499982496262,2|2,1:2|1:2,0:0:0:0:
190,258,18707,6,0,L|270:273,1,65.5499982496262,0|10,0:0|0:0,0:0:0:0:
326,345,19007,1,2,0:0:0:0:
326,345,19157,2,0,L|381:335,2,32.7749991248131,8|8|8,0:0|0:0|0:0,0:0:0:0:
234,377,19457,1,8,0:3:0:0:
234,377,19607,2,0,L|152:361,1,65.5499982496262,2|2,1:2|0:0,0:0:0:0:
190,258,19907,6,0,L|220:150,2,103.500003948212,6|0|0,1:2|3:2|3:2,0:0:0:0:
118,296,20657,2,0,L|44:308,1,51.7500019741059,2|2,0:0|3:2,0:0:0:0:
45,224,20957,2,0,P|5:193|29:82,1,155.250005922318,2|0,0:0|3:2,0:0:0:0:
83,144,21557,2,0,L|143:130,1,51.7500019741059,0|0,0:0|3:2,0:0:0:0:
250,49,22007,1,2,3:2:0:0:
250,49,22157,1,2,1:2:0:0:
282,143,22307,6,0,L|266:258,2,103.500003948212,2|0|0,1:2|3:2|3:2,0:0:0:0:
337,82,23057,2,0,L|411:97,1,51.7500019741059,2|2,0:0|0:0,0:0:0:0:
458,45,23357,2,0,B|485:100|485:100|442:196,1,155.250005922318,2|0,0:0|3:2,0:0:0:0:
407,266,23957,2,0,L|333:253,1,51.7500019741059,0|0,3:2|0:0,0:0:0:0:
331,177,24257,2,0,L|259:192,1,51.7500019741059,0|2,3:2|0:0,0:0:0:0:
229,253,24557,1,2,3:0:0:0:
171,179,24707,6,0,P|159:129|141:72,1,103.500003948212,2|0,1:2|0:0,0:0:0:0:
29,265,25307,2,0,P|17:315|45:367,1,103.500003948212,0|2,3:2|0:0,0:0:0:0:
123,323,25757,1,2,0:0:0:0:
123,323,25907,2,0,B|183:300|183:300|232:328,1,103.500003948212,0|0,3:2|0:0,0:0:0:0:
294,358,26357,2,0,L|367:345,1,51.7500019741059,0|0,3:2|0:0,0:0:0:0:
382,276,26657,1,0,3:2:0:0:
382,276,26807,2,0,L|450:290,1,51.7500019741059,2|0,0:0|0:0,0:0:0:0:
510,199,27107,6,0,P|458:188|393:175,1,103.500003948212,2|0,1:2|3:2,0:0:0:0:
327,201,27557,1,0,0:0:0:0:
327,201,27707,2,0,P|282:180|282:113,1,103.500003948212,0|2,3:2|0:0,0:0:0:0:
316,56,28157,2,0,L|245:40,1,51.7500019741059,2|0,3:2|0:0,0:0:0:0:
198,97,28453,2,0,L|127:113,1,51.7500019741059,0|0,3:2|0:0,0:0:0:0:
102,36,28746,2,0,L|28:23,1,51.7500019741059,0|0,3:2|0:0,0:0:0:0:
30,108,29038,1,0,3:2:0:0:
30,108,29185,2,0,L|45:182,1,51.7500019741059,2|2,3:2|0:0,0:0:0:0:
128,221,29477,6,0,L|219:201,2,82.7999974731446,6|0|0,1:2|0:0|3:2,0:0:0:0:
50,245,30257,2,0,L|36:319,1,51.7500019741059,2|2,0:0|0:0,0:0:0:0:
108,356,30557,2,0,L|122:282,1,51.7500019741059,2|0,0:0|3:2,0:0:0:0:
247,271,31007,1,0,0:0:0:0:
247,271,31157,2,0,L|262:155,1,103.500003948212,0|0,3:2|0:0,0:0:0:0:
314,100,31607,2,0,L|388:87,1,51.7500019741059,2|2,3:2|0:0,0:0:0:0:
450,36,31907,6,0,P|484:63|494:141,1,103.500003948212,2|0,1:2|3:2,0:0:0:0:
427,163,32357,2,0,L|440:237,1,51.7500019741059,0|0,3:2|3:2,0:0:0:0:
500,276,32657,1,2,0:0:0:0:
500,276,32807,1,2,0:0:0:0:
435,325,32957,2,0,L|361:312,1,51.7500019741059,2|0,3:2|0:0,0:0:0:0:
344,242,33257,2,0,L|273:254,1,51.7500019741059,0|0,3:2|3:2,0:0:0:0:
265,332,33557,1,0,3:2:0:0:
265,332,33707,2,0,L|191:318,1,51.7500019741059,0|0,3:2|3:2,0:0:0:0:
182,245,34007,1,2,3:2:0:0:
28,291,34307,6,0,B|45:343|45:343|108:368,2,103.500003948212,2|0|0,1:2|1:2|1:2,0:0:0:0:
76,226,35057,1,2,0:0:0:0:
76,226,35207,2,0,L|61:153,1,51.7500019741059,2|2,1:2|0:0,0:0:0:0:
3,103,35507,6,0,P|31:79|76:72,1,58.65000111866,0|0,1:2|0:0,0:0:0:0:
156,123,35807,2,0,L|171:253,2,117.30000223732,0|0|2,1:2|1:2|1:2,0:0:0:0:
321,14,36707,6,0,P|357:17|394:50,1,69,10|0,0:0|1:2,0:0:0:0:
409,127,37007,1,0,1:2:0:0:
409,127,37157,2,0,P|449:120|501:108,1,69,8|0,0:3|1:2,0:0:0:0:
512,215,37457,1,0,1:2:0:0:
512,215,37607,2,0,P|472:208|421:198,1,69,6|2,0:3|1:2,0:0:0:0:
326,203,37907,5,12,0:0:0:0:
326,203,38057,1,0,1:2:0:0:
381,281,38207,2,0,P|374:321|365:374,1,69,12|10,0:0|0:0,0:0:0:0:
271,372,38507,1,2,1:2:0:0:
271,372,38657,2,0,L|261:322,3,34.5,10|8|8|8,0:0|0:0|0:0|0:0,0:0:0:0:
197,333,38957,6,0,P|154:328|140:223,1,138,6|0,1:2|1:2,0:0:0:0:
215,197,39397,1,8,0:0:0:0:
215,197,39547,1,2,0:0:0:0:
135,122,39697,2,0,P|140:81|147:40,1,69,2|0,1:2|1:2,0:0:0:0:
42,15,39997,1,10,0:0:0:0:
13,115,40147,6,0,B|45:190|45:190|110:211,1,138,6|0,1:2|1:2,0:0:0:0:
215,197,40597,1,8,0:0:0:0:
215,197,40747,2,0,P|210:238|200:284,1,69,6|2,1:2|0:0,0:0:0:0:
98,292,41047,2,0,P|108:340|139:373,1,69,0|10,1:2|0:0,0:0:0:0:
241,365,41347,6,0,P|314:350|397:334,1,131.099996499252,6|0,1:2|1:2,0:0:0:0:
338,241,41797,2,0,P|379:246|415:252,1,65.5499982496262,10|0,0:0|0:0,0:0:0:0:
492,307,42097,2,0,P|497:273|501:241,1,65.5499982496262,2|0,1:2|1:2,0:0:0:0:
455,151,42396,1,10,0:0:0:0:
455,151,42547,6,0,P|404:156|346:81,1,131.099996499252,2|0,1:2|1:2,0:0:0:0:
424,28,42997,2,0,P|390:22|357:18,1,65.5499982496262,8|0,0:0|1:2,0:0:0:0:
262,61,43297,1,2,1:2:0:0:
262,61,43447,2,0,P|256:95|250:128,1,65.5499982496262,2|8,1:2|0:0,0:0:0:0:
200,227,43747,6,0,B|140:230|140:230|81:163,1,131.099996499252,6|0,1:2|1:2,0:0:0:0:
170,103,44197,1,8,0:0:0:0:
170,103,44347,1,2,0:0:0:0:
99,27,44497,2,0,P|65:21|29:38,1,65.5499982496262,2|0,1:2|1:2,0:0:0:0:
80,112,44797,1,10,0:0:0:0:
21,213,44947,6,0,P|92:201|168:187,1,138,6|0,1:2|1:2,0:0:0:0:
255,250,45397,1,8,0:0:0:0:
255,250,45547,2,0,L|190:291,1,69,6|2,1:2|0:0,0:0:0:0:
112,353,45847,2,0,L|183:371,1,69,0|10,1:2|0:0,0:0:0:0:
310,315,46147,6,0,P|339:264|306:183,1,131.099996499252,6|0,1:2|1:2,0:0:0:0:
227,140,46597,2,0,P|252:112|289:96,1,65.5499982496262,10|0,0:0|1:2,0:0:0:0:
323,78,46822,1,8,0:0:0:0:
323,78,46897,2,0,P|348:106|381:122,1,65.5499982496262,2|0,1:2|1:2,0:0:0:0:
457,55,47197,1,10,0:0:0:0:
506,160,47347,6,0,B|446:187|446:187|419:255,1,131.099996499252,6|0,1:2|1:2,0:0:0:0:
497,331,47797,1,8,0:0:0:0:
497,331,47947,1,0,1:2:0:0:
397,357,48097,2,0,L|327:346,1,65.5499982496262,8|0,0:0|1:2,0:0:0:0:
283,252,48397,1,4,0:3:0:0:
114,357,48697,5,6,1:2:0:0:
114,357,49147,2,0,P|93:324|116:232,1,138,2|0,1:2|1:2,0:0:0:0:
198,196,49597,1,10,0:0:0:0:
57,133,49897,5,6,1:2:0:0:
57,133,50347,2,0,P|80:92|180:101,1,138,2|0,1:2|1:2,0:0:0:0:
271,141,50797,1,6,0:3:0:0:
463,33,51097,6,0,B|407:18|407:18|358:91,1,138,6|2,1:2|0:0,0:0:0:0:
456,130,51547,2,0,P|472:205|490:284,1,131.099996499252,2|2,1:2|1:2,0:0:0:0:
387,291,51997,1,8,0:0:0:0:
387,291,52147,1,0,1:2:0:0:
359,179,52297,6,0,P|317:182|273:193,1,65.5499982496262,10|0,0:0|1:2,0:0:0:0:
214,255,52597,1,8,0:0:0:0:
214,255,52747,2,0,P|172:252|128:242,1,65.5499982496262,2|8,1:2|0:3,0:0:0:0:
176,102,53077,2,0,L|165:40,3,34.5,8|8|10|8,0:0|0:0|0:0|0:0,0:0:0:0:
156,110,53348,6,0,P|116:103|20:129,1,131.099996499252,6|0,1:2|1:2,0:0:0:0:
1,217,53797,1,8,0:0:0:0:
152,363,54097,2,0,P|192:356|236:348,1,65.5499982496262,0|0,1:2|1:2,0:0:0:0:
250,259,54397,1,10,0:0:0:0:
250,259,54547,6,0,B|313:228|313:228|381:269,1,131.099996499252,2|0,1:2|1:2,0:0:0:0:
419,348,54997,1,8,0:0:0:0:
419,348,55147,2,0,P|459:341|505:334,1,65.5499982496262,2|2,0:0|1:2,0:0:0:0:
456,249,55447,1,2,1:2:0:0:
456,249,55597,1,10,0:0:0:0:
512,160,55747,6,0,P|449:164|404:105,1,131.099996499252,6|0,1:2|1:2,0:0:0:0:
351,28,56197,2,0,P|311:35|266:42,1,65.5499982496262,8|2,0:0|1:2,0:0:0:0:
212,106,56497,1,10,0:0:0:0:
212,106,56572,1,8,0:3:0:0:
212,106,56647,2,0,L|200:155,4,32.7749991248131,0|0|8|8|2,1:2|1:2|0:0|0:0|1:2,0:0:0:0:
61,255,58297,5,6,1:2:0:0:
167,181,60098,6,0,L|156:238,3,34.5,8|8|0|0,0:0|0:3|1:2|1:2,0:0:0:0:
207,234,60397,2,0,L|217:297,3,34.5,4|0|0|0,3:0|1:2|1:2|1:2,0:0:0:0:
164,300,60714,5,12,0:0:0:0:
369,353,61764,5,0,1:2:0:0:
369,353,61839,1,0,1:2:0:0:
369,353,61914,2,0,L|453:340,2,69,14|0|8,0:0|1:2|0:0,0:0:0:0:
248,280,62514,2,0,L|261:202,2,46,8|8|8,0:0|0:0|0:0,0:0:0:0:
211,322,62814,2,0,L|224:403,2,46,8|4|0,0:3|0:3|1:2,0:0:0:0:
139,304,63114,6,0,L|122:214,1,72.4499977890015,6|0,1:2|0:0,0:0:0:0:
30,186,63414,2,0,L|44:94,1,72.4499977890015,2|0,0:0|1:2,0:0:0:0:
144,136,63714,2,0,P|188:143|238:117,1,72.4499977890015,10|0,0:0|0:0,0:0:0:0:
236,22,64014,2,0,P|280:15|330:38,1,72.4499977890015,2|0,1:2|1:2,0:0:0:0:
364,118,64314,5,2,0:0:0:0:
364,118,64464,1,8,0:0:0:0:
464,64,64614,2,0,L|445:158,1,72.4499977890015,2|0,1:2|1:2,0:0:0:0:
502,240,64914,2,0,P|458:247|407:222,1,72.4499977890015,10|0,0:0|1:2,0:0:0:0:
320,198,65214,2,0,P|313:242|336:291,1,72.4499977890015,10|0,0:0|0:0,0:0:0:0:
410,364,65514,6,0,P|330:353|242:340,1,144.899995578003,6|0,1:2|0:0,0:0:0:0:
148,350,65964,1,0,1:2:0:0:
148,350,66114,2,0,L|166:258,1,72.4499977890015,10|0,0:0|0:0,0:0:0:0:
235,187,66414,2,0,L|216:94,1,72.4499977890015,0|0,1:2|1:2,0:0:0:0:
146,25,66714,6,0,L|128:117,1,72.4499977890015,2|8,0:0|0:0,0:0:0:0:
146,213,67014,1,0,0:0:0:0:
146,213,67164,1,0,1:2:0:0:
46,159,67314,2,0,P|39:203|63:252,1,72.4499977890015,8|0,0:0|1:2,0:0:0:0:
10,337,67614,2,0,P|54:344|103:321,1,72.4499977890015,10|2,0:3|0:0,0:0:0:0:
194,305,67914,6,0,P|273:342|337:373,1,144.899995578003,6|2,1:2|0:0,0:0:0:0:
406,289,68364,1,0,1:2:0:0:
294,262,68514,2,0,P|287:218|313:167,1,72.4499977890015,10|0,0:0|0:0,0:0:0:0:
416,200,68814,2,0,L|403:122,1,72.4499977890015,2|0,1:2|1:2,0:0:0:0:
432,14,69114,6,0,L|336:35,1,72.4499977890015,2|8,0:0|0:0,0:0:0:0:
230,9,69414,2,0,L|209:101,1,72.4499977890015,2|0,1:2|1:2,0:0:0:0:
122,158,69714,2,0,L|141:253,1,72.4499977890015,10|0,0:0|1:2,0:0:0:0:
256,225,70014,1,10,0:0:0:0:
256,225,70164,1,0,0:0:0:0:
203,351,70314,6,0,P|121:371|69:315,1,144.899995578003,6|2,1:2|0:0,0:0:0:0:
122,229,70764,1,0,1:2:0:0:
122,229,70914,2,0,P|129:185|104:131,1,72.4499977890015,10|0,0:0|0:0,0:0:0:0:
3,154,71214,2,0,P|-4:110|18:60,1,72.4499977890015,2|0,1:2|1:2,0:0:0:0:
115,36,71514,6,0,L|212:14,1,72.4499977890015,2|8,0:0|0:0,0:0:0:0:
257,124,71814,2,0,L|349:146,1,72.4499977890015,0|0,1:2|1:2,0:0:0:0:
444,87,72114,1,10,0:0:0:0:
444,87,72264,1,0,1:2:0:0:
346,18,72414,2,0,P|302:11|261:27,1,72.4499977890015,8|0,0:0|0:0,0:0:0:0:
356,126,72714,6,0,B|401:167|401:167|360:271,1,144.899995578003,6|2,1:2|0:0,0:0:0:0:
242,211,73164,1,0,1:2:0:0:
297,325,73314,2,0,P|253:332|201:306,1,72.4499977890015,10|0,0:0|0:0,0:0:0:0:
111,352,73614,2,0,P|104:308|126:268,1,72.4499977890015,2|0,1:2|1:2,0:0:0:0:
5,223,73914,6,0,L|24:127,1,72.4499977890015,2|8,0:0|0:0,0:0:0:0:
127,85,74214,1,2,1:2:0:0:
127,85,74364,1,0,1:2:0:0:
13,46,74514,2,0,P|44:14|102:6,1,72.4499977890015,10|0,0:0|0:0,0:0:0:0:
191,16,74814,2,0,P|222:48|281:56,1,72.4499977890015,2|8,1:2|0:0,0:0:0:0:
362,45,75114,6,0,L|301:161,1,108.674996683502,2|0,0:0|1:2,0:0:0:0:
282,172,75414,2,0,L|303:270,1,72.4499977890015,14|0,0:0|0:0,0:0:0:0:
353,335,75714,1,2,1:2:0:0:
353,335,75864,1,8,0:0:0:0:
414,248,76014,2,0,L|292:208,1,108.674996683502,2|0,0:0|0:0,0:0:0:0:
282,172,76314,6,0,L|377:150,1,72.4499977890015,14|0,0:0|1:2,0:0:0:0:
424,73,76614,2,0,L|326:52,1,72.4499977890015,8|0,0:0|0:0,0:0:0:0:
237,3,76914,1,0,1:2:0:0:
281,124,77064,1,8,0:0:0:0:
281,124,77139,1,8,0:0:0:0:
281,124,77214,2,0,L|214:108,3,36.2249988945008,8|8|8|8,0:0|0:0|0:0|0:0,0:0:0:0:
203,81,77514,6,0,P|167:56|117:62,1,75.9000023162842,6|0,1:2|0:0,0:0:0:0:
10,76,77814,2,0,P|20:111|56:136,1,75.9000023162842,10|0,0:0|1:2,0:0:0:0:
164,160,78114,2,0,L|143:258,1,75.9000023162842,2|0,1:2|1:2,0:0:0:0:
29,263,78414,2,0,L|51:359,1,75.9000023162842,10|0,0:0|0:0,0:0:0:0:
161,374,78714,6,0,L|258:353,1,75.9000023162842,2|0,1:2|1:2,0:0:0:0:
287,249,79014,1,10,0:0:0:0:
287,249,79164,1,0,1:2:0:0:
388,312,79314,2,0,P|395:268|374:224,1,75.9000023162842,2|0,0:0|1:2,0:0:0:0:
296,153,79614,2,0,P|326:120|381:110,1,75.9000023162842,10|0,0:0|0:0,0:0:0:0:
446,26,79914,6,0,P|486:88|443:169,1,151.800004632568,2|10,1:2|0:0,0:0:0:0:
387,261,80364,1,0,1:2:0:0:
387,261,80514,2,0,L|484:240,1,75.9000023162842,2|0,0:0|1:2,0:0:0:0:
510,343,80814,2,0,L|414:363,1,75.9000023162842,10|0,0:0|0:0,0:0:0:0:
319,316,81114,6,0,P|275:309|223:338,1,75.9000023162842,2|0,1:2|1:2,0:0:0:0:
164,234,81414,1,8,0:0:0:0:
164,234,81564,1,0,1:2:0:0:
131,349,81714,2,0,P|87:356|34:327,1,75.9000023162842,2|0,0:0|1:2,0:0:0:0:
11,232,82014,2,0,L|29:136,1,75.9000023162842,8|0,0:0|0:0,0:0:0:0:
143,121,82314,6,0,L|119:23,1,75.9000023162842,6|0,1:2|0:0,0:0:0:0:
242,10,82614,2,0,L|265:106,1,75.9000023162842,10|0,0:0|1:2,0:0:0:0:
201,194,82914,2,0,P|194:238|221:292,1,75.9000023162842,2|0,0:0|1:2,0:0:0:0:
299,344,83214,2,0,P|306:300|280:247,1,75.9000023162842,10|0,0:0|0:0,0:0:0:0:
342,158,83514,5,2,1:2:0:0:
342,158,83664,1,0,1:2:0:0:
391,266,83814,2,0,L|489:244,1,75.9000023162842,10|0,0:0|1:2,0:0:0:0:
505,134,84114,2,0,L|408:113,1,75.9000023162842,2|0,0:0|1:2,0:0:0:0:
366,13,84414,2,0,L|270:34,1,75.9000023162842,10|0,0:0|0:0,0:0:0:0:
152,14,84714,6,0,P|169:98|186:182,1,151.800004632568,6|8,1:2|0:0,0:0:0:0:
277,253,85164,1,0,1:2:0:0:
277,253,85314,2,0,P|233:260|182:233,1,75.9000023162842,2|0,0:0|1:2,0:0:0:0:
100,190,85614,1,8,0:0:0:0:
74,298,85764,1,0,1:2:0:0:
74,298,85839,1,8,0:0:0:0:
74,298,85914,6,0,P|112:320|171:313,1,75.9000023162842,0|0,1:2|1:2,0:0:0:0:
198,236,86214,2,0,L|294:258,1,75.9000023162842,8|0,0:0|0:0,0:0:0:0:
351,346,86514,2,0,L|294:353,3,37.9500011581421,8|8|8|8,0:0|0:0|0:0|0:0,0:0:0:0:
365,324,86814,2,0,L|426:334,3,37.9500011581421,10|8|10|8,0:0|0:0|0:0|0:0,0:0:0:0:
360,288,87114,6,0,P|371:245|408:216,1,75.9000023162842,6|0,1:2|0:0,0:0:0:0:
505,166,87414,1,10,0:0:0:0:
505,166,87564,1,0,1:2:0:0:
413,88,87714,2,0,L|313:68,1,75.9000023162842,2|0,0:0|1:2,0:0:0:0:
267,171,88014,2,0,L|167:191,1,75.9000023162842,10|0,0:0|0:0,0:0:0:0:
76,144,88314,6,0,P|57:108|49:71,1,75.9000023162842,2|0,1:2|1:2,0:0:0:0:
141,0,88614,2,0,P|159:35|164:72,1,75.9000023162842,10|0,0:0|1:2,0:0:0:0:
145,196,88914,2,0,L|126:292,1,75.9000023162842,2|0,0:0|1:2,0:0:0:0:
28,333,89214,2,0,L|6:236,1,75.9000023162842,10|0,0:0|0:0,0:0:0:0:
131,271,89514,6,0,P|175:264|218:285,1,75.9000023162842,2|0,1:2|0:0,0:0:0:0:
296,362,89814,1,10,0:0:0:0:
296,362,89964,1,0,1:2:0:0:
345,252,90114,2,0,L|366:157,1,75.9000023162842,2|0,0:0|1:2,0:0:0:0:
250,128,90414,2,0,L|229:32,1,75.9000023162842,10|0,0:0|0:0,0:0:0:0:
357,0,90714,6,0,P|329:47|383:137,1,151.800004632568,2|8,1:2|0:0,0:0:0:0:
487,88,91164,1,0,1:2:0:0:
487,88,91314,2,0,L|465:187,1,75.9000023162842,2|0,0:0|1:2,0:0:0:0:
361,205,91614,2,0,L|380:302,1,75.9000023162842,8|0,0:0|0:0,0:0:0:0:
468,356,91914,6,0,P|429:378|369:372,1,75.9000023162842,6|0,1:2|0:0,0:0:0:0:
301,316,92214,1,10,0:0:0:0:
301,316,92364,1,0,1:2:0:0:
197,376,92514,2,0,L|176:281,1,75.9000023162842,2|0,0:0|1:2,0:0:0:0:
260,207,92814,2,0,P|280:173|271:113,1,75.9000023162842,10|0,0:0|0:0,0:0:0:0:
194,50,93114,6,0,P|228:30|291:37,1,75.9000023162842,6|0,1:2|1:2,0:0:0:0:
205,131,93414,2,0,L|110:109,1,75.9000023162842,10|0,0:0|1:2,0:0:0:0:
46,25,93714,2,0,L|26:119,1,75.9000023162842,2|0,0:0|1:2,0:0:0:0:
94,196,94014,1,10,0:0:0:0:
94,196,94164,1,0,0:0:0:0:
1,269,94314,6,0,P|36:289|96:283,1,75.9000023162842,6|0,1:2|0:0,0:0:0:0:
187,277,94614,1,8,0:0:0:0:
187,277,94764,1,0,1:2:0:0:
239,370,94914,2,0,L|334:351,1,75.9000023162842,2|0,0:0|1:2,0:0:0:0:
413,281,95214,2,0,L|314:261,1,75.9000023162842,8|0,0:0|0:0,0:0:0:0:
239,191,95514,6,0,L|336:169,1,75.9000023162842,0|0,1:2|1:2,0:0:0:0:
436,157,95814,2,0,P|439:115|415:61,1,75.9000023162842,8|8,0:0|0:0,0:0:0:0:
411,52,96039,1,8,0:0:0:0:
411,52,96114,2,0,L|336:38,2,50.6000015441895,8|8|8,0:0|0:0|0:3,0:0:0:0:
341,82,96414,2,0,L|268:93,2,50.6000015441895,4|0|0,0:3|1:2|1:2,0:0:0:0:
263,48,96714,5,6,1:2:0:0:
100,162,97914,5,6,1:2:0:0:
100,162,99114,6,0,P|111:248|121:331,1,151.800004632568,2|2,1:2|1:2,0:0:0:0:
203,346,99564,1,0,1:2:0:0:
196,239,99714,2,0,L|216:136,1,75.9000023162842,10|8,0:0|0:0,0:0:0:0:
339,134,100014,2,0,L|318:236,1,75.9000023162842,10|8,0:0|0:0,0:0:0:0:
371,332,100314,5,10,0:0:0:0:
371,332,100464,1,8,0:0:0:0:
469,254,100614,2,0,P|485:220|489:151,1,75.9000023162842,10|8,0:0|0:0,0:0:0:0:
415,75,100914,2,0,P|358:79|318:17,1,113.850003474426,8|0,0:0|1:2,0:0:0:0:
313,19,101214,1,12,0:0:0:0:
163,22,101514,6,0,B|207:50|207:50|184:150,1,138,6|0,1:0|0:0,0:0:0:0:
205,249,101964,1,0,1:2:0:0:
205,249,102114,2,0,B|153:230|153:230|126:211|126:211|52:201,1,138,8|0,0:0|1:2,0:0:0:0:
36,122,102564,1,0,1:2:0:0:
36,122,102714,6,0,B|47:81|47:81|96:53,1,69,2|8,0:1|0:0,0:0:0:0:
172,25,103014,2,0,B|209:31|209:31|222:37|222:37|266:43,1,69,0|0,1:2|1:2,0:0:0:0:
263,146,103314,2,0,B|300:139|300:139|313:133|313:133|357:127,1,69,10|0,0:1|1:2,0:0:0:0:
386,36,103614,2,0,B|435:63|435:63|451:135,1,103.5,8|0,0:0|0:0,0:0:0:0:
491,140,103914,6,0,B|481:213|481:213|390:245,1,138,6|0,1:0|1:2,0:0:0:0:
353,153,104364,1,0,1:2:0:0:
353,153,104514,2,0,B|344:209|344:209|318:236|318:236|309:310,1,138,8|0,0:0|1:2,0:0:0:0:
231,353,104964,1,0,1:2:0:0:
231,353,105114,6,0,B|224:315|224:315|218:302|218:302|212:258,1,69,2|8,0:1|0:0,0:0:0:0:
122,225,105414,2,0,B|133:184|133:184|182:156,1,69,0|0,1:2|1:2,0:0:0:0:
266,156,105714,2,0,B|255:115|255:115|206:87,1,69,10|2,0:0|1:2,0:0:0:0:
167,11,106014,2,0,B|125:0|125:0|77:28,1,69,2|2,0:0|0:1,0:0:0:0:
0,70,106314,6,0,B|49:51|49:51|132:108,1,138,4|2,1:2|1:0,0:0:0:0:
191,190,106764,1,2,1:2:0:0:
191,190,106914,2,0,B|153:197|153:197|140:203|140:203|96:209,1,69,10|2,0:1|0:0,0:0:0:0:
32,268,107214,2,0,B|70:275|70:275|83:281|83:281|127:287,1,69,2|2,1:2|1:0,0:0:0:0:
197,348,107514,6,0,B|254:320|254:320|271:237,1,138,0|0,0:0|1:2,0:0:0:0:
342,164,107964,1,2,1:2:0:0:
397,265,108114,1,10,0:1:0:0:
397,265,108264,1,2,0:0:0:0:
457,172,108414,2,0,B|468:131|468:131|517:103,1,69,10|2,0:0|0:1,0:0:0:0:
470,8,108714,6,0,B|421:12|421:12|396:37|396:37|343:52,1,138,6|2,1:2|0:0,0:0:0:0:
244,18,109164,1,2,1:2:0:0:
244,18,109314,2,0,B|251:56|251:56|257:69|257:69|263:113,1,69,10|2,0:1|0:0,0:0:0:0:
353,142,109614,2,0,B|346:180|346:180|340:193|340:193|334:237,1,69,2|2,1:2|1:2,0:0:0:0:
241,270,109914,2,0,B|239:255|239:255|233:242|233:242|226:204,1,69,2|8,0:1|0:0,0:0:0:0:
330,336,110214,2,0,B|300:363|300:363|251:370,1,69,0|0,0:0|1:2,0:0:0:0:
228,372,110439,1,0,1:2:0:0:
228,372,110514,6,0,B|190:365|190:365|177:359|177:359|133:353,1,69,10|2,0:0|0:0,0:0:0:0:
120,268,110814,1,2,0:0:0:0:
120,268,111077,6,0,B|173:256|173:256|201:235|201:235|266:218,1,138,4|2,1:2|0:0,0:0:0:0:
326,155,111538,1,2,1:2:0:0:
326,155,111692,2,0,B|319:117|319:117|313:104|313:104|307:60,1,69,10|2,0:0|0:0,0:0:0:0:
211,109,112000,1,2,1:2:0:0:
211,109,112153,6,0,B|150:102|150:102|107:26,1,138,2|10,1:0|0:0,0:0:0:0:
21,89,112615,1,2,1:2:0:0:
21,89,112765,1,2,1:2:0:0:
93,162,112915,2,0,B|59:180|59:180|4:169,1,69,10|2,0:0|1:2,0:0:0:0:
9,275,113215,2,0,B|43:293|43:293|98:282,1,69,10|2,0:0|0:1,0:0:0:0:
164,353,113515,6,0,B|178:301|178:301|175:270|175:270|202:210,1,138,4|2,1:2|0:0,0:0:0:0:
261,142,113965,1,2,1:2:0:0:
261,142,114115,2,0,B|299:149|299:149|312:155|312:155|356:161,1,69,10|2,0:1|0:0,0:0:0:0:
375,254,114415,1,2,1:2:0:0:
375,254,114565,1,2,1:2:0:0:
457,191,114715,6,0,B|464:153|464:153|470:140|470:140|476:96,1,69,2|10,0:1|0:0,0:0:0:0:
414,37,115015,2,0,B|407:75|407:75|401:88|401:88|395:132,1,69,2|0,0:1|1:2,0:0:0:0:
323,162,115315,2,0,B|281:159|281:159|242:127,1,69,10|2,0:0|1:0,0:0:0:0:
218,52,115615,1,10,0:3:0:0:
218,52,115765,1,2,0:0:0:0:
154,133,115915,6,0,B|161:171|161:171|167:184|167:184|173:228,1,69,6|2,1:0|0:0,0:0:0:0:
261,258,116215,1,2,0:0:0:0:
261,258,116365,1,2,1:0:0:0:
192,335,116515,2,0,B|154:328|154:328|141:322|141:322|97:316,1,69,10|2,0:0|0:0,0:0:0:0:
28,359,116815,2,0,B|12:323|12:323|29:278,1,69,2|2,1:0|1:2,0:0:0:0:
112,243,117115,6,0,B|128:207|128:207|111:162,1,69,2|10,0:0|0:1,0:0:0:0:
35,124,117415,1,2,1:2:0:0:
126,75,117565,2,0,B|173:42|173:42|210:39|210:39|266:3,1,138,2|0,1:0|1:2,0:0:0:0:
349,18,118015,2,0,B|356:56|356:56|362:69|362:69|368:113,1,69,10|2,0:1|0:0,0:0:0:0:
384,187,118315,6,0,B|449:155|449:155|524:177,1,138,6|2,1:0|0:1,0:0:0:0:
466,269,118765,1,2,0:0:0:0:
466,269,118915,2,0,B|459:307|459:307|453:320|453:320|447:364,1,69,10|0,0:1|0:0,0:0:0:0:
352,358,119215,1,0,1:2:0:0:
352,358,119365,2,0,B|345:320|345:320|339:307|339:307|333:263,1,69,10|0,0:1|0:0,0:0:0:0:
237,297,119665,1,0,1:2:0:0:
237,297,119815,2,0,B|183:277|183:277|114:272,1,103.5,12|8,0:0|0:3,0:0:0:0:
103,233,120115,2,0,B|80:206|80:206|86:163,1,69,4|0,0:3|1:2,0:0:0:0:
184,142,120415,2,0,B|207:115|207:115|201:72,1,69,8|0,0:0|0:0,0:0:0:0:
118,20,120715,5,6,1:0:0:0:
256,192,120865,12,0,128365,0:0:0:0:
