osu file format v14

[General]
AudioFilename: audio.mp3
AudioLeadIn: 0
PreviewTime: 57557
Countdown: 0
SampleSet: Soft
StackLeniency: 0.7
Mode: 0
LetterboxInBreaks: 0
WidescreenStoryboard: 1

[Editor]
DistanceSpacing: 1
BeatDivisor: 4
GridSize: 8
TimelineZoom: 1.6

[Metadata]
Title:secret philosophy (Cut Ver.)
TitleUnicode:secret philosophy (Cut Ver.)
Artist:KISIDA KYODAN & THE AKEBOSI ROCKETS
ArtistUnicode:岸田教団& THE明星ロケッツ
Creator:Serafeim
Version:normal
Source:東方地霊殿 ~ Subterranean Animism.
Tags:Japanese J-Rock Rock Ichigo TH ZUN Touhou Reitaisai 14 ラストリモート Last Remote ハルトマンの妖怪少女 Hartmann's Youkai Girl 古明地 こいし Koishi Komeiji ANCIENT FLOWER KISHIDA KYOUDAN AND AKEBOSHI Tycani SpokenAway reiSevia Roda_Totsuki Video Game
BeatmapID:2687613
BeatmapSetID:1285290

[Difficulty]
HPDrainRate:4
CircleSize:3
OverallDifficulty:4.5
ApproachRate:6
SliderMultiplier:1.2
SliderTickRate:1

[Events]
//Background and Video events
0,0,"yep.png",0,0
//Break Periods
//Storyboard Layer 0 (Background)
//Storyboard Layer 1 (Fail)
//Storyboard Layer 2 (Pass)
//Storyboard Layer 3 (Foreground)
//Storyboard Layer 4 (Overlay)
//Storyboard Sound Samples

[TimingPoints]
-484,300,4,2,7,47,1,0
566,-100,4,2,7,47,0,0
1016,285.714285714286,4,2,7,47,1,0
1016,-100,4,2,7,47,0,0
1444,344.827586206897,4,2,7,47,1,0
1444,-100,4,2,7,47,0,0
1616,300,4,2,7,47,1,0
1616,-100,4,2,7,47,0,0
1916,285.714285714286,4,2,7,47,1,0
1916,-100,4,2,7,47,0,0
2630,315.789473684211,4,2,7,47,1,0
2630,-100,4,2,7,47,0,0
2945,300,4,2,7,47,1,0
2945,-100,4,2,7,47,0,0
3995,342.857142857143,4,2,7,47,1,0
3995,-100,4,2,7,47,0,0
4166,300,4,2,7,47,1,0
4166,-100,4,2,7,47,0,0
4316,292.682926829268,4,2,7,47,1,0
4316,-100,4,2,7,47,0,0
5779,312.5,4,2,7,47,1,0
5779,-100,4,2,7,47,0,0
6716,292.682926829268,4,2,7,47,1,0
6716,-100,4,2,7,47,0,0
8179,303.030303030303,4,2,7,47,1,0
8179,-100,4,2,7,47,0,0
8936,320,4,2,7,47,1,0
8936,-100,4,2,7,47,0,0
9416,375,4,2,7,47,1,0
9416,-100,4,2,7,47,0,0
9603,245.901639344262,4,2,7,47,1,0
9603,-100,4,2,7,47,0,0
9710,298.507462686567,4,2,7,47,1,0
9859,-100,4,2,7,47,0,0
10232,-100,4,2,7,5,0,0
10307,300,4,2,7,77,1,0
10307,-100,4,2,7,77,0,0
10532,-100,4,2,7,5,0,0
10607,-100,4,2,7,77,0,0
17432,-100,4,2,7,5,0,0
17507,-100,4,2,7,77,0,0
19907,-117.647058823529,4,2,7,47,0,0
28307,292.682926829268,4,2,7,47,1,0
28307,-117.647058823529,4,2,7,47,0,0
29477,315.374507227332,4,2,7,47,1,0
29477,-117.647058823529,4,2,7,47,0,0
30107,300,4,2,7,47,1,0
30107,-117.647058823529,4,2,7,47,0,0
30707,300,4,2,7,47,1,0
30707,-117.647058823529,4,2,7,47,0,0
35507,-111.111111111111,4,2,7,57,0,0
36707,-111.111111111111,4,2,7,67,0,0
39397,300,4,2,7,67,1,0
39397,-111.111111111111,4,2,7,67,0,0
40297,300,4,2,7,67,1,0
40297,-111.111111111111,4,2,7,67,0,0
41347,-111.111111111111,4,2,7,67,0,0
44947,-111.111111111111,4,2,7,67,0,0
46147,-111.111111111111,4,2,7,67,0,0
48397,-111.111111111111,4,2,7,67,0,0
48622,-111.111111111111,4,2,7,5,0,0
48697,-111.111111111111,4,2,7,57,0,0
50797,-111.111111111111,4,2,7,57,0,0
51022,-111.111111111111,4,2,7,5,0,0
51097,-111.111111111111,4,2,7,57,0,0
51547,-111.111111111111,4,2,7,57,0,0
53077,271.493212669683,4,2,7,57,1,0
53348,300,4,2,7,57,1,0
53348,-111.111111111111,4,2,7,57,0,0
53498,300,4,2,7,57,1,0
53498,-111.111111111111,4,2,7,57,0,0
57697,-111.111111111111,4,2,7,47,0,0
57714,-111.111111111111,4,2,7,47,0,0
58222,-111.111111111111,4,2,7,5,0,0
58297,-111.111111111111,4,2,7,47,0,0
60097,-111.111111111111,4,2,7,47,0,0
60114,-111.111111111111,4,2,7,57,0,0
60714,300,4,2,7,57,1,0
63114,-100,4,2,7,87,0,0
91839,-100,4,2,7,5,0,0
91914,-100,4,2,7,87,0,0
96714,-100,4,2,7,87,0,0
99114,-111.111111111111,4,2,7,57,0,0
99714,-111.111111111111,4,2,7,67,0,0
100314,-111.111111111111,4,2,7,77,0,0
100914,-111.111111111111,4,2,7,87,0,0
101214,-111.111111111111,4,2,7,87,0,0
101514,-111.111111111111,4,2,7,87,0,0
110814,263.157894736842,4,2,7,87,1,0
110814,-111.111111111111,4,2,7,87,0,0
111077,307.692307692308,4,2,7,87,1,0
111077,-111.111111111111,4,2,7,87,0,0
112615,300,4,2,7,87,1,0
112615,-111.111111111111,4,2,7,87,0,0
113515,300,4,2,7,87,1,0
113515,-111.111111111111,4,2,7,87,0,0
120714,-111.111111111111,4,2,7,77,0,0
120865,-111.111111111111,4,2,7,7,0,0

[Colours]
Combo1 : 204,132,60
Combo2 : 90,157,79
Combo3 : 200,190,79
Combo4 : 138,197,73

[HitObjects]
69,25,566,6,0,L|54:145,1,120,6|2,1:2|1:2,0:0:0:0:
77,189,1016,1,10,0:0:0:0:
148,124,1301,2,0,P|212:96|281:122,1,132,2|10,1:2|0:0,0:0:0:0:
303,152,1766,1,2,1:2:0:0:
303,152,1916,2,0,L|318:275,1,120,2|8,0:0|0:0,0:0:0:0:
353,303,2344,1,2,0:0:0:0:
281,353,2630,1,2,1:2:0:0:
221,271,2945,6,0,B|80:288,1,120,6|2,1:2|1:2,0:0:0:0:
69,321,3395,1,10,0:0:0:0:
18,239,3695,2,0,B|8:174|8:174|33:108,1,120,2|8,1:2|0:0,0:0:0:0:
64,83,4166,2,0,P|129:91|189:67,1,118.5,2|0,1:2|1:2,0:0:0:0:
213,41,4608,1,10,0:0:0:0:
309,41,4901,2,0,L|388:50,2,60,10|2|8,0:0|1:2|0:0,0:0:0:0:
292,86,5340,6,0,P|283:143|307:216,1,120,6|2,1:2|1:2,0:0:0:0:
322,241,5779,1,10,0:0:0:0:
404,289,6091,2,0,L|420:155,1,120,0|8,1:2|0:0,0:0:0:0:
407,128,6560,1,0,1:2:0:0:
407,128,6716,2,0,L|390:-6,1,120,0|8,0:0|0:0,0:0:0:0:
343,4,7155,1,0,1:2:0:0:
278,74,7447,1,0,1:2:0:0:
205,10,7740,6,0,B|135:6|135:6|79:49,1,120,4|0,1:2|1:2,0:0:0:0:
68,74,8179,1,8,0:0:0:0:
103,163,8482,2,0,L|188:152,2,60,8|0|8,0:0|1:2|0:0,0:0:0:0:
58,170,8936,1,2,1:2:0:0:
311,292,9710,2,0,L|371:300,1,60,8|0,0:0|1:2,0:0:0:0:
461,189,10307,6,0,L|323:190,1,120,6|2,1:2|0:0,0:0:0:0:
326,149,10757,1,2,1:2:0:0:
326,149,10907,2,0,P|262:126|180:161,1,120,10|2,0:0|1:2,0:0:0:0:
122,125,11507,1,0,0:0:0:0:
122,125,11657,2,0,L|104:266,1,120,10|2,0:0|1:2,0:0:0:0:
112,292,12107,1,10,0:0:0:0:
174,364,12407,1,10,0:0:0:0:
234,289,12707,6,0,L|372:297,1,120,6|2,1:2|0:0,0:0:0:0:
403,314,13157,1,2,1:2:0:0:
403,314,13307,2,0,P|423:239|395:179,1,120,10|2,0:0|1:2,0:0:0:0:
376,110,13907,2,0,L|301:116,1,60,0|10,0:0|0:0,0:0:0:0:
268,119,14207,1,2,1:2:0:0:
231,207,14507,2,0,P|194:205|130:126,1,120,10|10,0:0|0:3,0:0:0:0:
131,55,15107,6,0,L|265:33,1,120,6|2,1:2|0:0,0:0:0:0:
301,33,15557,1,2,1:2:0:0:
301,33,15707,2,0,P|345:50|422:46,1,120,10|2,0:0|1:2,0:0:0:0:
499,106,16307,1,0,0:0:0:0:
499,106,16457,2,0,L|493:241,1,120,10|2,0:0|1:2,0:0:0:0:
487,273,16907,1,10,0:0:0:0:
398,310,17207,1,10,0:0:0:0:
350,227,17507,6,0,L|361:92,1,120,6|2,1:2|0:0,0:0:0:0:
361,63,17957,1,2,1:2:0:0:
361,63,18107,2,0,P|268:41|207:76,1,120,14|2,0:0|1:2,0:0:0:0:
164,92,18707,1,0,0:0:0:0:
164,92,18857,2,0,L|92:94,2,60,10|2|8,0:0|0:0|0:0,0:0:0:0:
185,134,19307,2,0,L|175:207,1,60,8|8,0:0|0:3,0:0:0:0:
171,241,19607,1,2,1:2:0:0:
180,322,19907,6,0,B|330:296|330:296|371:345,1,204.000003890991,6|0,1:2|3:2,0:0:0:0:
462,206,21107,2,0,L|352:216,1,102.000001945496,0|0,3:2|3:2,0:0:0:0:
278,210,21707,2,0,P|289:145|277:93,1,102.000001945496,0|2,3:2|3:2,0:0:0:0:
261,82,22157,1,2,1:2:0:0:
261,82,22307,6,0,B|123:62|123:62|70:121,1,204.000003890991,2|0,1:2|3:2,0:0:0:0:
26,285,23507,2,0,P|79:297|136:279,1,102.000001945496,0|0,3:2|3:2,0:0:0:0:
147,246,23957,1,0,3:2:0:0:
238,250,24257,1,0,3:2:0:0:
333,349,24707,6,0,B|393:318|393:318|401:166,1,204.000003890991,2|0,1:2|3:2,0:0:0:0:
507,58,25907,2,0,L|493:166,1,102.000001945496,0|0,3:2|0:0,0:0:0:0:
484,199,26357,1,0,3:2:0:0:
407,169,26657,2,0,P|362:173|289:137,1,102.000001945496,0|0,3:2|0:0,0:0:0:0:
269,162,27107,6,0,B|189:153|189:153|136:186|136:186|50:174,1,204.000003890991,2|0,1:2|3:2,0:0:0:0:
9,280,28157,1,2,3:2:0:0:
57,346,28453,1,0,3:2:0:0:
121,295,28746,2,0,P|170:267|237:267,1,102.000001945496,0|0,3:2|3:2,0:0:0:0:
254,272,29185,1,2,3:2:0:0:
323,336,29477,6,0,B|365:293|365:293|371:123,1,204.000003890991,6|0,1:2|3:2,0:0:0:0:
238,36,30707,2,0,P|309:12|383:31,2,153.000002918243,0|0|2,3:2|3:2|3:2,0:0:0:0:
234,128,31907,6,0,B|220:194|220:194|239:254|239:254|218:330,1,204.000003890991,2|0,1:2|3:2,0:0:0:0:
81,331,32957,1,2,3:2:0:0:
50,244,33257,2,0,B|112:206|112:206|204:206,1,153.000002918243,0|0,3:2|3:2,0:0:0:0:
262,143,34007,1,2,3:2:0:0:
262,61,34307,6,0,P|307:67|345:125,1,102.000001945496,2|0,1:2|1:2,0:0:0:0:
423,110,34907,2,0,L|410:211,1,102.000001945496,0|2,1:2|1:2,0:0:0:0:
359,284,35507,2,0,P|328:238|326:182,1,107.999996704102,0|0,1:2|1:2,0:0:0:0:
322,100,36107,1,0,1:2:0:0:
245,59,36407,1,2,1:2:0:0:
171,104,36707,6,0,L|50:113,1,107.999996704102,10|0,0:0|1:2,0:0:0:0:
36,152,37157,2,0,P|53:211|39:269,1,107.999996704102,8|0,0:3|1:2,0:0:0:0:
30,302,37607,1,6,0:3:0:0:
127,304,37907,2,0,L|249:317,1,107.999996704102,12|12,0:0|0:0,0:0:0:0:
325,362,38507,5,2,1:2:0:0:
325,362,38657,2,0,L|329:301,1,53.9999983520508,10|8,0:0|0:0,0:0:0:0:
370,283,38957,2,0,P|391:210|364:123,1,158.5,6|8,1:2|0:0,0:0:0:0:
363,88,39547,1,2,0:0:0:0:
363,88,39697,2,0,B|304:71|304:71|234:99,1,107.999996704102,2|10,1:2|0:0,0:0:0:0:
225,122,40147,6,0,L|89:117,1,107.999996704102,6|0,1:2|1:2,0:0:0:0:
65,201,40747,1,6,1:2:0:0:
65,201,40897,2,0,L|194:208,1,107.999996704102,2|10,0:0|0:0,0:0:0:0:
201,246,41347,2,0,P|193:289|208:358,1,107.999996704102,6|0,1:2|1:2,0:0:0:0:
240,382,41797,1,10,0:0:0:0:
323,331,42097,2,0,L|329:196,1,107.999996704102,2|10,1:2|0:0,0:0:0:0:
355,184,42547,2,0,P|383:114|376:59,1,107.999996704102,2|0,1:2|1:2,0:0:0:0:
368,37,42997,1,8,0:0:0:0:
278,7,43297,5,2,1:2:0:0:
278,7,43447,2,0,L|269:64,1,53.9999983520508,2|8,1:2|0:0,0:0:0:0:
229,89,43747,2,0,B|257:203|257:203|212:277,1,161.999995056153,6|8,1:2|0:0,0:0:0:0:
208,284,44347,1,2,0:0:0:0:
208,284,44497,2,0,P|149:267|72:296,1,107.999996704102,2|10,1:2|0:0,0:0:0:0:
55,275,44947,2,0,L|44:158,1,107.999996704102,6|0,1:2|1:2,0:0:0:0:
37,119,45397,1,8,0:0:0:0:
60,24,45697,6,0,L|-3:20,2,53.9999983520508,2|0|10,0:0|1:2|0:0,0:0:0:0:
108,28,46147,2,0,P|138:85|138:154,1,107.999996704102,6|0,1:2|1:2,0:0:0:0:
148,184,46597,1,10,0:0:0:0:
178,292,46897,2,0,P|213:271|229:224,1,53.9999983520508,2|0,1:2|1:2,0:0:0:0:
267,242,47197,1,10,0:0:0:0:
267,242,47347,2,0,L|262:118,1,107.999996704102,6|0,1:2|1:2,0:0:0:0:
276,87,47797,1,8,0:0:0:0:
355,30,48097,2,0,P|364:67|365:85,1,53.9999983520508,8|0,0:0|1:2,0:0:0:0:
375,130,48397,1,4,0:3:0:0:
464,169,48697,6,0,P|428:211|375:223,1,107.999996704102,6|0,1:2|0:0,0:0:0:0:
328,212,49147,2,0,L|205:224,1,107.999996704102,2|0,1:2|1:2,0:0:0:0:
171,228,49597,1,10,0:0:0:0:
100,294,49897,2,0,P|72:216|85:176,1,107.999996704102,6|0,1:2|0:0,0:0:0:0:
61,147,50347,2,0,L|48:16,1,107.999996704102,2|0,1:2|1:2,0:0:0:0:
82,2,50797,1,6,0:3:0:0:
178,15,51097,6,0,L|253:7,2,53.9999983520508,6|2|2,1:2|0:0|0:0,0:0:0:0:
157,59,51547,2,0,P|178:113|169:186,1,107.999996704102,2|2,1:2|1:2,0:0:0:0:
164,209,51997,1,8,0:0:0:0:
203,297,52297,1,10,0:0:0:0:
285,245,52597,1,8,0:0:0:0:
362,303,52897,6,0,L|369:224,1,65,8|8,0:3|0:0,0:0:0:0:
399,213,53212,1,10,0:0:0:0:
399,213,53348,2,0,B|397:151|397:151|424:100,1,107.999996704102,6|0,1:2|1:2,0:0:0:0:
449,72,53797,1,8,0:0:0:0:
377,6,54097,2,0,P|315:6|256:54,1,107.999996704102,0|10,1:2|0:0,0:0:0:0:
248,67,54547,2,0,L|133:58,1,107.999996704102,2|0,1:2|1:2,0:0:0:0:
45,85,55148,6,0,L|40:139,2,53.9999983520508,2|2|2,0:0|1:2|1:2,0:0:0:0:
136,141,55747,2,0,L|150:259,1,107.999996704102,6|0,1:2|1:2,0:0:0:0:
175,295,56197,2,0,L|233:291,1,53.9999983520508,8|2,0:0|1:2,0:0:0:0:
263,250,56498,2,0,L|379:259,1,107.999996704102,10|8,0:0|0:0,0:0:0:0:
406,299,56947,1,2,1:2:0:0:
178,144,58297,5,6,1:2:0:0:
256,192,58447,12,8,60098,0:0:0:0:
141,100,60714,5,12,0:0:0:0:
155,290,61914,6,0,L|277:280,1,120,14|8,0:0|0:0,0:0:0:0:
361,216,62514,1,8,0:0:0:0:
462,253,62814,1,8,0:3:0:0:
510,138,63114,6,0,P|452:86|392:94,1,120,6|2,1:2|0:0,0:0:0:0:
370,117,63564,1,0,1:2:0:0:
370,117,63714,2,0,L|241:124,1,120,10|2,0:0|1:2,0:0:0:0:
188,41,64314,1,2,0:0:0:0:
188,41,64464,2,0,P|146:96|138:161,1,120,8|0,0:0|1:2,0:0:0:0:
125,197,64914,1,10,0:0:0:0:
22,229,65214,1,10,0:0:0:0:
49,333,65514,6,0,B|182:299|182:299|233:345,1,180,6|0,1:2|1:2,0:0:0:0:
267,326,66114,2,0,B|330:304|330:356|388:339,1,120,10|0,0:0|1:2,0:0:0:0:
488,309,66714,1,2,0:0:0:0:
488,309,66864,2,0,L|495:187,1,120,8|0,0:0|1:2,0:0:0:0:
488,136,67314,2,0,L|403:144,1,60,8|0,0:0|1:2,0:0:0:0:
398,186,67614,2,0,L|313:178,1,60,10|2,0:3|0:0,0:0:0:0:
308,135,67914,6,0,B|274:165|274:165|260:258,1,120,6|2,1:2|0:0,0:0:0:0:
313,270,68364,1,0,1:2:0:0:
313,270,68514,2,0,P|287:332|287:401,1,120,10|2,0:0|1:2,0:0:0:0:
183,364,69114,1,2,0:0:0:0:
183,364,69264,2,0,P|115:341|54:358,1,120,8|0,0:0|1:2,0:0:0:0:
23,321,69714,2,0,L|30:235,1,60,10|0,0:0|1:2,0:0:0:0:
32,207,70014,1,10,0:0:0:0:
90,116,70314,6,0,P|180:95|241:122,1,120,6|2,1:2|0:0,0:0:0:0:
260,88,70764,1,0,1:2:0:0:
260,88,70914,2,0,L|272:222,1,120,10|2,0:0|1:2,0:0:0:0:
351,288,71514,1,2,0:0:0:0:
351,288,71664,2,0,P|428:263|490:294,1,120,8|0,0:0|1:2,0:0:0:0:
501,235,72114,2,0,L|497:157,1,60,10|0,0:0|1:2,0:0:0:0:
493,121,72414,1,8,0:0:0:0:
449,22,72714,6,0,L|311:33,1,120,6|2,1:2|0:0,0:0:0:0:
279,41,73164,1,0,1:2:0:0:
279,41,73314,2,0,P|260:97|267:170,1,120,10|2,0:0|1:2,0:0:0:0:
221,258,73914,1,2,0:0:0:0:
221,258,74064,2,0,L|90:250,1,120,8|0,0:0|1:2,0:0:0:0:
49,264,74514,2,0,P|39:195|64:131,1,120,10|2,0:0|1:2,0:0:0:0:
80,42,75114,6,0,L|207:34,1,120,2|14,0:0|0:0,0:0:0:0:
307,44,75714,2,0,P|325:94|304:179,1,120,2|2,1:2|0:0,0:0:0:0:
215,201,76314,2,0,L|155:207,1,60,14|0,0:0|1:2,0:0:0:0:
96,220,76614,1,8,0:0:0:0:
77,330,76914,1,0,1:2:0:0:
77,330,77064,2,0,L|-2:320,2,60,8|8|8,0:0|0:0|0:0,0:0:0:0:
132,352,77514,6,0,L|254:337,1,120,6|10,1:2|0:0,0:0:0:0:
356,280,78114,1,2,1:2:0:0:
468,321,78414,1,10,0:0:0:0:
503,208,78714,2,0,L|499:135,1,60,2|0,1:2|1:2,0:0:0:0:
497,87,79014,1,10,0:0:0:0:
403,12,79314,2,0,L|276:-2,1,120,2|10,0:0|0:0,0:0:0:0:
227,4,79764,1,0,0:0:0:0:
227,4,79914,2,0,P|242:62|224:129,1,120,2|10,1:2|0:0,0:0:0:0:
194,236,80514,6,0,L|54:251,1,120,2|10,0:0|0:0,0:0:0:0:
10,147,81114,2,0,L|7:80,1,60,2|0,1:2|1:2,0:0:0:0:
5,27,81414,1,8,0:0:0:0:
124,12,81714,2,0,P|185:26|252:-1,1,120,2|8,0:0|0:0,0:0:0:0:
357,19,82314,6,0,L|347:167,1,120,6|10,1:2|0:0,0:0:0:0:
441,214,82914,1,2,0:0:0:0:
407,329,83214,1,10,0:0:0:0:
289,322,83514,2,0,L|224:317,1,60,2|0,1:2|1:2,0:0:0:0:
169,314,83814,1,10,0:0:0:0:
57,357,84114,2,0,L|48:230,1,120,2|10,0:0|0:0,0:0:0:0:
9,123,84714,6,0,P|66:111|130:144,1,120,6|8,1:2|0:0,0:0:0:0:
155,191,85164,1,0,1:2:0:0:
155,191,85314,2,0,L|291:175,1,120,2|8,0:0|0:0,0:0:0:0:
316,66,85914,2,0,L|385:74,1,60,0|0,1:2|1:2,0:0:0:0:
435,81,86214,1,8,0:0:0:0:
468,196,86514,2,0,L|464:263,1,60,8|8,0:0|0:0,0:0:0:0:
405,264,86814,2,0,L|411:337,1,60,10|10,0:0|0:0,0:0:0:0:
357,354,87114,6,0,P|294:334|212:364,1,120,6|10,1:2|0:0,0:0:0:0:
135,290,87714,1,2,0:0:0:0:
41,365,88014,1,10,0:0:0:0:
14,248,88314,2,0,L|9:171,1,60,2|0,1:2|1:2,0:0:0:0:
5,128,88614,1,10,0:0:0:0:
81,35,88914,2,0,L|209:26,1,120,2|10,0:0|0:0,0:0:0:0:
319,8,89514,6,0,P|296:72|302:168,1,120,2|10,1:2|0:0,0:0:0:0:
191,187,90114,2,0,L|197:326,1,120,2|10,0:0|0:0,0:0:0:0:
293,376,90714,2,0,L|378:384,1,60,2|0,1:2|1:2,0:0:0:0:
412,383,91014,1,8,0:0:0:0:
494,295,91314,2,0,L|479:152,1,120,2|8,0:0|0:0,0:0:0:0:
484,55,91914,6,0,P|422:37|353:54,1,120,6|10,1:2|0:0,0:0:0:0:
322,84,92364,1,0,1:2:0:0:
322,84,92514,2,0,L|195:91,1,120,2|10,0:0|0:0,0:0:0:0:
99,29,93114,2,0,L|96:97,1,60,6|0,1:2|1:2,0:0:0:0:
97,148,93414,1,10,0:0:0:0:
45,256,93714,2,0,P|128:233|187:260,1,120,2|10,0:0|0:0,0:0:0:0:
222,343,94314,6,0,L|351:336,1,120,6|8,1:2|0:0,0:0:0:0:
400,349,94764,1,0,1:2:0:0:
400,349,94914,2,0,L|406:278,1,60,2|0,0:0|1:2,0:0:0:0:
410,229,95214,1,8,0:0:0:0:
319,150,95514,2,0,L|311:234,2,60,0|0|8,1:2|1:2|0:0,0:0:0:0:
292,95,95964,1,8,0:0:0:0:
292,95,96114,2,0,L|160:103,1,120,8|4,0:0|0:3,0:0:0:0:
112,108,96564,1,0,1:2:0:0:
112,108,96714,5,6,1:2:0:0:
350,260,97914,5,6,1:2:0:0:
115,44,99114,6,0,P|83:96|90:168,1,107.999996704102,2|2,1:2|1:2,0:0:0:0:
159,199,99714,2,0,L|284:192,1,107.999996704102,10|10,0:0|0:0,0:0:0:0:
312,176,100164,1,8,0:0:0:0:
312,176,100314,2,0,L|315:243,1,53.9999983520508,10|8,0:0|0:0,0:0:0:0:
361,242,100614,2,0,L|359:311,1,53.9999983520508,10|8,0:0|0:0,0:0:0:0:
393,331,100914,1,8,0:0:0:0:
493,334,101214,1,12,0:0:0:0:
489,226,101514,6,0,L|479:99,1,107.999996704102,6|0,1:0|0:0,0:0:0:0:
473,69,101964,1,0,1:2:0:0:
473,69,102114,2,0,P|418:71|356:51,1,107.999996704102,8|0,0:0|1:2,0:0:0:0:
321,27,102564,2,0,B|296:79|296:79|308:138,1,107.999996704102,0|8,1:2|0:0,0:0:0:0:
323,179,103014,1,0,1:2:0:0:
282,279,103314,2,0,L|279:333,2,53.9999983520508,10|0|8,0:1|1:2|0:0,0:0:0:0:
214,197,103914,6,0,B|158:209|158:209|110:195,1,107.999996704102,6|0,1:0|1:2,0:0:0:0:
69,167,104364,1,0,1:2:0:0:
69,167,104514,2,0,L|53:51,1,107.999996704102,8|0,0:0|1:2,0:0:0:0:
83,14,104964,2,0,P|131:28|187:16,1,107.999996704102,0|8,1:2|0:0,0:0:0:0:
240,13,105414,2,0,L|244:78,1,53.9999983520508,0|0,1:2|1:2,0:0:0:0:
295,80,105714,2,0,L|292:134,2,53.9999983520508,10|2|2,0:0|1:2|0:0,0:0:0:0:
393,124,106314,5,4,1:2:0:0:
396,231,106614,1,2,1:2:0:0:
330,316,106914,2,0,B|303:265|303:265|307:195,1,107.999996704102,10|2,0:1|1:2,0:0:0:0:
271,172,107364,2,0,L|161:165,1,107.999996704102,2|8,1:0|0:0,0:0:0:0:
116,137,107814,1,0,1:2:0:0:
78,35,108114,2,0,L|4:39,2,53.9999983520508,10|2|10,0:1|0:0|0:0,0:0:0:0:
132,33,108564,1,2,0:1:0:0:
132,33,108714,6,0,P|186:42|242:26,1,107.999996704102,6|2,1:2|0:0,0:0:0:0:
341,53,109314,2,0,L|428:58,2,53.9999983520508,10|2|2,0:1|0:0|1:2,0:0:0:0:
281,143,109914,2,0,L|273:268,1,107.999996704102,2|0,0:1|0:0,0:0:0:0:
347,330,110514,2,0,L|418:326,1,53.9999983520508,10|2,0:0|0:0,0:0:0:0:
462,326,110814,1,2,0:0:0:0:
463,233,111077,6,0,L|471:102,1,107.999996704102,4|2,1:2|0:0,0:0:0:0:
453,73,111538,1,2,1:2:0:0:
453,73,111692,2,0,P|395:56|336:78,1,107.999996704102,10|2,0:0|1:2,0:0:0:0:
311,105,112153,2,0,L|181:101,1,107.999996704102,2|10,1:0|0:0,0:0:0:0:
151,81,112615,1,2,1:2:0:0:
57,27,112915,2,0,L|48:122,1,53.9999983520508,10|2,0:0|1:2,0:0:0:0:
46,134,113215,1,10,0:0:0:0:
36,241,113515,6,0,P|97:221|160:234,1,107.999996704102,4|2,1:2|0:0,0:0:0:0:
196,239,113965,1,2,1:2:0:0:
196,239,114115,2,0,L|208:360,1,107.999996704102,10|2,0:1|1:2,0:0:0:0:
299,291,114715,2,0,L|312:168,1,107.999996704102,2|2,0:1|0:1,0:0:0:0:
366,91,115315,2,0,L|446:87,1,53.9999983520508,10|2,0:0|1:0,0:0:0:0:
474,86,115615,1,10,0:3:0:0:
474,194,115915,6,0,L|480:314,1,107.999996704102,6|2,1:0|0:0,0:0:0:0:
448,346,116365,2,0,P|383:311|325:331,1,107.999996704102,2|2,1:0|0:0,0:0:0:0:
303,340,116815,2,0,L|182:348,1,107.999996704102,2|2,1:0|0:0,0:0:0:0:
142,334,117265,2,0,B|153:280|153:280|136:209,1,107.999996704102,10|2,0:1|1:0,0:0:0:0:
103,189,117715,2,0,L|95:117,1,53.9999983520508,8|0,0:0|1:2,0:0:0:0:
89,81,118015,1,10,0:1:0:0:
180,24,118315,6,0,L|306:17,1,107.999996704102,6|2,1:0|0:1,0:0:0:0:
393,42,118915,2,0,P|363:92|362:150,1,107.999996704102,10|0,0:1|1:2,0:0:0:0:
392,184,119365,2,0,L|389:254,1,53.9999983520508,10|0,0:1|0:0,0:0:0:0:
388,292,119665,1,0,1:2:0:0:
388,292,119815,2,0,P|313:273|249:305,2,107.999996704102,12|4|8,0:0|0:3|0:0,0:0:0:0:
326,377,120715,1,6,1:0:0:0:
256,192,121015,12,0,128365,0:0:0:0:
