osu file format v14

[General]
AudioFilename: audio.mp3
AudioLeadIn: 0
PreviewTime: 52666
Countdown: 0
SampleSet: Soft
StackLeniency: 0.7
Mode: 2
LetterboxInBreaks: 0
WidescreenStoryboard: 0

[Editor]
DistanceSpacing: 1
BeatDivisor: 4
GridSize: 8
TimelineZoom: 1.8

[Metadata]
Title:night birds (Cut Ver.)
TitleUnicode:night birds (Cut Ver.)
Artist:KISIDA KYODAN & THE AKEBOSI ROCKETS
ArtistUnicode:岸田教団&THE明星ロケッツ
Creator:Verti
Version:Starry Night
Source:東方紅魔郷 ~ the Embodiment of Scarlet Devil.
Tags:妖魔夜行 Reitaisai 14 Rumia Stage 1 ANCIENT FLOWER Apparitions Stalk the Night A Soul as Red as a Ground Cherry short version arrangement female vocalist japanese jp rock j-rock Kishida and Akeboshi ZUN ほおずきみたいに紅い魂 -Joakh Rew0825 Du5t IDu5t -MomoX Greaper
BeatmapID:2841254
BeatmapSetID:1374425

[Difficulty]
HPDrainRate:6
CircleSize:4
OverallDifficulty:9.3
ApproachRate:9.3
SliderMultiplier:1.84
SliderTickRate:2

[Events]
//Background and Video events
0,0,"1092821.jpg",0,0
//Break Periods
//Storyboard Layer 0 (Background)
//Storyboard Layer 1 (Fail)
//Storyboard Layer 2 (Pass)
//Storyboard Layer 3 (Foreground)
//Storyboard Layer 4 (Overlay)
//Storyboard Sound Samples

[TimingPoints]
575,326.086956521739,4,2,1,50,1,0
11009,-100,4,2,1,65,0,0
15248,352.941176470588,4,2,1,70,1,0
15600,313.479623824451,4,2,1,75,1,0
16227,326.086956521739,4,2,1,65,1,0
20792,387.096774193548,4,2,1,65,1,0
20985,307.692307692308,4,2,1,65,1,0
21444,326.086956521739,4,2,1,65,1,0
21446,-100,4,2,1,60,0,0
25357,348.837209302326,4,2,1,60,1,0
25880,309.278350515464,4,2,1,60,1,0
26034,276.497695852535,4,2,1,60,1,0
26172,326.086956521739,4,2,1,60,1,0
26661,326.086956521739,4,2,1,60,1,0
30411,352.941176470588,4,2,1,60,1,0
30940,312.5,4,2,1,60,1,0
31252,326.086956521739,4,2,1,65,1,0
31904,326.086956521739,4,2,1,70,1,0
32556,304.568527918782,4,2,1,70,1,0
32708,303.030303030303,4,2,1,70,1,0
32859,324.324324324324,4,2,1,70,1,0
33183,326.086956521739,4,2,1,70,1,0
46226,-100,4,2,1,60,0,0
47530,-100,4,2,1,65,0,0
52748,-100,4,2,1,75,0,1
71009,337.078651685393,4,2,1,75,1,1
72357,317.460317460317,4,2,1,75,1,1
73626,326.086956521739,4,2,1,65,1,0
73626,-100,4,2,1,65,0,0
84060,-100,4,2,1,70,0,0
89278,-100,4,2,1,70,0,0
94821,-100,4,2,1,65,0,0
95147,-100,4,2,1,60,0,0
95473,-100,4,2,1,55,0,0
95799,-100,4,2,1,50,0,0
96126,-100,4,2,1,45,0,0
96452,-100,4,2,1,40,0,0
96778,-100,4,2,1,35,0,0
97104,-100,4,2,1,30,0,0
97430,-100,4,2,1,25,0,0
97756,-100,4,2,1,20,0,0
98082,-100,4,2,1,15,0,0
98408,-100,4,2,1,10,0,0
98734,-100,4,2,1,5,0,0

[Colours]
Combo1 : 255,119,119
Combo2 : 255,155,106
Combo3 : 194,103,12
Combo4 : 255,255,151

[HitObjects]
384,304,575,5,4,1:0:0:0:
472,232,738,1,0,0:0:0:0:
472,128,901,1,0,1:0:0:0:
384,64,1064,1,0,0:0:0:0:
136,168,1227,2,0,L|136:56,1,92,0|0,1:0|0:0,0:0:0:0:
280,304,1553,2,0,L|400:304,1,92,0|0,1:0|0:0,0:0:0:0:
136,56,1879,6,0,L|136:160,1,92,2|0,1:0|0:0,0:0:0:0:
288,192,2205,2,0,L|288:96,1,92,0|0,1:0|0:0,0:0:0:0:
440,192,2531,2,0,L|440:96,1,92,0|0,1:0|0:0,0:0:0:0:
208,48,2857,2,0,L|96:48,1,92,0|0,1:0|0:0,0:0:0:0:
264,192,3183,6,0,L|368:192,1,92,2|0,1:0|0:0,0:0:0:0:
136,56,3509,2,0,L|136:152,1,92,0|0,1:0|0:0,0:0:0:0:
288,192,3835,2,0,L|288:96,1,92,0|0,1:0|0:0,0:0:0:0:
440,192,4161,2,0,L|440:80,1,92,0|0,1:0|0:0,0:0:0:0:
216,192,4488,6,0,L|216:96,1,92,2|0,1:0|0:0,0:0:0:0:
360,56,4814,2,0,L|464:56,1,92,0|0,1:0|0:0,0:0:0:0:
216,272,5140,1,0,1:0:0:0:
128,192,5303,1,0,0:0:0:0:
128,88,5466,1,2,1:0:0:0:
216,32,5629,1,0,0:0:0:0:
440,192,5792,6,0,L|440:96,1,92,6|0,1:0|0:0,0:0:0:0:
216,32,6118,2,0,L|96:32,1,92,0|0,1:0|0:0,0:0:0:0:
352,280,6444,1,2,1:0:0:0:
440,208,6607,1,2,0:0:0:0:
440,112,6770,1,2,1:0:0:0:
352,48,6933,1,2,0:0:0:0:
120,48,7096,6,0,L|120:144,1,92,2|0,1:0|0:0,0:0:0:0:
256,192,7422,2,0,L|368:192,1,92,0|0,1:0|0:0,0:0:0:0:
128,48,7748,2,0,L|32:48,3,92,2|2|2|2,1:0|0:0|1:0|0:0,0:0:0:0:
264,192,8401,6,0,L|368:192,3,92,2|0|2|2,1:0|0:0|1:0|0:0,0:0:0:0:
120,192,9053,2,0,L|120:96,1,92,2|0,1:0|0:0,0:0:0:0:
344,48,9379,2,0,L|240:48,1,92,2|2,1:0|0:0,0:0:0:0:
472,192,9705,6,0,L|376:192,2,92,2|10|10,1:0|0:0|0:0,0:0:0:0:
240,184,10194,2,0,L|136:184,1,92,2|10,1:0|0:0,0:0:0:0:
208,112,10439,1,0,0:0:0:0:
432,192,10520,2,0,L|496:192,1,46,0|0,3:0|3:0,0:0:0:0:
264,184,10683,2,0,L|208:184,1,46,10|8,0:0|0:0,0:0:0:0:
432,192,10846,2,0,L|488:192,1,46,10|8,0:0|0:0,0:0:0:0:
216,112,11009,6,0,P|152:176|216:240,1,184,6|10,1:0|0:0,0:0:0:0:
312,112,11498,1,0,0:0:0:0:
88,112,11661,2,0,L|88:208,1,92,2|2,1:0|0:0,0:0:0:0:
248,48,11988,2,0,L|152:48,1,92,10|2,0:0|0:0,0:0:0:0:
392,208,12314,6,0,L|496:208,1,92,2|0,1:0|0:0,0:0:0:0:
264,208,12640,2,0,L|368:208,1,92,10|2,0:0|0:0,0:0:0:0:
120,48,12966,2,0,L|16:48,1,92,2|2,1:0|0:0,0:0:0:0:
248,48,13292,2,0,L|144:48,1,92,10|2,0:0|0:0,0:0:0:0:
384,192,13618,6,0,P|448:128|384:64,1,184,6|10,1:0|0:0,0:0:0:0:
288,56,14107,1,0,0:0:0:0:
64,184,14270,2,0,L|64:88,1,92,2|2,1:0|0:0,0:0:0:0:
288,56,14596,2,0,L|400:56,1,92,10|2,0:0|0:0,0:0:0:0:
144,256,14922,6,0,L|144:160,1,92,2|2,1:0|0:0,0:0:0:0:
368,184,15248,2,0,L|424:184,1,46,10|0,0:0|0:0,0:0:0:0:
248,96,15424,1,0,3:0:0:0:
184,96,15512,1,0,3:0:0:0:
248,96,15600,1,8,3:0:0:0:
312,96,15678,1,0,3:0:0:0:
128,160,15756,2,0,L|64:160,1,46,0|8,3:0|0:0,0:0:0:0:
296,40,15913,2,0,L|352:40,1,46,8|8,0:0|0:0,0:0:0:0:
128,216,16070,2,0,L|80:216,1,46,8|8,0:0|0:0,0:0:0:0:
351,66,16227,6,0,P|415:130|351:194,1,184,6|10,1:0|0:0,0:0:0:0:
263,194,16716,1,0,0:0:0:0:
23,194,16879,2,0,L|23:90,1,92,2|2,1:0|0:0,0:0:0:0:
247,66,17205,2,0,L|143:66,1,92,10|2,0:0|0:0,0:0:0:0:
384,184,17531,6,0,L|480:184,1,92,2|2,1:0|0:0,0:0:0:0:
248,128,17857,2,0,L|360:128,1,92,10|0,0:0|0:0,0:0:0:0:
104,64,18183,2,0,L|8:64,1,92,2|2,1:0|0:0,0:0:0:0:
248,64,18509,2,0,L|152:64,1,92,10|0,0:0|0:0,0:0:0:0:
392,48,18835,6,0,L|264:48,2,92,6|0|10,1:0|0:0|0:0,0:0:0:0:
488,48,19324,1,0,0:0:0:0:
256,48,19487,2,0,L|136:48,1,92,2|2,1:0|0:0,0:0:0:0:
384,192,19813,2,0,L|488:192,1,92,10|0,0:0|0:0,0:0:0:0:
192,48,20140,5,2,1:0:0:0:
104,120,20303,1,2,0:0:0:0:
104,224,20466,1,10,0:0:0:0:
192,288,20629,1,0,3:0:0:0:
248,288,20710,1,0,3:0:0:0:
408,184,20792,2,0,L|480:184,1,46,8|8,3:0|3:0,0:0:0:0:
248,216,20985,2,0,L|192:216,1,46,10|8,0:0|0:0,0:0:0:0:
392,272,21138,6,0,L|504:272,1,92,14|0,0:0|0:0,0:0:0:0:
256,224,21444,6,0,P|192:176|256:96,1,184,6|0,1:0|1:0,0:0:0:0:
336,104,21933,1,2,0:0:0:0:
192,192,22096,2,0,L|192:88,1,92,2|0,1:0|0:0,0:0:0:0:
352,160,22422,2,0,L|352:56,1,92,2|2,1:0|0:0,0:0:0:0:
123,148,22748,6,0,L|296:56,1,184,2|0,1:0|1:0,0:0:0:0:
192,136,23237,1,0,0:0:0:0:
344,136,23400,2,0,L|206:136,2,138,2|0|2,1:0|0:0|0:0,0:0:0:0:
120,192,24052,6,0,P|56:128|120:64,1,184,2|0,1:0|1:0,0:0:0:0:
216,200,24541,1,2,0:0:0:0:
440,88,24704,2,0,L|288:88,2,138,2|0|2,1:0|0:0|0:0,0:0:0:0:
208,224,25357,6,0,P|144:160|208:96,1,184,2|0,1:0|1:0,0:0:0:0:
440,112,25880,1,8,3:0:0:0:
472,112,25931,1,0,3:0:0:0:
440,112,25983,1,0,3:0:0:0:
400,112,26034,1,0,1:0:0:0:
184,88,26172,2,0,L|288:88,2,92,2|10|2,0:0|0:0|0:0,0:0:0:0:
440,32,26661,6,0,P|504:96|440:160,1,184,6|0,1:0|1:0,0:0:0:0:
344,160,27150,1,0,0:0:0:0:
192,88,27313,2,0,L|336:88,2,138,2|0|2,1:0|0:0|0:0,0:0:0:0:
344,192,27965,6,0,L|184:192,2,138,2|0|2,1:0|0:0|0:0,0:0:0:0:
96,192,28617,2,0,P|32:128|96:64,1,184,2|0,1:0|1:0,0:0:0:0:
192,64,29106,1,2,0:0:0:0:
416,64,29269,6,0,L|512:64,1,92,2|0,1:0|0:0,0:0:0:0:
352,32,29595,2,0,L|448:32,2,92,2|2|0,1:0|0:0|1:0,0:0:0:0:
128,24,30084,2,0,L|32:24,1,92,2|2,0:0|1:0,0:0:0:0:
280,192,30411,6,0,P|344:144|280:96,1,184,2|0,0:0|0:0,0:0:0:0:
128,48,30940,2,0,L|16:48,1,92,0|0,1:0|0:0,0:0:0:0:
256,192,31252,1,8,0:0:0:0:
320,192,31333,1,8,0:0:0:0:
256,192,31415,1,10,3:0:0:0:
192,192,31496,1,8,3:0:0:0:
384,192,31578,2,0,L|448:192,1,46,10|8,0:0|0:0,0:0:0:0:
189,125,31741,2,0,L|141:125,1,46,10|8,0:0|0:0,0:0:0:0:
400,184,31904,6,0,L|400:88,1,92,6|0,1:0|0:0,0:0:0:0:
272,184,32230,1,8,0:0:0:0:
400,184,32393,1,2,0:0:0:0:
160,128,32556,1,2,0:0:0:0:
336,96,32783,1,0,0:0:0:0:
160,56,33021,1,2,0:0:0:0:
424,184,33183,6,0,P|488:120|424:56,1,184,2|8,1:0|0:0,0:0:0:0:
352,48,33672,1,0,0:0:0:0:
128,176,33835,2,0,L|251:264,2,138,2|0|2,0:0|0:0|0:0,0:0:0:0:
360,120,34487,6,0,L|176:120,1,184,2|8,1:0|0:0,0:0:0:0:
264,184,34976,1,2,0:0:0:0:
488,192,35139,2,0,L|344:192,2,138,2|0|2,0:0|0:0|0:0,0:0:0:0:
264,216,35791,6,0,P|208:152|264:88,1,184,2|8,1:0|0:0,0:0:0:0:
360,200,36280,1,0,0:0:0:0:
200,24,36443,1,0,1:0:0:0:
104,208,36606,1,2,1:0:0:0:
104,112,36769,1,10,0:0:0:0:
200,272,36933,1,2,0:0:0:0:
432,192,37096,6,0,P|496:128|432:64,1,184,2|8,1:0|0:0,0:0:0:0:
344,56,37585,1,2,0:0:0:0:
192,192,37748,2,0,L|336:192,2,138,2|0|2,0:0|0:0|0:0,0:0:0:0:
336,88,38400,6,0,L|192:88,2,138,2|0|2,1:0|0:0|0:0,0:0:0:0:
101,191,39052,2,0,P|37:127|101:63,1,184,2|8,1:0|0:0,0:0:0:0:
188,49,39541,1,2,0:0:0:0:
424,288,39704,6,0,P|480:232|416:176,1,184,2|10,1:0|0:0,0:0:0:0:
256,192,40193,2,0,L|256:96,1,92,2|0,0:0|1:0,0:0:0:0:
400,160,40519,2,0,L|280:160,1,92,2|10,1:0|0:0,0:0:0:0:
72,144,40846,6,0,L|72:48,1,92,6|0,1:0|0:0,0:0:0:0:
320,192,41172,1,0,1:0:0:0:
208,192,41335,2,0,L|104:192,1,92,8|0,0:0|1:0,0:0:0:0:
352,256,41661,2,0,L|448:256,1,92,8|0,3:0|0:0,0:0:0:0:
208,184,41987,2,0,L|112:184,1,92,10|0,3:0|0:0,0:0:0:0:
352,208,42313,6,0,L|352:96,1,92,6|0,1:0|0:0,0:0:0:0:
192,80,42639,2,0,L|192:200,1,92,2|0,0:0|1:0,0:0:0:0:
352,256,42965,1,10,0:0:0:0:
248,256,43128,2,0,L|144:256,1,92,2|2,0:0|0:0,0:0:0:0:
392,184,43454,6,0,L|392:88,1,92,2|0,1:0|0:0,0:0:0:0:
160,48,43780,1,8,0:0:0:0:
264,48,43943,2,0,L|368:48,1,92,2|0,0:0|1:0,0:0:0:0:
200,192,44269,2,0,L|304:192,1,92,10|0,0:0|0:0,0:0:0:0:
128,80,44596,2,0,L|24:80,1,92,2|0,0:0|0:0,0:0:0:0:
264,200,44922,6,0,L|264:104,1,92,2|0,1:0|0:0,0:0:0:0:
104,72,45248,2,0,L|104:176,1,92,2|0,0:0|1:0,0:0:0:0:
264,200,45574,1,10,0:0:0:0:
104,64,45737,2,0,L|208:64,1,92,2|2,0:0|0:0,0:0:0:0:
432,296,46063,6,0,P|496:232|432:168,1,184,2|8,1:0|0:0,0:0:0:0:
360,184,46552,1,0,1:0:0:0:
120,128,46715,2,0,L|48:128,1,46,8|8,0:0|0:0,0:0:0:0:
274,80,46878,2,0,L|330:80,1,46,8|8,0:0|3:0,0:0:0:0:
128,80,47041,2,0,L|64:80,1,46,8|8,3:0|3:0,0:0:0:0:
274,80,47204,2,0,L|370:80,1,92,10|0,0:0|0:0,0:0:0:0:
128,80,47530,6,0,L|24:80,1,92,6|0,1:0|0:0,0:0:0:0:
296,128,47856,2,0,L|296:32,1,92,10|0,0:0|0:0,0:0:0:0:
152,152,48182,2,0,L|272:152,1,92,2|2,1:0|1:0,0:0:0:0:
16,184,48509,2,0,L|16:88,1,92,10|2,0:0|0:0,0:0:0:0:
176,192,48835,6,0,L|72:192,1,92,0|0,1:0|1:0,0:0:0:0:
328,136,49161,2,0,L|328:40,1,92,10|0,0:0|0:0,0:0:0:0:
80,208,49487,2,0,L|80:112,1,92,2|0,1:0|1:0,0:0:0:0:
312,128,49813,2,0,L|432:128,1,92,14|0,0:0|0:0,0:0:0:0:
144,180,50139,5,2,1:0:0:0:
392,88,50302,1,8,0:0:0:0:
144,88,50465,2,0,L|144:184,1,92,8|0,0:0|1:0,0:0:0:0:
392,40,50791,1,8,0:0:0:0:
144,216,50954,2,0,L|264:216,1,92,8|0,0:0|1:0,0:0:0:0:
472,112,51280,1,8,0:0:0:0:
248,136,51443,6,0,L|120:136,1,92,8|0,0:0|1:0,0:0:0:0:
400,88,51769,2,0,P|464:152|400:216,1,184,8|8,0:0|0:0,0:0:0:0:
352,216,52177,1,8,0:0:0:0:
192,48,52259,2,0,L|128:48,1,46,8|8,0:0|0:0,0:0:0:0:
400,112,52422,2,0,L|456:112,1,46,10|8,0:0|0:0,0:0:0:0:
192,48,52585,2,0,L|128:48,1,46,10|8,0:0|0:0,0:0:0:0:
400,64,52748,5,6,1:0:0:0:
496,104,52911,1,2,0:0:0:0:
496,192,53074,1,10,0:0:0:0:
400,232,53237,1,2,0:0:0:0:
160,192,53400,2,0,L|160:80,1,92,2|0,1:0|0:0,0:0:0:0:
400,64,53726,1,10,0:0:0:0:
280,64,53889,6,0,L|184:64,1,92,2|0,0:0|1:0,0:0:0:0:
344,168,54215,2,0,L|248:168,2,92,2|10|2,0:0|0:0|0:0,0:0:0:0:
72,192,54704,2,0,L|72:72,1,92,2|0,1:0|0:0,0:0:0:0:
208,32,55030,1,10,0:0:0:0:
72,40,55193,1,2,0:0:0:0:
328,192,55356,6,0,P|392:128|328:64,1,184,6|8,1:0|0:0,0:0:0:0:
248,56,55846,1,2,0:0:0:0:
96,56,56009,2,0,L|96:152,1,92,2|2,1:0|0:0,0:0:0:0:
328,104,56335,1,10,0:0:0:0:
216,120,56498,6,0,L|104:120,1,92,2|0,0:0|1:0,0:0:0:0:
376,184,56824,2,0,L|472:184,1,92,2|10,0:0|0:0,0:0:0:0:
240,152,57150,2,0,L|72:56,1,184,2|0,0:0|0:0,0:0:0:0:
304,32,57639,2,0,L|416:32,1,92,10|2,0:0|0:0,0:0:0:0:
144,192,57965,5,6,1:0:0:0:
56,256,58128,1,2,0:0:0:0:
56,336,58291,1,10,0:0:0:0:
144,368,58454,1,2,0:0:0:0:
368,48,58617,2,0,L|480:48,1,92,2|0,1:0|0:0,0:0:0:0:
216,80,58943,1,10,0:0:0:0:
328,96,59106,6,0,L|424:96,1,92,2|0,0:0|1:0,0:0:0:0:
256,112,59432,2,0,L|376:112,2,92,2|10|2,0:0|0:0|0:0,0:0:0:0:
16,56,59922,2,0,L|16:168,1,92,2|0,1:0|0:0,0:0:0:0:
264,48,60248,2,0,L|160:48,1,92,10|2,0:0|0:0,0:0:0:0:
416,192,60574,6,0,P|480:128|416:64,1,184,2|8,1:0|0:0,0:0:0:0:
352,56,61063,1,0,0:0:0:0:
112,64,61226,2,0,L|16:64,2,92,2|2|10,1:0|1:0|0:0,0:0:0:0:
368,168,61715,2,0,L|432:168,1,46,2|0,3:0|3:0,0:0:0:0:
224,88,61878,2,0,L|176:88,1,46,0|0,1:0|0:0,0:0:0:0:
368,112,62041,2,0,L|416:112,1,46,10|8,0:0|0:0,0:0:0:0:
224,136,62204,1,0,3:0:0:0:
160,136,62286,1,0,3:0:0:0:
224,136,62367,1,2,3:0:0:0:
288,136,62449,1,0,3:0:0:0:
96,56,62530,6,0,L|40:56,1,46,8|0,0:0|3:0,0:0:0:0:
288,80,62693,2,0,L|336:80,1,46,0|0,3:0|3:0,0:0:0:0:
96,56,62856,1,10,0:0:0:0:
32,88,62938,1,8,0:0:0:0:
32,152,63019,1,10,0:0:0:0:
96,184,63101,1,8,0:0:0:0:
352,192,63182,5,6,1:0:0:0:
440,128,63346,1,2,0:0:0:0:
440,56,63509,1,10,0:0:0:0:
352,8,63672,1,2,0:0:0:0:
128,192,63835,2,0,L|128:80,1,92,2|0,1:0|0:0,0:0:0:0:
280,192,64161,1,10,0:0:0:0:
128,192,64324,6,0,L|232:192,2,92,2|0|2,0:0|1:0|0:0,0:0:0:0:
280,192,64813,2,0,L|376:192,1,92,10|2,0:0|0:0,0:0:0:0:
136,64,65139,2,0,L|40:64,1,92,2|0,1:0|0:0,0:0:0:0:
200,56,65465,1,10,0:0:0:0:
48,56,65628,1,2,0:0:0:0:
288,192,65791,6,0,P|352:128|288:64,1,184,6|8,1:0|0:0,0:0:0:0:
176,56,66280,1,2,0:0:0:0:
48,56,66443,2,0,L|48:160,1,92,2|2,1:0|0:0,0:0:0:0:
292,56,66769,2,0,L|200:56,1,92,10|2,0:0|0:0,0:0:0:0:
456,56,67096,6,0,L|360:56,2,92,0|2|10,1:0|0:0|0:0,0:0:0:0:
224,56,67585,2,0,P|160:120|224:184,1,184,2|0,0:0|0:0,0:0:0:0:
440,192,68074,2,0,L|440:96,1,92,10|2,0:0|0:0,0:0:0:0:
208,248,68400,5,6,1:0:0:0:
120,184,68563,1,2,0:0:0:0:
120,104,68726,1,10,0:0:0:0:
208,48,68889,1,2,0:0:0:0:
432,192,69052,2,0,L|432:88,1,92,2|0,1:0|0:0,0:0:0:0:
280,192,69378,1,10,0:0:0:0:
432,192,69541,1,2,0:0:0:0:
184,192,69704,6,0,L|80:192,1,92,0|2,1:0|0:0,0:0:0:0:
312,72,70030,2,0,L|416:72,1,92,10|2,0:0|0:0,0:0:0:0:
160,72,70356,2,0,L|160:176,1,92,2|0,1:0|0:0,0:0:0:0:
312,72,70682,1,10,0:0:0:0:
160,72,70846,1,2,0:0:0:0:
432,192,71009,6,0,P|496:128|432:64,1,184,6|8,1:0|0:0,0:0:0:0:
344,192,71514,1,2,0:0:0:0:
112,152,71683,2,0,L|16:152,2,92,2|10|10,1:0|3:0|0:0,0:0:0:0:
344,192,72188,2,0,L|416:192,1,46,10|8,0:0|0:0,0:0:0:0:
160,152,72357,5,0,1:0:0:0:
104,112,72436,1,0,3:0:0:0:
104,48,72515,1,10,0:0:0:0:
160,16,72595,1,0,3:0:0:0:
336,192,72674,1,8,0:0:0:0:
400,192,72753,1,0,3:0:0:0:
336,192,72833,1,2,3:0:0:0:
272,192,72912,1,0,3:0:0:0:
456,192,72991,6,0,L|512:192,1,46,8|8,0:0|0:0,0:0:0:0:
272,128,73150,2,0,L|224:128,1,46,8|8,0:0|0:0,0:0:0:0:
456,192,73309,2,0,L|512:192,1,46,10|8,0:0|0:0,0:0:0:0:
272,128,73468,2,0,L|216:128,1,46,8|8,0:0|0:0,0:0:0:0:
456,192,73626,6,0,P|512:136|448:72,1,184,6|8,1:0|0:0,0:0:0:0:
208,192,74115,2,0,L|112:192,1,92,2|0,0:0|1:0,0:0:0:0:
280,88,74441,2,0,L|376:88,1,92,2|8,0:0|0:0,0:0:0:0:
144,192,74767,6,0,L|360:192,1,184,2|0,0:0|0:0,0:0:0:0:
168,104,75256,2,0,L|64:104,1,92,10|2,0:0|0:0,0:0:0:0:
320,64,75582,2,0,L|216:64,2,92,2|0|10,1:0|0:0|0:0,0:0:0:0:
472,64,76071,1,2,0:0:0:0:
240,144,76234,6,0,L|144:144,1,92,6|0,1:0|0:0,0:0:0:0:
312,32,76560,2,0,L|424:32,1,92,10|2,0:0|0:0,0:0:0:0:
152,40,76886,2,0,L|248:40,2,92,2|0|10,1:0|0:0|0:0,0:0:0:0:
408,48,77376,6,0,L|216:48,1,184,2|0,0:0|0:0,0:0:0:0:
376,48,77865,2,0,L|376:152,1,92,10|2,0:0|0:0,0:0:0:0:
224,32,78191,2,0,L|224:128,1,92,0|2,1:0|0:0,0:0:0:0:
376,48,78517,2,0,L|272:48,1,92,10|2,0:0|0:0,0:0:0:0:
40,32,78843,6,0,L|240:32,1,184,6|8,1:0|0:0,0:0:0:0:
336,32,79332,1,2,0:0:0:0:
96,184,79495,2,0,L|96:88,1,92,2|0,1:0|0:0,0:0:0:0:
248,184,79821,1,10,0:0:0:0:
96,184,79984,1,2,0:0:0:0:
336,184,80147,6,0,L|176:184,2,138,2|0|2,1:0|0:0|0:0,0:0:0:0:
88,176,80799,2,0,P|24:112|88:48,1,184,2|10,1:0|0:0,0:0:0:0:
192,184,81289,1,2,0:0:0:0:
440,192,81452,6,0,L|248:192,1,184,6|8,1:0|0:0,0:0:0:0:
408,88,81941,2,0,L|456:88,1,46,2|0,0:0|0:0,0:0:0:0:
256,80,82104,2,0,L|160:80,1,92,2|0,1:0|0:0,0:0:0:0:
320,80,82430,2,0,L|416:80,1,92,8|2,0:0|0:0,0:0:0:0:
168,80,82756,6,0,L|304:144,2,138,10|0|2,0:0|0:0|1:0,0:0:0:0:
408,176,83408,1,10,0:0:0:0:
472,176,83490,1,0,3:0:0:0:
408,176,83571,1,0,3:0:0:0:
344,176,83653,1,0,3:0:0:0:
152,168,83734,2,0,L|80:168,1,46,8|8,0:0|0:0,0:0:0:0:
344,176,83897,2,0,L|400:176,1,46,8|8,0:0|0:0,0:0:0:0:
152,168,84060,6,0,P|88:104|152:40,1,184,6|8,1:0|0:0,0:0:0:0:
240,160,84549,1,2,0:0:0:0:
392,160,84712,2,0,L|392:64,1,92,0|2,1:0|0:0,0:0:0:0:
128,112,85039,1,10,0:0:0:0:
392,176,85202,6,0,P|456:112|392:56,1,184,2|2,0:0|0:0,0:0:0:0:
344,48,85609,1,2,0:0:0:0:
112,48,85691,2,0,L|16:48,1,92,10|2,0:0|0:0,0:0:0:0:
264,64,86017,2,0,L|264:168,1,92,0|2,1:0|0:0,0:0:0:0:
104,64,86343,1,10,0:0:0:0:
256,64,86506,1,2,0:0:0:0:
8,72,86669,6,0,L|128:72,1,92,6|2,1:0|0:0,0:0:0:0:
160,72,86914,1,2,0:0:0:0:
368,72,86995,2,0,L|368:176,1,92,10|2,0:0|0:0,0:0:0:0:
304,72,87240,1,2,0:0:0:0:
120,72,87321,1,2,1:0:0:0:
32,128,87484,1,2,0:0:0:0:
32,216,87647,1,10,0:0:0:0:
120,272,87810,1,2,0:0:0:0:
360,256,87973,6,0,L|360:152,1,92,0|2,0:0|0:0,0:0:0:0:
208,160,88299,1,10,0:0:0:0:
360,256,88462,1,2,0:0:0:0:
112,160,88626,2,0,L|16:160,1,92,0|2,1:0|0:0,0:0:0:0:
264,104,88952,2,0,L|152:104,1,92,10|2,0:0|0:0,0:0:0:0:
416,184,89278,6,0,L|464:184,2,46,6|2|2,1:0|0:0|0:0,0:0:0:0:
176,144,89604,2,0,L|120:144,2,46,10|2|2,0:0|0:0|0:0,0:0:0:0:
416,128,89930,1,2,1:0:0:0:
464,104,90011,1,2,0:0:0:0:
464,48,90093,1,2,0:0:0:0:
416,24,90174,1,0,0:0:0:0:
224,184,90256,2,0,L|224:120,1,46,10|2,0:0|0:0,0:0:0:0:
296,120,90419,2,0,L|296:64,1,46,2|0,0:0|0:0,0:0:0:0:
104,176,90582,6,0,L|160:176,1,46,2|2,1:0|0:0,0:0:0:0:
336,184,90745,2,0,L|392:184,1,46,2|0,0:0|0:0,0:0:0:0:
192,120,90908,1,10,0:0:0:0:
128,120,90990,1,2,0:0:0:0:
192,120,91071,1,2,0:0:0:0:
256,120,91153,1,0,0:0:0:0:
72,48,91234,2,0,L|0:48,1,46,2|2,1:0|0:0,0:0:0:0:
224,40,91397,2,0,L|288:40,1,46,2|0,0:0|0:0,0:0:0:0:
72,112,91560,1,10,0:0:0:0:
16,136,91642,1,2,0:0:0:0:
16,192,91723,1,2,0:0:0:0:
72,208,91805,1,0,0:0:0:0:
256,192,91886,6,0,L|360:192,1,92,6|2,1:0|0:0,0:0:0:0:
104,168,92212,2,0,L|104:64,1,92,10|2,0:0|0:0,0:0:0:0:
160,168,92457,1,0,0:0:0:0:
344,120,92539,2,0,L|456:120,1,92,2|2,1:0|0:0,0:0:0:0:
384,72,92783,1,0,0:0:0:0:
192,48,92865,2,0,L|88:48,1,92,10|2,0:0|0:0,0:0:0:0:
152,96,93109,1,0,0:0:0:0:
400,112,93191,5,14,0:0:0:0:
464,152,93272,1,2,0:0:0:0:
464,216,93354,1,0,3:0:0:0:
400,256,93435,1,0,3:0:0:0:
192,144,93517,2,0,L|128:144,1,46,10|8,0:0|0:0,0:0:0:0:
400,256,93680,2,0,L|448:256,1,46,10|8,3:0|3:0,0:0:0:0:
192,144,93843,5,10,3:0:0:0:
128,144,93924,1,8,3:0:0:0:
192,144,94006,1,2,0:0:0:0:
256,144,94087,1,0,3:0:0:0:
64,144,94169,2,0,L|14:144,1,46,10|8,3:0|3:0,0:0:0:0:
256,144,94332,2,0,L|312:144,1,46,10|8,3:0|3:0,0:0:0:0:
62,144,94495,5,6,1:0:0:0:
256,192,94658,12,0,99712,0:0:0:0:
