osu file format v14

[General]
AudioFilename: audio.mp3
AudioLeadIn: 0
PreviewTime: 52666
Countdown: 0
SampleSet: Soft
StackLeniency: 0.7
Mode: 2
LetterboxInBreaks: 0
WidescreenStoryboard: 1

[Editor]
DistanceSpacing: 1
BeatDivisor: 2
GridSize: 8
TimelineZoom: 1.8

[Metadata]
Title:night birds (Cut Ver.)
TitleUnicode:night birds (Cut Ver.)
Artist:KISIDA KYODAN & THE AKEBOSI ROCKETS
ArtistUnicode:岸田教団&THE明星ロケッツ
Creator:Verti
Version:Cup
Source:東方紅魔郷 ~ the Embodiment of Scarlet Devil.
Tags:妖魔夜行 Reitaisai 14 Rumia Stage 1 ANCIENT FLOWER Apparitions Stalk the Night A Soul as Red as a Ground Cherry short version arrangement female vocalist japanese jp rock j-rock Kishida and Akeboshi ZUN ほおずきみたいに紅い魂 -Joakh Rew0825 Du5t IDu5t -MomoX Greaper
BeatmapID:3100563
BeatmapSetID:1374425

[Difficulty]
HPDrainRate:2
CircleSize:2.4
OverallDifficulty:6
ApproachRate:6
SliderMultiplier:1.2
SliderTickRate:1

[Events]
//Background and Video events
0,0,"1092821.jpg",0,0
//Break Periods
//Storyboard Layer 0 (Background)
//Storyboard Layer 1 (Fail)
//Storyboard Layer 2 (Pass)
//Storyboard Layer 3 (Foreground)
//Storyboard Layer 4 (Overlay)
//Storyboard Sound Samples

[TimingPoints]
575,326.086956521739,4,2,1,50,1,0
11009,-100,4,2,1,65,0,0
15248,352.941176470588,4,2,1,70,1,0
15600,313.479623824451,4,2,1,75,1,0
16227,326.086956521739,4,2,1,65,1,0
20792,387.096774193548,4,2,1,65,1,0
20792,-89.3835418949311,4,2,1,65,0,0
20985,307.692307692308,4,2,1,65,1,0
21138,-100,4,2,1,65,0,0
21444,326.086956521739,4,2,1,65,1,0
21446,-100,4,2,1,60,0,0
25357,348.837209302326,4,2,1,60,1,0
25880,309.278350515464,4,2,1,60,1,0
26034,276.497695852535,4,2,1,60,1,0
26172,326.086956521739,4,2,1,60,1,0
26661,326.086956521739,4,2,1,60,1,0
30411,352.941176470588,4,2,1,60,1,0
30940,312.5,4,2,1,60,1,0
31252,326.086956521739,4,2,1,65,1,0
31904,326.086956521739,4,2,1,70,1,0
32556,304.568527918782,4,2,1,70,1,0
32708,303.030303030303,4,2,1,70,1,0
32859,324.324324324324,4,2,1,70,1,0
33183,326.086956521739,4,2,1,70,1,0
47530,-100,4,2,1,65,0,0
52748,-100,4,2,1,75,0,1
71009,337.078651685393,4,2,1,75,1,1
72357,317.460317460317,4,2,1,75,1,1
73626,326.086956521739,4,2,1,65,1,0
73626,-100,4,2,1,65,0,0
84060,-100,4,2,1,70,0,0
89278,-100,4,2,1,70,0,0
94821,-100,4,2,1,65,0,0
95147,-100,4,2,1,60,0,0
95473,-100,4,2,1,55,0,0
95799,-100,4,2,1,50,0,0
96126,-100,4,2,1,45,0,0
96452,-100,4,2,1,40,0,0
96778,-100,4,2,1,35,0,0
97104,-100,4,2,1,30,0,0
97430,-100,4,2,1,25,0,0
97756,-100,4,2,1,20,0,0
98082,-100,4,2,1,15,0,0
98408,-100,4,2,1,10,0,0
98734,-100,4,2,1,5,0,0

[Colours]
Combo1 : 255,119,119
Combo2 : 255,155,106
Combo3 : 194,103,12
Combo4 : 255,255,151

[HitObjects]
368,304,575,6,0,L|368:168,1,120,4|0,1:0|1:0,0:0:0:0:
232,192,1227,2,0,L|232:64,1,120,0|0,1:0|1:0,0:0:0:0:
368,192,1879,6,0,P|320:144|272:192,1,120,2|0,1:0|1:0,0:0:0:0:
144,184,2531,2,0,L|144:48,1,120,0|0,1:0|1:0,0:0:0:0:
280,192,3183,6,0,P|328:144|376:192,1,120,2|0,1:0|1:0,0:0:0:0:
240,128,3835,2,0,P|192:80|144:128,1,120,0|0,1:0|1:0,0:0:0:0:
24,192,4488,6,0,L|24:56,1,120,2|0,1:0|1:0,0:0:0:0:
160,184,5140,1,0,1:0:0:0:
224,136,5303,1,0,0:0:0:0:
224,64,5466,1,2,1:0:0:0:
77,189,5792,6,0,L|37:69,1,120,6|0,1:0|1:0,0:0:0:0:
168,160,6444,2,0,P|114:143|88:200,1,120,2|2,1:0|1:0,0:0:0:0:
216,184,7096,6,0,L|216:64,1,120,2|0,1:0|1:0,0:0:0:0:
352,160,7748,2,0,L|416:160,2,60,2|2|2,1:0|0:0|1:0,0:0:0:0:
216,72,8401,6,0,L|136:72,2,60,2|0|2,1:0|0:0|1:0,0:0:0:0:
352,176,9053,2,0,L|352:40,1,120,2|2,1:0|1:0,0:0:0:0:
160,128,9868,6,0,L|160:48,1,60,10|10,0:0|0:0,0:0:0:0:
296,192,10357,2,0,P|352:248|400:200,1,120,10|10,0:0|0:0,0:0:0:0:
224,144,11009,6,0,L|224:280,1,120,6|10,1:0|0:0,0:0:0:0:
104,128,11661,2,0,P|160:72|192:104,1,120,2|10,1:0|0:0,0:0:0:0:
320,184,12314,6,0,L|384:184,2,60,2|0|10,1:0|0:0|0:0,0:0:0:0:
184,184,12966,2,0,L|184:56,1,120,2|10,1:0|0:0,0:0:0:0:
336,192,13618,6,0,L|208:192,1,120,6|10,1:0|0:0,0:0:0:0:
352,184,14270,2,0,L|352:64,1,120,2|10,1:0|0:0,0:0:0:0:
216,176,14922,5,2,1:0:0:0:
152,128,15085,1,2,0:0:0:0:
152,48,15248,1,10,0:0:0:0:
304,168,15600,2,0,L|304:32,1,120,8|8,3:0|0:0,0:0:0:0:
152,136,16227,6,0,P|200:184|240:144,1,120,6|10,1:0|0:0,0:0:0:0:
112,72,16879,2,0,P|56:128|16:80,1,120,2|10,1:0|0:0,0:0:0:0:
168,160,17531,5,2,1:0:0:0:
240,128,17694,1,2,0:0:0:0:
240,56,17857,1,10,0:0:0:0:
112,176,18183,2,0,L|112:56,1,120,2|10,1:0|0:0,0:0:0:0:
256,72,18835,6,0,L|336:72,2,60,6|0|10,1:0|0:0|0:0,0:0:0:0:
128,184,19487,2,0,P|184:128|240:184,1,120,2|10,1:0|0:0,0:0:0:0:
88,104,20140,6,0,L|24:104,2,60,2|2|10,1:0|0:0|0:0,0:0:0:0:
200,192,20792,1,8,3:0:0:0:
296,192,20985,2,0,L|392:192,1,60,10|14,0:0|0:0,0:0:0:0:
232,176,21444,6,0,L|184:56,1,120,6|0,1:0|1:0,0:0:0:0:
252,176,21933,1,2,0:0:0:0:
320,64,22096,2,0,L|320:184,1,120,2|2,1:0|1:0,0:0:0:0:
184,72,22748,6,0,P|248:128|296:72,1,120,2|0,1:0|1:0,0:0:0:0:
136,64,23400,2,0,P|72:104|32:72,1,120,2|0,1:0|1:0,0:0:0:0:
112,88,23889,1,2,0:0:0:0:
184,160,24052,6,0,L|208:32,1,120,2|0,1:0|1:0,0:0:0:0:
72,56,24704,2,0,P|121:106|192:60,1,120,2|0,1:0|1:0,0:0:0:0:
40,160,25357,6,0,L|44:37,1,120,2|0,1:0|1:0,0:0:0:0:
128,160,25880,1,8,3:0:0:0:
256,176,26172,2,0,L|364:176,2,60,2|10|2,0:0|0:0|0:0,0:0:0:0:
184,176,26661,6,0,L|184:48,1,120,6|0,1:0|1:0,0:0:0:0:
320,184,27313,2,0,P|352:136|320:104,1,90,2|0,1:0|0:0,0:0:0:0:
232,96,27802,1,2,0:0:0:0:
168,96,27965,6,0,L|168:208,1,90,2|0,1:0|0:0,0:0:0:0:
272,184,28454,1,2,0:0:0:0:
344,200,28617,2,0,P|288:248|240:216,1,120,2|0,1:0|1:0,0:0:0:0:
384,112,29269,6,0,L|382:232,1,120,2|2,1:0|1:0,0:0:0:0:
313,108,29758,2,0,P|268:160|220:120,1,120,2|2,0:0|0:0,0:0:0:0:
288,64,30247,1,2,1:0:0:0:
344,56,30411,6,0,P|384:104|344:152,1,120,2|0,0:0|0:0,0:0:0:0:
176,64,31252,2,0,L|48:64,1,120,8|10,0:0|0:0,0:0:0:0:
200,72,31904,5,6,1:0:0:0:
72,184,32230,2,0,L|72:64,1,120,8|2,0:0|0:0,0:0:0:0:
144,192,32708,1,0,1:0:0:0:
208,192,32859,1,10,0:0:0:0:
336,128,33183,6,0,P|384:80|448:144,1,120,2|8,1:0|0:0,0:0:0:0:
304,176,33835,2,0,P|264:136|216:176,1,120,2|8,0:0|0:0,0:0:0:0:
280,176,34324,1,2,0:0:0:0:
352,184,34487,6,0,L|352:62,1,120,2|8,1:0|0:0,0:0:0:0:
216,96,35139,2,0,P|264:136|312:96,1,120,2|8,0:0|0:0,0:0:0:0:
232,176,35628,1,2,0:0:0:0:
160,184,35791,6,0,L|160:56,1,120,2|8,1:0|0:0,0:0:0:0:
344,112,36606,2,0,L|408:112,2,60,2|10|2,1:0|0:0|0:0,0:0:0:0:
280,112,37096,6,0,L|280:240,1,120,2|8,1:0|0:0,0:0:0:0:
208,112,37585,1,2,0:0:0:0:
144,112,37748,2,0,L|144:216,1,90,2|0,0:0|0:0,0:0:0:0:
256,184,38237,1,2,0:0:0:0:
320,184,38400,6,0,L|320:80,1,90,2|0,1:0|0:0,0:0:0:0:
216,120,38889,1,2,0:0:0:0:
152,152,39052,2,0,L|152:24,1,120,2|8,1:0|0:0,0:0:0:0:
272,176,39704,6,0,P|224:216|176:176,1,120,2|10,1:0|0:0,0:0:0:0:
248,80,40193,2,0,P|320:48|360:80,1,120,2|2,0:0|1:0,0:0:0:0:
288,128,40683,1,10,0:0:0:0:
216,128,40846,1,6,1:0:0:0:
344,160,41335,6,0,L|344:96,1,60,8|0,0:0|1:0,0:0:0:0:
280,72,41661,2,0,L|256:192,1,120,8|10,3:0|3:0,0:0:0:0:
416,72,42313,6,0,P|368:128|320:80,1,120,6|2,1:0|0:0,0:0:0:0:
192,104,42965,2,0,L|192:240,1,120,10|2,0:0|0:0,0:0:0:0:
264,104,43454,6,0,L|264:232,1,120,2|8,1:0|0:0,0:0:0:0:
192,104,43943,1,2,0:0:0:0:
328,192,44269,2,0,L|329:51,1,120,10|2,0:0|0:0,0:0:0:0:
192,184,44922,6,0,P|238:227|282:195,1,120,2|2,1:0|0:0,0:0:0:0:
136,104,45574,2,0,L|70:105,2,60,10|2|2,0:0|0:0|0:0,0:0:0:0:
208,104,46063,6,0,P|272:80|320:104,1,120,2|8,1:0|0:0,0:0:0:0:
176,192,46715,2,0,L|176:72,1,120,8|8,0:0|3:0,0:0:0:0:
248,72,47204,1,10,0:0:0:0:
88,192,47530,6,0,L|88:72,1,120,6|10,1:0|0:0,0:0:0:0:
232,176,48182,2,0,L|314:177,2,60,2|2|10,1:0|1:0|0:0,0:0:0:0:
176,176,48672,6,0,P|127:227|73:175,1,120,2|0,0:0|1:0,0:0:0:0:
160,104,49161,1,10,0:0:0:0:
304,112,49487,1,2,1:0:0:0:
168,104,49813,1,14,0:0:0:0:
304,232,50139,5,2,1:0:0:0:
376,192,50302,2,0,L|385:121,1,60,8|8,0:0|0:0,0:0:0:0:
248,104,50791,2,0,L|223:44,1,60,8|8,0:0|0:0,0:0:0:0:
364,185,51280,6,0,L|391:124,1,60,8|8,0:0|0:0,0:0:0:0:
248,184,51769,2,0,P|293:224|338:188,1,120,8|8,0:0|0:0,0:0:0:0:
200,72,52422,2,0,L|280:72,1,60,10|10,0:0|0:0,0:0:0:0:
344,184,52748,6,0,L|344:60,1,120,6|10,1:0|0:0,0:0:0:0:
272,64,53237,1,2,0:0:0:0:
200,56,53400,2,0,L|80:56,1,120,2|10,1:0|0:0,0:0:0:0:
224,184,54052,6,0,L|352:184,1,120,0|10,1:0|0:0,0:0:0:0:
277,130,54541,1,2,0:0:0:0:
208,128,54704,1,2,1:0:0:0:
352,192,55030,1,10,0:0:0:0:
424,192,55193,1,2,0:0:0:0:
496,192,55356,6,0,L|495:69,1,120,6|8,1:0|0:0,0:0:0:0:
347,182,56009,2,0,L|480:184,1,120,2|10,1:0|0:0,0:0:0:0:
392,112,56498,1,2,0:0:0:0:
248,176,56824,6,0,L|144:176,2,60,2|10|2,0:0|0:0|0:0,0:0:0:0:
320,184,57313,1,0,1:0:0:0:
176,128,57639,1,10,0:0:0:0:
336,88,57965,6,0,L|404:90,2,60,6|2|10,1:0|0:0|0:0,0:0:0:0:
192,176,58617,2,0,L|193:38,1,120,2|10,1:0|0:0,0:0:0:0:
328,112,59269,6,0,L|208:112,1,120,0|10,1:0|0:0,0:0:0:0:
352,176,59922,2,0,L|353:52,1,120,2|10,1:0|0:0,0:0:0:0:
280,177,60411,1,2,0:0:0:0:
208,176,60574,6,0,L|336:176,1,120,2|8,1:0|0:0,0:0:0:0:
184,96,61226,2,0,L|121:95,2,60,2|2|10,1:0|1:0|0:0,0:0:0:0:
320,184,61878,6,0,L|440:136,1,120,0|0,1:0|3:0,0:0:0:0:
288,80,62530,2,0,L|160:80,1,120,8|10,0:0|0:0,0:0:0:0:
328,224,63182,6,0,L|328:100,1,120,6|10,1:0|0:0,0:0:0:0:
256,112,63671,1,2,0:0:0:0:
184,112,63834,2,0,L|64:112,1,120,2|10,1:0|0:0,0:0:0:0:
208,216,64486,6,0,L|328:216,1,120,0|10,1:0|0:0,0:0:0:0:
256,160,64975,1,2,0:0:0:0:
184,152,65138,1,2,1:0:0:0:
320,232,65464,1,10,0:0:0:0:
388,232,65627,1,2,0:0:0:0:
456,232,65790,6,0,L|456:104,1,120,6|8,1:0|0:0,0:0:0:0:
312,192,66443,2,0,L|310:66,1,120,2|10,1:0|0:0,0:0:0:0:
240,64,66932,6,0,L|241:193,1,120,2|2,0:0|0:0,0:0:0:0:
312,176,67422,2,0,L|405:176,2,60,10|2|0,0:0|0:0|1:0,0:0:0:0:
184,176,68074,1,10,0:0:0:0:
344,184,68400,6,0,L|344:64,1,120,6|10,1:0|0:0,0:0:0:0:
208,72,69052,2,0,L|336:64,1,120,2|10,1:0|0:0,0:0:0:0:
256,72,69541,6,0,L|237:198,1,120,2|2,0:0|0:0,0:0:0:0:
312,72,70030,2,0,L|376:73,2,60,10|2|2,0:0|0:0|1:0,0:0:0:0:
168,56,70682,1,10,0:0:0:0:
320,88,71009,6,0,L|187:90,1,120,6|8,1:0|0:0,0:0:0:0:
328,184,71683,2,0,L|387:184,2,60,2|10|10,1:0|3:0|0:0,0:0:0:0:
176,168,72357,6,0,L|48:168,1,120,0|8,1:0|0:0,0:0:0:0:
200,72,72991,2,0,L|328:72,1,120,8|10,0:0|0:0,0:0:0:0:
168,280,73626,6,0,L|168:151,1,120,6|8,1:0|0:0,0:0:0:0:
248,160,74115,1,2,0:0:0:0:
128,104,74441,1,2,0:0:0:0:
272,152,74767,6,0,P|329:110|390:139,1,120,2|0,0:0|0:0,0:0:0:0:
248,80,75419,2,0,L|186:79,2,60,2|2|0,0:0|1:0|0:0,0:0:0:0:
384,184,76071,6,0,L|456:176,2,60,2|6|0,0:0|1:0|0:0,0:0:0:0:
256,184,76723,1,2,0:0:0:0:
184,184,76886,1,2,1:0:0:0:
256,240,77212,1,10,0:0:0:0:
328,192,77376,6,0,L|328:64,1,120,2|0,0:0|0:0,0:0:0:0:
224,184,78028,2,0,P|269:130|333:172,1,120,2|2,0:0|0:0,0:0:0:0:
384,168,78517,1,10,0:0:0:0:
248,72,78843,6,0,L|248:208,1,120,6|8,1:0|0:0,0:0:0:0:
392,192,79495,2,0,P|424:144|392:112,1,90,2|0,1:0|0:0,0:0:0:0:
306,101,79984,1,2,0:0:0:0:
240,104,80147,6,0,L|240:216,1,90,2|0,1:0|0:0,0:0:0:0:
344,192,80636,1,2,0:0:0:0:
408,208,80799,2,0,P|352:256|304:224,1,120,2|10,1:0|0:0,0:0:0:0:
168,176,81452,6,0,L|167:38,1,120,6|8,1:0|0:0,0:0:0:0:
240,56,81941,1,2,0:0:0:0:
312,56,82104,2,0,L|312:181,1,120,2|8,1:0|0:0,0:0:0:0:
172,189,82756,6,0,P|227:153|282:181,1,120,10|10,0:0|0:0,0:0:0:0:
136,96,83408,2,0,P|81:58|31:99,1,120,10|8,0:0|0:0,0:0:0:0:
179,187,84060,6,0,L|177:66,1,120,6|8,1:0|0:0,0:0:0:0:
40,72,84712,2,0,L|43:193,1,120,0|10,1:0|0:0,0:0:0:0:
184,184,85365,6,0,P|243:153|304:180,1,120,0|10,1:0|0:0,0:0:0:0:
224,96,85854,1,2,0:0:0:0:
154,91,86017,2,0,L|153:221,1,120,0|10,1:0|0:0,0:0:0:0:
287,173,86669,6,0,L|348:174,2,60,6|2|10,1:0|0:0|0:0,0:0:0:0:
154,91,87321,2,0,L|155:220,1,120,2|10,1:0|0:0,0:0:0:0:
295,95,87973,6,0,P|251:144|185:103,1,120,0|10,0:0|0:0,0:0:0:0:
344,208,88626,2,0,L|376:80,1,120,0|10,1:0|0:0,0:0:0:0:
211,192,89278,6,0,L|206:69,1,120,6|10,1:0|0:0,0:0:0:0:
272,64,89767,1,2,0:0:0:0:
336,64,89930,2,0,L|340:191,1,120,2|10,1:0|0:0,0:0:0:0:
211,192,90582,6,0,P|268:151|295:204,1,120,2|10,1:0|0:0,0:0:0:0:
228,80,91071,1,2,0:0:0:0:
160,80,91234,2,0,L|160:208,1,120,2|10,1:0|0:0,0:0:0:0:
296,88,91886,6,0,P|345:127|389:86,1,120,6|10,1:0|0:0,0:0:0:0:
314,63,92376,1,2,0:0:0:0:
248,64,92539,2,0,L|248:192,1,120,2|10,1:0|0:0,0:0:0:0:
387,177,93191,6,0,P|341:132|276:178,1,120,14|10,0:0|0:0,0:0:0:0:
363,208,93680,1,10,3:0:0:0:
431,210,93843,2,0,L|433:79,1,120,10|10,3:0|3:0,0:0:0:0:
272,104,94495,5,6,1:0:0:0:
256,192,94821,12,0,99712,0:0:0:0:
